  0
SECTION
  2
HEADER
  9
$ACADVER
  1
AC1015
  9
$ACADMAINTVER
 70
    10
  9
$DWGCODEPAGE
  3
ANSI_932
  9
$INSBASE
 10
0.0
 20
0.0
 30
0.0
  9
$EXTMIN
 10
27.373648757363
 20
29.980461783439
 30
0.0
  9
$EXTMAX
 10
164.1713603493039
 20
165.6981668498822
 30
0.0
  9
$LIMMIN
 10
0.0
 20
0.0
  9
$LIMMAX
 10
297.0
 20
210.0
  9
$ORTHOMODE
 70
     0
  9
$REGENMODE
 70
     1
  9
$FILLMODE
 70
     1
  9
$QTEXTMODE
 70
     0
  9
$MIRRTEXT
 70
     1
  9
$LTSCALE
 40
1.0
  9
$ATTMODE
 70
     1
  9
$TEXTSIZE
 40
0.0
  9
$TRACEWID
 40
0.05
  9
$TEXTSTYLE
  7
STANDARD
  9
$CLAYER
  8
LM-01_1_1
  9
$CELTYPE
  6
CONTINUOUS
  9
$CECOLOR
 62
   256
  9
$CELTSCALE
 40
1.0
  9
$DISPSILH
 70
     0
  9
$DIMSCALE
 40
1.0
  9
$DIMASZ
 40
0.18
  9
$DIMEXO
 40
0.0625
  9
$DIMDLI
 40
0.38
  9
$DIMRND
 40
0.0
  9
$DIMDLE
 40
0.0
  9
$DIMEXE
 40
0.18
  9
$DIMTP
 40
0.0
  9
$DIMTM
 40
0.0
  9
$DIMTXT
 40
0.18
  9
$DIMCEN
 40
0.09
  9
$DIMTSZ
 40
0.0
  9
$DIMTOL
 70
     0
  9
$DIMLIM
 70
     0
  9
$DIMTIH
 70
     1
  9
$DIMTOH
 70
     1
  9
$DIMSE1
 70
     0
  9
$DIMSE2
 70
     0
  9
$DIMTAD
 70
     0
  9
$DIMZIN
 70
     0
  9
$DIMBLK
  1

  9
$DIMASO
 70
     1
  9
$DIMSHO
 70
     1
  9
$DIMPOST
  1

  9
$DIMAPOST
  1

  9
$DIMALT
 70
     0
  9
$DIMALTD
 70
     2
  9
$DIMALTF
 40
25.4
  9
$DIMLFAC
 40
1.0
  9
$DIMTOFL
 70
     0
  9
$DIMTVP
 40
0.0
  9
$DIMTIX
 70
     0
  9
$DIMSOXD
 70
     0
  9
$DIMSAH
 70
     0
  9
$DIMBLK1
  1

  9
$DIMBLK2
  1

  9
$DIMSTYLE
  2
STANDARD
  9
$DIMCLRD
 70
     0
  9
$DIMCLRE
 70
     0
  9
$DIMCLRT
 70
     0
  9
$DIMTFAC
 40
1.0
  9
$DIMGAP
 40
0.09
  9
$DIMJUST
 70
     0
  9
$DIMSD1
 70
     0
  9
$DIMSD2
 70
     0
  9
$DIMTOLJ
 70
     1
  9
$DIMTZIN
 70
     0
  9
$DIMALTZ
 70
     0
  9
$DIMALTTZ
 70
     0
  9
$DIMUPT
 70
     0
  9
$DIMDEC
 70
     4
  9
$DIMTDEC
 70
     4
  9
$DIMALTU
 70
     2
  9
$DIMALTTD
 70
     2
  9
$DIMTXSTY
  7
STANDARD
  9
$DIMAUNIT
 70
     0
  9
$DIMADEC
 70
     0
  9
$DIMALTRND
 40
0.0
  9
$DIMAZIN
 70
     0
  9
$DIMDSEP
 70
    46
  9
$DIMATFIT
 70
     3
  9
$DIMFRAC
 70
     0
  9
$DIMLDRBLK
  1

  9
$DIMLUNIT
 70
     2
  9
$DIMLWD
 70
    -2
  9
$DIMLWE
 70
    -2
  9
$DIMTMOVE
 70
     0
  9
$LUNITS
 70
     2
  9
$LUPREC
 70
     4
  9
$SKETCHINC
 40
0.1
  9
$FILLETRAD
 40
0.0
  9
$AUNITS
 70
     0
  9
$AUPREC
 70
     0
  9
$MENU
  1
acad
  9
$ELEVATION
 40
0.0
  9
$PELEVATION
 40
0.0
  9
$THICKNESS
 40
0.0
  9
$LIMCHECK
 70
     0
  9
$CHAMFERA
 40
0.0
  9
$CHAMFERB
 40
0.0
  9
$CHAMFERC
 40
0.0
  9
$CHAMFERD
 40
0.0
  9
$SKPOLY
 70
     0
  9
$TDCREATE
 40
2311945.702129432
  9
$TDUCREATE
 40
2311945.327129433
  9
$TDUPDATE
 40
2456666.486823414
  9
$TDUUPDATE
 40
2456666.111823414
  9
$TDINDWG
 40
0.0001269444
  9
$TDUSRTIMER
 40
0.0001269444
  9
$USRTIMER
 70
     1
  9
$ANGBASE
 50
0.0
  9
$ANGDIR
 70
     0
  9
$PDMODE
 70
     0
  9
$PDSIZE
 40
0.0
  9
$PLINEWID
 40
0.0
  9
$SPLFRAME
 70
     0
  9
$SPLINETYPE
 70
     6
  9
$SPLINESEGS
 70
     8
  9
$HANDSEED
  5
32A
  9
$SURFTAB1
 70
     6
  9
$SURFTAB2
 70
     6
  9
$SURFTYPE
 70
     6
  9
$SURFU
 70
     6
  9
$SURFV
 70
     6
  9
$UCSBASE
  2

  9
$UCSNAME
  2

  9
$UCSORG
 10
0.0
 20
0.0
 30
0.0
  9
$UCSXDIR
 10
1.0
 20
0.0
 30
0.0
  9
$UCSYDIR
 10
0.0
 20
1.0
 30
0.0
  9
$UCSORTHOREF
  2

  9
$UCSORTHOVIEW
 70
     0
  9
$UCSORGTOP
 10
0.0
 20
0.0
 30
0.0
  9
$UCSORGBOTTOM
 10
0.0
 20
0.0
 30
0.0
  9
$UCSORGLEFT
 10
0.0
 20
0.0
 30
0.0
  9
$UCSORGRIGHT
 10
0.0
 20
0.0
 30
0.0
  9
$UCSORGFRONT
 10
0.0
 20
0.0
 30
0.0
  9
$UCSORGBACK
 10
0.0
 20
0.0
 30
0.0
  9
$PUCSBASE
  2

  9
$PUCSNAME
  2

  9
$PUCSORG
 10
0.0
 20
0.0
 30
0.0
  9
$PUCSXDIR
 10
1.0
 20
0.0
 30
0.0
  9
$PUCSYDIR
 10
0.0
 20
1.0
 30
0.0
  9
$PUCSORTHOREF
  2

  9
$PUCSORTHOVIEW
 70
     0
  9
$PUCSORGTOP
 10
0.0
 20
0.0
 30
0.0
  9
$PUCSORGBOTTOM
 10
0.0
 20
0.0
 30
0.0
  9
$PUCSORGLEFT
 10
0.0
 20
0.0
 30
0.0
  9
$PUCSORGRIGHT
 10
0.0
 20
0.0
 30
0.0
  9
$PUCSORGFRONT
 10
0.0
 20
0.0
 30
0.0
  9
$PUCSORGBACK
 10
0.0
 20
0.0
 30
0.0
  9
$USERI1
 70
     0
  9
$USERI2
 70
     0
  9
$USERI3
 70
     0
  9
$USERI4
 70
     0
  9
$USERI5
 70
     0
  9
$USERR1
 40
0.0
  9
$USERR2
 40
0.0
  9
$USERR3
 40
0.0
  9
$USERR4
 40
0.0
  9
$USERR5
 40
0.0
  9
$WORLDVIEW
 70
     1
  9
$SHADEDGE
 70
     3
  9
$SHADEDIF
 70
    70
  9
$TILEMODE
 70
     1
  9
$MAXACTVP
 70
    16
  9
$PINSBASE
 10
0.0
 20
0.0
 30
0.0
  9
$PLIMCHECK
 70
     0
  9
$PEXTMIN
 10
1.000000000000000E+20
 20
1.000000000000000E+20
 30
1.000000000000000E+20
  9
$PEXTMAX
 10
-1.000000000000000E+20
 20
-1.000000000000000E+20
 30
-1.000000000000000E+20
  9
$PLIMMIN
 10
0.0
 20
0.0
  9
$PLIMMAX
 10
12.0
 20
9.0
  9
$UNITMODE
 70
     0
  9
$VISRETAIN
 70
     0
  9
$PLINEGEN
 70
     1
  9
$PSLTSCALE
 70
     0
  9
$TREEDEPTH
 70
  3020
  9
$CMLSTYLE
  2
STANDARD
  9
$CMLJUST
 70
     0
  9
$CMLSCALE
 40
1.0
  9
$PROXYGRAPHICS
 70
     1
  9
$MEASUREMENT
 70
     0
  9
$CELWEIGHT
370
    -1
  9
$ENDCAPS
280
     0
  9
$JOINSTYLE
280
     0
  9
$LWDISPLAY
290
     0
  9
$INSUNITS
 70
     0
  9
$HYPERLINKBASE
  1

  9
$STYLESHEET
  1

  9
$XEDIT
290
     1
  9
$CEPSNTYPE
380
     0
  9
$PSTYLEMODE
290
     1
  9
$FINGERPRINTGUID
  2
{CDA2D65C-6ED2-42BE-A79E-44508CC6433F}
  9
$VERSIONGUID
  2
{456AE373-B245-4866-8C39-0D0CB49B2C1E}
  9
$EXTNAMES
290
     1
  9
$PSVPSCALE
 40
0.0
  9
$OLESTARTUP
290
     0
  0
ENDSEC
  0
SECTION
  2
CLASSES
  0
CLASS
  1
LWPOLYLINE
  2
AcDbPolyline
  3
AutoCAD 2000
 90
    32768
280
     0
281
     1
  0
CLASS
  1
IMAGE
  2
AcDbRasterImage
  3
ISM
 90
    32895
280
     0
281
     1
  0
CLASS
  1
OLE2FRAME
  2
AcDbOle2Frame
  3
AutoCAD 2000
 90
    32768
280
     0
281
     1
  0
CLASS
  1
HATCH
  2
AcDbHatch
  3
AutoCAD 2000
 90
    32768
280
     0
281
     1
  0
CLASS
  1
DICTIONARYVAR
  2
AcDbDictionaryVar
  3
AutoCAD 2000
 90
    32768
280
     0
281
     0
  0
CLASS
  1
RASTERVARIABLES
  2
AcDbRasterVariables
  3
ISM
 90
    32768
280
     0
281
     0
  0
CLASS
  1
IMAGEDEF
  2
AcDbRasterImageDef
  3
ISM
 90
    32768
280
     0
281
     0
  0
CLASS
  1
IMAGEDEF_REACTOR
  2
AcDbRasterImageDefReactor
  3
ISM
 90
    32769
280
     0
281
     0
  0
CLASS
  1
IDBUFFER
  2
AcDbIdBuffer
  3
AutoCAD 2000
 90
    32768
280
     0
281
     0
  0
CLASS
  1
SPATIAL_FILTER
  2
AcDbSpatialFilter
  3
AutoCAD 2000
 90
    32768
280
     0
281
     0
  0
CLASS
  1
XRECORD
  2
AcDbXrecord
  3
AutoCAD 2000
 90
    32768
280
     0
281
     0
  0
CLASS
  1
SORTENTSTABLE
  2
AcDbSortentsTable
  3
AutoCAD 2000
 90
    32768
280
     0
281
     0
  0
CLASS
  1
LAYER_INDEX
  2
AcDbLayerIndex
  3
AutoCAD 2000
 90
    32768
280
     0
281
     0
  0
CLASS
  1
SPATIAL_INDEX
  2
AcDbSpatialIndex
  3
AutoCAD 2000
 90
    32768
280
     0
281
     0
  0
CLASS
  1
OBJECT_PTR
  2
CAseDLPNTableRecord
  3
"ASE-LPNTableRecord"
 90
    32769
280
     0
281
     0
  0
CLASS
  1
LAYOUT
  2
AcDbLayout
  3
AutoCAD 2000
 90
        0
280
     0
281
     0
  0
CLASS
  1
PLOTSETTINGS
  2
AcDbPlotSettings
  3
AutoCAD 2000
 90
    32768
280
     0
281
     0
  0
CLASS
  1
ACDBDICTIONARYWDFLT
  2
AcDbDictionaryWithDefault
  3
AutoCAD 2000
 90
        0
280
     0
281
     0
  0
CLASS
  1
ACDBPLACEHOLDER
  2
AcDbPlaceHolder
  3
AutoCAD 2000
 90
        0
280
     0
281
     0
  0
CLASS
  1
VBA_PROJECT
  2
AcDbVbaProject
  3
"acadvba"
 90
    32768
280
     0
281
     0
  0
CLASS
  1
WIPEOUT
  2
AcDbWipeout
  3
WipeOut|AutoCAD Express Tool|expresstools@autodesk.com
 90
    32895
280
     0
281
     1
  0
CLASS
  1
WIPEOUTVARIABLES
  2
AcDbWipeoutVariables
  3
WipeOut|AutoCAD Express Tool|expresstools@autodesk.com
 90
    32768
280
     0
281
     0
  0
CLASS
  1
RTEXT
  2
RText
  3
RText|AutoCAD Express Tool|expresstools@autodesk.com
 90
    32768
280
     0
281
     1
  0
CLASS
  1
ARCALIGNEDTEXT
  2
AcDbArcAlignedText
  3
ATEXT|AutoCAD Express Tool|expresstools@autodesk.com
 90
    32768
280
     0
281
     1
  0
ENDSEC
  0
SECTION
  2
TABLES
  0
TABLE
  2
VPORT
  5
7
330
0
100
AcDbSymbolTable
 70
     2
  0
VPORT
  5
329
330
7
100
AcDbSymbolTableRecord
100
AcDbViewportTableRecord
  2
*Active
 70
     0
 10
0.0
 20
0.0
 11
1.0
 21
1.0
 12
222.4955595026342
 22
105.0
 13
0.0
 23
0.0
 14
1.0
 24
1.0
 15
0.0
 25
0.0
 16
0.0
 26
0.0
 36
1.0
 17
0.0
 27
0.0
 37
0.0
 40
210.0
 41
2.119005328596802
 42
50.0
 43
0.0
 44
0.0
 50
0.0
 51
0.0
 71
     0
 72
   100
 73
     1
 74
     1
 75
     0
 76
     0
 77
     0
 78
     0
281
     0
 65
     1
110
0.0
120
0.0
130
0.0
111
1.0
121
0.0
131
0.0
112
0.0
122
1.0
132
0.0
 79
     0
146
0.0
  0
ENDTAB
  0
TABLE
  2
LTYPE
  5
4
330
0
100
AcDbSymbolTable
 70
     6
  0
LTYPE
  5
11
330
4
100
AcDbSymbolTableRecord
100
AcDbLinetypeTableRecord
  2
BYBLOCK
 70
     0
  3

 72
    65
 73
     0
 40
0.0
  0
LTYPE
  5
12
330
4
100
AcDbSymbolTableRecord
100
AcDbLinetypeTableRecord
  2
BYLAYER
 70
     0
  3

 72
    65
 73
     0
 40
0.0
  0
LTYPE
  5
13
330
4
100
AcDbSymbolTableRecord
100
AcDbLinetypeTableRecord
  2
CONTINUOUS
 70
     0
  3
Solid line
 72
    65
 73
     0
 40
0.0
  0
LTYPE
  5
1D
330
4
100
AcDbSymbolTableRecord
100
AcDbLinetypeTableRecord
  2
DASHED
 70
     0
  3
__ __ __ __ __ __ __ __ __ __ __ __ __ __ __
 72
    65
 73
     2
 40
4.0
 49
3.0
 74
     0
 49
-1.0
 74
     0
  0
LTYPE
  5
1E
330
4
100
AcDbSymbolTableRecord
100
AcDbLinetypeTableRecord
  2
HIDDEN
 70
     0
  3
_ _ _ _ _ _ _ _ _ _ _ _ _ _ _ _ _ _ _ _ _ _ _
 72
    65
 73
     2
 40
2.25
 49
0.25
 74
     0
 49
-2.0
 74
     0
  0
LTYPE
  5
1F
330
4
100
AcDbSymbolTableRecord
100
AcDbLinetypeTableRecord
  2
DOT
 70
     0
  3
...............................................
 72
    65
 73
     2
 40
4.0
 49
1.0
 74
     0
 49
-3.0
 74
     0
  0
LTYPE
  5
20
330
4
100
AcDbSymbolTableRecord
100
AcDbLinetypeTableRecord
  2
DASHDOT
 70
     0
  3
__ . __ . __ . __ . __ . __ . __ . __ . __ . __
 72
    65
 73
     4
 40
7.5
 49
6.0
 74
     0
 49
-0.5
 74
     0
 49
0.5
 74
     0
 49
-0.5
 74
     0
  0
LTYPE
  5
21
330
4
100
AcDbSymbolTableRecord
100
AcDbLinetypeTableRecord
  2
DIVIDE
 70
     0
  3
__ . . __ . . __ . . __ . . __ . . __ . . __
 72
    65
 73
     6
 40
8.5
 49
6.0
 74
     0
 49
-0.5
 74
     0
 49
0.5
 74
     0
 49
-0.5
 74
     0
 49
0.5
 74
     0
 49
-0.5
 74
     0
  0
ENDTAB
  0
TABLE
  2
LAYER
  5
2
330
0
100
AcDbSymbolTable
 70
     2
  0
LAYER
  5
14
330
2
100
AcDbSymbolTableRecord
100
AcDbLayerTableRecord
  2
0
 70
     0
 62
     7
  6
CONTINUOUS
370
    -3
390
320
  0
LAYER
  5
22
330
2
100
AcDbSymbolTableRecord
100
AcDbLayerTableRecord
  2
LM-01_1_1
 70
     0
 62
     7
  6
CONTINUOUS
370
    -3
390
320
  0
ENDTAB
  0
TABLE
  2
STYLE
  5
3
330
0
100
AcDbSymbolTable
 70
     3
  0
STYLE
  5
17
330
3
100
AcDbSymbolTableRecord
100
AcDbTextStyleTableRecord
  2
STANDARD
 70
     0
 40
0.0
 41
1.0
 50
0.0
 71
     0
 42
0.0
  3
txt
  4

  0
STYLE
  5
23
330
3
100
AcDbSymbolTableRecord
100
AcDbTextStyleTableRecord
  2
BIGFONT
 70
     0
 40
1.0
 41
1.0
 50
0.0
 71
     0
 42
0.0
  3
monotxt.shx
  4
bigfont
  0
STYLE
  5
24
330
3
100
AcDbSymbolTableRecord
100
AcDbTextStyleTableRecord
  2
ＭＳ_ゴシック
 70
     0
 40
0.0
 41
1.0
 50
0.0
 71
     0
 42
0.0
  3
MS Gothic.ttf
  4

1001
ACAD
1000
MS Gothic
1071
    32817
  0
ENDTAB
  0
TABLE
  2
VIEW
  5
5
330
0
100
AcDbSymbolTable
 70
     0
  0
ENDTAB
  0
TABLE
  2
UCS
  5
6
330
0
100
AcDbSymbolTable
 70
     0
  0
ENDTAB
  0
TABLE
  2
APPID
  5
8
330
0
100
AcDbSymbolTable
 70
     1
  0
APPID
  5
16
330
8
100
AcDbSymbolTableRecord
100
AcDbRegAppTableRecord
  2
ACAD
 70
     0
  0
ENDTAB
  0
TABLE
  2
DIMSTYLE
  5
9
330
0
100
AcDbSymbolTable
 70
     2
100
AcDbDimStyleTable
 71
     0
  0
DIMSTYLE
105
18
330
9
100
AcDbSymbolTableRecord
100
AcDbDimStyleTableRecord
  2
STANDARD
 70
     0
340
17
  0
DIMSTYLE
105
25
102
{ACAD_REACTORS
330
A1
330
2F5
330
302
330
303
330
304
330
30F
102
}
330
9
100
AcDbSymbolTableRecord
100
AcDbDimStyleTableRecord
  2
MARK2_DIMSTYLE
 70
     0
 41
2.0
 42
1.0
 43
10.0
 44
1.0
 73
     0
 77
     1
140
6.0
146
0.5
147
1.0
271
     2
340
24
341
26
342
26
  0
ENDTAB
  0
TABLE
  2
BLOCK_RECORD
  5
1
330
0
100
AcDbSymbolTable
 70
     8
  0
BLOCK_RECORD
  5
A
330
1
100
AcDbSymbolTableRecord
100
AcDbBlockTableRecord
  2
*MODEL_SPACE
340
323
  0
BLOCK_RECORD
  5
B
330
1
100
AcDbSymbolTableRecord
100
AcDbBlockTableRecord
  2
*PAPER_SPACE
340
324
  0
BLOCK_RECORD
  5
26
330
1
100
AcDbSymbolTableRecord
100
AcDbBlockTableRecord
  2
_OPEN
340
0
102
{BLKREFS
331
33
331
34
331
35
331
36
331
3E
331
3F
331
40
331
41
331
49
331
4A
331
4B
331
4C
331
53
331
54
331
55
331
56
331
5E
331
5F
331
60
331
61
331
69
331
6A
331
6B
331
6C
102
}
  0
BLOCK_RECORD
  5
2C
330
1
100
AcDbSymbolTableRecord
100
AcDbBlockTableRecord
  2
_NONE
340
0
  0
BLOCK_RECORD
  5
2F
330
1
100
AcDbSymbolTableRecord
100
AcDbBlockTableRecord
  2
*D2
340
0
  0
BLOCK_RECORD
  5
3A
330
1
100
AcDbSymbolTableRecord
100
AcDbBlockTableRecord
  2
*D3
340
0
  0
BLOCK_RECORD
  5
45
330
1
100
AcDbSymbolTableRecord
100
AcDbBlockTableRecord
  2
*D4
340
0
  0
BLOCK_RECORD
  5
50
330
1
100
AcDbSymbolTableRecord
100
AcDbBlockTableRecord
  2
*D5
340
0
  0
BLOCK_RECORD
  5
5A
330
1
100
AcDbSymbolTableRecord
100
AcDbBlockTableRecord
  2
*D6
340
0
  0
BLOCK_RECORD
  5
65
330
1
100
AcDbSymbolTableRecord
100
AcDbBlockTableRecord
  2
*D7
340
0
  0
ENDTAB
  0
ENDSEC
  0
SECTION
  2
BLOCKS
  0
BLOCK
  5
D
330
A
100
AcDbEntity
  8
0
100
AcDbBlockBegin
  2
*MODEL_SPACE
 70
     0
 10
0.0
 20
0.0
 30
0.0
  3
*MODEL_SPACE
  1

  0
ENDBLK
  5
E
330
A
100
AcDbEntity
  8
0
100
AcDbBlockEnd
  0
BLOCK
  5
F
330
B
100
AcDbEntity
 67
     1
  8
0
100
AcDbBlockBegin
  2
*PAPER_SPACE
 70
     0
 10
0.0
 20
0.0
 30
0.0
  3
*PAPER_SPACE
  1

  0
ENDBLK
  5
10
330
B
100
AcDbEntity
 67
     1
  8
0
100
AcDbBlockEnd
  0
BLOCK
  5
27
330
26
100
AcDbEntity
  8
0
 62
     0
100
AcDbBlockBegin
  2
_OPEN
 70
     0
 10
0.0
 20
0.0
 30
0.0
  3
_OPEN
  1

  0
LINE
  5
28
330
26
100
AcDbEntity
  8
0
 62
     0
100
AcDbLine
 10
-1.0
 20
0.166666666667
 30
0.0
 11
0.0
 21
0.0
 31
0.0
  0
LINE
  5
29
330
26
100
AcDbEntity
  8
0
 62
     0
100
AcDbLine
 10
-1.0
 20
-0.166666666667
 30
0.0
 11
0.0
 21
0.0
 31
0.0
  0
LINE
  5
2A
330
26
100
AcDbEntity
  8
0
 62
     0
100
AcDbLine
 10
0.0
 20
0.0
 30
0.0
 11
-1.0
 21
0.0
 31
0.0
  0
ENDBLK
  5
2B
330
26
100
AcDbEntity
  8
0
100
AcDbBlockEnd
  0
BLOCK
  5
2D
330
2C
100
AcDbEntity
  8
0
 62
     0
100
AcDbBlockBegin
  2
_NONE
 70
     0
 10
0.0
 20
0.0
 30
0.0
  3
_NONE
  1

  0
ENDBLK
  5
2E
330
2C
100
AcDbEntity
  8
0
100
AcDbBlockEnd
  0
BLOCK
  5
30
330
2F
100
AcDbEntity
  8
0
 62
     7
100
AcDbBlockBegin
  2
*D2
 70
     1
 10
0.0
 20
0.0
 30
0.0
  3
*D2
  1

  0
LINE
  5
31
330
2F
100
AcDbEntity
  8
LM-01_1_1
  6
Continuous
 62
     7
100
AcDbLine
 10
149.171360349304
 20
116.980461783439
 30
0.0
 11
157.1713603493039
 21
116.980461783439
 31
0.0
  0
LINE
  5
32
330
2F
100
AcDbEntity
  8
LM-01_1_1
  6
Continuous
 62
     7
100
AcDbLine
 10
149.171360349304
 20
131.48046178344
 30
0.0
 11
157.1713603493039
 21
131.48046178344
 31
0.0
  0
INSERT
  5
33
330
2F
100
AcDbEntity
  8
LM-01_1_1
  6
Continuous
 62
     7
100
AcDbBlockReference
  2
_OPEN
 10
156.1713603493039
 20
116.980461783439
 30
0.0
 41
2.0
 42
2.0
 50
270.0
  0
INSERT
  5
34
330
2F
100
AcDbEntity
  8
LM-01_1_1
  6
Continuous
 62
     7
100
AcDbBlockReference
  2
_OPEN
 10
156.1713603493039
 20
131.480461783439
 30
0.0
 41
2.0
 42
2.0
 50
90.0
  0
INSERT
  5
35
330
2F
100
AcDbEntity
  8
LM-01_1_1
  6
Continuous
 62
     7
100
AcDbBlockReference
  2
_OPEN
 10
156.1713603493039
 20
116.980461783439
 30
0.0
 41
2.0
 42
2.0
 50
270.0
  0
INSERT
  5
36
330
2F
100
AcDbEntity
  8
LM-01_1_1
  6
Continuous
 62
     7
100
AcDbBlockReference
  2
_OPEN
 10
156.1713603493039
 20
131.480461783439
 30
0.0
 41
2.0
 42
2.0
 50
90.0
  0
LINE
  5
37
330
2F
100
AcDbEntity
  8
LM-01_1_1
  6
Continuous
 62
     7
100
AcDbLine
 10
156.1713603493039
 20
116.980461783439
 30
0.0
 11
156.1713603493039
 21
131.480461783439
 31
0.0
  0
TEXT
  5
38
330
2F
100
AcDbEntity
  8
LM-01_1_1
 62
     7
100
AcDbText
 10
155.1713603493039
 20
117.5896175716983
 30
0.0
 40
3.0
  1
φ14.5
 50
90.0
 41
1.033333333332999
  7
ＭＳ_ゴシック
 72
     1
 11
155.1713603493039
 21
123.6322571656049
 31
0.0
100
AcDbText
  0
ENDBLK
  5
39
330
2F
100
AcDbEntity
  8
0
100
AcDbBlockEnd
  0
BLOCK
  5
3B
330
3A
100
AcDbEntity
  8
0
 62
     7
100
AcDbBlockBegin
  2
*D3
 70
     1
 10
0.0
 20
0.0
 30
0.0
  3
*D3
  1

  0
LINE
  5
3C
330
3A
100
AcDbEntity
  8
LM-01_1_1
  6
Continuous
 62
     7
100
AcDbLine
 10
148.6713603493039
 20
131.980461783439
 30
0.0
 11
148.6713603493039
 21
144.980461783439
 31
0.0
  0
LINE
  5
3D
330
3A
100
AcDbEntity
  8
LM-01_1_1
  6
Continuous
 62
     7
100
AcDbLine
 10
123.671360349304
 20
131.980461783439
 30
0.0
 11
123.671360349304
 21
144.980461783439
 31
0.0
  0
INSERT
  5
3E
330
3A
100
AcDbEntity
  8
LM-01_1_1
  6
Continuous
 62
     7
100
AcDbBlockReference
  2
_OPEN
 10
148.6713603493039
 20
143.980461783439
 30
0.0
 41
2.0
 42
2.0
  0
INSERT
  5
3F
330
3A
100
AcDbEntity
  8
LM-01_1_1
  6
Continuous
 62
     7
100
AcDbBlockReference
  2
_OPEN
 10
123.671360349304
 20
143.980461783439
 30
0.0
 41
2.0
 42
2.0
 50
180.0
  0
INSERT
  5
40
330
3A
100
AcDbEntity
  8
LM-01_1_1
  6
Continuous
 62
     7
100
AcDbBlockReference
  2
_OPEN
 10
148.6713603493039
 20
143.980461783439
 30
0.0
 41
2.0
 42
2.0
  0
INSERT
  5
41
330
3A
100
AcDbEntity
  8
LM-01_1_1
  6
Continuous
 62
     7
100
AcDbBlockReference
  2
_OPEN
 10
123.671360349304
 20
143.980461783439
 30
0.0
 41
2.0
 42
2.0
 50
180.0
  0
LINE
  5
42
330
3A
100
AcDbEntity
  8
LM-01_1_1
  6
Continuous
 62
     7
100
AcDbLine
 10
148.6713603493039
 20
143.980461783439
 30
0.0
 11
123.671360349304
 21
143.980461783439
 31
0.0
  0
TEXT
  5
43
330
3A
100
AcDbEntity
  8
LM-01_1_1
 62
     7
100
AcDbText
 10
134.157147151335
 20
144.980461783439
 30
0.0
 40
3.0
  1
25
 41
1.033333333332999
  7
ＭＳ_ゴシック
 72
     1
 11
136.1713603493039
 21
144.980461783439
 31
0.0
100
AcDbText
  0
ENDBLK
  5
44
330
3A
100
AcDbEntity
  8
0
100
AcDbBlockEnd
  0
BLOCK
  5
46
330
45
100
AcDbEntity
  8
0
 62
     7
100
AcDbBlockBegin
  2
*D4
 70
     1
 10
0.0
 20
0.0
 30
0.0
  3
*D4
  1

  0
LINE
  5
47
330
45
100
AcDbEntity
  8
LM-01_1_1
  6
Continuous
 62
     7
100
AcDbLine
 10
140.471360349304
 20
131.230461783439
 30
0.0
 11
140.471360349304
 21
137.480461783439
 31
0.0
  0
LINE
  5
48
330
45
100
AcDbEntity
  8
LM-01_1_1
  6
Continuous
 62
     7
100
AcDbLine
 10
133.471360349304
 20
131.230461783439
 30
0.0
 11
133.471360349304
 21
137.480461783439
 31
0.0
  0
INSERT
  5
49
330
45
100
AcDbEntity
  8
LM-01_1_1
  6
Continuous
 62
     7
100
AcDbBlockReference
  2
_OPEN
 10
140.471360349304
 20
136.480461783439
 30
0.0
 41
2.0
 42
2.0
  0
INSERT
  5
4A
330
45
100
AcDbEntity
  8
LM-01_1_1
  6
Continuous
 62
     7
100
AcDbBlockReference
  2
_OPEN
 10
133.471360349304
 20
136.480461783439
 30
0.0
 41
2.0
 42
2.0
 50
180.0
  0
INSERT
  5
4B
330
45
100
AcDbEntity
  8
LM-01_1_1
  6
Continuous
 62
     7
100
AcDbBlockReference
  2
_OPEN
 10
140.471360349304
 20
136.480461783439
 30
0.0
 41
2.0
 42
2.0
  0
INSERT
  5
4C
330
45
100
AcDbEntity
  8
LM-01_1_1
  6
Continuous
 62
     7
100
AcDbBlockReference
  2
_OPEN
 10
133.471360349304
 20
136.480461783439
 30
0.0
 41
2.0
 42
2.0
 50
180.0
  0
LINE
  5
4D
330
45
100
AcDbEntity
  8
LM-01_1_1
  6
Continuous
 62
     7
100
AcDbLine
 10
140.471360349304
 20
136.480461783439
 30
0.0
 11
133.471360349304
 21
136.480461783439
 31
0.0
  0
TEXT
  5
4E
330
45
100
AcDbEntity
  8
LM-01_1_1
 62
     7
100
AcDbText
 10
135.9642537503195
 20
137.480461783439
 30
0.0
 40
3.0
  1
7
 41
1.033333333332999
  7
ＭＳ_ゴシック
 72
     1
 11
136.971360349304
 21
137.480461783439
 31
0.0
100
AcDbText
  0
ENDBLK
  5
4F
330
45
100
AcDbEntity
  8
0
100
AcDbBlockEnd
  0
BLOCK
  5
51
330
50
100
AcDbEntity
  8
0
 62
     7
100
AcDbBlockBegin
  2
*D5
 70
     1
 10
0.0
 20
0.0
 30
0.0
  3
*D5
  1

  0
LINE
  5
52
330
50
100
AcDbEntity
  8
LM-01_1_1
  6
Continuous
 62
     7
100
AcDbLine
 10
123.671360349304
 20
131.980461783439
 30
0.0
 11
123.671360349304
 21
137.480461783439
 31
0.0
  0
INSERT
  5
53
330
50
100
AcDbEntity
  8
LM-01_1_1
  6
Continuous
 62
     7
100
AcDbBlockReference
  2
_OPEN
 10
133.471360349304
 20
136.480461783439
 30
0.0
 41
2.0
 42
2.0
  0
INSERT
  5
54
330
50
100
AcDbEntity
  8
LM-01_1_1
  6
Continuous
 62
     7
100
AcDbBlockReference
  2
_OPEN
 10
123.671360349304
 20
136.480461783439
 30
0.0
 41
2.0
 42
2.0
 50
180.0
  0
INSERT
  5
55
330
50
100
AcDbEntity
  8
LM-01_1_1
  6
Continuous
 62
     7
100
AcDbBlockReference
  2
_OPEN
 10
133.471360349304
 20
136.480461783439
 30
0.0
 41
2.0
 42
2.0
  0
INSERT
  5
56
330
50
100
AcDbEntity
  8
LM-01_1_1
  6
Continuous
 62
     7
100
AcDbBlockReference
  2
_OPEN
 10
123.671360349304
 20
136.480461783439
 30
0.0
 41
2.0
 42
2.0
 50
180.0
  0
LINE
  5
57
330
50
100
AcDbEntity
  8
LM-01_1_1
  6
Continuous
 62
     7
100
AcDbLine
 10
133.471360349304
 20
136.480461783439
 30
0.0
 11
123.671360349304
 21
136.480461783439
 31
0.0
  0
TEXT
  5
58
330
50
100
AcDbEntity
  8
LM-01_1_1
 62
     7
100
AcDbText
 10
125.7482886050106
 20
137.480461783439
 30
0.0
 40
3.0
  1
9.8
 41
1.033333333332999
  7
ＭＳ_ゴシック
 72
     1
 11
128.769608401964
 21
137.480461783439
 31
0.0
100
AcDbText
  0
ENDBLK
  5
59
330
50
100
AcDbEntity
  8
0
100
AcDbBlockEnd
  0
BLOCK
  5
5B
330
5A
100
AcDbEntity
  8
0
 62
     7
100
AcDbBlockBegin
  2
*D6
 70
     1
 10
0.0
 20
0.0
 30
0.0
  3
*D6
  1

  0
LINE
  5
5C
330
5A
100
AcDbEntity
  8
LM-01_1_1
  6
Continuous
 62
     7
100
AcDbLine
 10
123.171360349304
 20
118.230461783439
 30
0.0
 11
115.171360349304
 21
118.230461783439
 31
0.0
  0
LINE
  5
5D
330
5A
100
AcDbEntity
  8
LM-01_1_1
  6
Continuous
 62
     7
100
AcDbLine
 10
122.671360349304
 20
130.230461783439
 30
0.0
 11
115.171360349304
 21
130.230461783439
 31
0.0
  0
INSERT
  5
5E
330
5A
100
AcDbEntity
  8
LM-01_1_1
  6
Continuous
 62
     7
100
AcDbBlockReference
  2
_OPEN
 10
116.171360349304
 20
118.230461783439
 30
0.0
 41
2.0
 42
2.0
 50
270.0
  0
INSERT
  5
5F
330
5A
100
AcDbEntity
  8
LM-01_1_1
  6
Continuous
 62
     7
100
AcDbBlockReference
  2
_OPEN
 10
116.171360349304
 20
130.230461783439
 30
0.0
 41
2.0
 42
2.0
 50
90.0
  0
INSERT
  5
60
330
5A
100
AcDbEntity
  8
LM-01_1_1
  6
Continuous
 62
     7
100
AcDbBlockReference
  2
_OPEN
 10
116.171360349304
 20
118.230461783439
 30
0.0
 41
2.0
 42
2.0
 50
270.0
  0
INSERT
  5
61
330
5A
100
AcDbEntity
  8
LM-01_1_1
  6
Continuous
 62
     7
100
AcDbBlockReference
  2
_OPEN
 10
116.171360349304
 20
130.230461783439
 30
0.0
 41
2.0
 42
2.0
 50
90.0
  0
LINE
  5
62
330
5A
100
AcDbEntity
  8
LM-01_1_1
  6
Continuous
 62
     7
100
AcDbLine
 10
116.171360349304
 20
118.230461783439
 30
0.0
 11
116.171360349304
 21
130.230461783439
 31
0.0
  0
TEXT
  5
63
330
5A
100
AcDbEntity
  8
LM-01_1_1
 62
     7
100
AcDbText
 10
115.171360349304
 20
119.8450250371832
 30
0.0
 40
3.0
  1
φ12
 50
90.0
 41
1.033333333332999
  7
ＭＳ_ゴシック
 72
     1
 11
115.171360349304
 21
123.8734514331209
 31
0.0
100
AcDbText
  0
ENDBLK
  5
64
330
5A
100
AcDbEntity
  8
0
100
AcDbBlockEnd
  0
BLOCK
  5
66
330
65
100
AcDbEntity
  8
0
 62
     7
100
AcDbBlockBegin
  2
*D7
 70
     1
 10
0.0
 20
0.0
 30
0.0
  3
*D7
  1

  0
LINE
  5
67
330
65
100
AcDbEntity
  8
LM-01_1_1
  6
Continuous
 62
     7
100
AcDbLine
 10
83.47136034930398
 20
73.930461783439
 30
0.0
 11
83.47136034930398
 21
82.980461783439
 31
0.0
  0
LINE
  5
68
330
65
100
AcDbEntity
  8
LM-01_1_1
  6
Continuous
 62
     7
100
AcDbLine
 10
148.6713603493039
 20
74.980461783439
 30
0.0
 11
148.6713603493039
 21
82.980461783439
 31
0.0
  0
INSERT
  5
69
330
65
100
AcDbEntity
  8
LM-01_1_1
  6
Continuous
 62
     7
100
AcDbBlockReference
  2
_OPEN
 10
83.47136034930398
 20
81.98046178343899
 30
0.0
 41
2.0
 42
2.0
 50
180.0
  0
INSERT
  5
6A
330
65
100
AcDbEntity
  8
LM-01_1_1
  6
Continuous
 62
     7
100
AcDbBlockReference
  2
_OPEN
 10
148.6713603493039
 20
81.98046178343899
 30
0.0
 41
2.0
 42
2.0
 50
360.0
  0
INSERT
  5
6B
330
65
100
AcDbEntity
  8
LM-01_1_1
  6
Continuous
 62
     7
100
AcDbBlockReference
  2
_OPEN
 10
83.47136034930398
 20
81.98046178343899
 30
0.0
 41
2.0
 42
2.0
 50
180.0
  0
INSERT
  5
6C
330
65
100
AcDbEntity
  8
LM-01_1_1
  6
Continuous
 62
     7
100
AcDbBlockReference
  2
_OPEN
 10
148.6713603493039
 20
81.98046178343899
 30
0.0
 41
2.0
 42
2.0
 50
360.0
  0
LINE
  5
6D
330
65
100
AcDbEntity
  8
LM-01_1_1
  6
Continuous
 62
     7
100
AcDbLine
 10
83.47136034930398
 20
81.98046178343899
 30
0.0
 11
148.6713603493039
 21
81.98046178343899
 31
0.0
  0
TEXT
  5
6E
330
65
100
AcDbEntity
  8
LM-01_1_1
 62
     7
100
AcDbText
 10
112.0429339533662
 20
82.980461783439
 30
0.0
 40
3.0
  1
(65)
 41
1.033333333332999
  7
ＭＳ_ゴシック
 72
     1
 11
116.071360349304
 21
82.980461783439
 31
0.0
100
AcDbText
  0
ENDBLK
  5
6F
330
65
100
AcDbEntity
  8
0
100
AcDbBlockEnd
  0
ENDSEC
  0
SECTION
  2
ENTITIES
  0
TEXT
  5
70
330
A
100
AcDbEntity
  8
LM-01_1_1
 62
     7
100
AcDbText
 10
27.373648757363
 20
158.9976592356689
 30
0.0
 40
6.0
  1
LM-01
 41
1.033333333332999
  7
ＭＳ_ゴシック
100
AcDbText
  0
LWPOLYLINE
  5
71
330
A
100
AcDbEntity
  8
LM-01_1_1
  6
DASHDOT
 62
     7
100
AcDbPolyline
 90
        2
 70
     0
 43
0.0
 10
121.038194906487
 20
124.230461783439
 10
150.3695146189319
 20
124.230461783439
  0
LWPOLYLINE
  5
75
330
A
100
AcDbEntity
  8
LM-01_1_1
  6
Continuous
 62
     7
100
AcDbPolyline
 90
        2
 70
     0
 43
0.0
 10
124.171360349304
 20
131.480461783439
 10
148.171360349304
 20
131.480461783439
  0
LWPOLYLINE
  5
79
330
A
100
AcDbEntity
  8
LM-01_1_1
  6
Continuous
 62
     7
100
AcDbPolyline
 90
        2
 70
     0
 43
0.0
 10
124.171360349304
 20
116.980461783439
 10
133.221360349304
 20
116.980461783439
  0
LWPOLYLINE
  5
7D
330
A
100
AcDbEntity
  8
LM-01_1_1
  6
Continuous
 62
     7
100
AcDbPolyline
 90
        2
 70
     0
 43
0.0
 10
123.671360349304
 20
130.980461783439
 10
123.671360349304
 20
117.480461783439
  0
LWPOLYLINE
  5
81
330
A
100
AcDbEntity
  8
LM-01_1_1
  6
DASHDOT
 62
     7
100
AcDbPolyline
 90
        2
 70
     0
 43
0.0
 10
140.471360349304
 20
130.230461783439
 10
140.471360349304
 20
118.230461783439
  0
LWPOLYLINE
  5
85
330
A
100
AcDbEntity
  8
LM-01_1_1
  6
Continuous
 62
     7
100
AcDbPolyline
 90
        2
 70
     0
 43
0.0
 10
148.6713603493039
 20
130.980461783439
 10
148.6713603493039
 20
117.480461783439
  0
LWPOLYLINE
  5
89
330
A
100
AcDbEntity
  8
LM-01_1_1
  6
Continuous
 62
     7
100
AcDbPolyline
 90
        2
 70
     0
 43
0.0
 10
140.471360349304
 20
124.230461783439
 10
133.221360349304
 20
116.980461783439
  0
LWPOLYLINE
  5
8D
330
A
100
AcDbEntity
  8
LM-01_1_1
  6
Continuous
 62
     7
100
AcDbPolyline
 90
        2
 70
     0
 43
0.0
 10
140.471360349304
 20
124.230461783439
 10
147.721360349304
 20
116.980461783439
  0
LINE
  5
91
330
A
100
AcDbEntity
  8
LM-01_1_1
  6
Continuous
 62
     7
100
AcDbLine
 10
124.171360349304
 20
131.480461783439
 30
0.0
 11
123.671360349304
 21
130.980461783439
 31
0.0
  0
LINE
  5
92
330
A
100
AcDbEntity
  8
LM-01_1_1
  6
Continuous
 62
     7
100
AcDbLine
 10
123.671360349304
 20
117.480461783439
 30
0.0
 11
124.171360349304
 21
116.980461783439
 31
0.0
  0
LINE
  5
93
330
A
100
AcDbEntity
  8
LM-01_1_1
  6
Continuous
 62
     7
100
AcDbLine
 10
148.171360349304
 20
131.480461783439
 30
0.0
 11
148.6713603493039
 21
130.980461783439
 31
0.0
  0
LINE
  5
94
330
A
100
AcDbEntity
  8
LM-01_1_1
  6
Continuous
 62
     7
100
AcDbLine
 10
148.6713603493039
 20
117.480461783439
 30
0.0
 11
148.171360349304
 21
116.980461783439
 31
0.0
  0
LWPOLYLINE
  5
95
330
A
100
AcDbEntity
  8
LM-01_1_1
  6
Continuous
 62
     7
100
AcDbPolyline
 90
        2
 70
     0
 43
0.0
 10
124.171360349304
 20
131.480461783439
 10
124.171360349304
 20
116.980461783439
  0
LWPOLYLINE
  5
99
330
A
100
AcDbEntity
  8
LM-01_1_1
  6
Continuous
 62
     7
100
AcDbPolyline
 90
        2
 70
     0
 43
0.0
 10
148.171360349304
 20
131.48046178344
 10
148.171360349304
 20
116.980461783439
  0
LWPOLYLINE
  5
9D
330
A
100
AcDbEntity
  8
LM-01_1_1
  6
Continuous
 62
     7
100
AcDbPolyline
 90
        2
 70
     0
 43
0.0
 10
147.721360349304
 20
116.980461783439
 10
148.171360349304
 20
116.980461783439
  0
DIMENSION
  5
A1
330
A
100
AcDbEntity
  8
LM-01_1_1
  6
Continuous
 62
     7
100
AcDbDimension
  2
*D2
 10
156.1713603493039
 20
131.48046178344
 30
0.0
 11
155.1713603493039
 21
123.6322571656049
 31
0.0
 71
     5
 42
-1.0
  3
MARK2_DIMSTYLE
100
AcDbAlignedDimension
 13
148.171360349304
 23
116.980461783439
 33
0.0
 14
148.171360349304
 24
131.48046178344
 34
0.0
 50
90.0
100
AcDbRotatedDimension
1001
ACAD
1000
DSTYLE
1002
{
1070
   140
1040
3.0
1002
}
  0
LWPOLYLINE
  5
A2
330
A
100
AcDbEntity
  8
LM-01_1_1
  6
Continuous
 62
     7
100
AcDbPolyline
 90
        2
 70
     0
 43
0.0
 10
124.171360349304
 20
74.480461783439
 10
148.171360349304
 20
74.480461783439
  0
LWPOLYLINE
  5
A6
330
A
100
AcDbEntity
  8
LM-01_1_1
  6
Continuous
 62
     7
100
AcDbPolyline
 90
        2
 70
     0
 43
0.0
 10
124.171360349304
 20
59.980461783439
 10
133.221360349304
 20
59.980461783439
  0
LWPOLYLINE
  5
AA
330
A
100
AcDbEntity
  8
LM-01_1_1
  6
Continuous
 62
     7
100
AcDbPolyline
 90
        2
 70
     0
 43
0.0
 10
123.671360349304
 20
73.980461783439
 10
123.671360349304
 20
60.48046178343899
  0
LWPOLYLINE
  5
AE
330
A
100
AcDbEntity
  8
LM-01_1_1
  6
Continuous
 62
     7
100
AcDbPolyline
 90
        2
 70
     0
 43
0.0
 10
148.6713603493039
 20
73.980461783439
 10
148.6713603493039
 20
60.48046178343899
  0
LWPOLYLINE
  5
B2
330
A
100
AcDbEntity
  8
LM-01_1_1
  6
Continuous
 62
     7
100
AcDbPolyline
 90
        2
 70
     0
 43
0.0
 10
140.471360349304
 20
67.23046178343899
 10
133.221360349304
 20
59.980461783439
  0
LWPOLYLINE
  5
B6
330
A
100
AcDbEntity
  8
LM-01_1_1
  6
Continuous
 62
     7
100
AcDbPolyline
 90
        2
 70
     0
 43
0.0
 10
140.471360349304
 20
67.23046178343899
 10
147.721360349304
 20
59.980461783439
  0
LINE
  5
BA
330
A
100
AcDbEntity
  8
LM-01_1_1
  6
Continuous
 62
     7
100
AcDbLine
 10
124.171360349304
 20
74.480461783439
 30
0.0
 11
123.671360349304
 21
73.980461783439
 31
0.0
  0
LINE
  5
BB
330
A
100
AcDbEntity
  8
LM-01_1_1
  6
Continuous
 62
     7
100
AcDbLine
 10
123.671360349304
 20
60.48046178343899
 30
0.0
 11
124.171360349304
 21
59.980461783439
 31
0.0
  0
LINE
  5
BC
330
A
100
AcDbEntity
  8
LM-01_1_1
  6
Continuous
 62
     7
100
AcDbLine
 10
148.171360349304
 20
74.480461783439
 30
0.0
 11
148.6713603493039
 21
73.980461783439
 31
0.0
  0
LINE
  5
BD
330
A
100
AcDbEntity
  8
LM-01_1_1
  6
Continuous
 62
     7
100
AcDbLine
 10
148.6713603493039
 20
60.48046178343899
 30
0.0
 11
148.171360349304
 21
59.980461783439
 31
0.0
  0
LWPOLYLINE
  5
BE
330
A
100
AcDbEntity
  8
LM-01_1_1
  6
Continuous
 62
     7
100
AcDbPolyline
 90
        2
 70
     0
 43
0.0
 10
124.171360349304
 20
74.480461783439
 10
124.171360349304
 20
59.980461783439
  0
LWPOLYLINE
  5
C2
330
A
100
AcDbEntity
  8
LM-01_1_1
  6
Continuous
 62
     7
100
AcDbPolyline
 90
        2
 70
     0
 43
0.0
 10
148.171360349304
 20
74.480461783439
 10
148.171360349304
 20
59.980461783439
  0
LWPOLYLINE
  5
C6
330
A
100
AcDbEntity
  8
LM-01_1_1
  6
Continuous
 62
     7
100
AcDbPolyline
 90
        2
 70
     0
 43
0.0
 10
147.721360349304
 20
59.980461783439
 10
148.171360349304
 20
59.980461783439
  0
LINE
  5
CA
330
A
100
AcDbEntity
  8
LM-01_1_1
  6
Continuous
 62
     7
100
AcDbLine
 10
122.671360349304
 20
61.230461783439
 30
0.0
 11
122.471360349304
 21
61.430461783439
 31
0.0
  0
LINE
  5
CB
330
A
100
AcDbEntity
  8
LM-01_1_1
  6
HIDDEN
 62
     7
100
AcDbLine
 10
122.671360349304
 20
73.230461783439
 30
0.0
 11
122.471360349304
 21
73.03046178343899
 31
0.0
  0
LINE
  5
CC
330
A
100
AcDbEntity
  8
LM-01_1_1
  6
Continuous
 62
     7
100
AcDbLine
 10
83.47136034930398
 20
72.930461783439
 30
0.0
 11
83.47136034930398
 21
67.23046178343899
 31
0.0
  0
LINE
  5
CD
330
A
100
AcDbEntity
  8
LM-01_1_1
  6
Continuous
 62
     7
100
AcDbLine
 10
83.771360349304
 20
73.230461783439
 30
0.0
 11
83.47136034930398
 21
72.930461783439
 31
0.0
  0
LINE
  5
CE
330
A
100
AcDbEntity
  8
LM-01_1_1
  6
Continuous
 62
     7
100
AcDbLine
 10
83.47136034930398
 20
61.53046178343899
 30
0.0
 11
83.47136034930398
 21
67.23046178343899
 31
0.0
  0
LINE
  5
CF
330
A
100
AcDbEntity
  8
LM-01_1_1
  6
Continuous
 62
     7
100
AcDbLine
 10
83.771360349304
 20
61.230461783439
 30
0.0
 11
83.47136034930398
 21
61.53046178343899
 31
0.0
  0
LINE
  5
D0
330
A
100
AcDbEntity
  8
LM-01_1_1
  6
Continuous
 62
     7
100
AcDbLine
 10
122.271360349304
 20
61.230461783439
 30
0.0
 11
83.771360349304
 21
61.230461783439
 31
0.0
  0
LINE
  5
D1
330
A
100
AcDbEntity
  8
LM-01_1_1
  6
Continuous
 62
     7
100
AcDbLine
 10
122.471360349304
 20
61.430461783439
 30
0.0
 11
122.471360349304
 21
67.23046178343899
 31
0.0
  0
LINE
  5
D2
330
A
100
AcDbEntity
  8
LM-01_1_1
  6
Continuous
 62
     7
100
AcDbLine
 10
122.471360349304
 20
73.03046178343899
 30
0.0
 11
122.471360349304
 21
67.23046178343899
 31
0.0
  0
LINE
  5
D3
330
A
100
AcDbEntity
  8
LM-01_1_1
  6
Continuous
 62
     7
100
AcDbLine
 10
122.271360349304
 20
61.230461783439
 30
0.0
 11
122.471360349304
 21
61.430461783439
 31
0.0
  0
LINE
  5
D4
330
A
100
AcDbEntity
  8
LM-01_1_1
  6
Continuous
 62
     7
100
AcDbLine
 10
122.271360349304
 20
73.230461783439
 30
0.0
 11
83.771360349304
 21
73.230461783439
 31
0.0
  0
LINE
  5
D5
330
A
100
AcDbEntity
  8
LM-01_1_1
  6
HIDDEN
 62
     7
100
AcDbLine
 10
122.471360349304
 20
73.03046178343899
 30
0.0
 11
122.271360349304
 21
73.230461783439
 31
0.0
  0
LINE
  5
D6
330
A
100
AcDbEntity
  8
LM-01_1_1
  6
Continuous
 62
     7
100
AcDbLine
 10
83.47136034930398
 20
63.930461783439
 30
0.0
 11
74.846726033216
 21
63.930461783439
 31
0.0
  0
LINE
  5
D7
330
A
100
AcDbEntity
  8
LM-01_1_1
  6
Continuous
 62
     7
100
AcDbLine
 10
83.47136034930398
 20
70.53046178343899
 30
0.0
 11
74.572726740224
 21
70.53046178343899
 31
0.0
  0
LWPOLYLINE
  5
D8
330
A
100
AcDbEntity
  8
LM-01_1_1
  6
Continuous
 62
     7
100
AcDbPolyline
 90
      281
 70
     0
 43
0.0
 10
71.77504655787299
 20
75.35419466974399
 10
72.058536287761
 20
75.16929681058901
 10
72.24654509582901
 20
75.045856146995
 10
72.38661503591
 20
74.953108722249
 10
72.479410541006
 20
74.891172947657
 10
72.571652351932
 20
74.82913849697699
 10
72.663266642799
 20
74.76699221339599
 10
72.754179587718
 20
74.70472094010199
 10
72.844317360798
 20
74.64231152028401
 10
72.93360613615099
 20
74.57975079712899
 10
73.02197208788701
 20
74.517025613826
 10
73.109341390118
 20
74.45412281356301
 10
73.19564021695299
 20
74.39102923952799
 10
73.23836513150699
 20
74.359406800843
 10
73.280794742504
 20
74.32773173491
 10
73.322919821707
 20
74.29600239712801
 10
73.364731140881
 20
74.264217142896
 10
73.40621947178799
 20
74.232374327611
 10
73.44737558619399
 20
74.200472306674
 10
73.48819025586199
 20
74.168509435481
 10
73.528654252555
 20
74.13648406943299
 10
73.568758348038
 20
74.10439456392601
 10
73.608493314074
 20
74.07223927436
 10
73.647849922427
 20
74.040016556134
 10
73.686818944861
 20
74.007724764645
 10
73.72539115314101
 20
73.97536225529299
 10
73.76355731902899
 20
73.94292738347499
 10
73.80130821428899
 20
73.91041850459001
 10
73.838634610686
 20
73.877833974038
 10
73.87552727998299
 20
73.84517214721501
 10
73.911976993944
 20
73.812431379522
 10
73.94797452433199
 20
73.779610026356
 10
73.98351064291301
 20
73.74670644311599
 10
74.018576121449
 20
73.7137189852
 10
74.05316173170399
 20
73.68064600800799
 10
74.08725824544299
 20
73.64748586693599
 10
74.12085643442799
 20
73.614236917385
 10
74.15394707042499
 20
73.58089751475199
 10
74.18652092519599
 20
73.547466014436
 10
74.218568770506
 20
73.513940771836
 10
74.250081378118
 20
73.480320142349
 10
74.281049519796
 20
73.446602481376
 10
74.31146396730401
 20
73.412786144313
 10
74.341315492406
 20
73.37886948656
 10
74.37059486686599
 20
73.34485086351499
 10
74.39929286244799
 20
73.31072863057599
 10
74.427400250914
 20
73.27650114314299
 10
74.45490780403002
 20
73.242166756614
 10
74.481806293559
 20
73.207723826386
 10
74.508086491265
 20
73.17317070786
 10
74.53373916891099
 20
73.138505756432
 10
74.55875509826199
 20
73.10372732750301
 10
74.583125051082
 20
73.06883377646901
 10
74.606839799133
 20
73.03382345873
 10
74.62989011418101
 20
72.998694729685
 10
74.65226676798801
 20
72.96344594473099
 10
74.67396053232
 20
72.928075459268
 10
74.694962178938
 20
72.892581628694
 10
74.715262479608
 20
72.856962808407
 10
74.73485220609401
 20
72.82121735380499
 10
74.75372213015801
 20
72.78534362028899
 10
74.77186302356499
 20
72.749339963255
 10
74.789265658079
 20
72.71320473810199
 10
74.805920805463
 20
72.67693630023001
 10
74.821819237482
 20
72.64053300503601
 10
74.836951725899
 20
72.60399320791901
 10
74.851309042478
 20
72.56731526427699
 10
74.864881958983
 20
72.53049752951
 10
74.877661247178
 20
72.49353835901499
 10
74.88963767882599
 20
72.456436108191
 10
74.900802025692
 20
72.419189132436
 10
74.906076783507
 20
72.40051085877199
 10
74.911145059538
 20
72.38179578715
 10
74.916005700256
 20
72.363043711995
 10
74.92065755213001
 20
72.344254427731
 10
74.925099461632
 20
72.325427728783
 10
74.929330275231
 20
72.306563409576
 10
74.93334883939801
 20
72.287661264535
 10
74.93715400060399
 20
72.268721088085
 10
74.940744605319
 20
72.249742674651
 10
74.94411950001399
 20
72.23072581865699
 10
74.947277531159
 20
72.21167031452799
 10
74.95021754522399
 20
72.19257595668899
 10
74.952938388681
 20
72.17344253956399
 10
74.955438907999
 20
72.15426985758
 10
74.95771794964899
 20
72.13505770515999
 10
74.959774360101
 20
72.115805876729
 10
74.961606985827
 20
72.09651416671199
 10
74.963214673296
 20
72.077182369534
 10
74.96459626897899
 20
72.05781027962
 10
74.96575061934599
 20
72.03839769139399
 10
74.967372970016
 20
71.99945019770701
 10
74.96802615446
 20
71.966569227183
 10
74.96803805489399
 20
71.933573033589
 10
74.96742005222299
 20
71.900462707922
 10
74.96618352735099
 20
71.867239341179
 10
74.964339861182
 20
71.83390402435799
 10
74.96190043462199
 20
71.800457848457
 10
74.958876628574
 20
71.766901904472
 10
74.95527982394399
 20
71.733237283401
 10
74.951121401636
 20
71.699465076241
 10
74.946412742554
 20
71.66558637398999
 10
74.941165227604
 20
71.631602267646
 10
74.93539023769
 20
71.59751384820499
 10
74.92909915371599
 20
71.56332220666399
 10
74.922303356588
 20
71.529028434023
 10
74.915014227209
 20
71.49463362127599
 10
74.907243146485
 20
71.46013885942299
 10
74.899001495319
 20
71.425545239461
 10
74.89030065461701
 20
71.390853852386
 10
74.88115200528401
 20
71.35606578919599
 10
74.871566928223
 20
71.32118214089
 10
74.861556804339
 20
71.28620399846299
 10
74.851133014538
 20
71.25113245291299
 10
74.84030693972299
 20
71.21596859523799
 10
74.8290899608
 20
71.180713516436
 10
74.817493458672
 20
71.145368307503
 10
74.805528814245
 20
71.10993405943699
 10
74.793207408423
 20
71.074411863235
 10
74.78054062211099
 20
71.03880280989599
 10
74.767539836213
 20
71.003107990415
 10
74.75421643163399
 20
70.96732849579099
 10
74.74058178927901
 20
70.93146541701999
 10
74.726647290052
 20
70.89551984510101
 10
74.712424314858
 20
70.85949287103099
 10
74.69792424460099
 20
70.82338558580599
 10
74.66813834251701
 20
70.750934445885
 10
74.637380631039
 20
70.678175153317
 10
74.605742157403
 20
70.60511643608001
 10
74.573313968845
 20
70.53176702215499
 10
74.540187112603
 20
70.458135639519
 10
74.506452635914
 20
70.384231016153
 10
74.454910798372
 20
70.27288084718799
 10
74.38491145096199
 20
70.12353907381499
 10
74.26094589446299
 20
69.85998106237099
 10
74.208043021159
 20
69.74624299557901
 10
74.17307713116
 20
69.67017789322699
 10
74.13845961670201
 20
69.593931193925
 10
74.10428152501999
 20
69.51751162565201
 10
74.070633903353
 20
69.440927916386
 10
74.037607798937
 20
69.36418879410699
 10
74.00529425900799
 20
69.287302986795
 10
73.989433152988
 20
69.248807803744
 10
73.97378433080401
 20
69.21027922242699
 10
73.95835917336099
 20
69.171718333841
 10
73.943169061562
 20
69.133126228983
 10
73.928225376313
 20
69.09450399885199
 10
73.91353949851801
 20
69.05585273444299
 10
73.899122809082
 20
69.017173526755
 10
73.88498668891
 20
68.978467466785
 10
73.871142518905
 20
68.939735645531
 10
73.857601679974
 20
68.900979153989
 10
73.844375553019
 20
68.86219908315699
 10
73.831475518947
 20
68.823396524033
 10
73.818912958661
 20
68.784572567614
 10
73.806699253066
 20
68.745728304897
 10
73.794845783067
 20
68.70686482688
 10
73.78336392956899
 20
68.66798322455998
 10
73.772265073475
 20
68.629084588934
 10
73.76156059569101
 20
68.59017001099999
 10
73.75126187712099
 20
68.55124058175499
 10
73.74138029866999
 20
68.512297392197
 10
73.731927241243
 20
68.47334153332301
 10
73.72291408574399
 20
68.43437409613099
 10
73.71435221307701
 20
68.39539617161701
 10
73.69862783986
 20
68.317413224615
 10
73.692877866896
 20
68.28622594679301
 10
73.68743570147898
 20
68.255034495319
 10
73.682298767261
 20
68.223839309423
 10
73.677464487894
 20
68.19264082833701
 10
73.67293028703101
 20
68.16143949129099
 10
73.668693588324
 20
68.13023573751699
 10
73.664751815424
 20
68.09903000624601
 10
73.661102391985
 20
68.06782273670901
 10
73.657742741659
 20
68.036614368136
 10
73.654670288098
 20
68.00540533975899
 10
73.651882454954
 20
67.97419609081
 10
73.649376665879
 20
67.94298706051799
 10
73.647150344526
 20
67.91177868811499
 10
73.645200914547
 20
67.880571412833
 10
73.643525799594
 20
67.849365673902
 10
73.64212242332
 20
67.818161910553
 10
73.640988209376
 20
67.786960562017
 10
73.640120581416
 20
67.75576206752599
 10
73.63951696309
 20
67.72456686631
 10
73.63917477805199
 20
67.693375397601
 10
73.63909144995401
 20
67.66218810062899
 10
73.639264402449
 20
67.631005414626
 10
73.639691059187
 20
67.599827778822
 10
73.640368843822
 20
67.56865563244899
 10
73.64129518000599
 20
67.53748941473799
 10
73.642467491391
 20
67.50632956491999
 10
73.64388320162899
 20
67.47517652222599
 10
73.645539734373
 20
67.444030725887
 10
73.647434513275
 20
67.412892615133
 10
73.649564961987
 20
67.381762629197
 10
73.651928504162
 20
67.350641207309
 10
73.65452256345101
 20
67.3195287887
 10
73.65734456350701
 20
67.288425812602
 10
73.660391927983
 20
67.25733271824499
 10
73.66366208053
 20
67.22624994486
 10
73.66715244480099
 20
67.195177931678
 10
73.670860444447
 20
67.16411711793199
 10
73.674783503122
 20
67.13306794285
 10
73.67891904447799
 20
67.102030845665
 10
73.683264492166
 20
67.07100626560799
 10
73.69257480115099
 20
67.008996413801
 10
73.702693819294
 20
66.947041901278
 10
73.71360093581299
 20
66.88514624188599
 10
73.72527553992799
 20
66.82331294947499
 10
73.737697020855
 20
66.761545537893
 10
73.750844767812
 20
66.69984752098699
 10
73.764698170019
 20
66.638222412608
 10
73.77923661669299
 20
66.576673726603
 10
73.79443949705301
 20
66.51520497681999
 10
73.810286200315
 20
66.453819677108
 10
73.82675611569999
 20
66.39252134131699
 10
73.843828632423
 20
66.331313483293
 10
73.861483139705
 20
66.27019961688599
 10
73.879699026762
 20
66.20918325594399
 10
73.89845568281299
 20
66.148267914315
 10
73.917732497077
 20
66.087457105848
 10
73.93750885877
 20
66.026754344392
 10
73.957764157112
 20
65.966163143795
 10
73.97847778132
 20
65.90568701790499
 10
73.99962912061301
 20
65.84532948057099
 10
74.02119756420801
 20
65.785094045641
 10
74.04316250132399
 20
65.724984226964
 10
74.06550332117899
 20
65.66500353838801
 10
74.099674245011
 20
65.575282311008
 10
74.134574969357
 20
65.485871391754
 10
74.17013593282899
 20
65.396782639863
 10
74.206287574038
 20
65.308027914575
 10
74.230682471172
 20
65.24904952446499
 10
74.25421941827799
 20
65.192776281194
 10
74.277947519906
 20
65.13664549199001
 10
74.30186484520399
 20
65.080655717922
 10
74.32596946331701
 20
65.02480552006
 10
74.35025944339201
 20
64.969093459475
 10
74.374732854575
 20
64.913518097236
 10
74.399387766011
 20
64.85807799441399
 10
74.42422224684699
 20
64.802771712078
 10
74.44923436623
 20
64.7475978113
 10
74.474422193306
 20
64.692554853147
 10
74.499783797221
 20
64.637641398692
 10
74.52531724712099
 20
64.582856009004
 10
74.576891961461
 20
64.47366366820699
 10
74.629130889496
 20
64.364966319318
 10
74.682018584397
 20
64.25675245089699
 10
74.73553959933299
 20
64.14901055150299
 10
74.78967848747401
 20
64.04172910969901
 10
74.844419801991
 20
63.93489661404199
 10
74.899748096051
 20
63.82850155309499
 10
74.95564792282699
 20
63.72253241541701
 10
75.01210383548699
 20
63.616977689569
 10
75.06910038720199
 20
63.511825864111
 10
75.12662213114101
 20
63.40706542760199
 10
75.184653620474
 20
63.302684868605
 10
75.243179408371
 20
63.198672675677
 10
75.302184048002
 20
63.095017337381
 10
75.361652092537
 20
62.991707342276
 10
75.42156809514499
 20
62.888731178923
 10
75.481916608997
 20
62.786077335882
 10
75.54268218726299
 20
62.683734301713
 10
75.60384938311201
 20
62.581690564976
 10
75.66540274971401
 20
62.47993461423199
 10
75.727326840239
 20
62.378454938041
 10
75.789606207857
 20
62.277240024963
 10
75.852225405737
 20
62.17627836356
 10
75.915168987051
 20
62.075558442389
 10
75.978421504967
 20
61.975068750014
 10
76.073845748029
 20
61.82474070916399
 10
76.169878210028
 20
61.67486593125399
 10
76.26646675791199
 20
61.52540556517299
 10
76.363559258628
 20
61.37632075981301
 10
76.46110357912599
 20
61.227572664064
 10
76.591775397384
 20
61.029698490174
 10
76.72303419518799
 20
60.83226175099301
 10
76.88774487418399
 20
60.585940673905
 10
77.11909671945599
 20
60.241655226527
 10
77.21837301578201
 20
60.094197850955
  0
LWPOLYLINE
  5
1F3
330
A
100
AcDbEntity
  8
LM-01_1_1
  6
Continuous
 62
     7
100
AcDbPolyline
 90
      246
 70
     0
 43
0.0
 10
71.22932287552
 20
74.516229478033
 10
71.523431107663
 20
74.32437432735099
 10
71.699942084583
 20
74.20844498360501
 10
71.846078941127
 20
74.111630677858
 10
71.935420166162
 20
74.05194113313
 10
71.935420166162
 20
74.05194113313
 10
71.935420166162
 20
74.05194113313
 10
72.04406706715499
 20
73.978694246464
 10
72.15112800431599
 20
73.905678435155
 10
72.243385181378
 20
73.84199905072501
 10
72.33420868775501
 20
73.778532916034
 10
72.423496128786
 20
73.715296986327
 10
72.51114510981399
 20
73.652308216848
 10
72.58489111048399
 20
73.598527414748
 10
72.65729363412301
 20
73.544951334025
 10
72.72828819896401
 20
73.49159065203399
 10
72.797810323238
 20
73.438456046132
 10
72.86579552517901
 20
73.385558193674
 10
72.921229301824
 20
73.341665206468
 10
72.97551367644899
 20
73.297950225232
 10
73.028611333217
 20
73.25441942899001
 10
73.080484956289
 20
73.211078996768
 10
73.14106503879699
 20
73.159330458674
 10
73.14106503879699
 20
73.159330458674
 10
73.14106503879699
 20
73.159330458674
 10
73.186208123548
 20
73.11987395568199
 10
73.23019458809501
 20
73.08061641866399
 10
73.27300563747598
 20
73.04158157662801
 10
73.314622476729
 20
73.00279315858301
 10
73.35502631089299
 20
72.964274893537
 10
73.394198345007
 20
72.926050510499
 10
73.432119784107
 20
72.888143738476
 10
73.468771833234
 20
72.850578306478
 10
73.504135697424
 20
72.813377943511
 10
73.53819258171601
 20
72.776566378585
 10
73.57092369114899
 20
72.740167340708
 10
73.602310230761
 20
72.704204558887
 10
73.63233340559
 20
72.668701762132
 10
73.66097442067399
 20
72.633682679451
 10
73.688214481052
 20
72.599171039851
 10
73.70983079799599
 20
72.570816089624
 10
73.730450300957
 20
72.54284374096901
 10
73.730450300957
 20
72.54284374096901
 10
73.730450300957
 20
72.54284374096901
 10
73.753868866645
 20
72.50983294440199
 10
73.77585784673399
 20
72.47747741510899
 10
73.796448331465
 20
72.44578572820799
 10
73.815671411079
 20
72.414766458817
 10
73.83355817581601
 20
72.384428182053
 10
73.850139715918
 20
72.354779473035
 10
73.86544712162599
 20
72.32582890688
 10
73.87951148318101
 20
72.29758505870599
 10
73.892363890823
 20
72.27005650363
 10
73.90403543479499
 20
72.243251816772
 10
73.91455720533599
 20
72.21717957324798
 10
73.92396029268799
 20
72.19184834817601
 10
73.92825204586799
 20
72.179463297284
 10
73.92825204586799
 20
72.179463297284
 10
73.92825204586799
 20
72.179463297284
 10
73.935950139466
 20
72.15562830626899
 10
73.94271999141999
 20
72.13241522422599
 10
73.948600931364
 20
72.109747723319
 10
73.953632288931
 20
72.087549475716
 10
73.957853393757
 20
72.06574415358099
 10
73.961303575475
 20
72.044255429079
 10
73.964202111
 20
72.02138024113001
 10
73.965496372936
 20
72.008397128672
 10
73.965496372936
 20
72.008397128672
 10
73.965496372936
 20
72.008397128672
 10
73.96714664310099
 20
71.98594119435701
 10
73.96801028309901
 20
71.964320577262
 10
73.968157696837
 20
71.941888280865
 10
73.967542288628
 20
71.91831048478599
 10
73.96611746278499
 20
71.893253368646
 10
73.96366458521
 20
71.864635898933
 10
73.963309885434
 20
71.861115986975
 10
73.963309885434
 20
71.861115986975
 10
73.963309885434
 20
71.861115986975
 10
73.95992490101701
 20
71.831969744825
 10
73.955536861474
 20
71.80114629974399
 10
73.950112829454
 20
71.768679003735
 10
73.943619867604
 20
71.7346012088
 10
73.93602503857199
 20
71.69894626694101
 10
73.92729540500599
 20
71.66174753016299
 10
73.92493182356
 20
71.652210536449
 10
73.92493182356
 20
71.652210536449
 10
73.92493182356
 20
71.652210536449
 10
73.914945374847
 20
71.61399520026801
 10
73.903802725291
 20
71.574431284062
 10
73.89153291576601
 20
71.53355712260199
 10
73.87816498714599
 20
71.49141105065599
 10
73.863727980303
 20
71.44803140299299
 10
73.845572353139
 20
71.395913854017
 10
73.826047235416
 20
71.342230323499
 10
73.805198742965
 20
71.28704168563401
 10
73.783072991618
 20
71.230408814615
 10
73.756281585498
 20
71.16399517403499
 10
73.727950993411
 20
71.09586556486201
 10
73.698150052981
 20
71.026110854696
 10
73.66694760183399
 20
70.95482191113901
 10
73.62607853327699
 20
70.86369164709501
 10
73.62607853327699
 20
70.86369164709501
 10
73.62607853327699
 20
70.86369164709501
 10
73.58333830551799
 20
70.77044979250999
 10
73.525423640189
 20
70.64614855510701
 10
73.350285566376
 20
70.273787154544
 10
73.29160510909099
 20
70.14728573736601
 10
73.24249880243201
 20
70.039782522254
 10
73.19834606892399
 20
69.941433473974
 10
73.154407724774
 20
69.84159345278401
 10
73.154407724774
 20
69.84159345278401
 10
73.154407724774
 20
69.84159345278401
 10
73.11564603127699
 20
69.751583573352
 10
73.082057734657
 20
69.67181266029999
 10
73.053597451765
 20
69.60266785408399
 10
73.025513227158
 20
69.532797682247
 10
72.99787301849301
 20
69.462188087412
 10
72.97074478342499
 20
69.390825012202
 10
72.948578039903
 20
69.33077006587099
 10
72.926853353765
 20
69.27017397215499
 10
72.905610052358
 20
69.20902859600001
 10
72.884887463027
 20
69.147325802349
 10
72.86472491312199
 20
69.08505745614499
 10
72.84516172998801
 20
69.022215422333
 10
72.826237240973
 20
68.958791565856
 10
72.811583937503
 20
68.907628101599
 10
72.79738470337299
 20
68.856082899252
 10
72.78365967418399
 20
68.804151793665
 10
72.770428985539
 20
68.751830619692
 10
72.757712773037
 20
68.69911521218199
 10
72.745531172283
 20
68.646001405988
 10
72.739647143686
 20
68.61929380177399
 10
72.739647143686
 20
68.61929380177399
 10
72.739647143686
 20
68.61929380177399
 10
72.72861644667
 20
68.566929430301
 10
72.718232337751
 20
68.51437424053099
 10
72.70849464694499
 20
68.46166486052201
 10
72.699403204267
 20
68.408837918328
 10
72.690957839734
 20
68.355930042006
 10
72.68315838336199
 20
68.30297785961199
 10
72.676004665167
 20
68.25001799920101
 10
72.66872837946201
 20
68.19047458483201
 10
72.662268898973
 20
68.131019962414
 10
72.656625981673
 20
68.071706284002
 10
72.65179938553401
 20
68.012585701652
 10
72.64819418884901
 20
67.960238338652
 10
72.64819418884901
 20
67.960238338652
 10
72.64819418884901
 20
67.960238338652
 10
72.64488504301301
 20
67.901547866141
 10
72.642334407527
 20
67.843016221736
 10
72.640527860889
 20
67.78464891905599
 10
72.639450981599
 20
67.726451471721
 10
72.639089348156
 20
67.66842939334999
 10
72.63942853905899
 20
67.610588197563
 10
72.64045413280699
 20
67.552933397979
 10
72.642151707899
 20
67.495470508219
 10
72.644506842835
 20
67.43820504189999
 10
72.64787733103699
 20
67.374814998098
 10
72.651573288367
 20
67.31798442105699
 10
72.651573288367
 20
67.31798442105699
 10
72.651573288367
 20
67.31798442105699
 10
72.65639456039
 20
67.255092715878
 10
72.661947119255
 20
67.192472019031
 10
72.66821310378499
 20
67.13012326683699
 10
72.675174652801
 20
67.06804739561599
 10
72.68281390512701
 20
67.006245341688
 10
72.69111299958399
 20
66.944718041374
 10
72.700054074997
 20
66.88346643099301
 10
72.70961927018699
 20
66.822491446867
 10
72.719790723977
 20
66.76179402531499
 10
72.730550575191
 20
66.701375102658
 10
72.741880962649
 20
66.641235615216
 10
72.753764025176
 20
66.581376499309
 10
72.766181901593
 20
66.521798691257
 10
72.78176415909199
 20
66.45067796630399
 10
72.798059964383
 20
66.379965290925
 10
72.81503845335301
 20
66.309662283082
 10
72.832668761886
 20
66.239770560737
 10
72.850920025869
 20
66.170291741851
 10
72.86658148655501
 20
66.11270930575599
 10
72.86658148655501
 20
66.11270930575599
 10
72.86658148655501
 20
66.11270930575599
 10
72.88784391704701
 20
66.037172486728
 10
72.90975964071201
 20
65.962121993471
 10
72.93229691560501
 20
65.88755687018999
 10
72.95542399978001
 20
65.813476161094
 10
72.97910915129199
 20
65.739878910388
 10
73.00332062819499
 20
65.66676416227899
 10
73.028026688544
 20
65.594130960974
 10
73.057433177052
 20
65.509999572646
 10
73.087419239235
 20
65.42652080431899
 10
73.11793447005801
 20
65.34369313822799
 10
73.14892846448699
 20
65.26151505660999
 10
73.184871754038
 20
65.168390711618
 10
73.22129929216899
 20
65.076110555518
 10
73.258135838713
 20
64.98467232272701
 10
73.28598639872899
 20
64.91664479741399
 10
73.28598639872899
 20
64.91664479741399
 10
73.28598639872899
 20
64.91664479741399
 10
73.32675116188901
 20
64.818586137726
 10
73.36801359094301
 20
64.72104296558899
 10
73.409764520535
 20
64.624006641609
 10
73.451994785306
 20
64.527468526393
 10
73.494695219901
 20
64.43141998054599
 10
73.53785665896301
 20
64.335852364674
 10
73.581469937135
 20
64.24075703938299
 10
73.62552588906101
 20
64.14612536528001
 10
73.670015349382
 20
64.05194870296999
 10
73.71492915274399
 20
63.95821841305899
 10
73.760258133788
 20
63.864925856152
 10
73.805993127159
 20
63.77206239285699
 10
73.85212496749899
 20
63.679619383779
 10
73.898644489452
 20
63.587588189523
 10
73.95732510631299
 20
63.473115149721
 10
74.016579253736
 20
63.359255197711
 10
74.07638903063499
 20
63.245991459675
 10
74.136736535921
 20
63.133307061797
 10
74.197603868507
 20
63.02118513026
 10
74.25897312730601
 20
62.909608791249
 10
74.32082641123099
 20
62.79856117094599
 10
74.383145819193
 20
62.688025395535
 10
74.43332492534
 20
62.59995396432399
 10
74.43332492534
 20
62.59995396432399
 10
74.43332492534
 20
62.59995396432399
 10
74.49643169420101
 20
62.490313011977
 10
74.559941282886
 20
62.38117144810999
 10
74.623835673447
 20
62.272516511489
 10
74.70099151131901
 20
62.14275496769101
 10
74.778644383022
 20
62.01365373954001
 10
74.85676315353799
 20
61.88519077562199
 10
74.935316687848
 20
61.757344024526
 10
75.014273850932
 20
61.630091434841
 10
75.09360350777299
 20
61.503410955155
 10
75.186584027424
 20
61.35631072675999
 10
75.27997973298899
 20
61.20992417239399
 10
75.373741183211
 20
61.064216275232
 10
75.481281553735
 20
60.898479053467
 10
75.589161253705
 20
60.73353023483599
 10
75.71083962935
 20
60.548840119705
 10
75.751455605532
 20
60.48747092211099
 10
75.751455605532
 20
60.48747092211099
 10
75.751455605532
 20
60.48747092211099
 10
75.898079685927
 20
60.266918746705
 10
76.07034955646
 20
60.00937463042699
 10
76.318928550236
 20
59.639573906126
 10
76.388887397361
 20
59.535669777504
  0
LINE
  5
2EB
330
A
100
AcDbEntity
  8
LM-01_1_1
  6
Continuous
 62
     7
100
AcDbLine
 10
123.671360349304
 20
73.230461783439
 30
0.0
 11
123.671360349304
 21
61.230461783439
 31
0.0
  0
LWPOLYLINE
  5
2EC
330
A
100
AcDbEntity
  8
LM-01_1_1
  6
Continuous
 62
     7
100
AcDbPolyline
 90
        2
 70
     0
 43
0.0
 10
123.671360349304
 20
73.230461783439
 10
122.671360349304
 20
73.230461783439
  0
LWPOLYLINE
  5
2F0
330
A
100
AcDbEntity
  8
LM-01_1_1
  6
Continuous
 62
     7
100
AcDbPolyline
 90
        2
 70
     0
 43
0.0
 10
123.671360349304
 20
61.230461783439
 10
122.671360349304
 20
61.230461783439
  0
TEXT
  5
2F4
330
A
100
AcDbEntity
  8
LM-01_1_1
 62
     7
100
AcDbText
 10
38.5765254999476
 20
93.838108414926
 30
0.0
 40
3.0
  1
Example of use:
 41
1.033333333332999
  7
ＭＳ_ゴシック
 72
     2
 11
68.789723469481
 21
93.838108414926
 31
0.0
100
AcDbText
  0
DIMENSION
  5
2F5
330
A
100
AcDbEntity
  8
LM-01_1_1
  6
Continuous
 62
     7
100
AcDbDimension
  2
*D3
 10
123.671360349304
 20
143.980461783439
 30
0.0
 11
136.1713603493039
 21
144.980461783439
 31
0.0
 71
     5
 42
-1.0
  3
MARK2_DIMSTYLE
100
AcDbAlignedDimension
 13
148.6713603493039
 23
130.980461783439
 33
0.0
 14
123.671360349304
 24
130.980461783439
 34
0.0
100
AcDbRotatedDimension
1001
ACAD
1000
DSTYLE
1002
{
1070
   140
1040
3.0
1002
}
  0
LWPOLYLINE
  5
2F6
330
A
100
AcDbEntity
  8
LM-01_1_1
  6
DASHDOT
 62
     7
100
AcDbPolyline
 90
        2
 70
     0
 43
0.0
 10
133.471360349304
 20
130.230461783439
 10
133.471360349304
 20
118.230461783439
  0
LWPOLYLINE
  5
2FA
330
A
100
AcDbEntity
  8
LM-01_1_1
  6
DASHDOT
 62
     7
100
AcDbPolyline
 90
        2
 70
     0
 43
0.0
 10
123.671360349304
 20
130.230461783439
 10
133.471360349304
 20
130.230461783439
  0
LWPOLYLINE
  5
2FE
330
A
100
AcDbEntity
  8
LM-01_1_1
  6
DASHDOT
 62
     7
100
AcDbPolyline
 90
        2
 70
     0
 43
0.0
 10
123.671360349304
 20
118.230461783439
 10
133.471360349304
 20
118.230461783439
  0
DIMENSION
  5
302
330
A
100
AcDbEntity
  8
LM-01_1_1
  6
Continuous
 62
     7
100
AcDbDimension
  2
*D4
 10
133.471360349304
 20
136.480461783439
 30
0.0
 11
136.971360349304
 21
137.480461783439
 31
0.0
 71
     5
 42
-1.0
  3
MARK2_DIMSTYLE
100
AcDbAlignedDimension
 13
140.471360349304
 23
130.230461783439
 33
0.0
 14
133.471360349304
 24
130.230461783439
 34
0.0
100
AcDbRotatedDimension
1001
ACAD
1000
DSTYLE
1002
{
1070
   140
1040
3.0
1002
}
  0
DIMENSION
  5
303
330
A
100
AcDbEntity
  8
LM-01_1_1
  6
Continuous
 62
     7
100
AcDbDimension
  2
*D5
 10
123.671360349304
 20
136.480461783439
 30
0.0
 11
128.769608401964
 21
137.480461783439
 31
0.0
 71
     5
 42
-1.0
  3
MARK2_DIMSTYLE
100
AcDbAlignedDimension
 13
133.471360349304
 23
130.230461783439
 33
0.0
 14
123.671360349304
 24
130.980461783439
 34
0.0
100
AcDbRotatedDimension
1001
ACAD
1000
DSTYLE
1002
{
1070
   140
1040
3.0
1002
}
  0
DIMENSION
  5
304
330
A
100
AcDbEntity
  8
LM-01_1_1
  6
Continuous
 62
     7
100
AcDbDimension
  2
*D6
 10
116.171360349304
 20
130.230461783439
 30
0.0
 11
115.171360349304
 21
123.8734514331209
 31
0.0
 71
     5
 42
-1.0
  3
MARK2_DIMSTYLE
100
AcDbAlignedDimension
 13
124.171360349304
 23
118.230461783439
 33
0.0
 14
123.671360349304
 24
130.230461783439
 34
0.0
 50
90.0
100
AcDbRotatedDimension
1001
ACAD
1000
DSTYLE
1002
{
1070
   140
1040
3.0
1002
}
  0
TEXT
  5
305
330
A
100
AcDbEntity
  8
LM-01_1_1
 62
     7
100
AcDbText
 10
38.67705166488125
 20
88.838108414926
 30
0.0
 40
3.0
  1
with H-1VH and HO-05L
 41
1.033333333332999
  7
ＭＳ_ゴシック
 72
     2
 11
80.975528822228
 21
88.838108414926
 31
0.0
100
AcDbText
  0
LWPOLYLINE
  5
306
330
A
100
AcDbEntity
  8
LM-01_1_1
  6
Continuous
 62
     7
100
AcDbPolyline
 90
        2
 70
     0
 43
0.0
 10
140.471360349304
 20
58.230461783439
 10
140.471360349304
 20
50.98046178343899
  0
LWPOLYLINE
  5
30A
330
A
100
AcDbEntity
  8
LM-01_1_1
  6
Continuous
 62
     7
100
AcDbPolyline
 90
        3
 70
     0
 43
0.0
 10
139.971360349304
 20
52.98046178343899
 10
140.471360349304
 20
50.98046178343899
 10
140.971360349304
 20
52.98046178343899
  0
DIMENSION
  5
30F
330
A
100
AcDbEntity
  8
LM-01_1_1
  6
Continuous
 62
     7
100
AcDbDimension
  2
*D7
 10
148.6713603493039
 20
81.98046178343899
 30
0.0
 11
116.071360349304
 21
82.980461783439
 31
0.0
 71
     5
 42
-1.0
  3
MARK2_DIMSTYLE
100
AcDbAlignedDimension
 13
83.47136034930398
 23
72.930461783439
 33
0.0
 14
148.6713603493039
 24
73.980461783439
 34
0.0
100
AcDbRotatedDimension
1001
ACAD
1000
DSTYLE
1002
{
1070
   140
1040
3.0
1002
}
  0
TEXT
  5
310
330
A
100
AcDbEntity
  8
LM-01_1_1
 62
     7
100
AcDbText
 10
38.35581390950254
 20
101.338108414926
 30
0.0
 40
3.0
  1
H-1VH、HO-05Lとの組み合わせ使用例
 41
1.033333333332999
  7
ＭＳ_ゴシック
 72
     2
 11
104.824849442476
 21
101.338108414926
 31
0.0
100
AcDbText
  0
LINE
  5
311
330
A
100
AcDbEntity
  8
LM-01_1_1
  6
Continuous
 62
     7
100
AcDbLine
 10
148.171360349304
 20
59.980461783439
 30
0.0
 11
164.1713603493039
 21
59.980461783439
 31
0.0
  0
LINE
  5
312
330
A
100
AcDbEntity
  8
LM-01_1_1
  6
Continuous
 62
     7
100
AcDbLine
 10
159.1713603493039
 20
29.980461783439
 30
0.0
 11
159.1713603493039
 21
59.980461783439
 31
0.0
  0
LWPOLYLINE
  5
313
330
A
100
AcDbEntity
  8
LM-01_1_1
  6
Continuous
 62
     7
100
AcDbPolyline
 90
        3
 70
     0
 43
0.0
 10
158.671360349304
 20
31.980461783439
 10
159.1713603493039
 20
29.980461783439
 10
159.6713603493039
 20
31.980461783439
  0
TEXT
  5
318
330
A
100
AcDbEntity
  8
LM-01_1_1
 62
     7
100
AcDbText
 10
158.1713603493039
 20
33.67504352999919
 30
0.0
 40
3.0
  1
照射距離 W.D.
 50
90.0
 41
1.033333333332999
  7
ＭＳ_ゴシック
 72
     1
 11
158.1713603493039
 21
46.767429316797
 31
0.0
100
AcDbText
  0
TEXT
  5
319
330
A
100
AcDbEntity
  8
LM-01_1_1
 62
     7
100
AcDbText
 10
123.5769253439199
 20
51.94374921926399
 30
0.0
 40
3.0
  1
UV rays
 41
1.033333333332999
  7
ＭＳ_ゴシック
 72
     1
 11
130.626671536811
 21
51.94374921926399
 31
0.0
100
AcDbText
  0
ENDSEC
  0
SECTION
  2
OBJECTS
  0
DICTIONARY
  5
19
330
0
100
AcDbDictionary
281
     1
  3
ACAD_GROUP
350
1A
  3
ACAD_LAYOUT
350
321
  3
ACAD_MLINESTYLE
350
1B
  3
ACAD_PLOTSETTINGS
350
322
  3
ACAD_PLOTSTYLENAME
350
31F
  0
DICTIONARY
  5
1A
102
{ACAD_REACTORS
330
19
102
}
330
19
100
AcDbDictionary
281
     1
  0
DICTIONARY
  5
321
102
{ACAD_REACTORS
330
19
102
}
330
19
100
AcDbDictionary
281
     1
  3
Model
350
323
  3
ﾚｲｱｳﾄ1
350
324
  0
DICTIONARY
  5
1B
102
{ACAD_REACTORS
330
19
102
}
330
19
100
AcDbDictionary
281
     1
  3
STANDARD
350
1C
  0
DICTIONARY
  5
322
102
{ACAD_REACTORS
330
19
102
}
330
19
100
AcDbDictionary
281
     1
  0
ACDBDICTIONARYWDFLT
  5
31F
102
{ACAD_REACTORS
330
19
102
}
330
19
100
AcDbDictionary
281
     1
  3
Normal
350
320
100
AcDbDictionaryWithDefault
340
320
  0
LAYOUT
  5
323
102
{ACAD_REACTORS
330
321
102
}
330
321
100
AcDbPlotSettings
  1

  2
\\HCTD010A\RICOH imagio MP C4500 RPCS
  4

  6

 40
0.0
 41
0.0
 42
0.0
 43
0.0
 44
0.0
 45
0.0
 46
0.0
 47
0.0
 48
0.0
 49
0.0
140
0.0
141
0.0
142
1.0
143
1.0
 70
  1712
 72
     0
 73
     0
 74
     0
  7

 75
     0
147
1.0
148
0.0
149
0.0
100
AcDbLayout
  1
Model
 70
     1
 71
     0
 10
0.0
 20
0.0
 11
12.0
 21
9.0
 12
0.0
 22
0.0
 32
0.0
 14
0.0
 24
0.0
 34
0.0
 15
0.0
 25
0.0
 35
0.0
146
0.0
 13
0.0
 23
0.0
 33
0.0
 16
1.0
 26
0.0
 36
0.0
 17
0.0
 27
1.0
 37
0.0
 76
     0
330
A
  0
LAYOUT
  5
324
102
{ACAD_REACTORS
330
321
102
}
330
321
100
AcDbPlotSettings
  1

  2
\\HCTD010A\RICOH imagio MP C4500 RPCS
  4

  6

 40
0.0
 41
0.0
 42
0.0
 43
0.0
 44
0.0
 45
0.0
 46
0.0
 47
0.0
 48
0.0
 49
0.0
140
0.0
141
0.0
142
1.0
143
1.0
 70
   688
 72
     0
 73
     0
 74
     5
  7

 75
    16
147
1.0
148
0.0
149
0.0
100
AcDbLayout
  1
ﾚｲｱｳﾄ1
 70
     0
 71
     1
 10
0.0
 20
0.0
 11
12.0
 21
9.0
 12
0.0
 22
0.0
 32
0.0
 14
1.000000000000000E+20
 24
1.000000000000000E+20
 34
1.000000000000000E+20
 15
-1.000000000000000E+20
 25
-1.000000000000000E+20
 35
-1.000000000000000E+20
146
0.0
 13
0.0
 23
0.0
 33
0.0
 16
1.0
 26
0.0
 36
0.0
 17
0.0
 27
1.0
 37
0.0
 76
     0
330
B
  0
MLINESTYLE
  5
1C
102
{ACAD_REACTORS
330
1B
102
}
330
1B
100
AcDbMlineStyle
  2
STANDARD
 70
     0
  3

 62
     0
 51
90.0
 52
90.0
 71
     2
 49
0.5
 62
   256
  6
BYLAYER
 49
-0.5
 62
   256
  6
BYLAYER
  0
ACDBPLACEHOLDER
  5
320
102
{ACAD_REACTORS
330
31F
102
}
330
31F
  0
ENDSEC
  0
EOF
