  0
SECTION
  2
HEADER
  9
$ACADVER
  1
AC1015
  9
$ACADMAINTVER
 70
    10
  9
$DWGCODEPAGE
  3
ANSI_932
  9
$INSBASE
 10
0.0
 20
0.0
 30
0.0
  9
$EXTMIN
 10
-283.0089373666389
 20
-332.4023221218169
 30
0.0
  9
$EXTMAX
 10
2551.540439485479
 20
970.4424958901865
 30
0.0
  9
$LIMMIN
 10
0.0
 20
0.0
  9
$LIMMAX
 10
297.0
 20
210.0
  9
$ORTHOMODE
 70
     0
  9
$REGENMODE
 70
     1
  9
$FILLMODE
 70
     1
  9
$QTEXTMODE
 70
     0
  9
$MIRRTEXT
 70
     1
  9
$LTSCALE
 40
1.0
  9
$ATTMODE
 70
     1
  9
$TEXTSIZE
 40
0.0
  9
$TRACEWID
 40
0.05
  9
$TEXTSTYLE
  7
STANDARD
  9
$CLAYER
  8
LAYER_1
  9
$CELTYPE
  6
CONTINUOUS
  9
$CECOLOR
 62
   256
  9
$CELTSCALE
 40
1.0
  9
$DISPSILH
 70
     0
  9
$DIMSCALE
 40
1.0
  9
$DIMASZ
 40
0.18
  9
$DIMEXO
 40
0.0625
  9
$DIMDLI
 40
0.38
  9
$DIMRND
 40
0.0
  9
$DIMDLE
 40
0.0
  9
$DIMEXE
 40
0.18
  9
$DIMTP
 40
0.0
  9
$DIMTM
 40
0.0
  9
$DIMTXT
 40
0.18
  9
$DIMCEN
 40
0.09
  9
$DIMTSZ
 40
0.0
  9
$DIMTOL
 70
     0
  9
$DIMLIM
 70
     0
  9
$DIMTIH
 70
     1
  9
$DIMTOH
 70
     1
  9
$DIMSE1
 70
     0
  9
$DIMSE2
 70
     0
  9
$DIMTAD
 70
     0
  9
$DIMZIN
 70
     0
  9
$DIMBLK
  1

  9
$DIMASO
 70
     1
  9
$DIMSHO
 70
     1
  9
$DIMPOST
  1

  9
$DIMAPOST
  1

  9
$DIMALT
 70
     0
  9
$DIMALTD
 70
     2
  9
$DIMALTF
 40
25.4
  9
$DIMLFAC
 40
1.0
  9
$DIMTOFL
 70
     0
  9
$DIMTVP
 40
0.0
  9
$DIMTIX
 70
     0
  9
$DIMSOXD
 70
     0
  9
$DIMSAH
 70
     0
  9
$DIMBLK1
  1

  9
$DIMBLK2
  1

  9
$DIMSTYLE
  2
STANDARD
  9
$DIMCLRD
 70
     0
  9
$DIMCLRE
 70
     0
  9
$DIMCLRT
 70
     0
  9
$DIMTFAC
 40
1.0
  9
$DIMGAP
 40
0.09
  9
$DIMJUST
 70
     0
  9
$DIMSD1
 70
     0
  9
$DIMSD2
 70
     0
  9
$DIMTOLJ
 70
     1
  9
$DIMTZIN
 70
     0
  9
$DIMALTZ
 70
     0
  9
$DIMALTTZ
 70
     0
  9
$DIMUPT
 70
     0
  9
$DIMDEC
 70
     4
  9
$DIMTDEC
 70
     4
  9
$DIMALTU
 70
     2
  9
$DIMALTTD
 70
     2
  9
$DIMTXSTY
  7
STANDARD
  9
$DIMAUNIT
 70
     0
  9
$DIMADEC
 70
     0
  9
$DIMALTRND
 40
0.0
  9
$DIMAZIN
 70
     0
  9
$DIMDSEP
 70
    46
  9
$DIMATFIT
 70
     3
  9
$DIMFRAC
 70
     0
  9
$DIMLDRBLK
  1

  9
$DIMLUNIT
 70
     2
  9
$DIMLWD
 70
    -2
  9
$DIMLWE
 70
    -2
  9
$DIMTMOVE
 70
     0
  9
$LUNITS
 70
     2
  9
$LUPREC
 70
     4
  9
$SKETCHINC
 40
0.1
  9
$FILLETRAD
 40
0.0
  9
$AUNITS
 70
     0
  9
$AUPREC
 70
     0
  9
$MENU
  1
acad
  9
$ELEVATION
 40
0.0
  9
$PELEVATION
 40
0.0
  9
$THICKNESS
 40
0.0
  9
$LIMCHECK
 70
     0
  9
$CHAMFERA
 40
0.0
  9
$CHAMFERB
 40
0.0
  9
$CHAMFERC
 40
0.0
  9
$CHAMFERD
 40
0.0
  9
$SKPOLY
 70
     0
  9
$TDCREATE
 40
2311945.702129432
  9
$TDUCREATE
 40
2311945.327129433
  9
$TDUPDATE
 40
2456666.487611354
  9
$TDUUPDATE
 40
2456666.112611354
  9
$TDINDWG
 40
0.0004915394
  9
$TDUSRTIMER
 40
0.0004915394
  9
$USRTIMER
 70
     1
  9
$ANGBASE
 50
0.0
  9
$ANGDIR
 70
     0
  9
$PDMODE
 70
     0
  9
$PDSIZE
 40
0.0
  9
$PLINEWID
 40
0.0
  9
$SPLFRAME
 70
     0
  9
$SPLINETYPE
 70
     6
  9
$SPLINESEGS
 70
     8
  9
$HANDSEED
  5
72F
  9
$SURFTAB1
 70
     6
  9
$SURFTAB2
 70
     6
  9
$SURFTYPE
 70
     6
  9
$SURFU
 70
     6
  9
$SURFV
 70
     6
  9
$UCSBASE
  2

  9
$UCSNAME
  2

  9
$UCSORG
 10
0.0
 20
0.0
 30
0.0
  9
$UCSXDIR
 10
1.0
 20
0.0
 30
0.0
  9
$UCSYDIR
 10
0.0
 20
1.0
 30
0.0
  9
$UCSORTHOREF
  2

  9
$UCSORTHOVIEW
 70
     0
  9
$UCSORGTOP
 10
0.0
 20
0.0
 30
0.0
  9
$UCSORGBOTTOM
 10
0.0
 20
0.0
 30
0.0
  9
$UCSORGLEFT
 10
0.0
 20
0.0
 30
0.0
  9
$UCSORGRIGHT
 10
0.0
 20
0.0
 30
0.0
  9
$UCSORGFRONT
 10
0.0
 20
0.0
 30
0.0
  9
$UCSORGBACK
 10
0.0
 20
0.0
 30
0.0
  9
$PUCSBASE
  2

  9
$PUCSNAME
  2

  9
$PUCSORG
 10
0.0
 20
0.0
 30
0.0
  9
$PUCSXDIR
 10
1.0
 20
0.0
 30
0.0
  9
$PUCSYDIR
 10
0.0
 20
1.0
 30
0.0
  9
$PUCSORTHOREF
  2

  9
$PUCSORTHOVIEW
 70
     0
  9
$PUCSORGTOP
 10
0.0
 20
0.0
 30
0.0
  9
$PUCSORGBOTTOM
 10
0.0
 20
0.0
 30
0.0
  9
$PUCSORGLEFT
 10
0.0
 20
0.0
 30
0.0
  9
$PUCSORGRIGHT
 10
0.0
 20
0.0
 30
0.0
  9
$PUCSORGFRONT
 10
0.0
 20
0.0
 30
0.0
  9
$PUCSORGBACK
 10
0.0
 20
0.0
 30
0.0
  9
$USERI1
 70
     0
  9
$USERI2
 70
     0
  9
$USERI3
 70
     0
  9
$USERI4
 70
     0
  9
$USERI5
 70
     0
  9
$USERR1
 40
0.0
  9
$USERR2
 40
0.0
  9
$USERR3
 40
0.0
  9
$USERR4
 40
0.0
  9
$USERR5
 40
0.0
  9
$WORLDVIEW
 70
     1
  9
$SHADEDGE
 70
     3
  9
$SHADEDIF
 70
    70
  9
$TILEMODE
 70
     1
  9
$MAXACTVP
 70
    16
  9
$PINSBASE
 10
0.0
 20
0.0
 30
0.0
  9
$PLIMCHECK
 70
     0
  9
$PEXTMIN
 10
1.000000000000000E+20
 20
1.000000000000000E+20
 30
1.000000000000000E+20
  9
$PEXTMAX
 10
-1.000000000000000E+20
 20
-1.000000000000000E+20
 30
-1.000000000000000E+20
  9
$PLIMMIN
 10
0.0
 20
0.0
  9
$PLIMMAX
 10
12.0
 20
9.0
  9
$UNITMODE
 70
     0
  9
$VISRETAIN
 70
     0
  9
$PLINEGEN
 70
     1
  9
$PSLTSCALE
 70
     0
  9
$TREEDEPTH
 70
  3020
  9
$CMLSTYLE
  2
STANDARD
  9
$CMLJUST
 70
     0
  9
$CMLSCALE
 40
1.0
  9
$PROXYGRAPHICS
 70
     1
  9
$MEASUREMENT
 70
     0
  9
$CELWEIGHT
370
    -1
  9
$ENDCAPS
280
     0
  9
$JOINSTYLE
280
     0
  9
$LWDISPLAY
290
     0
  9
$INSUNITS
 70
     0
  9
$HYPERLINKBASE
  1

  9
$STYLESHEET
  1

  9
$XEDIT
290
     1
  9
$CEPSNTYPE
380
     0
  9
$PSTYLEMODE
290
     1
  9
$FINGERPRINTGUID
  2
{E7D4A44A-DF7A-40E1-9730-76CA17860681}
  9
$VERSIONGUID
  2
{8FA58C98-83D6-4FEC-A28F-18511373B0F4}
  9
$EXTNAMES
290
     1
  9
$PSVPSCALE
 40
0.0
  9
$OLESTARTUP
290
     0
  0
ENDSEC
  0
SECTION
  2
CLASSES
  0
CLASS
  1
LWPOLYLINE
  2
AcDbPolyline
  3
AutoCAD 2000
 90
    32768
280
     0
281
     1
  0
CLASS
  1
IMAGE
  2
AcDbRasterImage
  3
ISM
 90
    32895
280
     0
281
     1
  0
CLASS
  1
OLE2FRAME
  2
AcDbOle2Frame
  3
AutoCAD 2000
 90
    32768
280
     0
281
     1
  0
CLASS
  1
HATCH
  2
AcDbHatch
  3
AutoCAD 2000
 90
    32768
280
     0
281
     1
  0
CLASS
  1
DICTIONARYVAR
  2
AcDbDictionaryVar
  3
AutoCAD 2000
 90
    32768
280
     0
281
     0
  0
CLASS
  1
RASTERVARIABLES
  2
AcDbRasterVariables
  3
ISM
 90
    32768
280
     0
281
     0
  0
CLASS
  1
IMAGEDEF
  2
AcDbRasterImageDef
  3
ISM
 90
    32768
280
     0
281
     0
  0
CLASS
  1
IMAGEDEF_REACTOR
  2
AcDbRasterImageDefReactor
  3
ISM
 90
    32769
280
     0
281
     0
  0
CLASS
  1
IDBUFFER
  2
AcDbIdBuffer
  3
AutoCAD 2000
 90
    32768
280
     0
281
     0
  0
CLASS
  1
SPATIAL_FILTER
  2
AcDbSpatialFilter
  3
AutoCAD 2000
 90
    32768
280
     0
281
     0
  0
CLASS
  1
XRECORD
  2
AcDbXrecord
  3
AutoCAD 2000
 90
    32768
280
     0
281
     0
  0
CLASS
  1
SORTENTSTABLE
  2
AcDbSortentsTable
  3
AutoCAD 2000
 90
    32768
280
     0
281
     0
  0
CLASS
  1
LAYER_INDEX
  2
AcDbLayerIndex
  3
AutoCAD 2000
 90
    32768
280
     0
281
     0
  0
CLASS
  1
SPATIAL_INDEX
  2
AcDbSpatialIndex
  3
AutoCAD 2000
 90
    32768
280
     0
281
     0
  0
CLASS
  1
OBJECT_PTR
  2
CAseDLPNTableRecord
  3
"ASE-LPNTableRecord"
 90
    32769
280
     0
281
     0
  0
CLASS
  1
LAYOUT
  2
AcDbLayout
  3
AutoCAD 2000
 90
        0
280
     0
281
     0
  0
CLASS
  1
PLOTSETTINGS
  2
AcDbPlotSettings
  3
AutoCAD 2000
 90
    32768
280
     0
281
     0
  0
CLASS
  1
ACDBDICTIONARYWDFLT
  2
AcDbDictionaryWithDefault
  3
AutoCAD 2000
 90
        0
280
     0
281
     0
  0
CLASS
  1
ACDBPLACEHOLDER
  2
AcDbPlaceHolder
  3
AutoCAD 2000
 90
        0
280
     0
281
     0
  0
CLASS
  1
VBA_PROJECT
  2
AcDbVbaProject
  3
"acadvba"
 90
    32768
280
     0
281
     0
  0
CLASS
  1
WIPEOUT
  2
AcDbWipeout
  3
WipeOut|AutoCAD Express Tool|expresstools@autodesk.com
 90
    32895
280
     0
281
     1
  0
CLASS
  1
WIPEOUTVARIABLES
  2
AcDbWipeoutVariables
  3
WipeOut|AutoCAD Express Tool|expresstools@autodesk.com
 90
    32768
280
     0
281
     0
  0
CLASS
  1
RTEXT
  2
RText
  3
RText|AutoCAD Express Tool|expresstools@autodesk.com
 90
    32768
280
     0
281
     1
  0
CLASS
  1
ARCALIGNEDTEXT
  2
AcDbArcAlignedText
  3
ATEXT|AutoCAD Express Tool|expresstools@autodesk.com
 90
    32768
280
     0
281
     1
  0
ENDSEC
  0
SECTION
  2
TABLES
  0
TABLE
  2
VPORT
  5
7
330
0
100
AcDbSymbolTable
 70
     3
  0
VPORT
  5
72E
330
7
100
AcDbSymbolTableRecord
100
AcDbViewportTableRecord
  2
*Active
 70
     0
 10
0.0
 20
0.0
 11
1.0
 21
1.0
 12
1055.623758693395
 22
368.1737980579007
 13
0.0
 23
0.0
 14
1.0
 24
1.0
 15
0.0
 25
0.0
 16
0.0
 26
0.0
 36
1.0
 17
0.0
 27
0.0
 37
0.0
 40
1206.921575075708
 41
2.119005328596802
 42
50.0
 43
0.0
 44
0.0
 50
0.0
 51
0.0
 71
     0
 72
   100
 73
     1
 74
     1
 75
     0
 76
     0
 77
     0
 78
     0
281
     0
 65
     1
110
0.0
120
0.0
130
0.0
111
1.0
121
0.0
131
0.0
112
0.0
122
1.0
132
0.0
 79
     0
146
0.0
  0
ENDTAB
  0
TABLE
  2
LTYPE
  5
4
330
0
100
AcDbSymbolTable
 70
     6
  0
LTYPE
  5
11
330
4
100
AcDbSymbolTableRecord
100
AcDbLinetypeTableRecord
  2
BYBLOCK
 70
     0
  3

 72
    65
 73
     0
 40
0.0
  0
LTYPE
  5
12
330
4
100
AcDbSymbolTableRecord
100
AcDbLinetypeTableRecord
  2
BYLAYER
 70
     0
  3

 72
    65
 73
     0
 40
0.0
  0
LTYPE
  5
13
330
4
100
AcDbSymbolTableRecord
100
AcDbLinetypeTableRecord
  2
CONTINUOUS
 70
     0
  3
Solid line
 72
    65
 73
     0
 40
0.0
  0
LTYPE
  5
1D
330
4
100
AcDbSymbolTableRecord
100
AcDbLinetypeTableRecord
  2
DASHED
 70
     0
  3
__ __ __ __ __ __ __ __ __ __ __ __ __ __ __
 72
    65
 73
     2
 40
4.0
 49
3.0
 74
     0
 49
-1.0
 74
     0
  0
LTYPE
  5
1E
330
4
100
AcDbSymbolTableRecord
100
AcDbLinetypeTableRecord
  2
HIDDEN
 70
     0
  3
_ _ _ _ _ _ _ _ _ _ _ _ _ _ _ _ _ _ _ _ _ _ _
 72
    65
 73
     2
 40
2.25
 49
0.25
 74
     0
 49
-2.0
 74
     0
  0
LTYPE
  5
1F
330
4
100
AcDbSymbolTableRecord
100
AcDbLinetypeTableRecord
  2
DOT
 70
     0
  3
...............................................
 72
    65
 73
     2
 40
4.0
 49
1.0
 74
     0
 49
-3.0
 74
     0
  0
LTYPE
  5
20
330
4
100
AcDbSymbolTableRecord
100
AcDbLinetypeTableRecord
  2
DASHDOT
 70
     0
  3
__ . __ . __ . __ . __ . __ . __ . __ . __ . __
 72
    65
 73
     4
 40
7.5
 49
6.0
 74
     0
 49
-0.5
 74
     0
 49
0.5
 74
     0
 49
-0.5
 74
     0
  0
LTYPE
  5
21
330
4
100
AcDbSymbolTableRecord
100
AcDbLinetypeTableRecord
  2
DIVIDE
 70
     0
  3
__ . . __ . . __ . . __ . . __ . . __ . . __
 72
    65
 73
     6
 40
8.5
 49
6.0
 74
     0
 49
-0.5
 74
     0
 49
0.5
 74
     0
 49
-0.5
 74
     0
 49
0.5
 74
     0
 49
-0.5
 74
     0
  0
ENDTAB
  0
TABLE
  2
LAYER
  5
2
330
0
100
AcDbSymbolTable
 70
     2
  0
LAYER
  5
14
330
2
100
AcDbSymbolTableRecord
100
AcDbLayerTableRecord
  2
0
 70
     0
 62
     7
  6
CONTINUOUS
370
    -3
390
724
  0
LAYER
  5
22
330
2
100
AcDbSymbolTableRecord
100
AcDbLayerTableRecord
  2
LAYER_1
 70
     0
 62
     7
  6
CONTINUOUS
370
    -3
390
724
  0
ENDTAB
  0
TABLE
  2
STYLE
  5
3
330
0
100
AcDbSymbolTable
 70
     3
  0
STYLE
  5
17
330
3
100
AcDbSymbolTableRecord
100
AcDbTextStyleTableRecord
  2
STANDARD
 70
     0
 40
0.0
 41
1.0
 50
0.0
 71
     0
 42
0.0
  3
txt
  4

  0
STYLE
  5
23
330
3
100
AcDbSymbolTableRecord
100
AcDbTextStyleTableRecord
  2
BIGFONT
 70
     0
 40
1.0
 41
1.0
 50
0.0
 71
     0
 42
0.0
  3
monotxt.shx
  4
bigfont
  0
STYLE
  5
24
330
3
100
AcDbSymbolTableRecord
100
AcDbTextStyleTableRecord
  2
ＭＳ_ゴシック
 70
     0
 40
0.0
 41
1.0
 50
0.0
 71
     0
 42
0.0
  3
MS Gothic.ttf
  4

1001
ACAD
1000
MS Gothic
1071
    32817
  0
ENDTAB
  0
TABLE
  2
VIEW
  5
5
330
0
100
AcDbSymbolTable
 70
     0
  0
ENDTAB
  0
TABLE
  2
UCS
  5
6
330
0
100
AcDbSymbolTable
 70
     0
  0
ENDTAB
  0
TABLE
  2
APPID
  5
8
330
0
100
AcDbSymbolTable
 70
     1
  0
APPID
  5
16
330
8
100
AcDbSymbolTableRecord
100
AcDbRegAppTableRecord
  2
ACAD
 70
     0
  0
ENDTAB
  0
TABLE
  2
DIMSTYLE
  5
9
330
0
100
AcDbSymbolTable
 70
     2
100
AcDbDimStyleTable
 71
     0
  0
DIMSTYLE
105
18
330
9
100
AcDbSymbolTableRecord
100
AcDbDimStyleTableRecord
  2
STANDARD
 70
     0
340
17
  0
DIMSTYLE
105
25
102
{ACAD_REACTORS
330
6D3
330
6D4
330
6D5
330
6F2
330
6F5
330
6F6
330
6F7
330
6F8
330
709
330
713
330
714
330
715
102
}
330
9
100
AcDbSymbolTableRecord
100
AcDbDimStyleTableRecord
  2
MARK2_DIMSTYLE
 70
     0
 41
2.0
 42
1.0
 43
10.0
 44
1.0
 73
     0
 77
     1
140
6.0
146
0.5
147
1.0
271
     2
340
24
341
26
342
26
  0
ENDTAB
  0
TABLE
  2
BLOCK_RECORD
  5
1
330
0
100
AcDbSymbolTable
 70
    28
  0
BLOCK_RECORD
  5
A
330
1
100
AcDbSymbolTableRecord
100
AcDbBlockTableRecord
  2
*MODEL_SPACE
340
727
  0
BLOCK_RECORD
  5
B
330
1
100
AcDbSymbolTableRecord
100
AcDbBlockTableRecord
  2
*PAPER_SPACE
340
728
  0
BLOCK_RECORD
  5
26
330
1
100
AcDbSymbolTableRecord
100
AcDbBlockTableRecord
  2
_OPEN
340
0
102
{BLKREFS
331
54
331
55
331
56
331
57
331
5F
331
60
331
61
331
62
331
6A
331
6B
331
6C
331
6D
331
E3
331
E4
331
E5
331
E6
331
EE
331
EF
331
F0
331
F1
331
F9
331
FA
331
FB
331
FC
331
104
331
105
331
106
331
107
331
10F
331
110
331
111
331
112
331
11A
331
11B
331
11C
331
11D
331
125
331
126
331
127
331
128
331
130
331
131
331
132
331
133
331
13C
331
13F
102
}
  0
BLOCK_RECORD
  5
2C
330
1
100
AcDbSymbolTableRecord
100
AcDbBlockTableRecord
  2
_NONE
340
0
102
{BLKREFS
331
13D
331
140
102
}
  0
BLOCK_RECORD
  5
2F
330
1
100
AcDbSymbolTableRecord
100
AcDbBlockTableRecord
  2
_POLYLINE_$1$
340
0
102
{BLKREFS
331
570
102
}
  0
BLOCK_RECORD
  5
3A
330
1
100
AcDbSymbolTableRecord
100
AcDbBlockTableRecord
  2
BO1_$2$
340
0
102
{BLKREFS
331
61B
102
}
  0
BLOCK_RECORD
  5
45
330
1
100
AcDbSymbolTableRecord
100
AcDbBlockTableRecord
  2
BO1_$3$
340
0
102
{BLKREFS
331
61C
102
}
  0
BLOCK_RECORD
  5
50
330
1
100
AcDbSymbolTableRecord
100
AcDbBlockTableRecord
  2
*D5
340
0
  0
BLOCK_RECORD
  5
5B
330
1
100
AcDbSymbolTableRecord
100
AcDbBlockTableRecord
  2
*D6
340
0
  0
BLOCK_RECORD
  5
66
330
1
100
AcDbSymbolTableRecord
100
AcDbBlockTableRecord
  2
*D7
340
0
  0
BLOCK_RECORD
  5
71
330
1
100
AcDbSymbolTableRecord
100
AcDbBlockTableRecord
  2
BO1_$7$
340
0
102
{BLKREFS
331
6E4
102
}
  0
BLOCK_RECORD
  5
7C
330
1
100
AcDbSymbolTableRecord
100
AcDbBlockTableRecord
  2
BO1_$8$
340
0
102
{BLKREFS
331
6E5
102
}
  0
BLOCK_RECORD
  5
87
330
1
100
AcDbSymbolTableRecord
100
AcDbBlockTableRecord
  2
BO1_$9$
340
0
102
{BLKREFS
331
6E6
102
}
  0
BLOCK_RECORD
  5
92
330
1
100
AcDbSymbolTableRecord
100
AcDbBlockTableRecord
  2
BO1_$10$
340
0
102
{BLKREFS
331
6E7
102
}
  0
BLOCK_RECORD
  5
9D
330
1
100
AcDbSymbolTableRecord
100
AcDbBlockTableRecord
  2
BO1_$11$
340
0
102
{BLKREFS
331
6E8
102
}
  0
BLOCK_RECORD
  5
A8
330
1
100
AcDbSymbolTableRecord
100
AcDbBlockTableRecord
  2
BO1_$12$
340
0
102
{BLKREFS
331
6E9
102
}
  0
BLOCK_RECORD
  5
B3
330
1
100
AcDbSymbolTableRecord
100
AcDbBlockTableRecord
  2
BO1_$13$
340
0
102
{BLKREFS
331
6EA
102
}
  0
BLOCK_RECORD
  5
BE
330
1
100
AcDbSymbolTableRecord
100
AcDbBlockTableRecord
  2
BO1_$14$
340
0
102
{BLKREFS
331
6EB
102
}
  0
BLOCK_RECORD
  5
C9
330
1
100
AcDbSymbolTableRecord
100
AcDbBlockTableRecord
  2
BO1_$15$
340
0
102
{BLKREFS
331
6ED
102
}
  0
BLOCK_RECORD
  5
D4
330
1
100
AcDbSymbolTableRecord
100
AcDbBlockTableRecord
  2
BO1_$16$
340
0
102
{BLKREFS
331
6EE
102
}
  0
BLOCK_RECORD
  5
DF
330
1
100
AcDbSymbolTableRecord
100
AcDbBlockTableRecord
  2
*D18
340
0
  0
BLOCK_RECORD
  5
EA
330
1
100
AcDbSymbolTableRecord
100
AcDbBlockTableRecord
  2
*D19
340
0
  0
BLOCK_RECORD
  5
F5
330
1
100
AcDbSymbolTableRecord
100
AcDbBlockTableRecord
  2
*D20
340
0
  0
BLOCK_RECORD
  5
100
330
1
100
AcDbSymbolTableRecord
100
AcDbBlockTableRecord
  2
*D21
340
0
  0
BLOCK_RECORD
  5
10B
330
1
100
AcDbSymbolTableRecord
100
AcDbBlockTableRecord
  2
*D22
340
0
  0
BLOCK_RECORD
  5
116
330
1
100
AcDbSymbolTableRecord
100
AcDbBlockTableRecord
  2
*D23
340
0
  0
BLOCK_RECORD
  5
121
330
1
100
AcDbSymbolTableRecord
100
AcDbBlockTableRecord
  2
*D24
340
0
  0
BLOCK_RECORD
  5
12C
330
1
100
AcDbSymbolTableRecord
100
AcDbBlockTableRecord
  2
*D25
340
0
  0
BLOCK_RECORD
  5
137
330
1
100
AcDbSymbolTableRecord
100
AcDbBlockTableRecord
  2
*D26
340
0
  0
BLOCK_RECORD
  5
144
330
1
100
AcDbSymbolTableRecord
100
AcDbBlockTableRecord
  2
HATCHING__FILL_$26$
340
0
102
{BLKREFS
331
71D
102
}
  0
ENDTAB
  0
ENDSEC
  0
SECTION
  2
BLOCKS
  0
BLOCK
  5
D
330
A
100
AcDbEntity
  8
0
100
AcDbBlockBegin
  2
*MODEL_SPACE
 70
     0
 10
0.0
 20
0.0
 30
0.0
  3
*MODEL_SPACE
  1

  0
ENDBLK
  5
E
330
A
100
AcDbEntity
  8
0
100
AcDbBlockEnd
  0
BLOCK
  5
F
330
B
100
AcDbEntity
 67
     1
  8
0
100
AcDbBlockBegin
  2
*PAPER_SPACE
 70
     0
 10
0.0
 20
0.0
 30
0.0
  3
*PAPER_SPACE
  1

  0
ENDBLK
  5
10
330
B
100
AcDbEntity
 67
     1
  8
0
100
AcDbBlockEnd
  0
BLOCK
  5
27
330
26
100
AcDbEntity
  8
0
 62
     0
100
AcDbBlockBegin
  2
_OPEN
 70
     0
 10
0.0
 20
0.0
 30
0.0
  3
_OPEN
  1

  0
LINE
  5
28
330
26
100
AcDbEntity
  8
0
 62
     0
100
AcDbLine
 10
-1.0
 20
0.166666666667
 30
0.0
 11
0.0
 21
0.0
 31
0.0
  0
LINE
  5
29
330
26
100
AcDbEntity
  8
0
 62
     0
100
AcDbLine
 10
-1.0
 20
-0.166666666667
 30
0.0
 11
0.0
 21
0.0
 31
0.0
  0
LINE
  5
2A
330
26
100
AcDbEntity
  8
0
 62
     0
100
AcDbLine
 10
0.0
 20
0.0
 30
0.0
 11
-1.0
 21
0.0
 31
0.0
  0
ENDBLK
  5
2B
330
26
100
AcDbEntity
  8
0
100
AcDbBlockEnd
  0
BLOCK
  5
2D
330
2C
100
AcDbEntity
  8
0
 62
     0
100
AcDbBlockBegin
  2
_NONE
 70
     0
 10
0.0
 20
0.0
 30
0.0
  3
_NONE
  1

  0
ENDBLK
  5
2E
330
2C
100
AcDbEntity
  8
0
100
AcDbBlockEnd
  0
BLOCK
  5
30
330
2F
100
AcDbEntity
  8
0
100
AcDbBlockBegin
  2
_POLYLINE_$1$
 70
     0
 10
0.0
 20
0.0
 30
0.0
  3
_POLYLINE_$1$
  1

  0
LINE
  5
31
330
2F
100
AcDbEntity
  8
LAYER_1
  6
Continuous
 62
     7
100
AcDbLine
 10
923.040439485419
 20
293.297677878185
 30
0.0
 11
892.0404394854189
 21
293.297677878185
 31
0.0
  0
ARC
  5
32
330
2F
100
AcDbEntity
  8
LAYER_1
  6
Continuous
 62
     7
100
AcDbCircle
 10
892.0404394854189
 20
298.297677878185
 30
0.0
 40
5.0
100
AcDbArc
 50
180.0
 51
270.0
  0
LINE
  5
33
330
2F
100
AcDbEntity
  8
LAYER_1
  6
Continuous
 62
     7
100
AcDbLine
 10
887.040439485419
 20
298.297677878185
 30
0.0
 11
887.040439485419
 21
329.297677878185
 31
0.0
  0
ARC
  5
34
330
2F
100
AcDbEntity
  8
LAYER_1
  6
Continuous
 62
     7
100
AcDbCircle
 10
892.0404394854189
 20
329.297677878185
 30
0.0
 40
5.0
100
AcDbArc
 50
90.0
 51
180.0
  0
LINE
  5
35
330
2F
100
AcDbEntity
  8
LAYER_1
  6
Continuous
 62
     7
100
AcDbLine
 10
892.0404394854189
 20
334.297677878185
 30
0.0
 11
923.040439485419
 21
334.297677878185
 31
0.0
  0
ARC
  5
36
330
2F
100
AcDbEntity
  8
LAYER_1
  6
Continuous
 62
     7
100
AcDbCircle
 10
923.040439485419
 20
329.297677878185
 30
0.0
 40
5.0
100
AcDbArc
 50
0.0
 51
90.0
  0
LINE
  5
37
330
2F
100
AcDbEntity
  8
LAYER_1
  6
Continuous
 62
     7
100
AcDbLine
 10
928.040439485419
 20
329.297677878185
 30
0.0
 11
928.040439485419
 21
298.297677878185
 31
0.0
  0
ARC
  5
38
330
2F
100
AcDbEntity
  8
LAYER_1
  6
Continuous
 62
     7
100
AcDbCircle
 10
923.040439485419
 20
298.297677878185
 30
0.0
 40
5.0
100
AcDbArc
 50
270.0
 51
0.0
  0
ENDBLK
  5
39
330
2F
100
AcDbEntity
  8
0
100
AcDbBlockEnd
  0
BLOCK
  5
3B
330
3A
100
AcDbEntity
  8
0
100
AcDbBlockBegin
  2
BO1_$2$
 70
     0
 10
0.0
 20
0.0
 30
0.0
  3
BO1_$2$
  1

  0
LINE
  5
3C
330
3A
100
AcDbEntity
  8
LAYER_1
  6
Continuous
 62
     7
100
AcDbLine
 10
2360.086237425123
 20
365.997677878182
 30
0.0
 11
2360.086237425123
 21
367.597677878181
 31
0.0
  0
LINE
  5
3D
330
3A
100
AcDbEntity
  8
LAYER_1
  6
Continuous
 62
     7
100
AcDbLine
 10
2359.04043948548
 20
364.818620863673
 30
0.0
 11
2359.04043948548
 21
365.997677878182
 31
0.0
  0
LINE
  5
3E
330
3A
100
AcDbEntity
  8
LAYER_1
  6
Continuous
 62
     7
100
AcDbLine
 10
2359.04043948548
 20
367.597677878177
 30
0.0
 11
2359.040439485478
 21
368.776734892692
 31
0.0
  0
ARC
  5
3F
330
3A
100
AcDbEntity
  8
LAYER_1
  6
Continuous
 62
     7
100
AcDbCircle
 10
2362.707106152143
 20
366.797677878183
 30
0.0
 40
4.166666666665999
100
AcDbArc
 50
106.2602047082829
 51
151.642363423628
  0
ARC
  5
40
330
3A
100
AcDbEntity
  8
LAYER_1
  6
Continuous
 62
     7
100
AcDbCircle
 10
2362.707106152143
 20
366.797677878183
 30
0.0
 40
4.166666666665999
100
AcDbArc
 50
208.357636576463
 51
253.7397952917169
  0
LINE
  5
41
330
3A
100
AcDbEntity
  8
LAYER_1
  6
Continuous
 62
     7
100
AcDbLine
 10
2359.04043948548
 20
365.997677878182
 30
0.0
 11
2360.086237425123
 21
365.997677878182
 31
0.0
  0
LINE
  5
42
330
3A
100
AcDbEntity
  8
LAYER_1
  6
Continuous
 62
     7
100
AcDbLine
 10
2359.04043948548
 20
367.597677878179
 30
0.0
 11
2360.086237425123
 21
367.597677878181
 31
0.0
  0
LINE
  5
43
330
3A
100
AcDbEntity
  8
LAYER_1
  6
Continuous
 62
     7
100
AcDbLine
 10
2361.540439485479
 20
370.797677878183
 30
0.0
 11
2361.540439485479
 21
362.797677878183
 31
0.0
  0
ENDBLK
  5
44
330
3A
100
AcDbEntity
  8
0
100
AcDbBlockEnd
  0
BLOCK
  5
46
330
45
100
AcDbEntity
  8
0
100
AcDbBlockBegin
  2
BO1_$3$
 70
     0
 10
0.0
 20
0.0
 30
0.0
  3
BO1_$3$
  1

  0
LINE
  5
47
330
45
100
AcDbEntity
  8
LAYER_1
  6
Continuous
 62
     7
100
AcDbLine
 10
2546.994641545833
 20
365.997677878182
 30
0.0
 11
2546.994641545833
 21
367.597677878181
 31
0.0
  0
LINE
  5
48
330
45
100
AcDbEntity
  8
LAYER_1
  6
Continuous
 62
     7
100
AcDbLine
 10
2548.040439485477
 20
364.818620863673
 30
0.0
 11
2548.040439485477
 21
365.997677878182
 31
0.0
  0
LINE
  5
49
330
45
100
AcDbEntity
  8
LAYER_1
  6
Continuous
 62
     7
100
AcDbLine
 10
2548.040439485477
 20
367.597677878177
 30
0.0
 11
2548.040439485479
 21
368.776734892692
 31
0.0
  0
ARC
  5
4A
330
45
100
AcDbEntity
  8
LAYER_1
  6
Continuous
 62
     7
100
AcDbCircle
 10
2544.373772818813
 20
366.797677878183
 30
0.0
 40
4.166666666665999
100
AcDbArc
 50
28.35763657637199
 51
73.739795291717
  0
ARC
  5
4B
330
45
100
AcDbEntity
  8
LAYER_1
  6
Continuous
 62
     7
100
AcDbCircle
 10
2544.373772818813
 20
366.797677878183
 30
0.0
 40
4.166666666665999
100
AcDbArc
 50
286.260204708283
 51
331.642363423537
  0
LINE
  5
4C
330
45
100
AcDbEntity
  8
LAYER_1
  6
Continuous
 62
     7
100
AcDbLine
 10
2548.040439485477
 20
365.997677878182
 30
0.0
 11
2546.994641545833
 21
365.997677878182
 31
0.0
  0
LINE
  5
4D
330
45
100
AcDbEntity
  8
LAYER_1
  6
Continuous
 62
     7
100
AcDbLine
 10
2548.040439485477
 20
367.597677878179
 30
0.0
 11
2546.994641545833
 21
367.597677878181
 31
0.0
  0
LINE
  5
4E
330
45
100
AcDbEntity
  8
LAYER_1
  6
Continuous
 62
     7
100
AcDbLine
 10
2545.540439485479
 20
370.797677878183
 30
0.0
 11
2545.540439485479
 21
362.797677878183
 31
0.0
  0
ENDBLK
  5
4F
330
45
100
AcDbEntity
  8
0
100
AcDbBlockEnd
  0
BLOCK
  5
51
330
50
100
AcDbEntity
  8
0
 62
     7
100
AcDbBlockBegin
  2
*D5
 70
     1
 10
0.0
 20
0.0
 30
0.0
  3
*D5
  1

  0
LINE
  5
52
330
50
100
AcDbEntity
  8
LAYER_1
  6
Continuous
 62
     7
100
AcDbLine
 10
-173.459560514581
 20
243.797677878185
 30
0.0
 11
-173.459560514581
 21
143.797677878185
 31
0.0
  0
LINE
  5
53
330
50
100
AcDbEntity
  8
LAYER_1
  6
Continuous
 62
     7
100
AcDbLine
 10
99.54043948541901
 20
243.7976778781859
 30
0.0
 11
99.54043948541901
 21
143.797677878185
 31
0.0
  0
INSERT
  5
54
330
50
100
AcDbEntity
  8
LAYER_1
  6
Continuous
 62
     7
100
AcDbBlockReference
  2
_OPEN
 10
-173.459560514581
 20
158.7976778781849
 30
0.0
 41
6.0
 42
6.0
 50
180.0
  0
INSERT
  5
55
330
50
100
AcDbEntity
  8
LAYER_1
  6
Continuous
 62
     7
100
AcDbBlockReference
  2
_OPEN
 10
99.54043948541901
 20
158.7976778781849
 30
0.0
 41
6.0
 42
6.0
  0
INSERT
  5
56
330
50
100
AcDbEntity
  8
LAYER_1
  6
Continuous
 62
     7
100
AcDbBlockReference
  2
_OPEN
 10
-173.459560514581
 20
158.7976778781849
 30
0.0
 41
6.0
 42
6.0
 50
180.0
  0
INSERT
  5
57
330
50
100
AcDbEntity
  8
LAYER_1
  6
Continuous
 62
     7
100
AcDbBlockReference
  2
_OPEN
 10
99.54043948541901
 20
158.7976778781849
 30
0.0
 41
6.0
 42
6.0
  0
LINE
  5
58
330
50
100
AcDbEntity
  8
LAYER_1
  6
Continuous
 62
     7
100
AcDbLine
 10
-173.459560514581
 20
158.7976778781849
 30
0.0
 11
99.54043948541901
 21
158.7976778781849
 31
0.0
  0
TEXT
  5
59
330
50
100
AcDbEntity
  8
LAYER_1
 62
     7
100
AcDbText
 10
-86.05590138893701
 20
161.797677878185
 30
0.0
 40
9.0
  1
273
 41
1.033333333332999
  7
ＭＳ_ゴシック
 72
     1
 11
-76.99194199807699
 21
161.797677878185
 31
0.0
100
AcDbText
  0
ENDBLK
  5
5A
330
50
100
AcDbEntity
  8
0
100
AcDbBlockEnd
  0
BLOCK
  5
5C
330
5B
100
AcDbEntity
  8
0
 62
     7
100
AcDbBlockBegin
  2
*D6
 70
     1
 10
0.0
 20
0.0
 30
0.0
  3
*D6
  1

  0
LINE
  5
5D
330
5B
100
AcDbEntity
  8
LAYER_1
  6
Continuous
 62
     7
100
AcDbLine
 10
239.5404394854189
 20
243.797677878185
 30
0.0
 11
239.5404394854189
 21
143.797677878185
 31
0.0
  0
LINE
  5
5E
330
5B
100
AcDbEntity
  8
LAYER_1
  6
Continuous
 62
     7
100
AcDbLine
 10
725.540439485419
 20
243.797677878185
 30
0.0
 11
725.540439485419
 21
143.797677878185
 31
0.0
  0
INSERT
  5
5F
330
5B
100
AcDbEntity
  8
LAYER_1
  6
Continuous
 62
     7
100
AcDbBlockReference
  2
_OPEN
 10
239.5404394854189
 20
158.7976778781849
 30
0.0
 41
6.0
 42
6.0
 50
180.0
  0
INSERT
  5
60
330
5B
100
AcDbEntity
  8
LAYER_1
  6
Continuous
 62
     7
100
AcDbBlockReference
  2
_OPEN
 10
725.540439485419
 20
158.7976778781849
 30
0.0
 41
6.0
 42
6.0
  0
INSERT
  5
61
330
5B
100
AcDbEntity
  8
LAYER_1
  6
Continuous
 62
     7
100
AcDbBlockReference
  2
_OPEN
 10
239.5404394854189
 20
158.7976778781849
 30
0.0
 41
6.0
 42
6.0
 50
180.0
  0
INSERT
  5
62
330
5B
100
AcDbEntity
  8
LAYER_1
  6
Continuous
 62
     7
100
AcDbBlockReference
  2
_OPEN
 10
725.540439485419
 20
158.7976778781849
 30
0.0
 41
6.0
 42
6.0
  0
LINE
  5
63
330
5B
100
AcDbEntity
  8
LAYER_1
  6
Continuous
 62
     7
100
AcDbLine
 10
239.5404394854189
 20
158.7976778781849
 30
0.0
 11
725.540439485419
 21
158.7976778781849
 31
0.0
  0
TEXT
  5
64
330
5B
100
AcDbEntity
  8
LAYER_1
 62
     7
100
AcDbText
 10
467.4338405006523
 20
161.797677878185
 30
0.0
 40
9.0
  1
485.5
 41
1.033333333332999
  7
ＭＳ_ゴシック
 72
     1
 11
482.540439485419
 21
161.797677878185
 31
0.0
100
AcDbText
  0
ENDBLK
  5
65
330
5B
100
AcDbEntity
  8
0
100
AcDbBlockEnd
  0
BLOCK
  5
67
330
66
100
AcDbEntity
  8
0
 62
     7
100
AcDbBlockBegin
  2
*D7
 70
     1
 10
0.0
 20
0.0
 30
0.0
  3
*D7
  1

  0
LINE
  5
68
330
66
100
AcDbEntity
  8
LAYER_1
  6
Continuous
 62
     7
100
AcDbLine
 10
214.5404394854189
 20
272.7976778781859
 30
0.0
 11
214.5404394854189
 21
53.797677878185
 31
0.0
  0
LINE
  5
69
330
66
100
AcDbEntity
  8
LAYER_1
  6
Continuous
 62
     7
100
AcDbLine
 10
750.5404394854179
 20
281.047677878185
 30
0.0
 11
750.5404394854179
 21
53.797677878185
 31
0.0
  0
INSERT
  5
6A
330
66
100
AcDbEntity
  8
LAYER_1
  6
Continuous
 62
     7
100
AcDbBlockReference
  2
_OPEN
 10
214.5404394854189
 20
68.797677878185
 30
0.0
 41
6.0
 42
6.0
 50
180.0
  0
INSERT
  5
6B
330
66
100
AcDbEntity
  8
LAYER_1
  6
Continuous
 62
     7
100
AcDbBlockReference
  2
_OPEN
 10
750.540439485417
 20
68.797677878185
 30
0.0
 41
6.0
 42
6.0
  0
INSERT
  5
6C
330
66
100
AcDbEntity
  8
LAYER_1
  6
Continuous
 62
     7
100
AcDbBlockReference
  2
_OPEN
 10
214.5404394854189
 20
68.797677878185
 30
0.0
 41
6.0
 42
6.0
 50
180.0
  0
INSERT
  5
6D
330
66
100
AcDbEntity
  8
LAYER_1
  6
Continuous
 62
     7
100
AcDbBlockReference
  2
_OPEN
 10
750.540439485417
 20
68.797677878185
 30
0.0
 41
6.0
 42
6.0
  0
LINE
  5
6E
330
66
100
AcDbEntity
  8
LAYER_1
  6
Continuous
 62
     7
100
AcDbLine
 10
214.5404394854189
 20
68.797677878185
 30
0.0
 11
750.540439485417
 21
68.797677878185
 31
0.0
  0
TEXT
  5
6F
330
66
100
AcDbEntity
  8
LAYER_1
 62
     7
100
AcDbText
 10
467.4338405006513
 20
71.797677878185
 30
0.0
 40
9.0
  1
(536)
 41
1.033333333332999
  7
ＭＳ_ゴシック
 72
     1
 11
482.540439485418
 21
71.797677878185
 31
0.0
100
AcDbText
  0
ENDBLK
  5
70
330
66
100
AcDbEntity
  8
0
100
AcDbBlockEnd
  0
BLOCK
  5
72
330
71
100
AcDbEntity
  8
0
100
AcDbBlockBegin
  2
BO1_$7$
 70
     0
 10
0.0
 20
0.0
 30
0.0
  3
BO1_$7$
  1

  0
LINE
  5
73
330
71
100
AcDbEntity
  8
LAYER_1
  6
Continuous
 62
     7
100
AcDbLine
 10
1904.086237425059
 20
774.597677878192
 30
0.0
 11
1904.086237425059
 21
772.997677878193
 31
0.0
  0
LINE
  5
74
330
71
100
AcDbEntity
  8
LAYER_1
  6
Continuous
 62
     7
100
AcDbLine
 10
1903.040439485415
 20
775.7767348927009
 30
0.0
 11
1903.040439485415
 21
774.597677878192
 31
0.0
  0
LINE
  5
75
330
71
100
AcDbEntity
  8
LAYER_1
  6
Continuous
 62
     7
100
AcDbLine
 10
1903.040439485415
 20
772.997677878197
 30
0.0
 11
1903.040439485414
 21
771.818620863682
 31
0.0
  0
ARC
  5
76
330
71
100
AcDbEntity
  8
LAYER_1
  6
Continuous
 62
     7
100
AcDbCircle
 10
1906.707106152079
 20
773.797677878191
 30
0.0
 40
4.166666666665999
100
AcDbArc
 50
208.3576365763729
 51
253.739795291718
  0
ARC
  5
77
330
71
100
AcDbEntity
  8
LAYER_1
  6
Continuous
 62
     7
100
AcDbCircle
 10
1906.707106152079
 20
773.797677878191
 30
0.0
 40
4.166666666665999
100
AcDbArc
 50
106.2602047082819
 51
151.642363423535
  0
LINE
  5
78
330
71
100
AcDbEntity
  8
LAYER_1
  6
Continuous
 62
     7
100
AcDbLine
 10
1903.040439485415
 20
774.597677878192
 30
0.0
 11
1904.086237425057
 21
774.597677878192
 31
0.0
  0
LINE
  5
79
330
71
100
AcDbEntity
  8
LAYER_1
  6
Continuous
 62
     7
100
AcDbLine
 10
1903.040439485415
 20
772.997677878195
 30
0.0
 11
1904.086237425057
 21
772.997677878193
 31
0.0
  0
LINE
  5
7A
330
71
100
AcDbEntity
  8
LAYER_1
  6
Continuous
 62
     7
100
AcDbLine
 10
1905.540439485413
 20
769.797677878191
 30
0.0
 11
1905.540439485413
 21
777.797677878191
 31
0.0
  0
ENDBLK
  5
7B
330
71
100
AcDbEntity
  8
0
100
AcDbBlockEnd
  0
BLOCK
  5
7D
330
7C
100
AcDbEntity
  8
0
100
AcDbBlockBegin
  2
BO1_$8$
 70
     0
 10
0.0
 20
0.0
 30
0.0
  3
BO1_$8$
  1

  0
LINE
  5
7E
330
7C
100
AcDbEntity
  8
LAYER_1
  6
Continuous
 62
     7
100
AcDbLine
 10
1904.086237425054
 20
608.997677878182
 30
0.0
 11
1904.086237425054
 21
610.59767787818
 31
0.0
  0
LINE
  5
7F
330
7C
100
AcDbEntity
  8
LAYER_1
  6
Continuous
 62
     7
100
AcDbLine
 10
1903.04043948541
 20
607.8186208636719
 30
0.0
 11
1903.04043948541
 21
608.997677878182
 31
0.0
  0
LINE
  5
80
330
7C
100
AcDbEntity
  8
LAYER_1
  6
Continuous
 62
     7
100
AcDbLine
 10
1903.04043948541
 20
610.597677878177
 30
0.0
 11
1903.040439485409
 21
611.776734892692
 31
0.0
  0
ARC
  5
81
330
7C
100
AcDbEntity
  8
LAYER_1
  6
Continuous
 62
     7
100
AcDbCircle
 10
1906.707106152073
 20
609.797677878183
 30
0.0
 40
4.166666666665999
100
AcDbArc
 50
106.2602047082819
 51
151.642363423627
  0
ARC
  5
82
330
7C
100
AcDbEntity
  8
LAYER_1
  6
Continuous
 62
     7
100
AcDbCircle
 10
1906.707106152073
 20
609.797677878183
 30
0.0
 40
4.166666666665999
100
AcDbArc
 50
208.3576365764649
 51
253.739795291718
  0
LINE
  5
83
330
7C
100
AcDbEntity
  8
LAYER_1
  6
Continuous
 62
     7
100
AcDbLine
 10
1903.04043948541
 20
608.997677878182
 30
0.0
 11
1904.086237425053
 21
608.997677878182
 31
0.0
  0
LINE
  5
84
330
7C
100
AcDbEntity
  8
LAYER_1
  6
Continuous
 62
     7
100
AcDbLine
 10
1903.04043948541
 20
610.5976778781791
 30
0.0
 11
1904.086237425053
 21
610.59767787818
 31
0.0
  0
LINE
  5
85
330
7C
100
AcDbEntity
  8
LAYER_1
  6
Continuous
 62
     7
100
AcDbLine
 10
1905.540439485409
 20
613.797677878183
 30
0.0
 11
1905.540439485409
 21
605.797677878183
 31
0.0
  0
ENDBLK
  5
86
330
7C
100
AcDbEntity
  8
0
100
AcDbBlockEnd
  0
BLOCK
  5
88
330
87
100
AcDbEntity
  8
0
100
AcDbBlockBegin
  2
BO1_$9$
 70
     0
 10
0.0
 20
0.0
 30
0.0
  3
BO1_$9$
  1

  0
LINE
  5
89
330
87
100
AcDbEntity
  8
LAYER_1
  6
Continuous
 62
     7
100
AcDbLine
 10
1942.227498011685
 20
785.2518799385409
 30
0.0
 11
1940.627498011687
 21
785.2518799385409
 31
0.0
  0
LINE
  5
8A
330
87
100
AcDbEntity
  8
LAYER_1
  6
Continuous
 62
     7
100
AcDbLine
 10
1943.406555026195
 20
786.2976778781849
 30
0.0
 11
1942.227498011685
 21
786.2976778781849
 31
0.0
  0
LINE
  5
8B
330
87
100
AcDbEntity
  8
LAYER_1
  6
Continuous
 62
     7
100
AcDbLine
 10
1940.62749801169
 20
786.2976778781849
 30
0.0
 11
1939.448440997176
 21
786.297677878186
 31
0.0
  0
ARC
  5
8C
330
87
100
AcDbEntity
  8
LAYER_1
  6
Continuous
 62
     7
100
AcDbCircle
 10
1941.427498011684
 20
782.6310112115209
 30
0.0
 40
4.166666666665999
100
AcDbArc
 50
118.3576365763729
 51
163.7397952917179
  0
ARC
  5
8D
330
87
100
AcDbEntity
  8
LAYER_1
  6
Continuous
 62
     7
100
AcDbCircle
 10
1941.427498011684
 20
782.6310112115209
 30
0.0
 40
4.166666666665999
100
AcDbArc
 50
16.260204708282
 51
61.642363423535
  0
LINE
  5
8E
330
87
100
AcDbEntity
  8
LAYER_1
  6
Continuous
 62
     7
100
AcDbLine
 10
1942.227498011685
 20
786.2976778781849
 30
0.0
 11
1942.227498011685
 21
785.251879938542
 31
0.0
  0
LINE
  5
8F
330
87
100
AcDbEntity
  8
LAYER_1
  6
Continuous
 62
     7
100
AcDbLine
 10
1940.627498011689
 20
786.2976778781849
 30
0.0
 11
1940.627498011687
 21
785.251879938542
 31
0.0
  0
LINE
  5
90
330
87
100
AcDbEntity
  8
LAYER_1
  6
Continuous
 62
     7
100
AcDbLine
 10
1937.427498011684
 20
783.797677878186
 30
0.0
 11
1945.427498011684
 21
783.797677878186
 31
0.0
  0
ENDBLK
  5
91
330
87
100
AcDbEntity
  8
0
100
AcDbBlockEnd
  0
BLOCK
  5
93
330
92
100
AcDbEntity
  8
0
100
AcDbBlockBegin
  2
BO1_$10$
 70
     0
 10
0.0
 20
0.0
 30
0.0
  3
BO1_$10$
  1

  0
LINE
  5
94
330
92
100
AcDbEntity
  8
LAYER_1
  6
Continuous
 62
     7
100
AcDbLine
 10
2150.627498011698
 20
785.2518799385409
 30
0.0
 11
2152.227498011695
 21
785.2518799385409
 31
0.0
  0
LINE
  5
95
330
92
100
AcDbEntity
  8
LAYER_1
  6
Continuous
 62
     7
100
AcDbLine
 10
2149.448440997188
 20
786.2976778781849
 30
0.0
 11
2150.627498011698
 21
786.2976778781849
 31
0.0
  0
LINE
  5
96
330
92
100
AcDbEntity
  8
LAYER_1
  6
Continuous
 62
     7
100
AcDbLine
 10
2152.227498011693
 20
786.2976778781849
 30
0.0
 11
2153.406555026208
 21
786.297677878186
 31
0.0
  0
ARC
  5
97
330
92
100
AcDbEntity
  8
LAYER_1
  6
Continuous
 62
     7
100
AcDbCircle
 10
2151.427498011698
 20
782.6310112115209
 30
0.0
 40
4.166666666665999
100
AcDbArc
 50
16.260204708282
 51
61.64236342362701
  0
ARC
  5
98
330
92
100
AcDbEntity
  8
LAYER_1
  6
Continuous
 62
     7
100
AcDbCircle
 10
2151.427498011698
 20
782.6310112115209
 30
0.0
 40
4.166666666665999
100
AcDbArc
 50
118.357636576465
 51
163.7397952917179
  0
LINE
  5
99
330
92
100
AcDbEntity
  8
LAYER_1
  6
Continuous
 62
     7
100
AcDbLine
 10
2150.627498011698
 20
786.2976778781849
 30
0.0
 11
2150.627498011698
 21
785.251879938542
 31
0.0
  0
LINE
  5
9A
330
92
100
AcDbEntity
  8
LAYER_1
  6
Continuous
 62
     7
100
AcDbLine
 10
2152.227498011695
 20
786.2976778781849
 30
0.0
 11
2152.227498011695
 21
785.251879938542
 31
0.0
  0
LINE
  5
9B
330
92
100
AcDbEntity
  8
LAYER_1
  6
Continuous
 62
     7
100
AcDbLine
 10
2155.427498011698
 20
783.797677878186
 30
0.0
 11
2147.427498011698
 21
783.797677878186
 31
0.0
  0
ENDBLK
  5
9C
330
92
100
AcDbEntity
  8
0
100
AcDbBlockEnd
  0
BLOCK
  5
9E
330
9D
100
AcDbEntity
  8
0
100
AcDbBlockBegin
  2
BO1_$11$
 70
     0
 10
0.0
 20
0.0
 30
0.0
  3
BO1_$11$
  1

  0
LINE
  5
9F
330
9D
100
AcDbEntity
  8
LAYER_1
  6
Continuous
 62
     7
100
AcDbLine
 10
1942.227498011685
 20
598.343475817832
 30
0.0
 11
1940.627498011687
 21
598.343475817832
 31
0.0
  0
LINE
  5
A0
330
9D
100
AcDbEntity
  8
LAYER_1
  6
Continuous
 62
     7
100
AcDbLine
 10
1943.406555026195
 20
597.2976778781879
 30
0.0
 11
1942.227498011685
 21
597.2976778781879
 31
0.0
  0
LINE
  5
A1
330
9D
100
AcDbEntity
  8
LAYER_1
  6
Continuous
 62
     7
100
AcDbLine
 10
1940.62749801169
 20
597.2976778781879
 30
0.0
 11
1939.448440997176
 21
597.2976778781871
 31
0.0
  0
ARC
  5
A2
330
9D
100
AcDbEntity
  8
LAYER_1
  6
Continuous
 62
     7
100
AcDbCircle
 10
1941.427498011684
 20
600.964344544852
 30
0.0
 40
4.166666666665999
100
AcDbArc
 50
196.260204708282
 51
241.642363423627
  0
ARC
  5
A3
330
9D
100
AcDbEntity
  8
LAYER_1
  6
Continuous
 62
     7
100
AcDbCircle
 10
1941.427498011684
 20
600.964344544852
 30
0.0
 40
4.166666666665999
100
AcDbArc
 50
298.3576365764649
 51
343.739795291718
  0
LINE
  5
A4
330
9D
100
AcDbEntity
  8
LAYER_1
  6
Continuous
 62
     7
100
AcDbLine
 10
1942.227498011685
 20
597.297677878189
 30
0.0
 11
1942.227498011685
 21
598.343475817832
 31
0.0
  0
LINE
  5
A5
330
9D
100
AcDbEntity
  8
LAYER_1
  6
Continuous
 62
     7
100
AcDbLine
 10
1940.627498011689
 20
597.2976778781879
 30
0.0
 11
1940.627498011687
 21
598.343475817832
 31
0.0
  0
LINE
  5
A6
330
9D
100
AcDbEntity
  8
LAYER_1
  6
Continuous
 62
     7
100
AcDbLine
 10
1937.427498011684
 20
599.797677878187
 30
0.0
 11
1945.427498011684
 21
599.797677878187
 31
0.0
  0
ENDBLK
  5
A7
330
9D
100
AcDbEntity
  8
0
100
AcDbBlockEnd
  0
BLOCK
  5
A9
330
A8
100
AcDbEntity
  8
0
100
AcDbBlockBegin
  2
BO1_$12$
 70
     0
 10
0.0
 20
0.0
 30
0.0
  3
BO1_$12$
  1

  0
LINE
  5
AA
330
A8
100
AcDbEntity
  8
LAYER_1
  6
Continuous
 62
     7
100
AcDbLine
 10
2150.627498011698
 20
598.343475817832
 30
0.0
 11
2152.227498011695
 21
598.343475817832
 31
0.0
  0
LINE
  5
AB
330
A8
100
AcDbEntity
  8
LAYER_1
  6
Continuous
 62
     7
100
AcDbLine
 10
2149.448440997188
 20
597.2976778781879
 30
0.0
 11
2150.627498011698
 21
597.2976778781879
 31
0.0
  0
LINE
  5
AC
330
A8
100
AcDbEntity
  8
LAYER_1
  6
Continuous
 62
     7
100
AcDbLine
 10
2152.227498011693
 20
597.2976778781879
 30
0.0
 11
2153.406555026208
 21
597.2976778781871
 31
0.0
  0
ARC
  5
AD
330
A8
100
AcDbEntity
  8
LAYER_1
  6
Continuous
 62
     7
100
AcDbCircle
 10
2151.427498011698
 20
600.964344544852
 30
0.0
 40
4.166666666665999
100
AcDbArc
 50
298.357636576373
 51
343.739795291718
  0
ARC
  5
AE
330
A8
100
AcDbEntity
  8
LAYER_1
  6
Continuous
 62
     7
100
AcDbCircle
 10
2151.427498011698
 20
600.964344544852
 30
0.0
 40
4.166666666665999
100
AcDbArc
 50
196.260204708282
 51
241.642363423535
  0
LINE
  5
AF
330
A8
100
AcDbEntity
  8
LAYER_1
  6
Continuous
 62
     7
100
AcDbLine
 10
2150.627498011698
 20
597.297677878189
 30
0.0
 11
2150.627498011698
 21
598.343475817832
 31
0.0
  0
LINE
  5
B0
330
A8
100
AcDbEntity
  8
LAYER_1
  6
Continuous
 62
     7
100
AcDbLine
 10
2152.227498011695
 20
597.2976778781879
 30
0.0
 11
2152.227498011695
 21
598.343475817832
 31
0.0
  0
LINE
  5
B1
330
A8
100
AcDbEntity
  8
LAYER_1
  6
Continuous
 62
     7
100
AcDbLine
 10
2155.427498011698
 20
599.797677878187
 30
0.0
 11
2147.427498011698
 21
599.797677878187
 31
0.0
  0
ENDBLK
  5
B2
330
A8
100
AcDbEntity
  8
0
100
AcDbBlockEnd
  0
BLOCK
  5
B4
330
B3
100
AcDbEntity
  8
0
100
AcDbBlockBegin
  2
BO1_$13$
 70
     0
 10
0.0
 20
0.0
 30
0.0
  3
BO1_$13$
  1

  0
LINE
  5
B5
330
B3
100
AcDbEntity
  8
LAYER_1
  6
Continuous
 62
     7
100
AcDbLine
 10
1904.086237425119
 20
366.797677878172
 30
0.0
 11
1904.086237425119
 21
368.397677878171
 31
0.0
  0
LINE
  5
B6
330
B3
100
AcDbEntity
  8
LAYER_1
  6
Continuous
 62
     7
100
AcDbLine
 10
1903.040439485476
 20
365.618620863663
 30
0.0
 11
1903.040439485476
 21
366.797677878172
 31
0.0
  0
LINE
  5
B7
330
B3
100
AcDbEntity
  8
LAYER_1
  6
Continuous
 62
     7
100
AcDbLine
 10
1903.040439485476
 20
368.397677878167
 30
0.0
 11
1903.040439485474
 21
369.576734892682
 31
0.0
  0
ARC
  5
B8
330
B3
100
AcDbEntity
  8
LAYER_1
  6
Continuous
 62
     7
100
AcDbCircle
 10
1906.70710615214
 20
367.597677878173
 30
0.0
 40
4.166666666665999
100
AcDbArc
 50
106.2602047082819
 51
151.642363423627
  0
ARC
  5
B9
330
B3
100
AcDbEntity
  8
LAYER_1
  6
Continuous
 62
     7
100
AcDbCircle
 10
1906.70710615214
 20
367.597677878173
 30
0.0
 40
4.166666666665999
100
AcDbArc
 50
208.3576365764649
 51
253.739795291718
  0
LINE
  5
BA
330
B3
100
AcDbEntity
  8
LAYER_1
  6
Continuous
 62
     7
100
AcDbLine
 10
1903.040439485477
 20
366.797677878172
 30
0.0
 11
1904.086237425119
 21
366.797677878172
 31
0.0
  0
LINE
  5
BB
330
B3
100
AcDbEntity
  8
LAYER_1
  6
Continuous
 62
     7
100
AcDbLine
 10
1903.040439485476
 20
368.397677878169
 30
0.0
 11
1904.086237425119
 21
368.397677878171
 31
0.0
  0
LINE
  5
BC
330
B3
100
AcDbEntity
  8
LAYER_1
  6
Continuous
 62
     7
100
AcDbLine
 10
1905.540439485475
 20
371.597677878173
 30
0.0
 11
1905.540439485475
 21
363.597677878173
 31
0.0
  0
ENDBLK
  5
BD
330
B3
100
AcDbEntity
  8
0
100
AcDbBlockEnd
  0
BLOCK
  5
BF
330
BE
100
AcDbEntity
  8
0
100
AcDbBlockBegin
  2
BO1_$14$
 70
     0
 10
0.0
 20
0.0
 30
0.0
  3
BO1_$14$
  1

  0
LINE
  5
C0
330
BE
100
AcDbEntity
  8
LAYER_1
  6
Continuous
 62
     7
100
AcDbLine
 10
2186.994641545834
 20
366.797677878172
 30
0.0
 11
2186.994641545834
 21
368.397677878171
 31
0.0
  0
LINE
  5
C1
330
BE
100
AcDbEntity
  8
LAYER_1
  6
Continuous
 62
     7
100
AcDbLine
 10
2188.040439485477
 20
365.618620863663
 30
0.0
 11
2188.040439485477
 21
366.797677878172
 31
0.0
  0
LINE
  5
C2
330
BE
100
AcDbEntity
  8
LAYER_1
  6
Continuous
 62
     7
100
AcDbLine
 10
2188.040439485477
 20
368.397677878167
 30
0.0
 11
2188.040439485479
 21
369.576734892682
 31
0.0
  0
ARC
  5
C3
330
BE
100
AcDbEntity
  8
LAYER_1
  6
Continuous
 62
     7
100
AcDbCircle
 10
2184.373772818813
 20
367.597677878173
 30
0.0
 40
4.166666666665999
100
AcDbArc
 50
28.357636576373
 51
73.73979529171799
  0
ARC
  5
C4
330
BE
100
AcDbEntity
  8
LAYER_1
  6
Continuous
 62
     7
100
AcDbCircle
 10
2184.373772818813
 20
367.597677878173
 30
0.0
 40
4.166666666665999
100
AcDbArc
 50
286.260204708282
 51
331.642363423535
  0
LINE
  5
C5
330
BE
100
AcDbEntity
  8
LAYER_1
  6
Continuous
 62
     7
100
AcDbLine
 10
2188.040439485476
 20
366.797677878172
 30
0.0
 11
2186.994641545834
 21
366.797677878172
 31
0.0
  0
LINE
  5
C6
330
BE
100
AcDbEntity
  8
LAYER_1
  6
Continuous
 62
     7
100
AcDbLine
 10
2188.040439485477
 20
368.397677878169
 30
0.0
 11
2186.994641545834
 21
368.397677878171
 31
0.0
  0
LINE
  5
C7
330
BE
100
AcDbEntity
  8
LAYER_1
  6
Continuous
 62
     7
100
AcDbLine
 10
2185.540439485479
 20
371.597677878173
 30
0.0
 11
2185.540439485479
 21
363.597677878173
 31
0.0
  0
ENDBLK
  5
C8
330
BE
100
AcDbEntity
  8
0
100
AcDbBlockEnd
  0
BLOCK
  5
CA
330
C9
100
AcDbEntity
  8
0
100
AcDbBlockBegin
  2
BO1_$15$
 70
     0
 10
0.0
 20
0.0
 30
0.0
  3
BO1_$15$
  1

  0
LINE
  5
CB
330
C9
100
AcDbEntity
  8
LAYER_1
  6
Continuous
 62
     7
100
AcDbLine
 10
2186.994641545788
 20
774.5976778782471
 30
0.0
 11
2186.994641545788
 21
772.997677878249
 31
0.0
  0
LINE
  5
CC
330
C9
100
AcDbEntity
  8
LAYER_1
  6
Continuous
 62
     7
100
AcDbLine
 10
2188.040439485431
 20
775.7767348927569
 30
0.0
 11
2188.040439485432
 21
774.5976778782471
 31
0.0
  0
LINE
  5
CD
330
C9
100
AcDbEntity
  8
LAYER_1
  6
Continuous
 62
     7
100
AcDbLine
 10
2188.040439485433
 20
772.9976778782519
 30
0.0
 11
2188.040439485434
 21
771.818620863737
 31
0.0
  0
ARC
  5
CE
330
C9
100
AcDbEntity
  8
LAYER_1
  6
Continuous
 62
     7
100
AcDbCircle
 10
2184.373772818767
 20
773.7976778782449
 30
0.0
 40
4.166666666665999
100
AcDbArc
 50
286.2602047083079
 51
331.64236342365
  0
ARC
  5
CF
330
C9
100
AcDbEntity
  8
LAYER_1
  6
Continuous
 62
     7
100
AcDbCircle
 10
2184.373772818767
 20
773.7976778782449
 30
0.0
 40
4.166666666665999
100
AcDbArc
 50
28.357636576487
 51
73.73979529173801
  0
LINE
  5
D0
330
C9
100
AcDbEntity
  8
LAYER_1
  6
Continuous
 62
     7
100
AcDbLine
 10
2188.040439485431
 20
774.5976778782471
 30
0.0
 11
2186.994641545788
 21
774.5976778782471
 31
0.0
  0
LINE
  5
D1
330
C9
100
AcDbEntity
  8
LAYER_1
  6
Continuous
 62
     7
100
AcDbLine
 10
2188.040439485433
 20
772.997677878251
 30
0.0
 11
2186.994641545788
 21
772.997677878249
 31
0.0
  0
LINE
  5
D2
330
C9
100
AcDbEntity
  8
LAYER_1
  6
Continuous
 62
     7
100
AcDbLine
 10
2185.540439485435
 20
769.7976778782449
 30
0.0
 11
2185.540439485432
 21
777.7976778782449
 31
0.0
  0
ENDBLK
  5
D3
330
C9
100
AcDbEntity
  8
0
100
AcDbBlockEnd
  0
BLOCK
  5
D5
330
D4
100
AcDbEntity
  8
0
100
AcDbBlockBegin
  2
BO1_$16$
 70
     0
 10
0.0
 20
0.0
 30
0.0
  3
BO1_$16$
  1

  0
LINE
  5
D6
330
D4
100
AcDbEntity
  8
LAYER_1
  6
Continuous
 62
     7
100
AcDbLine
 10
2186.994641545858
 20
608.997677878237
 30
0.0
 11
2186.994641545857
 21
610.597677878236
 31
0.0
  0
LINE
  5
D7
330
D4
100
AcDbEntity
  8
LAYER_1
  6
Continuous
 62
     7
100
AcDbLine
 10
2188.040439485501
 20
607.818620863728
 30
0.0
 11
2188.040439485501
 21
608.997677878237
 31
0.0
  0
LINE
  5
D8
330
D4
100
AcDbEntity
  8
LAYER_1
  6
Continuous
 62
     7
100
AcDbLine
 10
2188.0404394855
 20
610.5976778782319
 30
0.0
 11
2188.040439485501
 21
611.7767348927469
 31
0.0
  0
ARC
  5
D9
330
D4
100
AcDbEntity
  8
LAYER_1
  6
Continuous
 62
     7
100
AcDbCircle
 10
2184.373772818837
 20
609.797677878237
 30
0.0
 40
4.166666666665999
100
AcDbArc
 50
28.357636576392
 51
73.73979529173801
  0
ARC
  5
DA
330
D4
100
AcDbEntity
  8
LAYER_1
  6
Continuous
 62
     7
100
AcDbCircle
 10
2184.373772818837
 20
609.797677878237
 30
0.0
 40
4.166666666665999
100
AcDbArc
 50
286.2602047083079
 51
331.642363423557
  0
LINE
  5
DB
330
D4
100
AcDbEntity
  8
LAYER_1
  6
Continuous
 62
     7
100
AcDbLine
 10
2188.0404394855
 20
608.997677878237
 30
0.0
 11
2186.994641545858
 21
608.997677878237
 31
0.0
  0
LINE
  5
DC
330
D4
100
AcDbEntity
  8
LAYER_1
  6
Continuous
 62
     7
100
AcDbLine
 10
2188.0404394855
 20
610.597677878234
 30
0.0
 11
2186.994641545858
 21
610.597677878236
 31
0.0
  0
LINE
  5
DD
330
D4
100
AcDbEntity
  8
LAYER_1
  6
Continuous
 62
     7
100
AcDbLine
 10
2185.540439485501
 20
613.797677878238
 30
0.0
 11
2185.540439485504
 21
605.7976778782379
 31
0.0
  0
ENDBLK
  5
DE
330
D4
100
AcDbEntity
  8
0
100
AcDbBlockEnd
  0
BLOCK
  5
E0
330
DF
100
AcDbEntity
  8
0
 62
     7
100
AcDbBlockBegin
  2
*D18
 70
     1
 10
0.0
 20
0.0
 30
0.0
  3
*D18
  1

  0
LINE
  5
E1
330
DF
100
AcDbEntity
  8
LAYER_1
  6
Continuous
 62
     7
100
AcDbLine
 10
1907.540439485475
 20
142.597677878183
 30
0.0
 11
1907.540439485475
 21
12.597677878183
 31
0.0
  0
LINE
  5
E2
330
DF
100
AcDbEntity
  8
LAYER_1
  6
Continuous
 62
     7
100
AcDbLine
 10
2183.540439485474
 20
142.597677878183
 30
0.0
 11
2183.540439485474
 21
12.597677878183
 31
0.0
  0
INSERT
  5
E3
330
DF
100
AcDbEntity
  8
LAYER_1
  6
Continuous
 62
     7
100
AcDbBlockReference
  2
_OPEN
 10
1907.540439485475
 20
27.597677878183
 30
0.0
 41
6.0
 42
6.0
 50
180.0
  0
INSERT
  5
E4
330
DF
100
AcDbEntity
  8
LAYER_1
  6
Continuous
 62
     7
100
AcDbBlockReference
  2
_OPEN
 10
2183.540439485474
 20
27.597677878183
 30
0.0
 41
6.0
 42
6.0
  0
INSERT
  5
E5
330
DF
100
AcDbEntity
  8
LAYER_1
  6
Continuous
 62
     7
100
AcDbBlockReference
  2
_OPEN
 10
1907.540439485475
 20
27.597677878183
 30
0.0
 41
6.0
 42
6.0
 50
180.0
  0
INSERT
  5
E6
330
DF
100
AcDbEntity
  8
LAYER_1
  6
Continuous
 62
     7
100
AcDbBlockReference
  2
_OPEN
 10
2183.540439485474
 20
27.597677878183
 30
0.0
 41
6.0
 42
6.0
  0
LINE
  5
E7
330
DF
100
AcDbEntity
  8
LAYER_1
  6
Continuous
 62
     7
100
AcDbLine
 10
1907.540439485475
 20
27.597677878183
 30
0.0
 11
2183.540439485474
 21
27.597677878183
 31
0.0
  0
TEXT
  5
E8
330
DF
100
AcDbEntity
  8
LAYER_1
 62
     7
100
AcDbText
 10
2036.476480094615
 20
30.597677878183
 30
0.0
 40
9.0
  1
276
 41
1.033333333332999
  7
ＭＳ_ゴシック
 72
     1
 11
2045.540439485475
 21
30.597677878183
 31
0.0
100
AcDbText
  0
ENDBLK
  5
E9
330
DF
100
AcDbEntity
  8
0
100
AcDbBlockEnd
  0
BLOCK
  5
EB
330
EA
100
AcDbEntity
  8
0
 62
     7
100
AcDbBlockBegin
  2
*D19
 70
     1
 10
0.0
 20
0.0
 30
0.0
  3
*D19
  1

  0
LINE
  5
EC
330
EA
100
AcDbEntity
  8
LAYER_1
  6
Continuous
 62
     7
100
AcDbLine
 10
2361.540439485479
 20
394.5976778781839
 30
0.0
 11
2361.540439485477
 21
475.7976778781849
 31
0.0
  0
LINE
  5
ED
330
EA
100
AcDbEntity
  8
LAYER_1
  6
Continuous
 62
     7
100
AcDbLine
 10
2545.540439485479
 20
394.5976778781839
 30
0.0
 11
2545.540439485479
 21
475.7976778781849
 31
0.0
  0
INSERT
  5
EE
330
EA
100
AcDbEntity
  8
LAYER_1
  6
Continuous
 62
     7
100
AcDbBlockReference
  2
_OPEN
 10
2361.540439485479
 20
460.7976778781849
 30
0.0
 41
6.0
 42
6.0
 50
180.0
  0
INSERT
  5
EF
330
EA
100
AcDbEntity
  8
LAYER_1
  6
Continuous
 62
     7
100
AcDbBlockReference
  2
_OPEN
 10
2545.540439485479
 20
460.7976778781849
 30
0.0
 41
6.0
 42
6.0
  0
INSERT
  5
F0
330
EA
100
AcDbEntity
  8
LAYER_1
  6
Continuous
 62
     7
100
AcDbBlockReference
  2
_OPEN
 10
2361.540439485479
 20
460.7976778781849
 30
0.0
 41
6.0
 42
6.0
 50
180.0
  0
INSERT
  5
F1
330
EA
100
AcDbEntity
  8
LAYER_1
  6
Continuous
 62
     7
100
AcDbBlockReference
  2
_OPEN
 10
2545.540439485479
 20
460.7976778781849
 30
0.0
 41
6.0
 42
6.0
  0
LINE
  5
F2
330
EA
100
AcDbEntity
  8
LAYER_1
  6
Continuous
 62
     7
100
AcDbLine
 10
2361.540439485479
 20
460.7976778781849
 30
0.0
 11
2545.540439485479
 21
460.7976778781849
 31
0.0
  0
TEXT
  5
F3
330
EA
100
AcDbEntity
  8
LAYER_1
 62
     7
100
AcDbText
 10
2438.433840500712
 20
463.7976778781849
 30
0.0
 40
9.0
  1
(184)
 41
1.033333333332999
  7
ＭＳ_ゴシック
 72
     1
 11
2453.540439485479
 21
463.7976778781849
 31
0.0
100
AcDbText
  0
ENDBLK
  5
F4
330
EA
100
AcDbEntity
  8
0
100
AcDbBlockEnd
  0
BLOCK
  5
F6
330
F5
100
AcDbEntity
  8
0
 62
     7
100
AcDbBlockBegin
  2
*D20
 70
     1
 10
0.0
 20
0.0
 30
0.0
  3
*D20
  1

  0
LINE
  5
F7
330
F5
100
AcDbEntity
  8
LAYER_1
  6
Continuous
 62
     7
100
AcDbLine
 10
1925.540439485475
 20
127.597677878183
 30
0.0
 11
1742.540439485474
 21
127.597677878183
 31
0.0
  0
LINE
  5
F8
330
F5
100
AcDbEntity
  8
LAYER_1
  6
Continuous
 62
     7
100
AcDbLine
 10
1956.540439485477
 20
410.7976778781849
 30
0.0
 11
1742.540439485474
 21
410.7976778781849
 31
0.0
  0
INSERT
  5
F9
330
F5
100
AcDbEntity
  8
LAYER_1
  6
Continuous
 62
     7
100
AcDbBlockReference
  2
_OPEN
 10
1757.540439485475
 20
127.597677878184
 30
0.0
 41
6.0
 42
6.0
 50
270.0
  0
INSERT
  5
FA
330
F5
100
AcDbEntity
  8
LAYER_1
  6
Continuous
 62
     7
100
AcDbBlockReference
  2
_OPEN
 10
1757.540439485475
 20
410.797677878186
 30
0.0
 41
6.0
 42
6.0
 50
90.0
  0
INSERT
  5
FB
330
F5
100
AcDbEntity
  8
LAYER_1
  6
Continuous
 62
     7
100
AcDbBlockReference
  2
_OPEN
 10
1757.540439485475
 20
127.597677878184
 30
0.0
 41
6.0
 42
6.0
 50
270.0
  0
INSERT
  5
FC
330
F5
100
AcDbEntity
  8
LAYER_1
  6
Continuous
 62
     7
100
AcDbBlockReference
  2
_OPEN
 10
1757.540439485475
 20
410.797677878186
 30
0.0
 41
6.0
 42
6.0
 50
90.0
  0
LINE
  5
FD
330
F5
100
AcDbEntity
  8
LAYER_1
  6
Continuous
 62
     7
100
AcDbLine
 10
1757.540439485475
 20
127.597677878184
 30
0.0
 11
1757.540439485475
 21
410.797677878186
 31
0.0
  0
TEXT
  5
FE
330
F5
100
AcDbEntity
  8
LAYER_1
 62
     7
100
AcDbText
 10
1754.540439485475
 20
248.0484392995116
 30
0.0
 40
9.0
  1
(283.2)
 50
90.0
 41
1.033333333332999
  7
ＭＳ_ゴシック
 72
     1
 11
1754.540439485475
 21
269.197677878185
 31
0.0
100
AcDbText
  0
ENDBLK
  5
FF
330
F5
100
AcDbEntity
  8
0
100
AcDbBlockEnd
  0
BLOCK
  5
101
330
100
100
AcDbEntity
  8
0
 62
     7
100
AcDbBlockBegin
  2
*D21
 70
     1
 10
0.0
 20
0.0
 30
0.0
  3
*D21
  1

  0
LINE
  5
102
330
100
100
AcDbEntity
  8
LAYER_1
  6
Continuous
 62
     7
100
AcDbLine
 10
2363.540439485475
 20
142.597677878183
 30
0.0
 11
2363.540439485475
 21
12.597677878183
 31
0.0
  0
LINE
  5
103
330
100
100
AcDbEntity
  8
LAYER_1
  6
Continuous
 62
     7
100
AcDbLine
 10
2543.540439485475
 20
142.597677878183
 30
0.0
 11
2543.540439485475
 21
12.597677878183
 31
0.0
  0
INSERT
  5
104
330
100
100
AcDbEntity
  8
LAYER_1
  6
Continuous
 62
     7
100
AcDbBlockReference
  2
_OPEN
 10
2363.540439485475
 20
27.597677878183
 30
0.0
 41
6.0
 42
6.0
 50
180.0
  0
INSERT
  5
105
330
100
100
AcDbEntity
  8
LAYER_1
  6
Continuous
 62
     7
100
AcDbBlockReference
  2
_OPEN
 10
2543.540439485475
 20
27.597677878183
 30
0.0
 41
6.0
 42
6.0
  0
INSERT
  5
106
330
100
100
AcDbEntity
  8
LAYER_1
  6
Continuous
 62
     7
100
AcDbBlockReference
  2
_OPEN
 10
2363.540439485475
 20
27.597677878183
 30
0.0
 41
6.0
 42
6.0
 50
180.0
  0
INSERT
  5
107
330
100
100
AcDbEntity
  8
LAYER_1
  6
Continuous
 62
     7
100
AcDbBlockReference
  2
_OPEN
 10
2543.540439485475
 20
27.597677878183
 30
0.0
 41
6.0
 42
6.0
  0
LINE
  5
108
330
100
100
AcDbEntity
  8
LAYER_1
  6
Continuous
 62
     7
100
AcDbLine
 10
2363.540439485475
 20
27.597677878183
 30
0.0
 11
2543.540439485475
 21
27.597677878183
 31
0.0
  0
TEXT
  5
109
330
100
100
AcDbEntity
  8
LAYER_1
 62
     7
100
AcDbText
 10
2444.476480094615
 20
30.597677878183
 30
0.0
 40
9.0
  1
180
 41
1.033333333332999
  7
ＭＳ_ゴシック
 72
     1
 11
2453.540439485475
 21
30.597677878183
 31
0.0
100
AcDbText
  0
ENDBLK
  5
10A
330
100
100
AcDbEntity
  8
0
100
AcDbBlockEnd
  0
BLOCK
  5
10C
330
10B
100
AcDbEntity
  8
0
 62
     7
100
AcDbBlockBegin
  2
*D22
 70
     1
 10
0.0
 20
0.0
 30
0.0
  3
*D22
  1

  0
LINE
  5
10D
330
10B
100
AcDbEntity
  8
LAYER_1
  6
Continuous
 62
     7
100
AcDbLine
 10
1905.540439485475
 20
394.5976778781839
 30
0.0
 11
1905.540439485475
 21
475.7976778781849
 31
0.0
  0
LINE
  5
10E
330
10B
100
AcDbEntity
  8
LAYER_1
  6
Continuous
 62
     7
100
AcDbLine
 10
2185.540439485479
 20
394.5976778781839
 30
0.0
 11
2185.540439485479
 21
475.7976778781849
 31
0.0
  0
INSERT
  5
10F
330
10B
100
AcDbEntity
  8
LAYER_1
  6
Continuous
 62
     7
100
AcDbBlockReference
  2
_OPEN
 10
1905.540439485475
 20
460.7976778781849
 30
0.0
 41
6.0
 42
6.0
 50
180.0
  0
INSERT
  5
110
330
10B
100
AcDbEntity
  8
LAYER_1
  6
Continuous
 62
     7
100
AcDbBlockReference
  2
_OPEN
 10
2185.540439485479
 20
460.7976778781849
 30
0.0
 41
6.0
 42
6.0
  0
INSERT
  5
111
330
10B
100
AcDbEntity
  8
LAYER_1
  6
Continuous
 62
     7
100
AcDbBlockReference
  2
_OPEN
 10
1905.540439485475
 20
460.7976778781849
 30
0.0
 41
6.0
 42
6.0
 50
180.0
  0
INSERT
  5
112
330
10B
100
AcDbEntity
  8
LAYER_1
  6
Continuous
 62
     7
100
AcDbBlockReference
  2
_OPEN
 10
2185.540439485479
 20
460.7976778781849
 30
0.0
 41
6.0
 42
6.0
  0
LINE
  5
113
330
10B
100
AcDbEntity
  8
LAYER_1
  6
Continuous
 62
     7
100
AcDbLine
 10
1905.540439485475
 20
460.7976778781849
 30
0.0
 11
2185.540439485479
 21
460.7976778781849
 31
0.0
  0
TEXT
  5
114
330
10B
100
AcDbEntity
  8
LAYER_1
 62
     7
100
AcDbText
 10
2030.43384050071
 20
463.7976778781849
 30
0.0
 40
9.0
  1
(280)
 41
1.033333333332999
  7
ＭＳ_ゴシック
 72
     1
 11
2045.540439485477
 21
463.7976778781849
 31
0.0
100
AcDbText
  0
ENDBLK
  5
115
330
10B
100
AcDbEntity
  8
0
100
AcDbBlockEnd
  0
BLOCK
  5
117
330
116
100
AcDbEntity
  8
0
 62
     7
100
AcDbBlockBegin
  2
*D23
 70
     1
 10
0.0
 20
0.0
 30
0.0
  3
*D23
  1

  0
LINE
  5
118
330
116
100
AcDbEntity
  8
LAYER_1
  6
Continuous
 62
     7
100
AcDbLine
 10
-188.4595605145809
 20
258.797677878185
 30
0.0
 11
-263.4595605145809
 21
258.797677878185
 31
0.0
  0
LINE
  5
119
330
116
100
AcDbEntity
  8
LAYER_1
  6
Continuous
 62
     7
100
AcDbLine
 10
-188.4595605145809
 20
410.7976778781849
 30
0.0
 11
-263.4595605145809
 21
410.7976778781849
 31
0.0
  0
INSERT
  5
11A
330
116
100
AcDbEntity
  8
LAYER_1
  6
Continuous
 62
     7
100
AcDbBlockReference
  2
_OPEN
 10
-248.459560514581
 20
258.797677878185
 30
0.0
 41
6.0
 42
6.0
 50
270.0
  0
INSERT
  5
11B
330
116
100
AcDbEntity
  8
LAYER_1
  6
Continuous
 62
     7
100
AcDbBlockReference
  2
_OPEN
 10
-248.459560514581
 20
410.7976778781849
 30
0.0
 41
6.0
 42
6.0
 50
90.0
  0
INSERT
  5
11C
330
116
100
AcDbEntity
  8
LAYER_1
  6
Continuous
 62
     7
100
AcDbBlockReference
  2
_OPEN
 10
-248.459560514581
 20
258.797677878185
 30
0.0
 41
6.0
 42
6.0
 50
270.0
  0
INSERT
  5
11D
330
116
100
AcDbEntity
  8
LAYER_1
  6
Continuous
 62
     7
100
AcDbBlockReference
  2
_OPEN
 10
-248.459560514581
 20
410.7976778781849
 30
0.0
 41
6.0
 42
6.0
 50
90.0
  0
LINE
  5
11E
330
116
100
AcDbEntity
  8
LAYER_1
  6
Continuous
 62
     7
100
AcDbLine
 10
-248.459560514581
 20
258.797677878185
 30
0.0
 11
-248.459560514581
 21
410.7976778781849
 31
0.0
  0
TEXT
  5
11F
330
116
100
AcDbEntity
  8
LAYER_1
 62
     7
100
AcDbText
 10
-251.459560514581
 20
325.733718487325
 30
0.0
 40
9.0
  1
152
 50
90.0
 41
1.033333333332999
  7
ＭＳ_ゴシック
 72
     1
 11
-251.459560514581
 21
334.797677878185
 31
0.0
100
AcDbText
  0
ENDBLK
  5
120
330
116
100
AcDbEntity
  8
0
100
AcDbBlockEnd
  0
BLOCK
  5
122
330
121
100
AcDbEntity
  8
0
 62
     7
100
AcDbBlockBegin
  2
*D24
 70
     1
 10
0.0
 20
0.0
 30
0.0
  3
*D24
  1

  0
LINE
  5
123
330
121
100
AcDbEntity
  8
LAYER_1
  6
Continuous
 62
     7
100
AcDbLine
 10
1903.540439485469
 20
-230.402322121834
 30
0.0
 11
1817.540439485474
 21
-230.402322121834
 31
0.0
  0
LINE
  5
124
330
121
100
AcDbEntity
  8
LAYER_1
  6
Continuous
 62
     7
100
AcDbLine
 10
1903.540439485469
 20
-74.402322121834
 30
0.0
 11
1817.540439485474
 21
-74.402322121834
 31
0.0
  0
INSERT
  5
125
330
121
100
AcDbEntity
  8
LAYER_1
  6
Continuous
 62
     7
100
AcDbBlockReference
  2
_OPEN
 10
1832.540439485475
 20
-230.402322121833
 30
0.0
 41
6.0
 42
6.0
 50
270.0
  0
INSERT
  5
126
330
121
100
AcDbEntity
  8
LAYER_1
  6
Continuous
 62
     7
100
AcDbBlockReference
  2
_OPEN
 10
1832.540439485475
 20
-74.402322121833
 30
0.0
 41
6.0
 42
6.0
 50
90.0
  0
INSERT
  5
127
330
121
100
AcDbEntity
  8
LAYER_1
  6
Continuous
 62
     7
100
AcDbBlockReference
  2
_OPEN
 10
1832.540439485475
 20
-230.402322121833
 30
0.0
 41
6.0
 42
6.0
 50
270.0
  0
INSERT
  5
128
330
121
100
AcDbEntity
  8
LAYER_1
  6
Continuous
 62
     7
100
AcDbBlockReference
  2
_OPEN
 10
1832.540439485475
 20
-74.402322121833
 30
0.0
 41
6.0
 42
6.0
 50
90.0
  0
LINE
  5
129
330
121
100
AcDbEntity
  8
LAYER_1
  6
Continuous
 62
     7
100
AcDbLine
 10
1832.540439485475
 20
-230.402322121833
 30
0.0
 11
1832.540439485475
 21
-74.402322121833
 31
0.0
  0
TEXT
  5
12A
330
121
100
AcDbEntity
  8
LAYER_1
 62
     7
100
AcDbText
 10
1829.540439485475
 20
-161.466281512693
 30
0.0
 40
9.0
  1
156
 50
90.0
 41
1.033333333332999
  7
ＭＳ_ゴシック
 72
     1
 11
1829.540439485475
 21
-152.402322121833
 31
0.0
100
AcDbText
  0
ENDBLK
  5
12B
330
121
100
AcDbEntity
  8
0
100
AcDbBlockEnd
  0
BLOCK
  5
12D
330
12C
100
AcDbEntity
  8
0
 62
     7
100
AcDbBlockBegin
  2
*D25
 70
     1
 10
0.0
 20
0.0
 30
0.0
  3
*D25
  1

  0
LINE
  5
12E
330
12C
100
AcDbEntity
  8
LAYER_1
  6
Continuous
 62
     7
100
AcDbLine
 10
1926.540439485469
 20
-253.402322121834
 30
0.0
 11
1926.540439485468
 21
-332.4023221218169
 31
0.0
  0
LINE
  5
12F
330
12C
100
AcDbEntity
  8
LAYER_1
  6
Continuous
 62
     7
100
AcDbLine
 10
2164.540439485475
 20
-253.402322121834
 30
0.0
 11
2164.540439485475
 21
-332.4023221218169
 31
0.0
  0
INSERT
  5
130
330
12C
100
AcDbEntity
  8
LAYER_1
  6
Continuous
 62
     7
100
AcDbBlockReference
  2
_OPEN
 10
1926.540439485468
 20
-317.402322121817
 30
0.0
 41
6.0
 42
6.0
 50
180.0
  0
INSERT
  5
131
330
12C
100
AcDbEntity
  8
LAYER_1
  6
Continuous
 62
     7
100
AcDbBlockReference
  2
_OPEN
 10
2164.540439485475
 20
-317.402322121817
 30
0.0
 41
6.0
 42
6.0
  0
INSERT
  5
132
330
12C
100
AcDbEntity
  8
LAYER_1
  6
Continuous
 62
     7
100
AcDbBlockReference
  2
_OPEN
 10
1926.540439485468
 20
-317.402322121817
 30
0.0
 41
6.0
 42
6.0
 50
180.0
  0
INSERT
  5
133
330
12C
100
AcDbEntity
  8
LAYER_1
  6
Continuous
 62
     7
100
AcDbBlockReference
  2
_OPEN
 10
2164.540439485475
 20
-317.402322121817
 30
0.0
 41
6.0
 42
6.0
  0
LINE
  5
134
330
12C
100
AcDbEntity
  8
LAYER_1
  6
Continuous
 62
     7
100
AcDbLine
 10
1926.540439485468
 20
-317.402322121817
 30
0.0
 11
2164.540439485475
 21
-317.402322121817
 31
0.0
  0
TEXT
  5
135
330
12C
100
AcDbEntity
  8
LAYER_1
 62
     7
100
AcDbText
 10
2036.476480094611
 20
-314.402322121817
 30
0.0
 40
9.0
  1
238
 41
1.033333333332999
  7
ＭＳ_ゴシック
 72
     1
 11
2045.540439485471
 21
-314.402322121817
 31
0.0
100
AcDbText
  0
ENDBLK
  5
136
330
12C
100
AcDbEntity
  8
0
100
AcDbBlockEnd
  0
BLOCK
  5
138
330
137
100
AcDbEntity
  8
0
 62
     7
100
AcDbBlockBegin
  2
*D26
 70
     1
 10
0.0
 20
0.0
 30
0.0
  3
*D26
  1

  0
LINE
  5
139
330
137
100
AcDbEntity
  8
LAYER_1
  6
Continuous
 62
     7
100
AcDbLine
 10
1925.540439485475
 20
127.597677878183
 30
0.0
 11
1817.540439485474
 21
127.597677878183
 31
0.0
  0
LINE
  5
13A
330
137
100
AcDbEntity
  8
LAYER_1
  6
Continuous
 62
     7
100
AcDbLine
 10
1892.540439485475
 20
157.5976778781829
 30
0.0
 11
1817.540439485474
 21
157.5976778781829
 31
0.0
  0
LINE
  5
13B
330
137
100
AcDbEntity
  8
LAYER_1
  6
Continuous
 62
     7
100
AcDbLine
 10
1832.540439485475
 20
127.597677878183
 30
0.0
 11
1832.540439485475
 21
157.5976778781829
 31
0.0
  0
INSERT
  5
13C
330
137
100
AcDbEntity
  8
LAYER_1
  6
Continuous
 62
     7
100
AcDbBlockReference
  2
_OPEN
 10
1832.540439485475
 20
127.597677878183
 30
0.0
 41
6.0
 42
6.0
 50
90.0
  0
INSERT
  5
13D
330
137
100
AcDbEntity
  8
LAYER_1
  6
Continuous
 62
     7
100
AcDbBlockReference
  2
_NONE
 10
1832.540439485475
 20
-1.919961443100999
 30
0.0
 41
6.0
 42
6.0
 50
270.0
  0
LINE
  5
13E
330
137
100
AcDbEntity
  8
LAYER_1
  6
Continuous
 62
     7
100
AcDbLine
 10
1832.540439485475
 20
127.597677878183
 30
0.0
 11
1832.540439485475
 21
-1.919961443100999
 31
0.0
  0
INSERT
  5
13F
330
137
100
AcDbEntity
  8
LAYER_1
  6
Continuous
 62
     7
100
AcDbBlockReference
  2
_OPEN
 10
1832.540439485475
 20
157.5976778781829
 30
0.0
 41
6.0
 42
6.0
 50
270.0
  0
INSERT
  5
140
330
137
100
AcDbEntity
  8
LAYER_1
  6
Continuous
 62
     7
100
AcDbBlockReference
  2
_NONE
 10
1832.540439485475
 20
247.5976778781829
 30
0.0
 41
6.0
 42
6.0
 50
90.0
  0
LINE
  5
141
330
137
100
AcDbEntity
  8
LAYER_1
  6
Continuous
 62
     7
100
AcDbLine
 10
1832.540439485475
 20
157.5976778781829
 30
0.0
 11
1832.540439485475
 21
247.5976778781829
 31
0.0
  0
TEXT
  5
142
330
137
100
AcDbEntity
  8
LAYER_1
 62
     7
100
AcDbText
 10
1829.540439485475
 20
-1.919961443100999
 30
0.0
 40
9.0
  1
(30)
 50
90.0
 41
1.033333333332999
  7
ＭＳ_ゴシック
100
AcDbText
  0
ENDBLK
  5
143
330
137
100
AcDbEntity
  8
0
100
AcDbBlockEnd
  0
BLOCK
  5
145
330
144
100
AcDbEntity
  8
0
100
AcDbBlockBegin
  2
HATCHING__FILL_$26$
 70
     0
 10
0.0
 20
0.0
 30
0.0
  3
HATCHING__FILL_$26$
  1

  0
LINE
  5
146
330
144
100
AcDbEntity
  8
LAYER_1
  6
Continuous
 62
     7
100
AcDbLine
 10
-90.15053337215098
 20
265.000204993889
 30
0.0
 11
-86.101547561071
 21
265.000204993889
 31
0.0
  0
LINE
  5
147
330
144
100
AcDbEntity
  8
LAYER_1
  6
Continuous
 62
     7
100
AcDbLine
 10
-83.04231535930801
 20
265.000204993889
 30
0.0
 11
-77.80519269305701
 21
265.000204993889
 31
0.0
  0
LINE
  5
148
330
144
100
AcDbEntity
  8
LAYER_1
  6
Continuous
 62
     7
100
AcDbLine
 10
-72.724784409044
 20
265.000204993889
 30
0.0
 11
-66.99485796468099
 21
265.000204993889
 31
0.0
  0
LINE
  5
149
330
144
100
AcDbEntity
  8
LAYER_1
  6
Continuous
 62
     7
100
AcDbLine
 10
-62.74123541816901
 20
265.000204993889
 30
0.0
 11
-57.656923981147
 21
265.000204993889
 31
0.0
  0
LINE
  5
14A
330
144
100
AcDbEntity
  8
LAYER_1
  6
Continuous
 62
     7
100
AcDbLine
 10
-56.255112024625
 20
265.000204993889
 30
0.0
 11
-51.111012544127
 21
265.000204993889
 31
0.0
  0
LINE
  5
14B
330
144
100
AcDbEntity
  8
LAYER_1
  6
Continuous
 62
     7
100
AcDbLine
 10
-89.141083981147
 20
268.0002049938889
 30
0.0
 11
-85.945123981147
 21
268.0002049938889
 31
0.0
  0
LINE
  5
14C
330
144
100
AcDbEntity
  8
LAYER_1
  6
Continuous
 62
     7
100
AcDbLine
 10
-84.18158762529801
 20
268.0002049938889
 30
0.0
 11
-75.58828398114801
 21
268.0002049938889
 31
0.0
  0
LINE
  5
14D
330
144
100
AcDbEntity
  8
LAYER_1
  6
Continuous
 62
     7
100
AcDbLine
 10
-73.86406510595
 20
268.0002049938889
 30
0.0
 11
-70.655695501524
 21
268.0002049938889
 31
0.0
  0
LINE
  5
14E
330
144
100
AcDbEntity
  8
LAYER_1
  6
Continuous
 62
     7
100
AcDbLine
 10
-63.841705295006
 20
268.0002049938889
 30
0.0
 11
-60.625044228639
 21
268.0002049938889
 31
0.0
  0
LINE
  5
14F
330
144
100
AcDbEntity
  8
LAYER_1
  6
Continuous
 62
     7
100
AcDbLine
 10
-53.22723373365599
 20
268.0002049938889
 30
0.0
 11
-50.010464168051
 21
268.0002049938889
 31
0.0
  0
LINE
  5
150
330
144
100
AcDbEntity
  8
LAYER_1
  6
Continuous
 62
     7
100
AcDbLine
 10
-89.141083981147
 20
271.0002049938889
 30
0.0
 11
-85.945123981147
 21
271.0002049938889
 31
0.0
  0
LINE
  5
151
330
144
100
AcDbEntity
  8
LAYER_1
  6
Continuous
 62
     7
100
AcDbLine
 10
-83.70087012187601
 20
271.0002049938889
 30
0.0
 11
-80.036442624203
 21
271.0002049938889
 31
0.0
  0
LINE
  5
152
330
144
100
AcDbEntity
  8
LAYER_1
  6
Continuous
 62
     7
100
AcDbLine
 10
-73.38334218285201
 20
271.0002049938889
 30
0.0
 11
-69.700982153097
 21
271.0002049938889
 31
0.0
  0
LINE
  5
153
330
144
100
AcDbEntity
  8
LAYER_1
  6
Continuous
 62
     7
100
AcDbLine
 10
-63.378567362442
 20
271.0002049938889
 30
0.0
 11
-59.751247285027
 21
271.0002049938889
 31
0.0
  0
LINE
  5
154
330
144
100
AcDbEntity
  8
LAYER_1
  6
Continuous
 62
     7
100
AcDbLine
 10
-54.13448316670299
 20
271.0002049938889
 30
0.0
 11
-50.47359784355699
 21
271.0002049938889
 31
0.0
  0
LINE
  5
155
330
144
100
AcDbEntity
  8
LAYER_1
  6
Continuous
 62
     7
100
AcDbLine
 10
-89.141083981147
 20
274.0002049938889
 30
0.0
 11
-85.945123981147
 21
274.0002049938889
 31
0.0
  0
LINE
  5
156
330
144
100
AcDbEntity
  8
LAYER_1
  6
Continuous
 62
     7
100
AcDbLine
 10
-80.790945276112
 20
274.0002049938889
 30
0.0
 11
-75.58828398114801
 21
274.0002049938889
 31
0.0
  0
LINE
  5
157
330
144
100
AcDbEntity
  8
LAYER_1
  6
Continuous
 62
     7
100
AcDbLine
 10
-70.473435276112
 20
274.0002049938889
 30
0.0
 11
-65.270623981147
 21
274.0002049938889
 31
0.0
  0
LINE
  5
158
330
144
100
AcDbEntity
  8
LAYER_1
  6
Continuous
 62
     7
100
AcDbLine
 10
-60.813096031507
 20
274.0002049938889
 30
0.0
 11
-53.038946815679
 21
274.0002049938889
 31
0.0
  0
ENDBLK
  5
159
330
144
100
AcDbEntity
  8
0
100
AcDbBlockEnd
  0
ENDSEC
  0
SECTION
  2
ENTITIES
  0
LINE
  5
15A
330
A
100
AcDbEntity
  8
LAYER_1
  6
Continuous
 62
     7
100
AcDbLine
 10
239.5404394854189
 20
258.797677878185
 30
0.0
 11
725.540439485419
 21
258.797677878185
 31
0.0
  0
LINE
  5
15B
330
A
100
AcDbEntity
  8
LAYER_1
  6
Continuous
 62
     7
100
AcDbLine
 10
291.040439485419
 20
241.797677878185
 30
0.0
 11
318.040439485419
 21
241.797677878185
 31
0.0
  0
LINE
  5
15C
330
A
100
AcDbEntity
  8
LAYER_1
  6
Continuous
 62
     7
100
AcDbLine
 10
239.5404394854189
 20
410.7976778781849
 30
0.0
 11
725.540439485419
 21
410.7976778781849
 31
0.0
  0
LINE
  5
15D
330
A
100
AcDbEntity
  8
LAYER_1
  6
Continuous
 62
     7
100
AcDbLine
 10
239.5404394854189
 20
410.7976778781849
 30
0.0
 11
239.5404394854189
 21
258.797677878185
 31
0.0
  0
LINE
  5
15E
330
A
100
AcDbEntity
  8
LAYER_1
  6
Continuous
 62
     7
100
AcDbLine
 10
229.540439485419
 20
337.797677878186
 30
0.0
 11
229.540439485419
 21
333.797677878186
 31
0.0
  0
LINE
  5
15F
330
A
100
AcDbEntity
  8
LAYER_1
  6
Continuous
 62
     7
100
AcDbLine
 10
214.5404394854189
 20
317.797677878186
 30
0.0
 11
214.5404394854189
 21
287.797677878186
 31
0.0
  0
LINE
  5
160
330
A
100
AcDbEntity
  8
LAYER_1
  6
Continuous
 62
     7
100
AcDbLine
 10
725.540439485419
 20
410.7976778781849
 30
0.0
 11
725.540439485419
 21
258.797677878185
 31
0.0
  0
LINE
  5
161
330
A
100
AcDbEntity
  8
LAYER_1
  6
Continuous
 62
     7
100
AcDbLine
 10
745.540439485419
 20
397.2976778781849
 30
0.0
 11
745.540439485419
 21
369.2976778781849
 31
0.0
  0
LINE
  5
162
330
A
100
AcDbEntity
  8
LAYER_1
  6
Continuous
 62
     7
100
AcDbLine
 10
740.540439485419
 20
378.7976778781849
 30
0.0
 11
740.540439485419
 21
370.7976778781849
 31
0.0
  0
ARC
  5
163
330
A
100
AcDbEntity
  8
LAYER_1
  6
Continuous
 62
     7
100
AcDbCircle
 10
738.540439485419
 20
370.7976778781849
 30
0.0
 40
2.0
100
AcDbArc
 50
270.0
 51
0.0
  0
LINE
  5
164
330
A
100
AcDbEntity
  8
LAYER_1
  6
Continuous
 62
     7
100
AcDbLine
 10
730.540439485419
 20
333.797677878184
 30
0.0
 11
730.540439485419
 21
293.797677878185
 31
0.0
  0
LINE
  5
165
330
A
100
AcDbEntity
  8
LAYER_1
  6
Continuous
 62
     7
100
AcDbLine
 10
750.540439485419
 20
331.547677878185
 30
0.0
 11
750.5404394854179
 21
296.047677878185
 31
0.0
  0
LINE
  5
166
330
A
100
AcDbEntity
  8
LAYER_1
  6
Continuous
 62
     7
100
AcDbLine
 10
239.5404394854189
 20
813.7976778781849
 30
0.0
 11
725.540439485419
 21
813.7976778781849
 31
0.0
  0
LINE
  5
167
330
A
100
AcDbEntity
  8
LAYER_1
  6
Continuous
 62
     7
100
AcDbLine
 10
239.5404394854189
 20
540.7976778781849
 30
0.0
 11
725.540439485419
 21
540.7976778781849
 31
0.0
  0
LINE
  5
168
330
A
100
AcDbEntity
  8
LAYER_1
  6
Continuous
 62
     7
100
AcDbLine
 10
239.5404394854189
 20
540.7976778781849
 30
0.0
 11
239.5404394854189
 21
813.7976778781849
 31
0.0
  0
LINE
  5
169
330
A
100
AcDbEntity
  8
LAYER_1
  6
Continuous
 62
     7
100
AcDbLine
 10
224.5404394854189
 20
693.0476778781849
 30
0.0
 11
224.5404394854189
 21
703.547677878186
 31
0.0
  0
LINE
  5
16A
330
A
100
AcDbEntity
  8
LAYER_1
  6
Continuous
 62
     7
100
AcDbLine
 10
725.540439485419
 20
540.7976778781849
 30
0.0
 11
725.540439485419
 21
813.7976778781849
 31
0.0
  0
LINE
  5
16B
330
A
100
AcDbEntity
  8
LAYER_1
  6
Continuous
 62
     7
100
AcDbLine
 10
1138.540439485419
 20
410.7976778781849
 30
0.0
 11
1138.540439485419
 21
258.797677878185
 31
0.0
  0
LINE
  5
16C
330
A
100
AcDbEntity
  8
LAYER_1
  6
Continuous
 62
     7
100
AcDbLine
 10
865.540439485419
 20
410.7976778781849
 30
0.0
 11
865.540439485419
 21
258.797677878185
 31
0.0
  0
LINE
  5
16D
330
A
100
AcDbEntity
  8
LAYER_1
  6
Continuous
 62
     7
100
AcDbLine
 10
865.540439485419
 20
258.797677878185
 30
0.0
 11
866.7404394854189
 21
258.797677878185
 31
0.0
  0
LINE
  5
16E
330
A
100
AcDbEntity
  8
LAYER_1
  6
Continuous
 62
     7
100
AcDbLine
 10
1137.340439485418
 20
258.797677878185
 30
0.0
 11
1138.540439485419
 21
258.797677878185
 31
0.0
  0
LINE
  5
16F
330
A
100
AcDbEntity
  8
LAYER_1
  6
Continuous
 62
     7
100
AcDbLine
 10
865.540439485419
 20
410.7976778781849
 30
0.0
 11
1138.540439485419
 21
410.7976778781849
 31
0.0
  0
LINE
  5
170
330
A
100
AcDbEntity
  8
LAYER_1
  6
Continuous
 62
     7
100
AcDbLine
 10
-173.459560514581
 20
258.797677878186
 30
0.0
 11
99.54043948541901
 21
258.797677878186
 31
0.0
  0
LINE
  5
171
330
A
100
AcDbEntity
  8
LAYER_1
  6
Continuous
 62
     7
100
AcDbLine
 10
-118.95956051458
 20
373.2976778781849
 30
0.0
 11
-118.95956051458
 21
358.7976778781849
 31
0.0
  0
LINE
  5
172
330
A
100
AcDbEntity
  8
LAYER_1
  6
Continuous
 62
     7
100
AcDbLine
 10
-54.45956051458001
 20
373.2976778781849
 30
0.0
 11
-54.45956051458001
 21
358.7976778781849
 31
0.0
  0
LINE
  5
173
330
A
100
AcDbEntity
  8
LAYER_1
  6
Continuous
 62
     7
100
AcDbLine
 10
-118.4595605145799
 20
373.7976778781849
 30
0.0
 11
-54.959560514581
 21
373.7976778781849
 31
0.0
  0
LINE
  5
174
330
A
100
AcDbEntity
  8
LAYER_1
  6
Continuous
 62
     7
100
AcDbLine
 10
-118.4595605145799
 20
358.297677878186
 30
0.0
 11
-54.959560514581
 21
358.297677878186
 31
0.0
  0
ARC
  5
175
330
A
100
AcDbEntity
  8
LAYER_1
  6
Continuous
 62
     7
100
AcDbCircle
 10
-118.4595605145799
 20
373.2976778781849
 30
0.0
 40
0.5
100
AcDbArc
 50
90.0
 51
180.0
  0
ARC
  5
176
330
A
100
AcDbEntity
  8
LAYER_1
  6
Continuous
 62
     7
100
AcDbCircle
 10
-118.4595605145799
 20
358.7976778781849
 30
0.0
 40
0.5
100
AcDbArc
 50
180.0
 51
270.0
  0
CIRCLE
  5
177
330
A
100
AcDbEntity
  8
LAYER_1
  6
Continuous
 62
     7
100
AcDbCircle
 10
-145.959560514581
 20
383.797677878186
 30
0.0
 40
4.0
  0
CIRCLE
  5
178
330
A
100
AcDbEntity
  8
LAYER_1
  6
Continuous
 62
     7
100
AcDbCircle
 10
-145.959560514581
 20
367.797677878186
 30
0.0
 40
4.0
  0
CIRCLE
  5
179
330
A
100
AcDbEntity
  8
LAYER_1
  6
Continuous
 62
     7
100
AcDbCircle
 10
-145.959560514581
 20
351.797677878186
 30
0.0
 40
4.0
  0
CIRCLE
  5
17A
330
A
100
AcDbEntity
  8
LAYER_1
  6
Continuous
 62
     7
100
AcDbCircle
 10
-145.959560514581
 20
335.797677878186
 30
0.0
 40
4.0
  0
CIRCLE
  5
17B
330
A
100
AcDbEntity
  8
LAYER_1
  6
Continuous
 62
     7
100
AcDbCircle
 10
-145.959560514581
 20
319.797677878186
 30
0.0
 40
4.0
  0
CIRCLE
  5
17C
330
A
100
AcDbEntity
  8
LAYER_1
  6
Continuous
 62
     7
100
AcDbCircle
 10
-145.959560514581
 20
293.7976778781859
 30
0.0
 40
6.0
  0
CIRCLE
  5
17D
330
A
100
AcDbEntity
  8
LAYER_1
  6
Continuous
 62
     7
100
AcDbCircle
 10
-108.459560514581
 20
302.797677878185
 30
0.0
 40
4.5
  0
LINE
  5
17E
330
A
100
AcDbEntity
  8
LAYER_1
  6
Continuous
 62
     7
100
AcDbLine
 10
-63.20956051458001
 20
321.297677878186
 30
0.0
 11
-63.20956051458001
 21
294.297677878186
 31
0.0
  0
LINE
  5
17F
330
A
100
AcDbEntity
  8
LAYER_1
  6
Continuous
 62
     7
100
AcDbLine
 10
-52.70956051458099
 20
321.297677878186
 30
0.0
 11
-52.70956051458099
 21
294.297677878186
 31
0.0
  0
LINE
  5
180
330
A
100
AcDbEntity
  8
LAYER_1
  6
Continuous
 62
     7
100
AcDbLine
 10
-62.70956051458
 20
293.7976778781859
 30
0.0
 11
-53.20956051458001
 21
293.7976778781859
 31
0.0
  0
LINE
  5
181
330
A
100
AcDbEntity
  8
LAYER_1
  6
Continuous
 62
     7
100
AcDbLine
 10
-62.70956051458
 20
321.797677878186
 30
0.0
 11
-53.20956051458001
 21
321.797677878186
 31
0.0
  0
ARC
  5
182
330
A
100
AcDbEntity
  8
LAYER_1
  6
Continuous
 62
     7
100
AcDbCircle
 10
-62.70956051458
 20
321.297677878186
 30
0.0
 40
0.5
100
AcDbArc
 50
90.0
 51
180.0
  0
ARC
  5
183
330
A
100
AcDbEntity
  8
LAYER_1
  6
Continuous
 62
     7
100
AcDbCircle
 10
-53.20956051458001
 20
321.297677878186
 30
0.0
 40
0.5
100
AcDbArc
 50
0.0
 51
90.0
  0
ARC
  5
184
330
A
100
AcDbEntity
  8
LAYER_1
  6
Continuous
 62
     7
100
AcDbCircle
 10
-62.70956051458
 20
294.297677878186
 30
0.0
 40
0.5
100
AcDbArc
 50
180.0
 51
270.0
  0
ARC
  5
185
330
A
100
AcDbEntity
  8
LAYER_1
  6
Continuous
 62
     7
100
AcDbCircle
 10
-53.20956051458001
 20
294.297677878186
 30
0.0
 40
0.5
100
AcDbArc
 50
270.0
 51
0.0
  0
LINE
  5
186
330
A
100
AcDbEntity
  8
LAYER_1
  6
Continuous
 62
     7
100
AcDbLine
 10
-26.959560514581
 20
373.2976778781849
 30
0.0
 11
2.040439485419
 21
373.2976778781849
 31
0.0
  0
LINE
  5
187
330
A
100
AcDbEntity
  8
LAYER_1
  6
Continuous
 62
     7
100
AcDbLine
 10
2.540439485419999
 20
372.797677878186
 30
0.0
 11
2.540439485419999
 21
369.797677878186
 31
0.0
  0
LINE
  5
188
330
A
100
AcDbEntity
  8
LAYER_1
  6
Continuous
 62
     7
100
AcDbLine
 10
2.040439485419
 20
369.297677878186
 30
0.0
 11
-26.959560514581
 21
369.297677878186
 31
0.0
  0
LINE
  5
189
330
A
100
AcDbEntity
  8
LAYER_1
  6
Continuous
 62
     7
100
AcDbLine
 10
-27.45956051458
 20
369.797677878186
 30
0.0
 11
-27.45956051458
 21
372.797677878186
 31
0.0
  0
ARC
  5
18A
330
A
100
AcDbEntity
  8
LAYER_1
  6
Continuous
 62
     7
100
AcDbCircle
 10
-26.959560514581
 20
372.797677878186
 30
0.0
 40
0.5
100
AcDbArc
 50
90.0
 51
180.0
  0
ARC
  5
18B
330
A
100
AcDbEntity
  8
LAYER_1
  6
Continuous
 62
     7
100
AcDbCircle
 10
-26.959560514581
 20
369.797677878186
 30
0.0
 40
0.5
100
AcDbArc
 50
180.0
 51
270.0
  0
ARC
  5
18C
330
A
100
AcDbEntity
  8
LAYER_1
  6
Continuous
 62
     7
100
AcDbCircle
 10
2.040439485419
 20
372.797677878186
 30
0.0
 40
0.5
100
AcDbArc
 50
0.0
 51
90.0
  0
ARC
  5
18D
330
A
100
AcDbEntity
  8
LAYER_1
  6
Continuous
 62
     7
100
AcDbCircle
 10
2.040439485419
 20
369.797677878186
 30
0.0
 40
0.5
100
AcDbArc
 50
270.0
 51
0.0
  0
LINE
  5
18E
330
A
100
AcDbEntity
  8
LAYER_1
  6
Continuous
 62
     7
100
AcDbLine
 10
2.040439485419
 20
362.2976778781849
 30
0.0
 11
-26.959560514581
 21
362.2976778781849
 31
0.0
  0
LINE
  5
18F
330
A
100
AcDbEntity
  8
LAYER_1
  6
Continuous
 62
     7
100
AcDbLine
 10
-26.959560514581
 20
366.297677878186
 30
0.0
 11
2.040439485419
 21
366.297677878186
 31
0.0
  0
LINE
  5
190
330
A
100
AcDbEntity
  8
LAYER_1
  6
Continuous
 62
     7
100
AcDbLine
 10
-27.45956051458
 20
362.797677878186
 30
0.0
 11
-27.45956051458
 21
365.7976778781849
 31
0.0
  0
ARC
  5
191
330
A
100
AcDbEntity
  8
LAYER_1
  6
Continuous
 62
     7
100
AcDbCircle
 10
-26.959560514581
 20
365.7976778781849
 30
0.0
 40
0.5
100
AcDbArc
 50
90.0
 51
180.0
  0
LINE
  5
192
330
A
100
AcDbEntity
  8
LAYER_1
  6
Continuous
 62
     7
100
AcDbLine
 10
2.540439485419999
 20
365.7976778781849
 30
0.0
 11
2.540439485419999
 21
362.797677878186
 31
0.0
  0
ARC
  5
193
330
A
100
AcDbEntity
  8
LAYER_1
  6
Continuous
 62
     7
100
AcDbCircle
 10
2.040439485419
 20
365.7976778781849
 30
0.0
 40
0.5
100
AcDbArc
 50
0.0
 51
90.0
  0
ARC
  5
194
330
A
100
AcDbEntity
  8
LAYER_1
  6
Continuous
 62
     7
100
AcDbCircle
 10
-26.959560514581
 20
362.797677878186
 30
0.0
 40
0.5
100
AcDbArc
 50
180.0
 51
270.0
  0
ARC
  5
195
330
A
100
AcDbEntity
  8
LAYER_1
  6
Continuous
 62
     7
100
AcDbCircle
 10
2.040439485419
 20
362.797677878186
 30
0.0
 40
0.5
100
AcDbArc
 50
270.0
 51
0.0
  0
LINE
  5
196
330
A
100
AcDbEntity
  8
LAYER_1
  6
Continuous
 62
     7
100
AcDbLine
 10
2.040439485419
 20
376.297677878186
 30
0.0
 11
-18.95956051457999
 21
376.297677878186
 31
0.0
  0
LINE
  5
197
330
A
100
AcDbEntity
  8
LAYER_1
  6
Continuous
 62
     7
100
AcDbLine
 10
-18.95956051457999
 20
380.297677878186
 30
0.0
 11
2.040439485419
 21
380.297677878186
 31
0.0
  0
LINE
  5
198
330
A
100
AcDbEntity
  8
LAYER_1
  6
Continuous
 62
     7
100
AcDbLine
 10
-19.45956051458099
 20
376.797677878186
 30
0.0
 11
-19.45956051458099
 21
379.7976778781849
 31
0.0
  0
ARC
  5
199
330
A
100
AcDbEntity
  8
LAYER_1
  6
Continuous
 62
     7
100
AcDbCircle
 10
-18.95956051457999
 20
376.797677878186
 30
0.0
 40
0.5
100
AcDbArc
 50
180.0
 51
270.0
  0
ARC
  5
19A
330
A
100
AcDbEntity
  8
LAYER_1
  6
Continuous
 62
     7
100
AcDbCircle
 10
-18.95956051457999
 20
379.7976778781849
 30
0.0
 40
0.5
100
AcDbArc
 50
90.0
 51
180.0
  0
LINE
  5
19B
330
A
100
AcDbEntity
  8
LAYER_1
  6
Continuous
 62
     7
100
AcDbLine
 10
2.540439485419999
 20
379.7976778781849
 30
0.0
 11
2.540439485419999
 21
376.797677878186
 31
0.0
  0
ARC
  5
19C
330
A
100
AcDbEntity
  8
LAYER_1
  6
Continuous
 62
     7
100
AcDbCircle
 10
2.040439485419
 20
376.797677878186
 30
0.0
 40
0.5
100
AcDbArc
 50
270.0
 51
0.0
  0
ARC
  5
19D
330
A
100
AcDbEntity
  8
LAYER_1
  6
Continuous
 62
     7
100
AcDbCircle
 10
2.040439485419
 20
379.7976778781849
 30
0.0
 40
0.5
100
AcDbArc
 50
0.0
 51
90.0
  0
LINE
  5
19E
330
A
100
AcDbEntity
  8
LAYER_1
  6
Continuous
 62
     7
100
AcDbLine
 10
40.04043948542
 20
365.7976778781849
 30
0.0
 11
40.04043948542
 21
362.797677878186
 31
0.0
  0
LINE
  5
19F
330
A
100
AcDbEntity
  8
LAYER_1
  6
Continuous
 62
     7
100
AcDbLine
 10
10.04043948541999
 20
362.797677878186
 30
0.0
 11
10.04043948541999
 21
365.7976778781849
 31
0.0
  0
LINE
  5
1A0
330
A
100
AcDbEntity
  8
LAYER_1
  6
Continuous
 62
     7
100
AcDbLine
 10
39.540439485419
 20
362.2976778781849
 30
0.0
 11
10.54043948541999
 21
362.2976778781849
 31
0.0
  0
ARC
  5
1A1
330
A
100
AcDbEntity
  8
LAYER_1
  6
Continuous
 62
     7
100
AcDbCircle
 10
10.54043948541999
 20
362.797677878186
 30
0.0
 40
0.5
100
AcDbArc
 50
180.0
 51
270.0
  0
ARC
  5
1A2
330
A
100
AcDbEntity
  8
LAYER_1
  6
Continuous
 62
     7
100
AcDbCircle
 10
39.540439485419
 20
362.797677878186
 30
0.0
 40
0.5
100
AcDbArc
 50
270.0
 51
0.0
  0
LINE
  5
1A3
330
A
100
AcDbEntity
  8
LAYER_1
  6
Continuous
 62
     7
100
AcDbLine
 10
10.54043948541999
 20
366.297677878186
 30
0.0
 11
39.540439485419
 21
366.297677878186
 31
0.0
  0
LINE
  5
1A4
330
A
100
AcDbEntity
  8
LAYER_1
  6
Continuous
 62
     7
100
AcDbLine
 10
39.540439485419
 20
369.297677878186
 30
0.0
 11
10.54043948541999
 21
369.297677878186
 31
0.0
  0
LINE
  5
1A5
330
A
100
AcDbEntity
  8
LAYER_1
  6
Continuous
 62
     7
100
AcDbLine
 10
10.54043948541999
 20
373.2976778781849
 30
0.0
 11
39.540439485419
 21
373.2976778781849
 31
0.0
  0
LINE
  5
1A6
330
A
100
AcDbEntity
  8
LAYER_1
  6
Continuous
 62
     7
100
AcDbLine
 10
10.04043948541999
 20
369.797677878186
 30
0.0
 11
10.04043948541999
 21
372.797677878186
 31
0.0
  0
ARC
  5
1A7
330
A
100
AcDbEntity
  8
LAYER_1
  6
Continuous
 62
     7
100
AcDbCircle
 10
10.54043948541999
 20
365.7976778781849
 30
0.0
 40
0.5
100
AcDbArc
 50
90.0
 51
180.0
  0
ARC
  5
1A8
330
A
100
AcDbEntity
  8
LAYER_1
  6
Continuous
 62
     7
100
AcDbCircle
 10
10.54043948541999
 20
369.797677878186
 30
0.0
 40
0.5
100
AcDbArc
 50
180.0
 51
270.0
  0
ARC
  5
1A9
330
A
100
AcDbEntity
  8
LAYER_1
  6
Continuous
 62
     7
100
AcDbCircle
 10
10.54043948541999
 20
372.797677878186
 30
0.0
 40
0.5
100
AcDbArc
 50
90.0
 51
180.0
  0
LINE
  5
1AA
330
A
100
AcDbEntity
  8
LAYER_1
  6
Continuous
 62
     7
100
AcDbLine
 10
40.04043948542
 20
372.797677878186
 30
0.0
 11
40.04043948542
 21
369.797677878186
 31
0.0
  0
ARC
  5
1AB
330
A
100
AcDbEntity
  8
LAYER_1
  6
Continuous
 62
     7
100
AcDbCircle
 10
39.540439485419
 20
365.7976778781849
 30
0.0
 40
0.5
100
AcDbArc
 50
0.0
 51
90.0
  0
ARC
  5
1AC
330
A
100
AcDbEntity
  8
LAYER_1
  6
Continuous
 62
     7
100
AcDbCircle
 10
39.540439485419
 20
369.797677878186
 30
0.0
 40
0.5
100
AcDbArc
 50
270.0
 51
0.0
  0
ARC
  5
1AD
330
A
100
AcDbEntity
  8
LAYER_1
  6
Continuous
 62
     7
100
AcDbCircle
 10
39.540439485419
 20
372.797677878186
 30
0.0
 40
0.5
100
AcDbArc
 50
0.0
 51
90.0
  0
LINE
  5
1AE
330
A
100
AcDbEntity
  8
LAYER_1
  6
Continuous
 62
     7
100
AcDbLine
 10
10.54043948541999
 20
380.297677878186
 30
0.0
 11
39.540439485419
 21
380.297677878186
 31
0.0
  0
LINE
  5
1AF
330
A
100
AcDbEntity
  8
LAYER_1
  6
Continuous
 62
     7
100
AcDbLine
 10
39.540439485419
 20
376.297677878186
 30
0.0
 11
10.54043948541999
 21
376.297677878186
 31
0.0
  0
LINE
  5
1B0
330
A
100
AcDbEntity
  8
LAYER_1
  6
Continuous
 62
     7
100
AcDbLine
 10
10.04043948541999
 20
376.797677878186
 30
0.0
 11
10.04043948541999
 21
379.7976778781849
 31
0.0
  0
ARC
  5
1B1
330
A
100
AcDbEntity
  8
LAYER_1
  6
Continuous
 62
     7
100
AcDbCircle
 10
10.54043948541999
 20
376.797677878186
 30
0.0
 40
0.5
100
AcDbArc
 50
180.0
 51
270.0
  0
ARC
  5
1B2
330
A
100
AcDbEntity
  8
LAYER_1
  6
Continuous
 62
     7
100
AcDbCircle
 10
10.54043948541999
 20
379.7976778781849
 30
0.0
 40
0.5
100
AcDbArc
 50
90.0
 51
180.0
  0
LINE
  5
1B3
330
A
100
AcDbEntity
  8
LAYER_1
  6
Continuous
 62
     7
100
AcDbLine
 10
40.04043948542
 20
379.7976778781849
 30
0.0
 11
40.04043948542
 21
376.797677878186
 31
0.0
  0
ARC
  5
1B4
330
A
100
AcDbEntity
  8
LAYER_1
  6
Continuous
 62
     7
100
AcDbCircle
 10
39.540439485419
 20
376.797677878186
 30
0.0
 40
0.5
100
AcDbArc
 50
270.0
 51
0.0
  0
ARC
  5
1B5
330
A
100
AcDbEntity
  8
LAYER_1
  6
Continuous
 62
     7
100
AcDbCircle
 10
39.540439485419
 20
379.7976778781849
 30
0.0
 40
0.5
100
AcDbArc
 50
0.0
 51
90.0
  0
LINE
  5
1B6
330
A
100
AcDbEntity
  8
LAYER_1
  6
Continuous
 62
     7
100
AcDbLine
 10
47.540439485419
 20
365.7976778781849
 30
0.0
 11
47.540439485419
 21
362.797677878186
 31
0.0
  0
LINE
  5
1B7
330
A
100
AcDbEntity
  8
LAYER_1
  6
Continuous
 62
     7
100
AcDbLine
 10
77.54043948541999
 20
362.797677878186
 30
0.0
 11
77.54043948541999
 21
365.7976778781849
 31
0.0
  0
LINE
  5
1B8
330
A
100
AcDbEntity
  8
LAYER_1
  6
Continuous
 62
     7
100
AcDbLine
 10
48.04043948541999
 20
362.2976778781849
 30
0.0
 11
77.04043948542
 21
362.2976778781849
 31
0.0
  0
ARC
  5
1B9
330
A
100
AcDbEntity
  8
LAYER_1
  6
Continuous
 62
     7
100
AcDbCircle
 10
77.04043948542
 20
362.797677878186
 30
0.0
 40
0.5
100
AcDbArc
 50
270.0
 51
0.0
  0
ARC
  5
1BA
330
A
100
AcDbEntity
  8
LAYER_1
  6
Continuous
 62
     7
100
AcDbCircle
 10
48.04043948541999
 20
362.797677878186
 30
0.0
 40
0.5
100
AcDbArc
 50
180.0
 51
270.0
  0
LINE
  5
1BB
330
A
100
AcDbEntity
  8
LAYER_1
  6
Continuous
 62
     7
100
AcDbLine
 10
48.04043948541999
 20
376.297677878186
 30
0.0
 11
69.04043948542
 21
376.297677878186
 31
0.0
  0
LINE
  5
1BC
330
A
100
AcDbEntity
  8
LAYER_1
  6
Continuous
 62
     7
100
AcDbLine
 10
69.04043948542
 20
380.297677878186
 30
0.0
 11
48.04043948541999
 21
380.297677878186
 31
0.0
  0
LINE
  5
1BD
330
A
100
AcDbEntity
  8
LAYER_1
  6
Continuous
 62
     7
100
AcDbLine
 10
77.04043948542
 20
366.297677878186
 30
0.0
 11
48.04043948541999
 21
366.297677878186
 31
0.0
  0
LINE
  5
1BE
330
A
100
AcDbEntity
  8
LAYER_1
  6
Continuous
 62
     7
100
AcDbLine
 10
48.04043948541999
 20
369.297677878186
 30
0.0
 11
77.04043948542
 21
369.297677878186
 31
0.0
  0
LINE
  5
1BF
330
A
100
AcDbEntity
  8
LAYER_1
  6
Continuous
 62
     7
100
AcDbLine
 10
77.04043948542
 20
373.2976778781849
 30
0.0
 11
48.04043948541999
 21
373.2976778781849
 31
0.0
  0
LINE
  5
1C0
330
A
100
AcDbEntity
  8
LAYER_1
  6
Continuous
 62
     7
100
AcDbLine
 10
77.54043948541999
 20
369.797677878186
 30
0.0
 11
77.54043948541999
 21
372.797677878186
 31
0.0
  0
ARC
  5
1C1
330
A
100
AcDbEntity
  8
LAYER_1
  6
Continuous
 62
     7
100
AcDbCircle
 10
77.04043948542
 20
365.7976778781849
 30
0.0
 40
0.5
100
AcDbArc
 50
0.0
 51
90.0
  0
LINE
  5
1C2
330
A
100
AcDbEntity
  8
LAYER_1
  6
Continuous
 62
     7
100
AcDbLine
 10
69.54043948542
 20
376.797677878186
 30
0.0
 11
69.54043948542
 21
379.7976778781849
 31
0.0
  0
ARC
  5
1C3
330
A
100
AcDbEntity
  8
LAYER_1
  6
Continuous
 62
     7
100
AcDbCircle
 10
69.04043948542
 20
376.797677878186
 30
0.0
 40
0.5
100
AcDbArc
 50
270.0
 51
0.0
  0
ARC
  5
1C4
330
A
100
AcDbEntity
  8
LAYER_1
  6
Continuous
 62
     7
100
AcDbCircle
 10
69.04043948542
 20
379.7976778781849
 30
0.0
 40
0.5
100
AcDbArc
 50
0.0
 51
90.0
  0
LINE
  5
1C5
330
A
100
AcDbEntity
  8
LAYER_1
  6
Continuous
 62
     7
100
AcDbLine
 10
47.540439485419
 20
379.7976778781849
 30
0.0
 11
47.540439485419
 21
376.797677878186
 31
0.0
  0
LINE
  5
1C6
330
A
100
AcDbEntity
  8
LAYER_1
  6
Continuous
 62
     7
100
AcDbLine
 10
47.540439485419
 20
372.797677878186
 30
0.0
 11
47.540439485419
 21
369.797677878186
 31
0.0
  0
ARC
  5
1C7
330
A
100
AcDbEntity
  8
LAYER_1
  6
Continuous
 62
     7
100
AcDbCircle
 10
48.04043948541999
 20
365.7976778781849
 30
0.0
 40
0.5
100
AcDbArc
 50
90.0
 51
180.0
  0
ARC
  5
1C8
330
A
100
AcDbEntity
  8
LAYER_1
  6
Continuous
 62
     7
100
AcDbCircle
 10
48.04043948541999
 20
369.797677878186
 30
0.0
 40
0.5
100
AcDbArc
 50
180.0
 51
270.0
  0
ARC
  5
1C9
330
A
100
AcDbEntity
  8
LAYER_1
  6
Continuous
 62
     7
100
AcDbCircle
 10
48.04043948541999
 20
376.797677878186
 30
0.0
 40
0.5
100
AcDbArc
 50
180.0
 51
270.0
  0
ARC
  5
1CA
330
A
100
AcDbEntity
  8
LAYER_1
  6
Continuous
 62
     7
100
AcDbCircle
 10
48.04043948541999
 20
372.797677878186
 30
0.0
 40
0.5
100
AcDbArc
 50
90.0
 51
180.0
  0
ARC
  5
1CB
330
A
100
AcDbEntity
  8
LAYER_1
  6
Continuous
 62
     7
100
AcDbCircle
 10
48.04043948541999
 20
379.7976778781849
 30
0.0
 40
0.5
100
AcDbArc
 50
90.0
 51
180.0
  0
LINE
  5
1CC
330
A
100
AcDbEntity
  8
LAYER_1
  6
Continuous
 62
     7
100
AcDbLine
 10
39.540439485419
 20
348.297677878186
 30
0.0
 11
10.54043948541999
 21
348.297677878186
 31
0.0
  0
LINE
  5
1CD
330
A
100
AcDbEntity
  8
LAYER_1
  6
Continuous
 62
     7
100
AcDbLine
 10
10.54043948541999
 20
359.2976778781849
 30
0.0
 11
39.540439485419
 21
359.2976778781849
 31
0.0
  0
LINE
  5
1CE
330
A
100
AcDbEntity
  8
LAYER_1
  6
Continuous
 62
     7
100
AcDbLine
 10
39.540439485419
 20
355.297677878186
 30
0.0
 11
10.54043948541999
 21
355.297677878186
 31
0.0
  0
LINE
  5
1CF
330
A
100
AcDbEntity
  8
LAYER_1
  6
Continuous
 62
     7
100
AcDbLine
 10
10.54043948541999
 20
352.297677878186
 30
0.0
 11
39.540439485419
 21
352.297677878186
 31
0.0
  0
LINE
  5
1D0
330
A
100
AcDbEntity
  8
LAYER_1
  6
Continuous
 62
     7
100
AcDbLine
 10
2.040439485419
 20
348.297677878186
 30
0.0
 11
-26.959560514581
 21
348.297677878186
 31
0.0
  0
LINE
  5
1D1
330
A
100
AcDbEntity
  8
LAYER_1
  6
Continuous
 62
     7
100
AcDbLine
 10
-26.959560514581
 20
352.297677878186
 30
0.0
 11
2.040439485419
 21
352.297677878186
 31
0.0
  0
LINE
  5
1D2
330
A
100
AcDbEntity
  8
LAYER_1
  6
Continuous
 62
     7
100
AcDbLine
 10
2.040439485419
 20
355.297677878186
 30
0.0
 11
-26.959560514581
 21
355.297677878186
 31
0.0
  0
LINE
  5
1D3
330
A
100
AcDbEntity
  8
LAYER_1
  6
Continuous
 62
     7
100
AcDbLine
 10
-26.959560514581
 20
359.2976778781849
 30
0.0
 11
2.040439485419
 21
359.2976778781849
 31
0.0
  0
LINE
  5
1D4
330
A
100
AcDbEntity
  8
LAYER_1
  6
Continuous
 62
     7
100
AcDbLine
 10
-27.45956051458
 20
348.7976778781849
 30
0.0
 11
-27.45956051458
 21
351.797677878186
 31
0.0
  0
ARC
  5
1D5
330
A
100
AcDbEntity
  8
LAYER_1
  6
Continuous
 62
     7
100
AcDbCircle
 10
-26.959560514581
 20
348.7976778781849
 30
0.0
 40
0.5
100
AcDbArc
 50
180.0
 51
270.0
  0
ARC
  5
1D6
330
A
100
AcDbEntity
  8
LAYER_1
  6
Continuous
 62
     7
100
AcDbCircle
 10
-26.959560514581
 20
351.797677878186
 30
0.0
 40
0.5
100
AcDbArc
 50
90.0
 51
180.0
  0
LINE
  5
1D7
330
A
100
AcDbEntity
  8
LAYER_1
  6
Continuous
 62
     7
100
AcDbLine
 10
-27.45956051458
 20
355.7976778781849
 30
0.0
 11
-27.45956051458
 21
358.7976778781849
 31
0.0
  0
ARC
  5
1D8
330
A
100
AcDbEntity
  8
LAYER_1
  6
Continuous
 62
     7
100
AcDbCircle
 10
-26.959560514581
 20
355.7976778781849
 30
0.0
 40
0.5
100
AcDbArc
 50
180.0
 51
270.0
  0
ARC
  5
1D9
330
A
100
AcDbEntity
  8
LAYER_1
  6
Continuous
 62
     7
100
AcDbCircle
 10
-26.959560514581
 20
358.7976778781849
 30
0.0
 40
0.5
100
AcDbArc
 50
90.0
 51
180.0
  0
ARC
  5
1DA
330
A
100
AcDbEntity
  8
LAYER_1
  6
Continuous
 62
     7
100
AcDbCircle
 10
10.54043948541999
 20
348.7976778781849
 30
0.0
 40
0.5
100
AcDbArc
 50
180.0
 51
270.0
  0
ARC
  5
1DB
330
A
100
AcDbEntity
  8
LAYER_1
  6
Continuous
 62
     7
100
AcDbCircle
 10
10.54043948541999
 20
355.7976778781849
 30
0.0
 40
0.5
100
AcDbArc
 50
180.0
 51
270.0
  0
ARC
  5
1DC
330
A
100
AcDbEntity
  8
LAYER_1
  6
Continuous
 62
     7
100
AcDbCircle
 10
10.54043948541999
 20
351.797677878186
 30
0.0
 40
0.5
100
AcDbArc
 50
90.0
 51
180.0
  0
ARC
  5
1DD
330
A
100
AcDbEntity
  8
LAYER_1
  6
Continuous
 62
     7
100
AcDbCircle
 10
10.54043948541999
 20
358.7976778781849
 30
0.0
 40
0.5
100
AcDbArc
 50
90.0
 51
180.0
  0
LINE
  5
1DE
330
A
100
AcDbEntity
  8
LAYER_1
  6
Continuous
 62
     7
100
AcDbLine
 10
2.540439485419999
 20
351.797677878186
 30
0.0
 11
2.540439485419999
 21
348.7976778781849
 31
0.0
  0
ARC
  5
1DF
330
A
100
AcDbEntity
  8
LAYER_1
  6
Continuous
 62
     7
100
AcDbCircle
 10
2.040439485419
 20
348.7976778781849
 30
0.0
 40
0.5
100
AcDbArc
 50
270.0
 51
0.0
  0
ARC
  5
1E0
330
A
100
AcDbEntity
  8
LAYER_1
  6
Continuous
 62
     7
100
AcDbCircle
 10
2.040439485419
 20
351.797677878186
 30
0.0
 40
0.5
100
AcDbArc
 50
0.0
 51
90.0
  0
LINE
  5
1E1
330
A
100
AcDbEntity
  8
LAYER_1
  6
Continuous
 62
     7
100
AcDbLine
 10
10.04043948541999
 20
348.7976778781849
 30
0.0
 11
10.04043948541999
 21
351.797677878186
 31
0.0
  0
LINE
  5
1E2
330
A
100
AcDbEntity
  8
LAYER_1
  6
Continuous
 62
     7
100
AcDbLine
 10
2.540439485419999
 20
358.7976778781849
 30
0.0
 11
2.540439485419999
 21
355.7976778781849
 31
0.0
  0
ARC
  5
1E3
330
A
100
AcDbEntity
  8
LAYER_1
  6
Continuous
 62
     7
100
AcDbCircle
 10
2.040439485419
 20
355.7976778781849
 30
0.0
 40
0.5
100
AcDbArc
 50
270.0
 51
0.0
  0
ARC
  5
1E4
330
A
100
AcDbEntity
  8
LAYER_1
  6
Continuous
 62
     7
100
AcDbCircle
 10
2.040439485419
 20
358.7976778781849
 30
0.0
 40
0.5
100
AcDbArc
 50
0.0
 51
90.0
  0
LINE
  5
1E5
330
A
100
AcDbEntity
  8
LAYER_1
  6
Continuous
 62
     7
100
AcDbLine
 10
10.04043948541999
 20
355.7976778781849
 30
0.0
 11
10.04043948541999
 21
358.7976778781849
 31
0.0
  0
LINE
  5
1E6
330
A
100
AcDbEntity
  8
LAYER_1
  6
Continuous
 62
     7
100
AcDbLine
 10
48.04043948541999
 20
348.297677878186
 30
0.0
 11
77.04043948542
 21
348.297677878186
 31
0.0
  0
LINE
  5
1E7
330
A
100
AcDbEntity
  8
LAYER_1
  6
Continuous
 62
     7
100
AcDbLine
 10
77.04043948542
 20
359.2976778781849
 30
0.0
 11
48.04043948541999
 21
359.2976778781849
 31
0.0
  0
LINE
  5
1E8
330
A
100
AcDbEntity
  8
LAYER_1
  6
Continuous
 62
     7
100
AcDbLine
 10
48.04043948541999
 20
355.297677878186
 30
0.0
 11
77.04043948542
 21
355.297677878186
 31
0.0
  0
LINE
  5
1E9
330
A
100
AcDbEntity
  8
LAYER_1
  6
Continuous
 62
     7
100
AcDbLine
 10
77.04043948542
 20
352.297677878186
 30
0.0
 11
48.04043948541999
 21
352.297677878186
 31
0.0
  0
LINE
  5
1EA
330
A
100
AcDbEntity
  8
LAYER_1
  6
Continuous
 62
     7
100
AcDbLine
 10
40.04043948542
 20
351.797677878186
 30
0.0
 11
40.04043948542
 21
348.7976778781849
 31
0.0
  0
ARC
  5
1EB
330
A
100
AcDbEntity
  8
LAYER_1
  6
Continuous
 62
     7
100
AcDbCircle
 10
39.540439485419
 20
348.7976778781849
 30
0.0
 40
0.5
100
AcDbArc
 50
270.0
 51
0.0
  0
ARC
  5
1EC
330
A
100
AcDbEntity
  8
LAYER_1
  6
Continuous
 62
     7
100
AcDbCircle
 10
39.540439485419
 20
351.797677878186
 30
0.0
 40
0.5
100
AcDbArc
 50
0.0
 51
90.0
  0
LINE
  5
1ED
330
A
100
AcDbEntity
  8
LAYER_1
  6
Continuous
 62
     7
100
AcDbLine
 10
47.540439485419
 20
351.797677878186
 30
0.0
 11
47.540439485419
 21
348.7976778781849
 31
0.0
  0
ARC
  5
1EE
330
A
100
AcDbEntity
  8
LAYER_1
  6
Continuous
 62
     7
100
AcDbCircle
 10
48.04043948541999
 20
348.7976778781849
 30
0.0
 40
0.5
100
AcDbArc
 50
180.0
 51
270.0
  0
ARC
  5
1EF
330
A
100
AcDbEntity
  8
LAYER_1
  6
Continuous
 62
     7
100
AcDbCircle
 10
48.04043948541999
 20
351.797677878186
 30
0.0
 40
0.5
100
AcDbArc
 50
90.0
 51
180.0
  0
LINE
  5
1F0
330
A
100
AcDbEntity
  8
LAYER_1
  6
Continuous
 62
     7
100
AcDbLine
 10
40.04043948542
 20
358.7976778781849
 30
0.0
 11
40.04043948542
 21
355.7976778781849
 31
0.0
  0
ARC
  5
1F1
330
A
100
AcDbEntity
  8
LAYER_1
  6
Continuous
 62
     7
100
AcDbCircle
 10
39.540439485419
 20
355.7976778781849
 30
0.0
 40
0.5
100
AcDbArc
 50
270.0
 51
0.0
  0
ARC
  5
1F2
330
A
100
AcDbEntity
  8
LAYER_1
  6
Continuous
 62
     7
100
AcDbCircle
 10
39.540439485419
 20
358.7976778781849
 30
0.0
 40
0.5
100
AcDbArc
 50
0.0
 51
90.0
  0
LINE
  5
1F3
330
A
100
AcDbEntity
  8
LAYER_1
  6
Continuous
 62
     7
100
AcDbLine
 10
47.540439485419
 20
358.7976778781849
 30
0.0
 11
47.540439485419
 21
355.7976778781849
 31
0.0
  0
ARC
  5
1F4
330
A
100
AcDbEntity
  8
LAYER_1
  6
Continuous
 62
     7
100
AcDbCircle
 10
48.04043948541999
 20
355.7976778781849
 30
0.0
 40
0.5
100
AcDbArc
 50
180.0
 51
270.0
  0
ARC
  5
1F5
330
A
100
AcDbEntity
  8
LAYER_1
  6
Continuous
 62
     7
100
AcDbCircle
 10
48.04043948541999
 20
358.7976778781849
 30
0.0
 40
0.5
100
AcDbArc
 50
90.0
 51
180.0
  0
LINE
  5
1F6
330
A
100
AcDbEntity
  8
LAYER_1
  6
Continuous
 62
     7
100
AcDbLine
 10
77.54043948541999
 20
348.7976778781849
 30
0.0
 11
77.54043948541999
 21
351.797677878186
 31
0.0
  0
ARC
  5
1F7
330
A
100
AcDbEntity
  8
LAYER_1
  6
Continuous
 62
     7
100
AcDbCircle
 10
77.04043948542
 20
348.7976778781849
 30
0.0
 40
0.5
100
AcDbArc
 50
270.0
 51
0.0
  0
ARC
  5
1F8
330
A
100
AcDbEntity
  8
LAYER_1
  6
Continuous
 62
     7
100
AcDbCircle
 10
77.04043948542
 20
351.797677878186
 30
0.0
 40
0.5
100
AcDbArc
 50
0.0
 51
90.0
  0
LINE
  5
1F9
330
A
100
AcDbEntity
  8
LAYER_1
  6
Continuous
 62
     7
100
AcDbLine
 10
77.54043948541999
 20
355.7976778781849
 30
0.0
 11
77.54043948541999
 21
358.7976778781849
 31
0.0
  0
ARC
  5
1FA
330
A
100
AcDbEntity
  8
LAYER_1
  6
Continuous
 62
     7
100
AcDbCircle
 10
77.04043948542
 20
355.7976778781849
 30
0.0
 40
0.5
100
AcDbArc
 50
270.0
 51
0.0
  0
ARC
  5
1FB
330
A
100
AcDbEntity
  8
LAYER_1
  6
Continuous
 62
     7
100
AcDbCircle
 10
77.04043948542
 20
358.7976778781849
 30
0.0
 40
0.5
100
AcDbArc
 50
0.0
 51
90.0
  0
LINE
  5
1FC
330
A
100
AcDbEntity
  8
LAYER_1
  6
Continuous
 62
     7
100
AcDbLine
 10
10.54043948541999
 20
331.2976778781859
 30
0.0
 11
39.540439485419
 21
331.2976778781859
 31
0.0
  0
LINE
  5
1FD
330
A
100
AcDbEntity
  8
LAYER_1
  6
Continuous
 62
     7
100
AcDbLine
 10
39.540439485419
 20
334.297677878186
 30
0.0
 11
10.54043948541999
 21
334.297677878186
 31
0.0
  0
LINE
  5
1FE
330
A
100
AcDbEntity
  8
LAYER_1
  6
Continuous
 62
     7
100
AcDbLine
 10
10.54043948541999
 20
338.297677878186
 30
0.0
 11
39.540439485419
 21
338.297677878186
 31
0.0
  0
LINE
  5
1FF
330
A
100
AcDbEntity
  8
LAYER_1
  6
Continuous
 62
     7
100
AcDbLine
 10
39.540439485419
 20
327.297677878185
 30
0.0
 11
10.54043948541999
 21
327.297677878185
 31
0.0
  0
LINE
  5
200
330
A
100
AcDbEntity
  8
LAYER_1
  6
Continuous
 62
     7
100
AcDbLine
 10
39.540439485419
 20
341.297677878185
 30
0.0
 11
10.54043948541999
 21
341.297677878185
 31
0.0
  0
LINE
  5
201
330
A
100
AcDbEntity
  8
LAYER_1
  6
Continuous
 62
     7
100
AcDbLine
 10
10.54043948541999
 20
345.2976778781849
 30
0.0
 11
39.540439485419
 21
345.2976778781849
 31
0.0
  0
LINE
  5
202
330
A
100
AcDbEntity
  8
LAYER_1
  6
Continuous
 62
     7
100
AcDbLine
 10
-26.959560514581
 20
331.2976778781859
 30
0.0
 11
2.040439485419
 21
331.2976778781859
 31
0.0
  0
LINE
  5
203
330
A
100
AcDbEntity
  8
LAYER_1
  6
Continuous
 62
     7
100
AcDbLine
 10
2.040439485419
 20
327.297677878185
 30
0.0
 11
-26.959560514581
 21
327.297677878185
 31
0.0
  0
ARC
  5
204
330
A
100
AcDbEntity
  8
LAYER_1
  6
Continuous
 62
     7
100
AcDbCircle
 10
-26.959560514581
 20
330.7976778781859
 30
0.0
 40
0.5
100
AcDbArc
 50
90.0
 51
180.0
  0
ARC
  5
205
330
A
100
AcDbEntity
  8
LAYER_1
  6
Continuous
 62
     7
100
AcDbCircle
 10
-26.959560514581
 20
327.797677878186
 30
0.0
 40
0.5
100
AcDbArc
 50
180.0
 51
270.0
  0
LINE
  5
206
330
A
100
AcDbEntity
  8
LAYER_1
  6
Continuous
 62
     7
100
AcDbLine
 10
-27.45956051458
 20
327.797677878186
 30
0.0
 11
-27.45956051458
 21
330.7976778781859
 31
0.0
  0
ARC
  5
207
330
A
100
AcDbEntity
  8
LAYER_1
  6
Continuous
 62
     7
100
AcDbCircle
 10
10.54043948541999
 20
330.7976778781859
 30
0.0
 40
0.5
100
AcDbArc
 50
90.0
 51
180.0
  0
ARC
  5
208
330
A
100
AcDbEntity
  8
LAYER_1
  6
Continuous
 62
     7
100
AcDbCircle
 10
10.54043948541999
 20
327.797677878186
 30
0.0
 40
0.5
100
AcDbArc
 50
180.0
 51
270.0
  0
ARC
  5
209
330
A
100
AcDbEntity
  8
LAYER_1
  6
Continuous
 62
     7
100
AcDbCircle
 10
2.040439485419
 20
330.7976778781859
 30
0.0
 40
0.5
100
AcDbArc
 50
0.0
 51
90.0
  0
ARC
  5
20A
330
A
100
AcDbEntity
  8
LAYER_1
  6
Continuous
 62
     7
100
AcDbCircle
 10
2.040439485419
 20
327.797677878186
 30
0.0
 40
0.5
100
AcDbArc
 50
270.0
 51
0.0
  0
LINE
  5
20B
330
A
100
AcDbEntity
  8
LAYER_1
  6
Continuous
 62
     7
100
AcDbLine
 10
2.540439485419999
 20
330.7976778781859
 30
0.0
 11
2.540439485419999
 21
327.797677878186
 31
0.0
  0
LINE
  5
20C
330
A
100
AcDbEntity
  8
LAYER_1
  6
Continuous
 62
     7
100
AcDbLine
 10
10.04043948541999
 20
327.797677878186
 30
0.0
 11
10.04043948541999
 21
330.7976778781859
 31
0.0
  0
LINE
  5
20D
330
A
100
AcDbEntity
  8
LAYER_1
  6
Continuous
 62
     7
100
AcDbLine
 10
-26.959560514581
 20
338.297677878186
 30
0.0
 11
2.040439485419
 21
338.297677878186
 31
0.0
  0
LINE
  5
20E
330
A
100
AcDbEntity
  8
LAYER_1
  6
Continuous
 62
     7
100
AcDbLine
 10
2.040439485419
 20
334.297677878186
 30
0.0
 11
-26.959560514581
 21
334.297677878186
 31
0.0
  0
LINE
  5
20F
330
A
100
AcDbEntity
  8
LAYER_1
  6
Continuous
 62
     7
100
AcDbLine
 10
2.040439485419
 20
341.297677878185
 30
0.0
 11
-26.959560514581
 21
341.297677878185
 31
0.0
  0
LINE
  5
210
330
A
100
AcDbEntity
  8
LAYER_1
  6
Continuous
 62
     7
100
AcDbLine
 10
-26.959560514581
 20
345.2976778781849
 30
0.0
 11
2.040439485419
 21
345.2976778781849
 31
0.0
  0
ARC
  5
211
330
A
100
AcDbEntity
  8
LAYER_1
  6
Continuous
 62
     7
100
AcDbCircle
 10
-26.959560514581
 20
337.797677878186
 30
0.0
 40
0.5
100
AcDbArc
 50
90.0
 51
180.0
  0
ARC
  5
212
330
A
100
AcDbEntity
  8
LAYER_1
  6
Continuous
 62
     7
100
AcDbCircle
 10
-26.959560514581
 20
334.797677878185
 30
0.0
 40
0.5
100
AcDbArc
 50
180.0
 51
270.0
  0
LINE
  5
213
330
A
100
AcDbEntity
  8
LAYER_1
  6
Continuous
 62
     7
100
AcDbLine
 10
-27.45956051458
 20
334.797677878185
 30
0.0
 11
-27.45956051458
 21
337.797677878186
 31
0.0
  0
LINE
  5
214
330
A
100
AcDbEntity
  8
LAYER_1
  6
Continuous
 62
     7
100
AcDbLine
 10
-27.45956051458
 20
341.7976778781859
 30
0.0
 11
-27.45956051458
 21
344.7976778781849
 31
0.0
  0
ARC
  5
215
330
A
100
AcDbEntity
  8
LAYER_1
  6
Continuous
 62
     7
100
AcDbCircle
 10
-26.959560514581
 20
341.7976778781859
 30
0.0
 40
0.5
100
AcDbArc
 50
180.0
 51
270.0
  0
ARC
  5
216
330
A
100
AcDbEntity
  8
LAYER_1
  6
Continuous
 62
     7
100
AcDbCircle
 10
-26.959560514581
 20
344.7976778781849
 30
0.0
 40
0.5
100
AcDbArc
 50
90.0
 51
180.0
  0
ARC
  5
217
330
A
100
AcDbEntity
  8
LAYER_1
  6
Continuous
 62
     7
100
AcDbCircle
 10
10.54043948541999
 20
337.797677878186
 30
0.0
 40
0.5
100
AcDbArc
 50
90.0
 51
180.0
  0
ARC
  5
218
330
A
100
AcDbEntity
  8
LAYER_1
  6
Continuous
 62
     7
100
AcDbCircle
 10
10.54043948541999
 20
334.797677878185
 30
0.0
 40
0.5
100
AcDbArc
 50
180.0
 51
270.0
  0
ARC
  5
219
330
A
100
AcDbEntity
  8
LAYER_1
  6
Continuous
 62
     7
100
AcDbCircle
 10
10.54043948541999
 20
341.7976778781859
 30
0.0
 40
0.5
100
AcDbArc
 50
180.0
 51
270.0
  0
ARC
  5
21A
330
A
100
AcDbEntity
  8
LAYER_1
  6
Continuous
 62
     7
100
AcDbCircle
 10
10.54043948541999
 20
344.7976778781849
 30
0.0
 40
0.5
100
AcDbArc
 50
90.0
 51
180.0
  0
ARC
  5
21B
330
A
100
AcDbEntity
  8
LAYER_1
  6
Continuous
 62
     7
100
AcDbCircle
 10
2.040439485419
 20
337.797677878186
 30
0.0
 40
0.5
100
AcDbArc
 50
0.0
 51
90.0
  0
ARC
  5
21C
330
A
100
AcDbEntity
  8
LAYER_1
  6
Continuous
 62
     7
100
AcDbCircle
 10
2.040439485419
 20
334.797677878185
 30
0.0
 40
0.5
100
AcDbArc
 50
270.0
 51
0.0
  0
LINE
  5
21D
330
A
100
AcDbEntity
  8
LAYER_1
  6
Continuous
 62
     7
100
AcDbLine
 10
2.540439485419999
 20
337.797677878186
 30
0.0
 11
2.540439485419999
 21
334.797677878185
 31
0.0
  0
LINE
  5
21E
330
A
100
AcDbEntity
  8
LAYER_1
  6
Continuous
 62
     7
100
AcDbLine
 10
10.04043948541999
 20
334.797677878185
 30
0.0
 11
10.04043948541999
 21
337.797677878186
 31
0.0
  0
LINE
  5
21F
330
A
100
AcDbEntity
  8
LAYER_1
  6
Continuous
 62
     7
100
AcDbLine
 10
2.540439485419999
 20
344.7976778781849
 30
0.0
 11
2.540439485419999
 21
341.7976778781859
 31
0.0
  0
ARC
  5
220
330
A
100
AcDbEntity
  8
LAYER_1
  6
Continuous
 62
     7
100
AcDbCircle
 10
2.040439485419
 20
341.7976778781859
 30
0.0
 40
0.5
100
AcDbArc
 50
270.0
 51
0.0
  0
ARC
  5
221
330
A
100
AcDbEntity
  8
LAYER_1
  6
Continuous
 62
     7
100
AcDbCircle
 10
2.040439485419
 20
344.7976778781849
 30
0.0
 40
0.5
100
AcDbArc
 50
0.0
 51
90.0
  0
LINE
  5
222
330
A
100
AcDbEntity
  8
LAYER_1
  6
Continuous
 62
     7
100
AcDbLine
 10
10.04043948541999
 20
341.7976778781859
 30
0.0
 11
10.04043948541999
 21
344.7976778781849
 31
0.0
  0
LINE
  5
223
330
A
100
AcDbEntity
  8
LAYER_1
  6
Continuous
 62
     7
100
AcDbLine
 10
77.04043948542
 20
331.2976778781859
 30
0.0
 11
48.04043948541999
 21
331.2976778781859
 31
0.0
  0
LINE
  5
224
330
A
100
AcDbEntity
  8
LAYER_1
  6
Continuous
 62
     7
100
AcDbLine
 10
48.04043948541999
 20
327.297677878185
 30
0.0
 11
77.04043948542
 21
327.297677878185
 31
0.0
  0
ARC
  5
225
330
A
100
AcDbEntity
  8
LAYER_1
  6
Continuous
 62
     7
100
AcDbCircle
 10
39.540439485419
 20
330.7976778781859
 30
0.0
 40
0.5
100
AcDbArc
 50
0.0
 51
90.0
  0
ARC
  5
226
330
A
100
AcDbEntity
  8
LAYER_1
  6
Continuous
 62
     7
100
AcDbCircle
 10
39.540439485419
 20
327.797677878186
 30
0.0
 40
0.5
100
AcDbArc
 50
270.0
 51
0.0
  0
LINE
  5
227
330
A
100
AcDbEntity
  8
LAYER_1
  6
Continuous
 62
     7
100
AcDbLine
 10
40.04043948542
 20
330.7976778781859
 30
0.0
 11
40.04043948542
 21
327.797677878186
 31
0.0
  0
ARC
  5
228
330
A
100
AcDbEntity
  8
LAYER_1
  6
Continuous
 62
     7
100
AcDbCircle
 10
48.04043948541999
 20
330.7976778781859
 30
0.0
 40
0.5
100
AcDbArc
 50
90.0
 51
180.0
  0
ARC
  5
229
330
A
100
AcDbEntity
  8
LAYER_1
  6
Continuous
 62
     7
100
AcDbCircle
 10
48.04043948541999
 20
327.797677878186
 30
0.0
 40
0.5
100
AcDbArc
 50
180.0
 51
270.0
  0
LINE
  5
22A
330
A
100
AcDbEntity
  8
LAYER_1
  6
Continuous
 62
     7
100
AcDbLine
 10
47.540439485419
 20
330.7976778781859
 30
0.0
 11
47.540439485419
 21
327.797677878186
 31
0.0
  0
ARC
  5
22B
330
A
100
AcDbEntity
  8
LAYER_1
  6
Continuous
 62
     7
100
AcDbCircle
 10
77.04043948542
 20
330.7976778781859
 30
0.0
 40
0.5
100
AcDbArc
 50
0.0
 51
90.0
  0
ARC
  5
22C
330
A
100
AcDbEntity
  8
LAYER_1
  6
Continuous
 62
     7
100
AcDbCircle
 10
77.04043948542
 20
327.797677878186
 30
0.0
 40
0.5
100
AcDbArc
 50
270.0
 51
0.0
  0
LINE
  5
22D
330
A
100
AcDbEntity
  8
LAYER_1
  6
Continuous
 62
     7
100
AcDbLine
 10
77.54043948541999
 20
327.797677878186
 30
0.0
 11
77.54043948541999
 21
330.7976778781859
 31
0.0
  0
LINE
  5
22E
330
A
100
AcDbEntity
  8
LAYER_1
  6
Continuous
 62
     7
100
AcDbLine
 10
48.04043948541999
 20
334.297677878186
 30
0.0
 11
77.04043948542
 21
334.297677878186
 31
0.0
  0
LINE
  5
22F
330
A
100
AcDbEntity
  8
LAYER_1
  6
Continuous
 62
     7
100
AcDbLine
 10
77.04043948542
 20
338.297677878186
 30
0.0
 11
48.04043948541999
 21
338.297677878186
 31
0.0
  0
LINE
  5
230
330
A
100
AcDbEntity
  8
LAYER_1
  6
Continuous
 62
     7
100
AcDbLine
 10
48.04043948541999
 20
341.297677878185
 30
0.0
 11
77.04043948542
 21
341.297677878185
 31
0.0
  0
LINE
  5
231
330
A
100
AcDbEntity
  8
LAYER_1
  6
Continuous
 62
     7
100
AcDbLine
 10
77.04043948542
 20
345.2976778781849
 30
0.0
 11
48.04043948541999
 21
345.2976778781849
 31
0.0
  0
ARC
  5
232
330
A
100
AcDbEntity
  8
LAYER_1
  6
Continuous
 62
     7
100
AcDbCircle
 10
39.540439485419
 20
337.797677878186
 30
0.0
 40
0.5
100
AcDbArc
 50
0.0
 51
90.0
  0
ARC
  5
233
330
A
100
AcDbEntity
  8
LAYER_1
  6
Continuous
 62
     7
100
AcDbCircle
 10
39.540439485419
 20
334.797677878185
 30
0.0
 40
0.5
100
AcDbArc
 50
270.0
 51
0.0
  0
LINE
  5
234
330
A
100
AcDbEntity
  8
LAYER_1
  6
Continuous
 62
     7
100
AcDbLine
 10
40.04043948542
 20
337.797677878186
 30
0.0
 11
40.04043948542
 21
334.797677878185
 31
0.0
  0
LINE
  5
235
330
A
100
AcDbEntity
  8
LAYER_1
  6
Continuous
 62
     7
100
AcDbLine
 10
40.04043948542
 20
344.7976778781849
 30
0.0
 11
40.04043948542
 21
341.7976778781859
 31
0.0
  0
ARC
  5
236
330
A
100
AcDbEntity
  8
LAYER_1
  6
Continuous
 62
     7
100
AcDbCircle
 10
39.540439485419
 20
341.7976778781859
 30
0.0
 40
0.5
100
AcDbArc
 50
270.0
 51
0.0
  0
ARC
  5
237
330
A
100
AcDbEntity
  8
LAYER_1
  6
Continuous
 62
     7
100
AcDbCircle
 10
39.540439485419
 20
344.7976778781849
 30
0.0
 40
0.5
100
AcDbArc
 50
0.0
 51
90.0
  0
ARC
  5
238
330
A
100
AcDbEntity
  8
LAYER_1
  6
Continuous
 62
     7
100
AcDbCircle
 10
48.04043948541999
 20
337.797677878186
 30
0.0
 40
0.5
100
AcDbArc
 50
90.0
 51
180.0
  0
ARC
  5
239
330
A
100
AcDbEntity
  8
LAYER_1
  6
Continuous
 62
     7
100
AcDbCircle
 10
48.04043948541999
 20
334.797677878185
 30
0.0
 40
0.5
100
AcDbArc
 50
180.0
 51
270.0
  0
LINE
  5
23A
330
A
100
AcDbEntity
  8
LAYER_1
  6
Continuous
 62
     7
100
AcDbLine
 10
47.540439485419
 20
337.797677878186
 30
0.0
 11
47.540439485419
 21
334.797677878185
 31
0.0
  0
LINE
  5
23B
330
A
100
AcDbEntity
  8
LAYER_1
  6
Continuous
 62
     7
100
AcDbLine
 10
47.540439485419
 20
344.7976778781849
 30
0.0
 11
47.540439485419
 21
341.7976778781859
 31
0.0
  0
ARC
  5
23C
330
A
100
AcDbEntity
  8
LAYER_1
  6
Continuous
 62
     7
100
AcDbCircle
 10
48.04043948541999
 20
341.7976778781859
 30
0.0
 40
0.5
100
AcDbArc
 50
180.0
 51
270.0
  0
ARC
  5
23D
330
A
100
AcDbEntity
  8
LAYER_1
  6
Continuous
 62
     7
100
AcDbCircle
 10
48.04043948541999
 20
344.7976778781849
 30
0.0
 40
0.5
100
AcDbArc
 50
90.0
 51
180.0
  0
ARC
  5
23E
330
A
100
AcDbEntity
  8
LAYER_1
  6
Continuous
 62
     7
100
AcDbCircle
 10
77.04043948542
 20
337.797677878186
 30
0.0
 40
0.5
100
AcDbArc
 50
0.0
 51
90.0
  0
ARC
  5
23F
330
A
100
AcDbEntity
  8
LAYER_1
  6
Continuous
 62
     7
100
AcDbCircle
 10
77.04043948542
 20
334.797677878185
 30
0.0
 40
0.5
100
AcDbArc
 50
270.0
 51
0.0
  0
LINE
  5
240
330
A
100
AcDbEntity
  8
LAYER_1
  6
Continuous
 62
     7
100
AcDbLine
 10
77.54043948541999
 20
334.797677878185
 30
0.0
 11
77.54043948541999
 21
337.797677878186
 31
0.0
  0
LINE
  5
241
330
A
100
AcDbEntity
  8
LAYER_1
  6
Continuous
 62
     7
100
AcDbLine
 10
77.54043948541999
 20
341.7976778781859
 30
0.0
 11
77.54043948541999
 21
344.7976778781849
 31
0.0
  0
ARC
  5
242
330
A
100
AcDbEntity
  8
LAYER_1
  6
Continuous
 62
     7
100
AcDbCircle
 10
77.04043948542
 20
341.7976778781859
 30
0.0
 40
0.5
100
AcDbArc
 50
270.0
 51
0.0
  0
ARC
  5
243
330
A
100
AcDbEntity
  8
LAYER_1
  6
Continuous
 62
     7
100
AcDbCircle
 10
77.04043948542
 20
344.7976778781849
 30
0.0
 40
0.5
100
AcDbArc
 50
0.0
 51
90.0
  0
LINE
  5
244
330
A
100
AcDbEntity
  8
LAYER_1
  6
Continuous
 62
     7
100
AcDbLine
 10
10.54043948541999
 20
310.2976778781859
 30
0.0
 11
39.540439485419
 21
310.2976778781859
 31
0.0
  0
LINE
  5
245
330
A
100
AcDbEntity
  8
LAYER_1
  6
Continuous
 62
     7
100
AcDbLine
 10
39.540439485419
 20
306.2976778781859
 30
0.0
 11
10.54043948541999
 21
306.2976778781859
 31
0.0
  0
LINE
  5
246
330
A
100
AcDbEntity
  8
LAYER_1
  6
Continuous
 62
     7
100
AcDbLine
 10
39.540439485419
 20
292.297677878186
 30
0.0
 11
10.54043948541999
 21
292.297677878186
 31
0.0
  0
LINE
  5
247
330
A
100
AcDbEntity
  8
LAYER_1
  6
Continuous
 62
     7
100
AcDbLine
 10
10.54043948541999
 20
303.297677878185
 30
0.0
 11
39.540439485419
 21
303.297677878185
 31
0.0
  0
LINE
  5
248
330
A
100
AcDbEntity
  8
LAYER_1
  6
Continuous
 62
     7
100
AcDbLine
 10
39.540439485419
 20
299.2976778781859
 30
0.0
 11
10.54043948541999
 21
299.2976778781859
 31
0.0
  0
LINE
  5
249
330
A
100
AcDbEntity
  8
LAYER_1
  6
Continuous
 62
     7
100
AcDbLine
 10
10.54043948541999
 20
296.297677878185
 30
0.0
 11
39.540439485419
 21
296.297677878185
 31
0.0
  0
LINE
  5
24A
330
A
100
AcDbEntity
  8
LAYER_1
  6
Continuous
 62
     7
100
AcDbLine
 10
10.54043948541999
 20
317.297677878185
 30
0.0
 11
39.540439485419
 21
317.297677878185
 31
0.0
  0
LINE
  5
24B
330
A
100
AcDbEntity
  8
LAYER_1
  6
Continuous
 62
     7
100
AcDbLine
 10
39.540439485419
 20
320.297677878185
 30
0.0
 11
10.54043948541999
 21
320.297677878185
 31
0.0
  0
LINE
  5
24C
330
A
100
AcDbEntity
  8
LAYER_1
  6
Continuous
 62
     7
100
AcDbLine
 10
10.54043948541999
 20
324.2976778781859
 30
0.0
 11
39.540439485419
 21
324.2976778781859
 31
0.0
  0
LINE
  5
24D
330
A
100
AcDbEntity
  8
LAYER_1
  6
Continuous
 62
     7
100
AcDbLine
 10
39.540439485419
 20
313.297677878186
 30
0.0
 11
10.54043948541999
 21
313.297677878186
 31
0.0
  0
LINE
  5
24E
330
A
100
AcDbEntity
  8
LAYER_1
  6
Continuous
 62
     7
100
AcDbLine
 10
-26.959560514581
 20
310.2976778781859
 30
0.0
 11
2.040439485419
 21
310.2976778781859
 31
0.0
  0
LINE
  5
24F
330
A
100
AcDbEntity
  8
LAYER_1
  6
Continuous
 62
     7
100
AcDbLine
 10
2.040439485419
 20
306.2976778781859
 30
0.0
 11
-26.959560514581
 21
306.2976778781859
 31
0.0
  0
LINE
  5
250
330
A
100
AcDbEntity
  8
LAYER_1
  6
Continuous
 62
     7
100
AcDbLine
 10
2.040439485419
 20
299.2976778781859
 30
0.0
 11
-26.959560514581
 21
299.2976778781859
 31
0.0
  0
LINE
  5
251
330
A
100
AcDbEntity
  8
LAYER_1
  6
Continuous
 62
     7
100
AcDbLine
 10
-26.959560514581
 20
303.297677878185
 30
0.0
 11
2.040439485419
 21
303.297677878185
 31
0.0
  0
LINE
  5
252
330
A
100
AcDbEntity
  8
LAYER_1
  6
Continuous
 62
     7
100
AcDbLine
 10
2.040439485419
 20
292.297677878186
 30
0.0
 11
-26.959560514581
 21
292.297677878186
 31
0.0
  0
LINE
  5
253
330
A
100
AcDbEntity
  8
LAYER_1
  6
Continuous
 62
     7
100
AcDbLine
 10
-26.959560514581
 20
296.297677878185
 30
0.0
 11
2.040439485419
 21
296.297677878185
 31
0.0
  0
LINE
  5
254
330
A
100
AcDbEntity
  8
LAYER_1
  6
Continuous
 62
     7
100
AcDbLine
 10
-26.959560514581
 20
317.297677878185
 30
0.0
 11
2.040439485419
 21
317.297677878185
 31
0.0
  0
LINE
  5
255
330
A
100
AcDbEntity
  8
LAYER_1
  6
Continuous
 62
     7
100
AcDbLine
 10
2.040439485419
 20
313.297677878186
 30
0.0
 11
-26.959560514581
 21
313.297677878186
 31
0.0
  0
LINE
  5
256
330
A
100
AcDbEntity
  8
LAYER_1
  6
Continuous
 62
     7
100
AcDbLine
 10
-27.45956051458
 20
299.797677878185
 30
0.0
 11
-27.45956051458
 21
302.797677878185
 31
0.0
  0
LINE
  5
257
330
A
100
AcDbEntity
  8
LAYER_1
  6
Continuous
 62
     7
100
AcDbLine
 10
-27.45956051458
 20
292.7976778781859
 30
0.0
 11
-27.45956051458
 21
295.7976778781859
 31
0.0
  0
ARC
  5
258
330
A
100
AcDbEntity
  8
LAYER_1
  6
Continuous
 62
     7
100
AcDbCircle
 10
-26.959560514581
 20
292.7976778781859
 30
0.0
 40
0.5
100
AcDbArc
 50
180.0
 51
270.0
  0
ARC
  5
259
330
A
100
AcDbEntity
  8
LAYER_1
  6
Continuous
 62
     7
100
AcDbCircle
 10
-26.959560514581
 20
299.797677878185
 30
0.0
 40
0.5
100
AcDbArc
 50
180.0
 51
270.0
  0
ARC
  5
25A
330
A
100
AcDbEntity
  8
LAYER_1
  6
Continuous
 62
     7
100
AcDbCircle
 10
-26.959560514581
 20
295.7976778781859
 30
0.0
 40
0.5
100
AcDbArc
 50
90.0
 51
180.0
  0
ARC
  5
25B
330
A
100
AcDbEntity
  8
LAYER_1
  6
Continuous
 62
     7
100
AcDbCircle
 10
-26.959560514581
 20
309.7976778781859
 30
0.0
 40
0.5
100
AcDbArc
 50
90.0
 51
180.0
  0
ARC
  5
25C
330
A
100
AcDbEntity
  8
LAYER_1
  6
Continuous
 62
     7
100
AcDbCircle
 10
-26.959560514581
 20
306.797677878186
 30
0.0
 40
0.5
100
AcDbArc
 50
180.0
 51
270.0
  0
LINE
  5
25D
330
A
100
AcDbEntity
  8
LAYER_1
  6
Continuous
 62
     7
100
AcDbLine
 10
-27.45956051458
 20
306.797677878186
 30
0.0
 11
-27.45956051458
 21
309.7976778781859
 31
0.0
  0
ARC
  5
25E
330
A
100
AcDbEntity
  8
LAYER_1
  6
Continuous
 62
     7
100
AcDbCircle
 10
-26.959560514581
 20
302.797677878185
 30
0.0
 40
0.5
100
AcDbArc
 50
90.0
 51
180.0
  0
ARC
  5
25F
330
A
100
AcDbEntity
  8
LAYER_1
  6
Continuous
 62
     7
100
AcDbCircle
 10
-26.959560514581
 20
316.7976778781859
 30
0.0
 40
0.5
100
AcDbArc
 50
90.0
 51
180.0
  0
ARC
  5
260
330
A
100
AcDbEntity
  8
LAYER_1
  6
Continuous
 62
     7
100
AcDbCircle
 10
-26.959560514581
 20
313.7976778781859
 30
0.0
 40
0.5
100
AcDbArc
 50
180.0
 51
270.0
  0
LINE
  5
261
330
A
100
AcDbEntity
  8
LAYER_1
  6
Continuous
 62
     7
100
AcDbLine
 10
-27.45956051458
 20
313.7976778781859
 30
0.0
 11
-27.45956051458
 21
316.7976778781859
 31
0.0
  0
ARC
  5
262
330
A
100
AcDbEntity
  8
LAYER_1
  6
Continuous
 62
     7
100
AcDbCircle
 10
10.54043948541999
 20
309.7976778781859
 30
0.0
 40
0.5
100
AcDbArc
 50
90.0
 51
180.0
  0
ARC
  5
263
330
A
100
AcDbEntity
  8
LAYER_1
  6
Continuous
 62
     7
100
AcDbCircle
 10
10.54043948541999
 20
306.797677878186
 30
0.0
 40
0.5
100
AcDbArc
 50
180.0
 51
270.0
  0
ARC
  5
264
330
A
100
AcDbEntity
  8
LAYER_1
  6
Continuous
 62
     7
100
AcDbCircle
 10
10.54043948541999
 20
299.797677878185
 30
0.0
 40
0.5
100
AcDbArc
 50
180.0
 51
270.0
  0
ARC
  5
265
330
A
100
AcDbEntity
  8
LAYER_1
  6
Continuous
 62
     7
100
AcDbCircle
 10
10.54043948541999
 20
302.797677878185
 30
0.0
 40
0.5
100
AcDbArc
 50
90.0
 51
180.0
  0
ARC
  5
266
330
A
100
AcDbEntity
  8
LAYER_1
  6
Continuous
 62
     7
100
AcDbCircle
 10
10.54043948541999
 20
292.7976778781859
 30
0.0
 40
0.5
100
AcDbArc
 50
180.0
 51
270.0
  0
ARC
  5
267
330
A
100
AcDbEntity
  8
LAYER_1
  6
Continuous
 62
     7
100
AcDbCircle
 10
10.54043948541999
 20
295.7976778781859
 30
0.0
 40
0.5
100
AcDbArc
 50
90.0
 51
180.0
  0
ARC
  5
268
330
A
100
AcDbEntity
  8
LAYER_1
  6
Continuous
 62
     7
100
AcDbCircle
 10
10.54043948541999
 20
316.7976778781859
 30
0.0
 40
0.5
100
AcDbArc
 50
90.0
 51
180.0
  0
ARC
  5
269
330
A
100
AcDbEntity
  8
LAYER_1
  6
Continuous
 62
     7
100
AcDbCircle
 10
10.54043948541999
 20
313.7976778781859
 30
0.0
 40
0.5
100
AcDbArc
 50
180.0
 51
270.0
  0
LINE
  5
26A
330
A
100
AcDbEntity
  8
LAYER_1
  6
Continuous
 62
     7
100
AcDbLine
 10
10.04043948541999
 20
299.797677878185
 30
0.0
 11
10.04043948541999
 21
302.797677878185
 31
0.0
  0
LINE
  5
26B
330
A
100
AcDbEntity
  8
LAYER_1
  6
Continuous
 62
     7
100
AcDbLine
 10
2.540439485419999
 20
302.797677878185
 30
0.0
 11
2.540439485419999
 21
299.797677878185
 31
0.0
  0
LINE
  5
26C
330
A
100
AcDbEntity
  8
LAYER_1
  6
Continuous
 62
     7
100
AcDbLine
 10
10.04043948541999
 20
292.7976778781859
 30
0.0
 11
10.04043948541999
 21
295.7976778781859
 31
0.0
  0
LINE
  5
26D
330
A
100
AcDbEntity
  8
LAYER_1
  6
Continuous
 62
     7
100
AcDbLine
 10
2.540439485419999
 20
295.7976778781859
 30
0.0
 11
2.540439485419999
 21
292.7976778781859
 31
0.0
  0
ARC
  5
26E
330
A
100
AcDbEntity
  8
LAYER_1
  6
Continuous
 62
     7
100
AcDbCircle
 10
2.040439485419
 20
292.7976778781859
 30
0.0
 40
0.5
100
AcDbArc
 50
270.0
 51
0.0
  0
ARC
  5
26F
330
A
100
AcDbEntity
  8
LAYER_1
  6
Continuous
 62
     7
100
AcDbCircle
 10
2.040439485419
 20
299.797677878185
 30
0.0
 40
0.5
100
AcDbArc
 50
270.0
 51
0.0
  0
ARC
  5
270
330
A
100
AcDbEntity
  8
LAYER_1
  6
Continuous
 62
     7
100
AcDbCircle
 10
2.040439485419
 20
295.7976778781859
 30
0.0
 40
0.5
100
AcDbArc
 50
0.0
 51
90.0
  0
ARC
  5
271
330
A
100
AcDbEntity
  8
LAYER_1
  6
Continuous
 62
     7
100
AcDbCircle
 10
2.040439485419
 20
309.7976778781859
 30
0.0
 40
0.5
100
AcDbArc
 50
0.0
 51
90.0
  0
ARC
  5
272
330
A
100
AcDbEntity
  8
LAYER_1
  6
Continuous
 62
     7
100
AcDbCircle
 10
2.040439485419
 20
306.797677878186
 30
0.0
 40
0.5
100
AcDbArc
 50
270.0
 51
0.0
  0
LINE
  5
273
330
A
100
AcDbEntity
  8
LAYER_1
  6
Continuous
 62
     7
100
AcDbLine
 10
2.540439485419999
 20
309.7976778781859
 30
0.0
 11
2.540439485419999
 21
306.797677878186
 31
0.0
  0
ARC
  5
274
330
A
100
AcDbEntity
  8
LAYER_1
  6
Continuous
 62
     7
100
AcDbCircle
 10
2.040439485419
 20
302.797677878185
 30
0.0
 40
0.5
100
AcDbArc
 50
0.0
 51
90.0
  0
LINE
  5
275
330
A
100
AcDbEntity
  8
LAYER_1
  6
Continuous
 62
     7
100
AcDbLine
 10
10.04043948541999
 20
306.797677878186
 30
0.0
 11
10.04043948541999
 21
309.7976778781859
 31
0.0
  0
ARC
  5
276
330
A
100
AcDbEntity
  8
LAYER_1
  6
Continuous
 62
     7
100
AcDbCircle
 10
2.040439485419
 20
316.7976778781859
 30
0.0
 40
0.5
100
AcDbArc
 50
0.0
 51
90.0
  0
ARC
  5
277
330
A
100
AcDbEntity
  8
LAYER_1
  6
Continuous
 62
     7
100
AcDbCircle
 10
2.040439485419
 20
313.7976778781859
 30
0.0
 40
0.5
100
AcDbArc
 50
270.0
 51
0.0
  0
LINE
  5
278
330
A
100
AcDbEntity
  8
LAYER_1
  6
Continuous
 62
     7
100
AcDbLine
 10
2.540439485419999
 20
316.7976778781859
 30
0.0
 11
2.540439485419999
 21
313.7976778781859
 31
0.0
  0
LINE
  5
279
330
A
100
AcDbEntity
  8
LAYER_1
  6
Continuous
 62
     7
100
AcDbLine
 10
10.04043948541999
 20
313.7976778781859
 30
0.0
 11
10.04043948541999
 21
316.7976778781859
 31
0.0
  0
LINE
  5
27A
330
A
100
AcDbEntity
  8
LAYER_1
  6
Continuous
 62
     7
100
AcDbLine
 10
-26.959560514581
 20
324.2976778781859
 30
0.0
 11
2.040439485419
 21
324.2976778781859
 31
0.0
  0
LINE
  5
27B
330
A
100
AcDbEntity
  8
LAYER_1
  6
Continuous
 62
     7
100
AcDbLine
 10
2.040439485419
 20
320.297677878185
 30
0.0
 11
-26.959560514581
 21
320.297677878185
 31
0.0
  0
ARC
  5
27C
330
A
100
AcDbEntity
  8
LAYER_1
  6
Continuous
 62
     7
100
AcDbCircle
 10
-26.959560514581
 20
323.797677878185
 30
0.0
 40
0.5
100
AcDbArc
 50
90.0
 51
180.0
  0
ARC
  5
27D
330
A
100
AcDbEntity
  8
LAYER_1
  6
Continuous
 62
     7
100
AcDbCircle
 10
-26.959560514581
 20
320.797677878185
 30
0.0
 40
0.5
100
AcDbArc
 50
180.0
 51
270.0
  0
LINE
  5
27E
330
A
100
AcDbEntity
  8
LAYER_1
  6
Continuous
 62
     7
100
AcDbLine
 10
-27.45956051458
 20
320.797677878185
 30
0.0
 11
-27.45956051458
 21
323.797677878185
 31
0.0
  0
ARC
  5
27F
330
A
100
AcDbEntity
  8
LAYER_1
  6
Continuous
 62
     7
100
AcDbCircle
 10
10.54043948541999
 20
323.797677878185
 30
0.0
 40
0.5
100
AcDbArc
 50
90.0
 51
180.0
  0
ARC
  5
280
330
A
100
AcDbEntity
  8
LAYER_1
  6
Continuous
 62
     7
100
AcDbCircle
 10
10.54043948541999
 20
320.797677878185
 30
0.0
 40
0.5
100
AcDbArc
 50
180.0
 51
270.0
  0
ARC
  5
281
330
A
100
AcDbEntity
  8
LAYER_1
  6
Continuous
 62
     7
100
AcDbCircle
 10
2.040439485419
 20
323.797677878185
 30
0.0
 40
0.5
100
AcDbArc
 50
0.0
 51
90.0
  0
ARC
  5
282
330
A
100
AcDbEntity
  8
LAYER_1
  6
Continuous
 62
     7
100
AcDbCircle
 10
2.040439485419
 20
320.797677878185
 30
0.0
 40
0.5
100
AcDbArc
 50
270.0
 51
0.0
  0
LINE
  5
283
330
A
100
AcDbEntity
  8
LAYER_1
  6
Continuous
 62
     7
100
AcDbLine
 10
2.540439485419999
 20
323.797677878185
 30
0.0
 11
2.540439485419999
 21
320.797677878185
 31
0.0
  0
LINE
  5
284
330
A
100
AcDbEntity
  8
LAYER_1
  6
Continuous
 62
     7
100
AcDbLine
 10
10.04043948541999
 20
320.797677878185
 30
0.0
 11
10.04043948541999
 21
323.797677878185
 31
0.0
  0
LINE
  5
285
330
A
100
AcDbEntity
  8
LAYER_1
  6
Continuous
 62
     7
100
AcDbLine
 10
77.04043948542
 20
310.2976778781859
 30
0.0
 11
48.04043948541999
 21
310.2976778781859
 31
0.0
  0
LINE
  5
286
330
A
100
AcDbEntity
  8
LAYER_1
  6
Continuous
 62
     7
100
AcDbLine
 10
48.04043948541999
 20
306.2976778781859
 30
0.0
 11
77.04043948542
 21
306.2976778781859
 31
0.0
  0
LINE
  5
287
330
A
100
AcDbEntity
  8
LAYER_1
  6
Continuous
 62
     7
100
AcDbLine
 10
77.04043948542
 20
303.297677878185
 30
0.0
 11
48.04043948541999
 21
303.297677878185
 31
0.0
  0
LINE
  5
288
330
A
100
AcDbEntity
  8
LAYER_1
  6
Continuous
 62
     7
100
AcDbLine
 10
48.04043948541999
 20
299.2976778781859
 30
0.0
 11
77.04043948542
 21
299.2976778781859
 31
0.0
  0
LINE
  5
289
330
A
100
AcDbEntity
  8
LAYER_1
  6
Continuous
 62
     7
100
AcDbLine
 10
48.04043948541999
 20
292.297677878186
 30
0.0
 11
77.04043948542
 21
292.297677878186
 31
0.0
  0
LINE
  5
28A
330
A
100
AcDbEntity
  8
LAYER_1
  6
Continuous
 62
     7
100
AcDbLine
 10
77.04043948542
 20
296.297677878185
 30
0.0
 11
48.04043948541999
 21
296.297677878185
 31
0.0
  0
LINE
  5
28B
330
A
100
AcDbEntity
  8
LAYER_1
  6
Continuous
 62
     7
100
AcDbLine
 10
77.04043948542
 20
317.297677878185
 30
0.0
 11
48.04043948541999
 21
317.297677878185
 31
0.0
  0
LINE
  5
28C
330
A
100
AcDbEntity
  8
LAYER_1
  6
Continuous
 62
     7
100
AcDbLine
 10
48.04043948541999
 20
313.297677878186
 30
0.0
 11
77.04043948542
 21
313.297677878186
 31
0.0
  0
LINE
  5
28D
330
A
100
AcDbEntity
  8
LAYER_1
  6
Continuous
 62
     7
100
AcDbLine
 10
47.540439485419
 20
302.797677878185
 30
0.0
 11
47.540439485419
 21
299.797677878185
 31
0.0
  0
LINE
  5
28E
330
A
100
AcDbEntity
  8
LAYER_1
  6
Continuous
 62
     7
100
AcDbLine
 10
40.04043948542
 20
302.797677878185
 30
0.0
 11
40.04043948542
 21
299.797677878185
 31
0.0
  0
LINE
  5
28F
330
A
100
AcDbEntity
  8
LAYER_1
  6
Continuous
 62
     7
100
AcDbLine
 10
40.04043948542
 20
295.7976778781859
 30
0.0
 11
40.04043948542
 21
292.7976778781859
 31
0.0
  0
ARC
  5
290
330
A
100
AcDbEntity
  8
LAYER_1
  6
Continuous
 62
     7
100
AcDbCircle
 10
39.540439485419
 20
292.7976778781859
 30
0.0
 40
0.5
100
AcDbArc
 50
270.0
 51
0.0
  0
ARC
  5
291
330
A
100
AcDbEntity
  8
LAYER_1
  6
Continuous
 62
     7
100
AcDbCircle
 10
39.540439485419
 20
299.797677878185
 30
0.0
 40
0.5
100
AcDbArc
 50
270.0
 51
0.0
  0
ARC
  5
292
330
A
100
AcDbEntity
  8
LAYER_1
  6
Continuous
 62
     7
100
AcDbCircle
 10
39.540439485419
 20
295.7976778781859
 30
0.0
 40
0.5
100
AcDbArc
 50
0.0
 51
90.0
  0
LINE
  5
293
330
A
100
AcDbEntity
  8
LAYER_1
  6
Continuous
 62
     7
100
AcDbLine
 10
47.540439485419
 20
295.7976778781859
 30
0.0
 11
47.540439485419
 21
292.7976778781859
 31
0.0
  0
ARC
  5
294
330
A
100
AcDbEntity
  8
LAYER_1
  6
Continuous
 62
     7
100
AcDbCircle
 10
48.04043948541999
 20
292.7976778781859
 30
0.0
 40
0.5
100
AcDbArc
 50
180.0
 51
270.0
  0
ARC
  5
295
330
A
100
AcDbEntity
  8
LAYER_1
  6
Continuous
 62
     7
100
AcDbCircle
 10
48.04043948541999
 20
299.797677878185
 30
0.0
 40
0.5
100
AcDbArc
 50
180.0
 51
270.0
  0
ARC
  5
296
330
A
100
AcDbEntity
  8
LAYER_1
  6
Continuous
 62
     7
100
AcDbCircle
 10
48.04043948541999
 20
295.7976778781859
 30
0.0
 40
0.5
100
AcDbArc
 50
90.0
 51
180.0
  0
ARC
  5
297
330
A
100
AcDbEntity
  8
LAYER_1
  6
Continuous
 62
     7
100
AcDbCircle
 10
39.540439485419
 20
309.7976778781859
 30
0.0
 40
0.5
100
AcDbArc
 50
0.0
 51
90.0
  0
ARC
  5
298
330
A
100
AcDbEntity
  8
LAYER_1
  6
Continuous
 62
     7
100
AcDbCircle
 10
39.540439485419
 20
306.797677878186
 30
0.0
 40
0.5
100
AcDbArc
 50
270.0
 51
0.0
  0
LINE
  5
299
330
A
100
AcDbEntity
  8
LAYER_1
  6
Continuous
 62
     7
100
AcDbLine
 10
40.04043948542
 20
309.7976778781859
 30
0.0
 11
40.04043948542
 21
306.797677878186
 31
0.0
  0
ARC
  5
29A
330
A
100
AcDbEntity
  8
LAYER_1
  6
Continuous
 62
     7
100
AcDbCircle
 10
39.540439485419
 20
302.797677878185
 30
0.0
 40
0.5
100
AcDbArc
 50
0.0
 51
90.0
  0
ARC
  5
29B
330
A
100
AcDbEntity
  8
LAYER_1
  6
Continuous
 62
     7
100
AcDbCircle
 10
39.540439485419
 20
316.7976778781859
 30
0.0
 40
0.5
100
AcDbArc
 50
0.0
 51
90.0
  0
ARC
  5
29C
330
A
100
AcDbEntity
  8
LAYER_1
  6
Continuous
 62
     7
100
AcDbCircle
 10
39.540439485419
 20
313.7976778781859
 30
0.0
 40
0.5
100
AcDbArc
 50
270.0
 51
0.0
  0
LINE
  5
29D
330
A
100
AcDbEntity
  8
LAYER_1
  6
Continuous
 62
     7
100
AcDbLine
 10
40.04043948542
 20
316.7976778781859
 30
0.0
 11
40.04043948542
 21
313.7976778781859
 31
0.0
  0
ARC
  5
29E
330
A
100
AcDbEntity
  8
LAYER_1
  6
Continuous
 62
     7
100
AcDbCircle
 10
48.04043948541999
 20
309.7976778781859
 30
0.0
 40
0.5
100
AcDbArc
 50
90.0
 51
180.0
  0
ARC
  5
29F
330
A
100
AcDbEntity
  8
LAYER_1
  6
Continuous
 62
     7
100
AcDbCircle
 10
48.04043948541999
 20
306.797677878186
 30
0.0
 40
0.5
100
AcDbArc
 50
180.0
 51
270.0
  0
LINE
  5
2A0
330
A
100
AcDbEntity
  8
LAYER_1
  6
Continuous
 62
     7
100
AcDbLine
 10
47.540439485419
 20
309.7976778781859
 30
0.0
 11
47.540439485419
 21
306.797677878186
 31
0.0
  0
ARC
  5
2A1
330
A
100
AcDbEntity
  8
LAYER_1
  6
Continuous
 62
     7
100
AcDbCircle
 10
48.04043948541999
 20
302.797677878185
 30
0.0
 40
0.5
100
AcDbArc
 50
90.0
 51
180.0
  0
ARC
  5
2A2
330
A
100
AcDbEntity
  8
LAYER_1
  6
Continuous
 62
     7
100
AcDbCircle
 10
48.04043948541999
 20
316.7976778781859
 30
0.0
 40
0.5
100
AcDbArc
 50
90.0
 51
180.0
  0
ARC
  5
2A3
330
A
100
AcDbEntity
  8
LAYER_1
  6
Continuous
 62
     7
100
AcDbCircle
 10
48.04043948541999
 20
313.7976778781859
 30
0.0
 40
0.5
100
AcDbArc
 50
180.0
 51
270.0
  0
LINE
  5
2A4
330
A
100
AcDbEntity
  8
LAYER_1
  6
Continuous
 62
     7
100
AcDbLine
 10
47.540439485419
 20
316.7976778781859
 30
0.0
 11
47.540439485419
 21
313.7976778781859
 31
0.0
  0
LINE
  5
2A5
330
A
100
AcDbEntity
  8
LAYER_1
  6
Continuous
 62
     7
100
AcDbLine
 10
77.54043948541999
 20
299.797677878185
 30
0.0
 11
77.54043948541999
 21
302.797677878185
 31
0.0
  0
LINE
  5
2A6
330
A
100
AcDbEntity
  8
LAYER_1
  6
Continuous
 62
     7
100
AcDbLine
 10
77.54043948541999
 20
292.7976778781859
 30
0.0
 11
77.54043948541999
 21
295.7976778781859
 31
0.0
  0
ARC
  5
2A7
330
A
100
AcDbEntity
  8
LAYER_1
  6
Continuous
 62
     7
100
AcDbCircle
 10
77.04043948542
 20
292.7976778781859
 30
0.0
 40
0.5
100
AcDbArc
 50
270.0
 51
0.0
  0
ARC
  5
2A8
330
A
100
AcDbEntity
  8
LAYER_1
  6
Continuous
 62
     7
100
AcDbCircle
 10
77.04043948542
 20
299.797677878185
 30
0.0
 40
0.5
100
AcDbArc
 50
270.0
 51
0.0
  0
ARC
  5
2A9
330
A
100
AcDbEntity
  8
LAYER_1
  6
Continuous
 62
     7
100
AcDbCircle
 10
77.04043948542
 20
295.7976778781859
 30
0.0
 40
0.5
100
AcDbArc
 50
0.0
 51
90.0
  0
ARC
  5
2AA
330
A
100
AcDbEntity
  8
LAYER_1
  6
Continuous
 62
     7
100
AcDbCircle
 10
77.04043948542
 20
309.7976778781859
 30
0.0
 40
0.5
100
AcDbArc
 50
0.0
 51
90.0
  0
ARC
  5
2AB
330
A
100
AcDbEntity
  8
LAYER_1
  6
Continuous
 62
     7
100
AcDbCircle
 10
77.04043948542
 20
306.797677878186
 30
0.0
 40
0.5
100
AcDbArc
 50
270.0
 51
0.0
  0
LINE
  5
2AC
330
A
100
AcDbEntity
  8
LAYER_1
  6
Continuous
 62
     7
100
AcDbLine
 10
77.54043948541999
 20
306.797677878186
 30
0.0
 11
77.54043948541999
 21
309.7976778781859
 31
0.0
  0
ARC
  5
2AD
330
A
100
AcDbEntity
  8
LAYER_1
  6
Continuous
 62
     7
100
AcDbCircle
 10
77.04043948542
 20
302.797677878185
 30
0.0
 40
0.5
100
AcDbArc
 50
0.0
 51
90.0
  0
ARC
  5
2AE
330
A
100
AcDbEntity
  8
LAYER_1
  6
Continuous
 62
     7
100
AcDbCircle
 10
77.04043948542
 20
316.7976778781859
 30
0.0
 40
0.5
100
AcDbArc
 50
0.0
 51
90.0
  0
ARC
  5
2AF
330
A
100
AcDbEntity
  8
LAYER_1
  6
Continuous
 62
     7
100
AcDbCircle
 10
77.04043948542
 20
313.7976778781859
 30
0.0
 40
0.5
100
AcDbArc
 50
270.0
 51
0.0
  0
LINE
  5
2B0
330
A
100
AcDbEntity
  8
LAYER_1
  6
Continuous
 62
     7
100
AcDbLine
 10
77.54043948541999
 20
313.7976778781859
 30
0.0
 11
77.54043948541999
 21
316.7976778781859
 31
0.0
  0
LINE
  5
2B1
330
A
100
AcDbEntity
  8
LAYER_1
  6
Continuous
 62
     7
100
AcDbLine
 10
48.04043948541999
 20
320.297677878185
 30
0.0
 11
77.04043948542
 21
320.297677878185
 31
0.0
  0
LINE
  5
2B2
330
A
100
AcDbEntity
  8
LAYER_1
  6
Continuous
 62
     7
100
AcDbLine
 10
77.04043948542
 20
324.2976778781859
 30
0.0
 11
48.04043948541999
 21
324.2976778781859
 31
0.0
  0
ARC
  5
2B3
330
A
100
AcDbEntity
  8
LAYER_1
  6
Continuous
 62
     7
100
AcDbCircle
 10
39.540439485419
 20
323.797677878185
 30
0.0
 40
0.5
100
AcDbArc
 50
0.0
 51
90.0
  0
ARC
  5
2B4
330
A
100
AcDbEntity
  8
LAYER_1
  6
Continuous
 62
     7
100
AcDbCircle
 10
39.540439485419
 20
320.797677878185
 30
0.0
 40
0.5
100
AcDbArc
 50
270.0
 51
0.0
  0
LINE
  5
2B5
330
A
100
AcDbEntity
  8
LAYER_1
  6
Continuous
 62
     7
100
AcDbLine
 10
40.04043948542
 20
323.797677878185
 30
0.0
 11
40.04043948542
 21
320.797677878185
 31
0.0
  0
ARC
  5
2B6
330
A
100
AcDbEntity
  8
LAYER_1
  6
Continuous
 62
     7
100
AcDbCircle
 10
48.04043948541999
 20
323.797677878185
 30
0.0
 40
0.5
100
AcDbArc
 50
90.0
 51
180.0
  0
ARC
  5
2B7
330
A
100
AcDbEntity
  8
LAYER_1
  6
Continuous
 62
     7
100
AcDbCircle
 10
48.04043948541999
 20
320.797677878185
 30
0.0
 40
0.5
100
AcDbArc
 50
180.0
 51
270.0
  0
LINE
  5
2B8
330
A
100
AcDbEntity
  8
LAYER_1
  6
Continuous
 62
     7
100
AcDbLine
 10
47.540439485419
 20
323.797677878185
 30
0.0
 11
47.540439485419
 21
320.797677878185
 31
0.0
  0
ARC
  5
2B9
330
A
100
AcDbEntity
  8
LAYER_1
  6
Continuous
 62
     7
100
AcDbCircle
 10
77.04043948542
 20
323.797677878185
 30
0.0
 40
0.5
100
AcDbArc
 50
0.0
 51
90.0
  0
ARC
  5
2BA
330
A
100
AcDbEntity
  8
LAYER_1
  6
Continuous
 62
     7
100
AcDbCircle
 10
77.04043948542
 20
320.797677878185
 30
0.0
 40
0.5
100
AcDbArc
 50
270.0
 51
0.0
  0
LINE
  5
2BB
330
A
100
AcDbEntity
  8
LAYER_1
  6
Continuous
 62
     7
100
AcDbLine
 10
77.54043948541999
 20
320.797677878185
 30
0.0
 11
77.54043948541999
 21
323.797677878185
 31
0.0
  0
LINE
  5
2BC
330
A
100
AcDbEntity
  8
LAYER_1
  6
Continuous
 62
     7
100
AcDbLine
 10
39.540439485419
 20
285.297677878185
 30
0.0
 11
10.54043948541999
 21
285.297677878185
 31
0.0
  0
LINE
  5
2BD
330
A
100
AcDbEntity
  8
LAYER_1
  6
Continuous
 62
     7
100
AcDbLine
 10
10.54043948541999
 20
289.2976778781859
 30
0.0
 11
39.540439485419
 21
289.2976778781859
 31
0.0
  0
LINE
  5
2BE
330
A
100
AcDbEntity
  8
LAYER_1
  6
Continuous
 62
     7
100
AcDbLine
 10
10.04043948541999
 20
285.797677878186
 30
0.0
 11
10.04043948541999
 21
288.797677878185
 31
0.0
  0
ARC
  5
2BF
330
A
100
AcDbEntity
  8
LAYER_1
  6
Continuous
 62
     7
100
AcDbCircle
 10
10.54043948541999
 20
285.797677878186
 30
0.0
 40
0.5
100
AcDbArc
 50
180.0
 51
270.0
  0
ARC
  5
2C0
330
A
100
AcDbEntity
  8
LAYER_1
  6
Continuous
 62
     7
100
AcDbCircle
 10
10.54043948541999
 20
288.797677878185
 30
0.0
 40
0.5
100
AcDbArc
 50
90.0
 51
180.0
  0
LINE
  5
2C1
330
A
100
AcDbEntity
  8
LAYER_1
  6
Continuous
 62
     7
100
AcDbLine
 10
40.04043948542
 20
288.797677878185
 30
0.0
 11
40.04043948542
 21
285.797677878186
 31
0.0
  0
ARC
  5
2C2
330
A
100
AcDbEntity
  8
LAYER_1
  6
Continuous
 62
     7
100
AcDbCircle
 10
39.540439485419
 20
285.797677878186
 30
0.0
 40
0.5
100
AcDbArc
 50
270.0
 51
0.0
  0
ARC
  5
2C3
330
A
100
AcDbEntity
  8
LAYER_1
  6
Continuous
 62
     7
100
AcDbCircle
 10
39.540439485419
 20
288.797677878185
 30
0.0
 40
0.5
100
AcDbArc
 50
0.0
 51
90.0
  0
LINE
  5
2C4
330
A
100
AcDbEntity
  8
LAYER_1
  6
Continuous
 62
     7
100
AcDbLine
 10
-18.95956051457999
 20
289.2976778781859
 30
0.0
 11
2.040439485419
 21
289.2976778781859
 31
0.0
  0
LINE
  5
2C5
330
A
100
AcDbEntity
  8
LAYER_1
  6
Continuous
 62
     7
100
AcDbLine
 10
2.040439485419
 20
285.297677878185
 30
0.0
 11
-18.95956051457999
 21
285.297677878185
 31
0.0
  0
LINE
  5
2C6
330
A
100
AcDbEntity
  8
LAYER_1
  6
Continuous
 62
     7
100
AcDbLine
 10
-19.45956051458099
 20
285.797677878186
 30
0.0
 11
-19.45956051458099
 21
288.797677878185
 31
0.0
  0
ARC
  5
2C7
330
A
100
AcDbEntity
  8
LAYER_1
  6
Continuous
 62
     7
100
AcDbCircle
 10
-18.95956051457999
 20
285.797677878186
 30
0.0
 40
0.5
100
AcDbArc
 50
180.0
 51
270.0
  0
ARC
  5
2C8
330
A
100
AcDbEntity
  8
LAYER_1
  6
Continuous
 62
     7
100
AcDbCircle
 10
-18.95956051457999
 20
288.797677878185
 30
0.0
 40
0.5
100
AcDbArc
 50
90.0
 51
180.0
  0
LINE
  5
2C9
330
A
100
AcDbEntity
  8
LAYER_1
  6
Continuous
 62
     7
100
AcDbLine
 10
2.540439485419999
 20
288.797677878185
 30
0.0
 11
2.540439485419999
 21
285.797677878186
 31
0.0
  0
ARC
  5
2CA
330
A
100
AcDbEntity
  8
LAYER_1
  6
Continuous
 62
     7
100
AcDbCircle
 10
2.040439485419
 20
285.797677878186
 30
0.0
 40
0.5
100
AcDbArc
 50
270.0
 51
0.0
  0
ARC
  5
2CB
330
A
100
AcDbEntity
  8
LAYER_1
  6
Continuous
 62
     7
100
AcDbCircle
 10
2.040439485419
 20
288.797677878185
 30
0.0
 40
0.5
100
AcDbArc
 50
0.0
 51
90.0
  0
LINE
  5
2CC
330
A
100
AcDbEntity
  8
LAYER_1
  6
Continuous
 62
     7
100
AcDbLine
 10
48.04043948541999
 20
285.297677878185
 30
0.0
 11
69.04043948542
 21
285.297677878185
 31
0.0
  0
LINE
  5
2CD
330
A
100
AcDbEntity
  8
LAYER_1
  6
Continuous
 62
     7
100
AcDbLine
 10
69.04043948542
 20
289.2976778781859
 30
0.0
 11
48.04043948541999
 21
289.2976778781859
 31
0.0
  0
LINE
  5
2CE
330
A
100
AcDbEntity
  8
LAYER_1
  6
Continuous
 62
     7
100
AcDbLine
 10
47.540439485419
 20
288.797677878185
 30
0.0
 11
47.540439485419
 21
285.797677878186
 31
0.0
  0
ARC
  5
2CF
330
A
100
AcDbEntity
  8
LAYER_1
  6
Continuous
 62
     7
100
AcDbCircle
 10
48.04043948541999
 20
285.797677878186
 30
0.0
 40
0.5
100
AcDbArc
 50
180.0
 51
270.0
  0
ARC
  5
2D0
330
A
100
AcDbEntity
  8
LAYER_1
  6
Continuous
 62
     7
100
AcDbCircle
 10
48.04043948541999
 20
288.797677878185
 30
0.0
 40
0.5
100
AcDbArc
 50
90.0
 51
180.0
  0
LINE
  5
2D1
330
A
100
AcDbEntity
  8
LAYER_1
  6
Continuous
 62
     7
100
AcDbLine
 10
69.54043948542
 20
285.797677878186
 30
0.0
 11
69.54043948542
 21
288.797677878185
 31
0.0
  0
ARC
  5
2D2
330
A
100
AcDbEntity
  8
LAYER_1
  6
Continuous
 62
     7
100
AcDbCircle
 10
69.04043948542
 20
285.797677878186
 30
0.0
 40
0.5
100
AcDbArc
 50
270.0
 51
0.0
  0
ARC
  5
2D3
330
A
100
AcDbEntity
  8
LAYER_1
  6
Continuous
 62
     7
100
AcDbCircle
 10
69.04043948542
 20
288.797677878185
 30
0.0
 40
0.5
100
AcDbArc
 50
0.0
 51
90.0
  0
ARC
  5
2D4
330
A
100
AcDbEntity
  8
LAYER_1
  6
Continuous
 62
     7
100
AcDbCircle
 10
-108.459560514581
 20
302.797677878185
 30
0.0
 40
15.0
100
AcDbArc
 50
300.0
 51
239.9999999999999
  0
LINE
  5
2D5
330
A
100
AcDbEntity
  8
LAYER_1
  6
Continuous
 62
     7
100
AcDbLine
 10
-93.45956051458101
 20
302.797677878185
 30
0.0
 11
-91.65956051458001
 21
302.797677878185
 31
0.0
  0
LINE
  5
2D6
330
A
100
AcDbEntity
  8
LAYER_1
  6
Continuous
 62
     7
100
AcDbLine
 10
-95.469179457814
 20
310.2976778781859
 30
0.0
 11
-93.91033373100201
 21
311.1976778781859
 31
0.0
  0
LINE
  5
2D7
330
A
100
AcDbEntity
  8
LAYER_1
  6
Continuous
 62
     7
100
AcDbLine
 10
-100.95956051458
 20
315.788058934952
 30
0.0
 11
-100.05956051458
 21
317.3469046617639
 31
0.0
  0
LINE
  5
2D8
330
A
100
AcDbEntity
  8
LAYER_1
  6
Continuous
 62
     7
100
AcDbLine
 10
-108.459560514581
 20
317.797677878186
 30
0.0
 11
-108.459560514581
 21
319.597677878186
 31
0.0
  0
LINE
  5
2D9
330
A
100
AcDbEntity
  8
LAYER_1
  6
Continuous
 62
     7
100
AcDbLine
 10
-115.959560514581
 20
315.788058934952
 30
0.0
 11
-116.8595605145809
 21
317.3469046617639
 31
0.0
  0
LINE
  5
2DA
330
A
100
AcDbEntity
  8
LAYER_1
  6
Continuous
 62
     7
100
AcDbLine
 10
-121.449941571347
 20
310.2976778781859
 30
0.0
 11
-123.008787298159
 21
311.1976778781859
 31
0.0
  0
LINE
  5
2DB
330
A
100
AcDbEntity
  8
LAYER_1
  6
Continuous
 62
     7
100
AcDbLine
 10
-123.45956051458
 20
302.797677878185
 30
0.0
 11
-125.259560514581
 21
302.797677878185
 31
0.0
  0
LINE
  5
2DC
330
A
100
AcDbEntity
  8
LAYER_1
  6
Continuous
 62
     7
100
AcDbLine
 10
-121.449941571347
 20
295.297677878185
 30
0.0
 11
-123.008787298159
 21
294.3976778781849
 31
0.0
  0
LINE
  5
2DD
330
A
100
AcDbEntity
  8
LAYER_1
  6
Continuous
 62
     7
100
AcDbLine
 10
-115.959560514581
 20
289.807296821419
 30
0.0
 11
-116.8595605145809
 21
288.248451094607
 31
0.0
  0
LINE
  5
2DE
330
A
100
AcDbEntity
  8
LAYER_1
  6
Continuous
 62
     7
100
AcDbLine
 10
-100.95956051458
 20
289.807296821419
 30
0.0
 11
-100.05956051458
 21
288.248451094607
 31
0.0
  0
LINE
  5
2DF
330
A
100
AcDbEntity
  8
LAYER_1
  6
Continuous
 62
     7
100
AcDbLine
 10
-95.469179457814
 20
295.297677878185
 30
0.0
 11
-93.91033373100201
 21
294.3976778781849
 31
0.0
  0
LINE
  5
2E0
330
A
100
AcDbEntity
  8
LAYER_1
  6
Continuous
 62
     7
100
AcDbLine
 10
-173.459560514581
 20
410.7976778781849
 30
0.0
 11
-173.459560514581
 21
258.797677878186
 31
0.0
  0
LINE
  5
2E1
330
A
100
AcDbEntity
  8
LAYER_1
  6
Continuous
 62
     7
100
AcDbLine
 10
99.54043948541901
 20
410.7976778781849
 30
0.0
 11
99.54043948541901
 21
258.797677878186
 31
0.0
  0
LINE
  5
2E2
330
A
100
AcDbEntity
  8
LAYER_1
  6
Continuous
 62
     7
100
AcDbLine
 10
-172.2595605145809
 20
258.797677878185
 30
0.0
 11
-173.459560514581
 21
258.797677878185
 31
0.0
  0
LINE
  5
2E3
330
A
100
AcDbEntity
  8
LAYER_1
  6
Continuous
 62
     7
100
AcDbLine
 10
99.54043948541901
 20
410.7976778781849
 30
0.0
 11
-173.459560514581
 21
410.7976778781849
 31
0.0
  0
LINE
  5
2E4
330
A
100
AcDbEntity
  8
LAYER_1
  6
Continuous
 62
     7
100
AcDbLine
 10
1089.849180484219
 20
394.2976778781849
 30
0.0
 11
1111.231698486619
 21
394.2976778781849
 31
0.0
  0
ARC
  5
2E5
330
A
100
AcDbEntity
  8
LAYER_1
  6
Continuous
 62
     7
100
AcDbCircle
 10
1089.849180484219
 20
392.2976778781849
 30
0.0
 40
2.0
100
AcDbArc
 50
90.0
 51
134.033910647661
  0
LINE
  5
2E6
330
A
100
AcDbEntity
  8
LAYER_1
  6
Continuous
 62
     7
100
AcDbLine
 10
1111.231698486619
 20
372.2976778781849
 30
0.0
 11
1089.849180484219
 21
372.2976778781849
 31
0.0
  0
ARC
  5
2E7
330
A
100
AcDbEntity
  8
LAYER_1
  6
Continuous
 62
     7
100
AcDbCircle
 10
1089.849180484219
 20
374.2976778781849
 30
0.0
 40
2.0
100
AcDbArc
 50
225.9660893523389
 51
270.0
  0
ARC
  5
2E8
330
A
100
AcDbEntity
  8
LAYER_1
  6
Continuous
 62
     7
100
AcDbCircle
 10
1111.231698486619
 20
374.2976778781849
 30
0.0
 40
2.0
100
AcDbArc
 50
270.0
 51
314.033910647661
  0
LINE
  5
2E9
330
A
100
AcDbEntity
  8
LAYER_1
  6
Continuous
 62
     7
100
AcDbLine
 10
974.5404394854178
 20
378.7976778781849
 30
0.0
 11
1002.540439485418
 21
378.7976778781849
 31
0.0
  0
LINE
  5
2EA
330
A
100
AcDbEntity
  8
LAYER_1
  6
Continuous
 62
     7
100
AcDbLine
 10
975.5404394854179
 20
379.7976778781849
 30
0.0
 11
1001.540439485417
 21
379.7976778781849
 31
0.0
  0
ARC
  5
2EB
330
A
100
AcDbEntity
  8
LAYER_1
  6
Continuous
 62
     7
100
AcDbCircle
 10
1001.540439485417
 20
377.7976778781849
 30
0.0
 40
2.0
100
AcDbArc
 50
0.0
 51
90.0
  0
ARC
  5
2EC
330
A
100
AcDbEntity
  8
LAYER_1
  6
Continuous
 62
     7
100
AcDbCircle
 10
975.5404394854179
 20
377.7976778781849
 30
0.0
 40
2.0
100
AcDbArc
 50
90.0
 51
180.0
  0
LINE
  5
2ED
330
A
100
AcDbEntity
  8
LAYER_1
  6
Continuous
 62
     7
100
AcDbLine
 10
1002.540439485418
 20
378.7976778781849
 30
0.0
 11
1002.540439485418
 21
370.7976778781849
 31
0.0
  0
LINE
  5
2EE
330
A
100
AcDbEntity
  8
LAYER_1
  6
Continuous
 62
     7
100
AcDbLine
 10
1003.540439485417
 20
377.7976778781849
 30
0.0
 11
1003.540439485417
 21
371.7976778781849
 31
0.0
  0
ARC
  5
2EF
330
A
100
AcDbEntity
  8
LAYER_1
  6
Continuous
 62
     7
100
AcDbCircle
 10
1001.540439485417
 20
371.7976778781849
 30
0.0
 40
2.0
100
AcDbArc
 50
270.0
 51
0.0
  0
LINE
  5
2F0
330
A
100
AcDbEntity
  8
LAYER_1
  6
Continuous
 62
     7
100
AcDbLine
 10
1002.540439485418
 20
370.7976778781849
 30
0.0
 11
974.5404394854178
 21
370.7976778781849
 31
0.0
  0
LINE
  5
2F1
330
A
100
AcDbEntity
  8
LAYER_1
  6
Continuous
 62
     7
100
AcDbLine
 10
1001.540439485417
 20
369.7976778781849
 30
0.0
 11
975.5404394854179
 21
369.7976778781849
 31
0.0
  0
ARC
  5
2F2
330
A
100
AcDbEntity
  8
LAYER_1
  6
Continuous
 62
     7
100
AcDbCircle
 10
975.5404394854179
 20
371.7976778781849
 30
0.0
 40
2.0
100
AcDbArc
 50
180.0
 51
270.0
  0
LINE
  5
2F3
330
A
100
AcDbEntity
  8
LAYER_1
  6
Continuous
 62
     7
100
AcDbLine
 10
974.5404394854178
 20
370.7976778781849
 30
0.0
 11
974.540439485419
 21
378.7976778781849
 31
0.0
  0
LINE
  5
2F4
330
A
100
AcDbEntity
  8
LAYER_1
  6
Continuous
 62
     7
100
AcDbLine
 10
973.5404394854178
 20
371.7976778781849
 30
0.0
 11
973.5404394854191
 21
377.7976778781849
 31
0.0
  0
CIRCLE
  5
2F5
330
A
100
AcDbEntity
  8
LAYER_1
  6
Continuous
 62
     7
100
AcDbCircle
 10
969.7904394854178
 20
374.7976778781849
 30
0.0
 40
1.5
  0
CIRCLE
  5
2F6
330
A
100
AcDbEntity
  8
LAYER_1
  6
Continuous
 62
     7
100
AcDbCircle
 10
969.7904394854178
 20
374.7976778781849
 30
0.0
 40
1.229367061317
  0
CIRCLE
  5
2F7
330
A
100
AcDbEntity
  8
LAYER_1
  6
Continuous
 62
     7
100
AcDbCircle
 10
1007.290439485417
 20
374.7976778781849
 30
0.0
 40
1.5
  0
CIRCLE
  5
2F8
330
A
100
AcDbEntity
  8
LAYER_1
  6
Continuous
 62
     7
100
AcDbCircle
 10
1007.290439485417
 20
374.7976778781849
 30
0.0
 40
1.229367061317
  0
LINE
  5
2F9
330
A
100
AcDbEntity
  8
LAYER_1
  6
Continuous
 62
     7
100
AcDbLine
 10
1062.040439485417
 20
394.2976778781849
 30
0.0
 11
1031.040439485418
 21
394.2976778781849
 31
0.0
  0
LINE
  5
2FA
330
A
100
AcDbEntity
  8
LAYER_1
  6
Continuous
 62
     7
100
AcDbLine
 10
1063.040439485418
 20
396.2976778781849
 30
0.0
 11
1030.040439485418
 21
396.2976778781849
 31
0.0
  0
ARC
  5
2FB
330
A
100
AcDbEntity
  8
LAYER_1
  6
Continuous
 62
     7
100
AcDbCircle
 10
1063.040439485418
 20
395.2976778781849
 30
0.0
 40
1.0
100
AcDbArc
 50
0.0
 51
90.0
  0
ARC
  5
2FC
330
A
100
AcDbEntity
  8
LAYER_1
  6
Continuous
 62
     7
100
AcDbCircle
 10
1030.040439485418
 20
395.2976778781849
 30
0.0
 40
1.0
100
AcDbArc
 50
90.0
 51
180.0
  0
LINE
  5
2FD
330
A
100
AcDbEntity
  8
LAYER_1
  6
Continuous
 62
     7
100
AcDbLine
 10
1031.040439485418
 20
394.2976778781849
 30
0.0
 11
1031.040439485418
 21
372.2976778781849
 31
0.0
  0
LINE
  5
2FE
330
A
100
AcDbEntity
  8
LAYER_1
  6
Continuous
 62
     7
100
AcDbLine
 10
1029.040439485417
 20
395.2976778781849
 30
0.0
 11
1029.040439485417
 21
371.2976778781849
 31
0.0
  0
LINE
  5
2FF
330
A
100
AcDbEntity
  8
LAYER_1
  6
Continuous
 62
     7
100
AcDbLine
 10
1031.040439485418
 20
372.2976778781849
 30
0.0
 11
1062.040439485417
 21
372.2976778781849
 31
0.0
  0
LINE
  5
300
330
A
100
AcDbEntity
  8
LAYER_1
  6
Continuous
 62
     7
100
AcDbLine
 10
1030.040439485418
 20
370.2976778781849
 30
0.0
 11
1063.040439485418
 21
370.2976778781849
 31
0.0
  0
ARC
  5
301
330
A
100
AcDbEntity
  8
LAYER_1
  6
Continuous
 62
     7
100
AcDbCircle
 10
1030.040439485418
 20
371.2976778781849
 30
0.0
 40
1.0
100
AcDbArc
 50
180.0
 51
270.0
  0
LINE
  5
302
330
A
100
AcDbEntity
  8
LAYER_1
  6
Continuous
 62
     7
100
AcDbLine
 10
1062.040439485417
 20
372.2976778781849
 30
0.0
 11
1062.040439485417
 21
394.2976778781849
 31
0.0
  0
LINE
  5
303
330
A
100
AcDbEntity
  8
LAYER_1
  6
Continuous
 62
     7
100
AcDbLine
 10
1064.040439485417
 20
371.2976778781849
 30
0.0
 11
1064.040439485417
 21
395.2976778781849
 31
0.0
  0
ARC
  5
304
330
A
100
AcDbEntity
  8
LAYER_1
  6
Continuous
 62
     7
100
AcDbCircle
 10
1063.040439485418
 20
371.2976778781849
 30
0.0
 40
1.0
100
AcDbArc
 50
270.0
 51
0.0
  0
ARC
  5
305
330
A
100
AcDbEntity
  8
LAYER_1
  6
Continuous
 62
     7
100
AcDbCircle
 10
1055.040439485419
 20
354.2976778781849
 30
0.0
 40
0.5
100
AcDbArc
 50
0.0
 51
90.0
  0
ARC
  5
306
330
A
100
AcDbEntity
  8
LAYER_1
  6
Continuous
 62
     7
100
AcDbCircle
 10
1055.040439485419
 20
325.297677878185
 30
0.0
 40
0.5
100
AcDbArc
 50
270.0
 51
0.0
  0
ARC
  5
307
330
A
100
AcDbEntity
  8
LAYER_1
  6
Continuous
 62
     7
100
AcDbCircle
 10
1055.040439485419
 20
317.297677878185
 30
0.0
 40
0.5
100
AcDbArc
 50
0.0
 51
90.0
  0
ARC
  5
308
330
A
100
AcDbEntity
  8
LAYER_1
  6
Continuous
 62
     7
100
AcDbCircle
 10
1055.040439485419
 20
288.297677878185
 30
0.0
 40
0.5
100
AcDbArc
 50
270.0
 51
0.0
  0
LINE
  5
309
330
A
100
AcDbEntity
  8
LAYER_1
  6
Continuous
 62
     7
100
AcDbLine
 10
867.540439485419
 20
258.797677878185
 30
0.0
 11
1136.540439485419
 21
258.797677878185
 31
0.0
  0
LINE
  5
30A
330
A
100
AcDbEntity
  8
LAYER_1
  6
Continuous
 62
     7
100
AcDbLine
 10
956.54043948542
 20
386.2976778781849
 30
0.0
 11
956.54043948542
 21
364.2976778781849
 31
0.0
  0
LINE
  5
30B
330
A
100
AcDbEntity
  8
LAYER_1
  6
Continuous
 62
     7
100
AcDbLine
 10
952.540439485419
 20
364.2976778781849
 30
0.0
 11
952.540439485419
 21
386.2976778781849
 31
0.0
  0
LINE
  5
30C
330
A
100
AcDbEntity
  8
LAYER_1
  6
Continuous
 62
     7
100
AcDbLine
 10
959.540439485419
 20
364.2976778781849
 30
0.0
 11
959.540439485419
 21
386.2976778781849
 31
0.0
  0
LINE
  5
30D
330
A
100
AcDbEntity
  8
LAYER_1
  6
Continuous
 62
     7
100
AcDbLine
 10
963.5404394854189
 20
386.2976778781849
 30
0.0
 11
963.5404394854189
 21
364.2976778781849
 31
0.0
  0
LINE
  5
30E
330
A
100
AcDbEntity
  8
LAYER_1
  6
Continuous
 62
     7
100
AcDbLine
 10
928.540439485419
 20
386.2976778781849
 30
0.0
 11
928.540439485419
 21
364.2976778781849
 31
0.0
  0
LINE
  5
30F
330
A
100
AcDbEntity
  8
LAYER_1
  6
Continuous
 62
     7
100
AcDbLine
 10
924.540439485419
 20
364.2976778781849
 30
0.0
 11
924.540439485419
 21
386.2976778781849
 31
0.0
  0
LINE
  5
310
330
A
100
AcDbEntity
  8
LAYER_1
  6
Continuous
 62
     7
100
AcDbLine
 10
931.5404394854191
 20
364.2976778781849
 30
0.0
 11
931.5404394854191
 21
386.2976778781849
 31
0.0
  0
LINE
  5
311
330
A
100
AcDbEntity
  8
LAYER_1
  6
Continuous
 62
     7
100
AcDbLine
 10
935.540439485419
 20
386.2976778781849
 30
0.0
 11
935.540439485419
 21
364.2976778781849
 31
0.0
  0
LINE
  5
312
330
A
100
AcDbEntity
  8
LAYER_1
  6
Continuous
 62
     7
100
AcDbLine
 10
949.5404394854199
 20
386.2976778781849
 30
0.0
 11
949.5404394854199
 21
364.2976778781849
 31
0.0
  0
LINE
  5
313
330
A
100
AcDbEntity
  8
LAYER_1
  6
Continuous
 62
     7
100
AcDbLine
 10
945.5404394854189
 20
364.2976778781849
 30
0.0
 11
945.5404394854189
 21
386.2976778781849
 31
0.0
  0
LINE
  5
314
330
A
100
AcDbEntity
  8
LAYER_1
  6
Continuous
 62
     7
100
AcDbLine
 10
938.5404394854189
 20
364.2976778781849
 30
0.0
 11
938.5404394854189
 21
386.2976778781849
 31
0.0
  0
LINE
  5
315
330
A
100
AcDbEntity
  8
LAYER_1
  6
Continuous
 62
     7
100
AcDbLine
 10
942.540439485419
 20
386.2976778781849
 30
0.0
 11
942.540439485419
 21
364.2976778781849
 31
0.0
  0
LINE
  5
316
330
A
100
AcDbEntity
  8
LAYER_1
  6
Continuous
 62
     7
100
AcDbLine
 10
914.5404394854191
 20
386.2976778781849
 30
0.0
 11
914.5404394854191
 21
364.2976778781849
 31
0.0
  0
LINE
  5
317
330
A
100
AcDbEntity
  8
LAYER_1
  6
Continuous
 62
     7
100
AcDbLine
 10
910.540439485419
 20
364.2976778781849
 30
0.0
 11
910.540439485419
 21
386.2976778781849
 31
0.0
  0
LINE
  5
318
330
A
100
AcDbEntity
  8
LAYER_1
  6
Continuous
 62
     7
100
AcDbLine
 10
917.540439485419
 20
364.2976778781849
 30
0.0
 11
917.540439485419
 21
386.2976778781849
 31
0.0
  0
LINE
  5
319
330
A
100
AcDbEntity
  8
LAYER_1
  6
Continuous
 62
     7
100
AcDbLine
 10
921.5404394854189
 20
386.2976778781849
 30
0.0
 11
921.5404394854189
 21
364.2976778781849
 31
0.0
  0
LINE
  5
31A
330
A
100
AcDbEntity
  8
LAYER_1
  6
Continuous
 62
     7
100
AcDbLine
 10
907.540439485419
 20
386.2976778781849
 30
0.0
 11
907.540439485419
 21
364.2976778781849
 31
0.0
  0
LINE
  5
31B
330
A
100
AcDbEntity
  8
LAYER_1
  6
Continuous
 62
     7
100
AcDbLine
 10
903.540439485419
 20
364.2976778781849
 30
0.0
 11
903.540439485419
 21
386.2976778781849
 31
0.0
  0
LINE
  5
31C
330
A
100
AcDbEntity
  8
LAYER_1
  6
Continuous
 62
     7
100
AcDbLine
 10
896.5404394854189
 20
364.2976778781849
 30
0.0
 11
896.5404394854189
 21
386.2976778781849
 31
0.0
  0
LINE
  5
31D
330
A
100
AcDbEntity
  8
LAYER_1
  6
Continuous
 62
     7
100
AcDbLine
 10
900.540439485419
 20
386.2976778781849
 30
0.0
 11
900.540439485419
 21
364.2976778781849
 31
0.0
  0
LINE
  5
31E
330
A
100
AcDbEntity
  8
LAYER_1
  6
Continuous
 62
     7
100
AcDbLine
 10
893.540439485419
 20
386.2976778781849
 30
0.0
 11
893.540439485419
 21
364.2976778781849
 31
0.0
  0
LINE
  5
31F
330
A
100
AcDbEntity
  8
LAYER_1
  6
Continuous
 62
     7
100
AcDbLine
 10
889.54043948542
 20
364.2976778781849
 30
0.0
 11
889.54043948542
 21
386.2976778781849
 31
0.0
  0
ARC
  5
320
330
A
100
AcDbEntity
  8
LAYER_1
  6
Continuous
 62
     7
100
AcDbCircle
 10
921.040439485419
 20
364.2976778781849
 30
0.0
 40
0.5
100
AcDbArc
 50
270.0
 51
0.0
  0
LINE
  5
321
330
A
100
AcDbEntity
  8
LAYER_1
  6
Continuous
 62
     7
100
AcDbLine
 10
907.040439485419
 20
363.7976778781849
 30
0.0
 11
904.040439485419
 21
363.7976778781849
 31
0.0
  0
ARC
  5
322
330
A
100
AcDbEntity
  8
LAYER_1
  6
Continuous
 62
     7
100
AcDbCircle
 10
904.040439485419
 20
364.2976778781849
 30
0.0
 40
0.5
100
AcDbArc
 50
180.0
 51
270.0
  0
ARC
  5
323
330
A
100
AcDbEntity
  8
LAYER_1
  6
Continuous
 62
     7
100
AcDbCircle
 10
900.0404394854189
 20
364.2976778781849
 30
0.0
 40
0.5
100
AcDbArc
 50
270.0
 51
0.0
  0
ARC
  5
324
330
A
100
AcDbEntity
  8
LAYER_1
  6
Continuous
 62
     7
100
AcDbCircle
 10
897.040439485419
 20
364.2976778781849
 30
0.0
 40
0.5
100
AcDbArc
 50
180.0
 51
270.0
  0
LINE
  5
325
330
A
100
AcDbEntity
  8
LAYER_1
  6
Continuous
 62
     7
100
AcDbLine
 10
900.0404394854189
 20
363.7976778781849
 30
0.0
 11
897.040439485419
 21
363.7976778781849
 31
0.0
  0
LINE
  5
326
330
A
100
AcDbEntity
  8
LAYER_1
  6
Continuous
 62
     7
100
AcDbLine
 10
893.0404394854191
 20
363.7976778781849
 30
0.0
 11
890.040439485419
 21
363.7976778781849
 31
0.0
  0
ARC
  5
327
330
A
100
AcDbEntity
  8
LAYER_1
  6
Continuous
 62
     7
100
AcDbCircle
 10
890.040439485419
 20
364.2976778781849
 30
0.0
 40
0.5
100
AcDbArc
 50
180.0
 51
270.0
  0
ARC
  5
328
330
A
100
AcDbEntity
  8
LAYER_1
  6
Continuous
 62
     7
100
AcDbCircle
 10
893.0404394854191
 20
364.2976778781849
 30
0.0
 40
0.5
100
AcDbArc
 50
270.0
 51
0.0
  0
LINE
  5
329
330
A
100
AcDbEntity
  8
LAYER_1
  6
Continuous
 62
     7
100
AcDbLine
 10
914.040439485419
 20
363.7976778781849
 30
0.0
 11
911.0404394854191
 21
363.7976778781849
 31
0.0
  0
ARC
  5
32A
330
A
100
AcDbEntity
  8
LAYER_1
  6
Continuous
 62
     7
100
AcDbCircle
 10
911.0404394854191
 20
364.2976778781849
 30
0.0
 40
0.5
100
AcDbArc
 50
180.0
 51
270.0
  0
ARC
  5
32B
330
A
100
AcDbEntity
  8
LAYER_1
  6
Continuous
 62
     7
100
AcDbCircle
 10
914.040439485419
 20
364.2976778781849
 30
0.0
 40
0.5
100
AcDbArc
 50
270.0
 51
0.0
  0
ARC
  5
32C
330
A
100
AcDbEntity
  8
LAYER_1
  6
Continuous
 62
     7
100
AcDbCircle
 10
918.0404394854191
 20
364.2976778781849
 30
0.0
 40
0.5
100
AcDbArc
 50
180.0
 51
270.0
  0
LINE
  5
32D
330
A
100
AcDbEntity
  8
LAYER_1
  6
Continuous
 62
     7
100
AcDbLine
 10
921.040439485419
 20
363.7976778781849
 30
0.0
 11
918.0404394854191
 21
363.7976778781849
 31
0.0
  0
ARC
  5
32E
330
A
100
AcDbEntity
  8
LAYER_1
  6
Continuous
 62
     7
100
AcDbCircle
 10
907.040439485419
 20
364.2976778781849
 30
0.0
 40
0.5
100
AcDbArc
 50
270.0
 51
0.0
  0
LINE
  5
32F
330
A
100
AcDbEntity
  8
LAYER_1
  6
Continuous
 62
     7
100
AcDbLine
 10
978.540439485419
 20
354.2976778781849
 30
0.0
 11
978.540439485419
 21
325.297677878185
 31
0.0
  0
LINE
  5
330
330
A
100
AcDbEntity
  8
LAYER_1
  6
Continuous
 62
     7
100
AcDbLine
 10
974.540439485419
 20
325.297677878185
 30
0.0
 11
974.540439485419
 21
354.2976778781849
 31
0.0
  0
LINE
  5
331
330
A
100
AcDbEntity
  8
LAYER_1
  6
Continuous
 62
     7
100
AcDbLine
 10
981.54043948542
 20
325.297677878185
 30
0.0
 11
981.54043948542
 21
354.2976778781849
 31
0.0
  0
LINE
  5
332
330
A
100
AcDbEntity
  8
LAYER_1
  6
Continuous
 62
     7
100
AcDbLine
 10
985.5404394854199
 20
354.2976778781849
 30
0.0
 11
985.5404394854199
 21
325.297677878185
 31
0.0
  0
LINE
  5
333
330
A
100
AcDbEntity
  8
LAYER_1
  6
Continuous
 62
     7
100
AcDbLine
 10
964.5404394854191
 20
354.2976778781849
 30
0.0
 11
964.5404394854191
 21
325.297677878185
 31
0.0
  0
LINE
  5
334
330
A
100
AcDbEntity
  8
LAYER_1
  6
Continuous
 62
     7
100
AcDbLine
 10
960.540439485419
 20
325.297677878185
 30
0.0
 11
960.540439485419
 21
354.2976778781849
 31
0.0
  0
LINE
  5
335
330
A
100
AcDbEntity
  8
LAYER_1
  6
Continuous
 62
     7
100
AcDbLine
 10
967.540439485419
 20
325.297677878185
 30
0.0
 11
967.540439485419
 21
354.2976778781849
 31
0.0
  0
LINE
  5
336
330
A
100
AcDbEntity
  8
LAYER_1
  6
Continuous
 62
     7
100
AcDbLine
 10
971.5404394854189
 20
354.2976778781849
 30
0.0
 11
971.5404394854189
 21
325.297677878185
 31
0.0
  0
LINE
  5
337
330
A
100
AcDbEntity
  8
LAYER_1
  6
Continuous
 62
     7
100
AcDbLine
 10
957.540439485419
 20
354.2976778781849
 30
0.0
 11
957.540439485419
 21
325.297677878185
 31
0.0
  0
LINE
  5
338
330
A
100
AcDbEntity
  8
LAYER_1
  6
Continuous
 62
     7
100
AcDbLine
 10
953.5404394854198
 20
325.297677878185
 30
0.0
 11
953.5404394854198
 21
354.2976778781849
 31
0.0
  0
LINE
  5
339
330
A
100
AcDbEntity
  8
LAYER_1
  6
Continuous
 62
     7
100
AcDbLine
 10
946.5404394854189
 20
325.297677878185
 30
0.0
 11
946.5404394854189
 21
354.2976778781849
 31
0.0
  0
LINE
  5
33A
330
A
100
AcDbEntity
  8
LAYER_1
  6
Continuous
 62
     7
100
AcDbLine
 10
950.540439485419
 20
354.2976778781849
 30
0.0
 11
950.540439485419
 21
325.297677878185
 31
0.0
  0
LINE
  5
33B
330
A
100
AcDbEntity
  8
LAYER_1
  6
Continuous
 62
     7
100
AcDbLine
 10
943.540439485419
 20
354.2976778781849
 30
0.0
 11
943.540439485419
 21
325.297677878185
 31
0.0
  0
LINE
  5
33C
330
A
100
AcDbEntity
  8
LAYER_1
  6
Continuous
 62
     7
100
AcDbLine
 10
939.5404394854191
 20
325.297677878185
 30
0.0
 11
939.5404394854191
 21
354.2976778781849
 31
0.0
  0
LINE
  5
33D
330
A
100
AcDbEntity
  8
LAYER_1
  6
Continuous
 62
     7
100
AcDbLine
 10
954.040439485419
 20
317.797677878185
 30
0.0
 11
957.040439485419
 21
317.797677878185
 31
0.0
  0
LINE
  5
33E
330
A
100
AcDbEntity
  8
LAYER_1
  6
Continuous
 62
     7
100
AcDbLine
 10
957.040439485419
 20
324.797677878185
 30
0.0
 11
954.040439485419
 21
324.797677878185
 31
0.0
  0
LINE
  5
33F
330
A
100
AcDbEntity
  8
LAYER_1
  6
Continuous
 62
     7
100
AcDbLine
 10
957.040439485419
 20
287.797677878185
 30
0.0
 11
954.040439485419
 21
287.797677878185
 31
0.0
  0
LINE
  5
340
330
A
100
AcDbEntity
  8
LAYER_1
  6
Continuous
 62
     7
100
AcDbLine
 10
953.5404394854198
 20
288.297677878185
 30
0.0
 11
953.5404394854198
 21
317.297677878185
 31
0.0
  0
LINE
  5
341
330
A
100
AcDbEntity
  8
LAYER_1
  6
Continuous
 62
     7
100
AcDbLine
 10
946.5404394854189
 20
288.297677878185
 30
0.0
 11
946.5404394854189
 21
317.297677878185
 31
0.0
  0
LINE
  5
342
330
A
100
AcDbEntity
  8
LAYER_1
  6
Continuous
 62
     7
100
AcDbLine
 10
950.540439485419
 20
317.297677878185
 30
0.0
 11
950.540439485419
 21
288.297677878185
 31
0.0
  0
LINE
  5
343
330
A
100
AcDbEntity
  8
LAYER_1
  6
Continuous
 62
     7
100
AcDbLine
 10
943.540439485419
 20
317.297677878185
 30
0.0
 11
943.540439485419
 21
288.297677878185
 31
0.0
  0
LINE
  5
344
330
A
100
AcDbEntity
  8
LAYER_1
  6
Continuous
 62
     7
100
AcDbLine
 10
939.5404394854191
 20
288.297677878185
 30
0.0
 11
939.5404394854191
 21
317.297677878185
 31
0.0
  0
ARC
  5
345
330
A
100
AcDbEntity
  8
LAYER_1
  6
Continuous
 62
     7
100
AcDbCircle
 10
954.040439485419
 20
288.297677878185
 30
0.0
 40
0.5
100
AcDbArc
 50
180.0
 51
270.0
  0
LINE
  5
346
330
A
100
AcDbEntity
  8
LAYER_1
  6
Continuous
 62
     7
100
AcDbLine
 10
950.0404394854189
 20
287.797677878185
 30
0.0
 11
947.040439485419
 21
287.797677878185
 31
0.0
  0
ARC
  5
347
330
A
100
AcDbEntity
  8
LAYER_1
  6
Continuous
 62
     7
100
AcDbCircle
 10
947.040439485419
 20
288.297677878185
 30
0.0
 40
0.5
100
AcDbArc
 50
180.0
 51
270.0
  0
ARC
  5
348
330
A
100
AcDbEntity
  8
LAYER_1
  6
Continuous
 62
     7
100
AcDbCircle
 10
950.0404394854189
 20
288.297677878185
 30
0.0
 40
0.5
100
AcDbArc
 50
270.0
 51
0.0
  0
ARC
  5
349
330
A
100
AcDbEntity
  8
LAYER_1
  6
Continuous
 62
     7
100
AcDbCircle
 10
943.0404394854191
 20
288.297677878185
 30
0.0
 40
0.5
100
AcDbArc
 50
270.0
 51
0.0
  0
ARC
  5
34A
330
A
100
AcDbEntity
  8
LAYER_1
  6
Continuous
 62
     7
100
AcDbCircle
 10
940.040439485419
 20
288.297677878185
 30
0.0
 40
0.5
100
AcDbArc
 50
180.0
 51
270.0
  0
LINE
  5
34B
330
A
100
AcDbEntity
  8
LAYER_1
  6
Continuous
 62
     7
100
AcDbLine
 10
943.0404394854191
 20
287.797677878185
 30
0.0
 11
940.040439485419
 21
287.797677878185
 31
0.0
  0
ARC
  5
34C
330
A
100
AcDbEntity
  8
LAYER_1
  6
Continuous
 62
     7
100
AcDbCircle
 10
954.040439485419
 20
317.297677878185
 30
0.0
 40
0.5
100
AcDbArc
 50
90.0
 51
180.0
  0
ARC
  5
34D
330
A
100
AcDbEntity
  8
LAYER_1
  6
Continuous
 62
     7
100
AcDbCircle
 10
954.040439485419
 20
325.297677878185
 30
0.0
 40
0.5
100
AcDbArc
 50
180.0
 51
270.0
  0
ARC
  5
34E
330
A
100
AcDbEntity
  8
LAYER_1
  6
Continuous
 62
     7
100
AcDbCircle
 10
950.0404394854189
 20
325.297677878185
 30
0.0
 40
0.5
100
AcDbArc
 50
270.0
 51
0.0
  0
ARC
  5
34F
330
A
100
AcDbEntity
  8
LAYER_1
  6
Continuous
 62
     7
100
AcDbCircle
 10
947.040439485419
 20
325.297677878185
 30
0.0
 40
0.5
100
AcDbArc
 50
180.0
 51
270.0
  0
LINE
  5
350
330
A
100
AcDbEntity
  8
LAYER_1
  6
Continuous
 62
     7
100
AcDbLine
 10
950.0404394854189
 20
324.797677878185
 30
0.0
 11
947.040439485419
 21
324.797677878185
 31
0.0
  0
ARC
  5
351
330
A
100
AcDbEntity
  8
LAYER_1
  6
Continuous
 62
     7
100
AcDbCircle
 10
947.040439485419
 20
317.297677878185
 30
0.0
 40
0.5
100
AcDbArc
 50
90.0
 51
180.0
  0
ARC
  5
352
330
A
100
AcDbEntity
  8
LAYER_1
  6
Continuous
 62
     7
100
AcDbCircle
 10
950.0404394854189
 20
317.297677878185
 30
0.0
 40
0.5
100
AcDbArc
 50
0.0
 51
90.0
  0
LINE
  5
353
330
A
100
AcDbEntity
  8
LAYER_1
  6
Continuous
 62
     7
100
AcDbLine
 10
947.040439485419
 20
317.797677878185
 30
0.0
 11
950.0404394854189
 21
317.797677878185
 31
0.0
  0
LINE
  5
354
330
A
100
AcDbEntity
  8
LAYER_1
  6
Continuous
 62
     7
100
AcDbLine
 10
940.040439485419
 20
317.797677878185
 30
0.0
 11
943.0404394854191
 21
317.797677878185
 31
0.0
  0
ARC
  5
355
330
A
100
AcDbEntity
  8
LAYER_1
  6
Continuous
 62
     7
100
AcDbCircle
 10
943.0404394854191
 20
317.297677878185
 30
0.0
 40
0.5
100
AcDbArc
 50
0.0
 51
90.0
  0
ARC
  5
356
330
A
100
AcDbEntity
  8
LAYER_1
  6
Continuous
 62
     7
100
AcDbCircle
 10
940.040439485419
 20
317.297677878185
 30
0.0
 40
0.5
100
AcDbArc
 50
90.0
 51
180.0
  0
LINE
  5
357
330
A
100
AcDbEntity
  8
LAYER_1
  6
Continuous
 62
     7
100
AcDbLine
 10
943.0404394854191
 20
324.797677878185
 30
0.0
 11
940.040439485419
 21
324.797677878185
 31
0.0
  0
ARC
  5
358
330
A
100
AcDbEntity
  8
LAYER_1
  6
Continuous
 62
     7
100
AcDbCircle
 10
940.040439485419
 20
325.297677878185
 30
0.0
 40
0.5
100
AcDbArc
 50
180.0
 51
270.0
  0
ARC
  5
359
330
A
100
AcDbEntity
  8
LAYER_1
  6
Continuous
 62
     7
100
AcDbCircle
 10
943.0404394854191
 20
325.297677878185
 30
0.0
 40
0.5
100
AcDbArc
 50
270.0
 51
0.0
  0
LINE
  5
35A
330
A
100
AcDbEntity
  8
LAYER_1
  6
Continuous
 62
     7
100
AcDbLine
 10
985.5404394854199
 20
317.297677878185
 30
0.0
 11
985.5404394854199
 21
288.297677878185
 31
0.0
  0
LINE
  5
35B
330
A
100
AcDbEntity
  8
LAYER_1
  6
Continuous
 62
     7
100
AcDbLine
 10
978.540439485419
 20
317.297677878185
 30
0.0
 11
978.540439485419
 21
288.297677878185
 31
0.0
  0
LINE
  5
35C
330
A
100
AcDbEntity
  8
LAYER_1
  6
Continuous
 62
     7
100
AcDbLine
 10
974.540439485419
 20
288.297677878185
 30
0.0
 11
974.540439485419
 21
317.297677878185
 31
0.0
  0
LINE
  5
35D
330
A
100
AcDbEntity
  8
LAYER_1
  6
Continuous
 62
     7
100
AcDbLine
 10
981.54043948542
 20
288.297677878185
 30
0.0
 11
981.54043948542
 21
317.297677878185
 31
0.0
  0
LINE
  5
35E
330
A
100
AcDbEntity
  8
LAYER_1
  6
Continuous
 62
     7
100
AcDbLine
 10
971.5404394854189
 20
317.297677878185
 30
0.0
 11
971.5404394854189
 21
288.297677878185
 31
0.0
  0
LINE
  5
35F
330
A
100
AcDbEntity
  8
LAYER_1
  6
Continuous
 62
     7
100
AcDbLine
 10
964.5404394854191
 20
317.297677878185
 30
0.0
 11
964.5404394854191
 21
288.297677878185
 31
0.0
  0
LINE
  5
360
330
A
100
AcDbEntity
  8
LAYER_1
  6
Continuous
 62
     7
100
AcDbLine
 10
960.540439485419
 20
288.297677878185
 30
0.0
 11
960.540439485419
 21
317.297677878185
 31
0.0
  0
LINE
  5
361
330
A
100
AcDbEntity
  8
LAYER_1
  6
Continuous
 62
     7
100
AcDbLine
 10
967.540439485419
 20
288.297677878185
 30
0.0
 11
967.540439485419
 21
317.297677878185
 31
0.0
  0
LINE
  5
362
330
A
100
AcDbEntity
  8
LAYER_1
  6
Continuous
 62
     7
100
AcDbLine
 10
957.540439485419
 20
317.297677878185
 30
0.0
 11
957.540439485419
 21
288.297677878185
 31
0.0
  0
ARC
  5
363
330
A
100
AcDbEntity
  8
LAYER_1
  6
Continuous
 62
     7
100
AcDbCircle
 10
971.040439485419
 20
288.297677878185
 30
0.0
 40
0.5
100
AcDbArc
 50
270.0
 51
0.0
  0
ARC
  5
364
330
A
100
AcDbEntity
  8
LAYER_1
  6
Continuous
 62
     7
100
AcDbCircle
 10
964.040439485419
 20
288.297677878185
 30
0.0
 40
0.5
100
AcDbArc
 50
270.0
 51
0.0
  0
ARC
  5
365
330
A
100
AcDbEntity
  8
LAYER_1
  6
Continuous
 62
     7
100
AcDbCircle
 10
961.0404394854191
 20
288.297677878185
 30
0.0
 40
0.5
100
AcDbArc
 50
180.0
 51
270.0
  0
LINE
  5
366
330
A
100
AcDbEntity
  8
LAYER_1
  6
Continuous
 62
     7
100
AcDbLine
 10
964.040439485419
 20
287.797677878185
 30
0.0
 11
961.0404394854191
 21
287.797677878185
 31
0.0
  0
ARC
  5
367
330
A
100
AcDbEntity
  8
LAYER_1
  6
Continuous
 62
     7
100
AcDbCircle
 10
968.0404394854191
 20
288.297677878185
 30
0.0
 40
0.5
100
AcDbArc
 50
180.0
 51
270.0
  0
LINE
  5
368
330
A
100
AcDbEntity
  8
LAYER_1
  6
Continuous
 62
     7
100
AcDbLine
 10
971.040439485419
 20
287.797677878185
 30
0.0
 11
968.0404394854191
 21
287.797677878185
 31
0.0
  0
ARC
  5
369
330
A
100
AcDbEntity
  8
LAYER_1
  6
Continuous
 62
     7
100
AcDbCircle
 10
957.040439485419
 20
288.297677878185
 30
0.0
 40
0.5
100
AcDbArc
 50
270.0
 51
0.0
  0
ARC
  5
36A
330
A
100
AcDbEntity
  8
LAYER_1
  6
Continuous
 62
     7
100
AcDbCircle
 10
985.0404394854191
 20
288.297677878185
 30
0.0
 40
0.5
100
AcDbArc
 50
270.0
 51
0.0
  0
ARC
  5
36B
330
A
100
AcDbEntity
  8
LAYER_1
  6
Continuous
 62
     7
100
AcDbCircle
 10
978.040439485419
 20
288.297677878185
 30
0.0
 40
0.5
100
AcDbArc
 50
270.0
 51
0.0
  0
ARC
  5
36C
330
A
100
AcDbEntity
  8
LAYER_1
  6
Continuous
 62
     7
100
AcDbCircle
 10
975.0404394854189
 20
288.297677878185
 30
0.0
 40
0.5
100
AcDbArc
 50
180.0
 51
270.0
  0
LINE
  5
36D
330
A
100
AcDbEntity
  8
LAYER_1
  6
Continuous
 62
     7
100
AcDbLine
 10
978.040439485419
 20
287.797677878185
 30
0.0
 11
975.0404394854189
 21
287.797677878185
 31
0.0
  0
ARC
  5
36E
330
A
100
AcDbEntity
  8
LAYER_1
  6
Continuous
 62
     7
100
AcDbCircle
 10
982.040439485419
 20
288.297677878185
 30
0.0
 40
0.5
100
AcDbArc
 50
180.0
 51
270.0
  0
LINE
  5
36F
330
A
100
AcDbEntity
  8
LAYER_1
  6
Continuous
 62
     7
100
AcDbLine
 10
985.0404394854191
 20
287.797677878185
 30
0.0
 11
982.040439485419
 21
287.797677878185
 31
0.0
  0
ARC
  5
370
330
A
100
AcDbEntity
  8
LAYER_1
  6
Continuous
 62
     7
100
AcDbCircle
 10
971.040439485419
 20
325.297677878185
 30
0.0
 40
0.5
100
AcDbArc
 50
270.0
 51
0.0
  0
ARC
  5
371
330
A
100
AcDbEntity
  8
LAYER_1
  6
Continuous
 62
     7
100
AcDbCircle
 10
971.040439485419
 20
317.297677878185
 30
0.0
 40
0.5
100
AcDbArc
 50
0.0
 51
90.0
  0
LINE
  5
372
330
A
100
AcDbEntity
  8
LAYER_1
  6
Continuous
 62
     7
100
AcDbLine
 10
961.0404394854191
 20
317.797677878185
 30
0.0
 11
964.040439485419
 21
317.797677878185
 31
0.0
  0
ARC
  5
373
330
A
100
AcDbEntity
  8
LAYER_1
  6
Continuous
 62
     7
100
AcDbCircle
 10
964.040439485419
 20
317.297677878185
 30
0.0
 40
0.5
100
AcDbArc
 50
0.0
 51
90.0
  0
ARC
  5
374
330
A
100
AcDbEntity
  8
LAYER_1
  6
Continuous
 62
     7
100
AcDbCircle
 10
961.0404394854191
 20
317.297677878185
 30
0.0
 40
0.5
100
AcDbArc
 50
90.0
 51
180.0
  0
LINE
  5
375
330
A
100
AcDbEntity
  8
LAYER_1
  6
Continuous
 62
     7
100
AcDbLine
 10
964.040439485419
 20
324.797677878185
 30
0.0
 11
961.0404394854191
 21
324.797677878185
 31
0.0
  0
ARC
  5
376
330
A
100
AcDbEntity
  8
LAYER_1
  6
Continuous
 62
     7
100
AcDbCircle
 10
961.0404394854191
 20
325.297677878185
 30
0.0
 40
0.5
100
AcDbArc
 50
180.0
 51
270.0
  0
ARC
  5
377
330
A
100
AcDbEntity
  8
LAYER_1
  6
Continuous
 62
     7
100
AcDbCircle
 10
964.040439485419
 20
325.297677878185
 30
0.0
 40
0.5
100
AcDbArc
 50
270.0
 51
0.0
  0
ARC
  5
378
330
A
100
AcDbEntity
  8
LAYER_1
  6
Continuous
 62
     7
100
AcDbCircle
 10
968.0404394854191
 20
325.297677878185
 30
0.0
 40
0.5
100
AcDbArc
 50
180.0
 51
270.0
  0
ARC
  5
379
330
A
100
AcDbEntity
  8
LAYER_1
  6
Continuous
 62
     7
100
AcDbCircle
 10
968.0404394854191
 20
317.297677878185
 30
0.0
 40
0.5
100
AcDbArc
 50
90.0
 51
180.0
  0
LINE
  5
37A
330
A
100
AcDbEntity
  8
LAYER_1
  6
Continuous
 62
     7
100
AcDbLine
 10
971.040439485419
 20
324.797677878185
 30
0.0
 11
968.0404394854191
 21
324.797677878185
 31
0.0
  0
LINE
  5
37B
330
A
100
AcDbEntity
  8
LAYER_1
  6
Continuous
 62
     7
100
AcDbLine
 10
968.0404394854191
 20
317.797677878185
 30
0.0
 11
971.040439485419
 21
317.797677878185
 31
0.0
  0
ARC
  5
37C
330
A
100
AcDbEntity
  8
LAYER_1
  6
Continuous
 62
     7
100
AcDbCircle
 10
957.040439485419
 20
317.297677878185
 30
0.0
 40
0.5
100
AcDbArc
 50
0.0
 51
90.0
  0
ARC
  5
37D
330
A
100
AcDbEntity
  8
LAYER_1
  6
Continuous
 62
     7
100
AcDbCircle
 10
957.040439485419
 20
325.297677878185
 30
0.0
 40
0.5
100
AcDbArc
 50
270.0
 51
0.0
  0
ARC
  5
37E
330
A
100
AcDbEntity
  8
LAYER_1
  6
Continuous
 62
     7
100
AcDbCircle
 10
985.0404394854191
 20
325.297677878185
 30
0.0
 40
0.5
100
AcDbArc
 50
270.0
 51
0.0
  0
ARC
  5
37F
330
A
100
AcDbEntity
  8
LAYER_1
  6
Continuous
 62
     7
100
AcDbCircle
 10
985.0404394854191
 20
317.297677878185
 30
0.0
 40
0.5
100
AcDbArc
 50
0.0
 51
90.0
  0
LINE
  5
380
330
A
100
AcDbEntity
  8
LAYER_1
  6
Continuous
 62
     7
100
AcDbLine
 10
975.0404394854189
 20
317.797677878185
 30
0.0
 11
978.040439485419
 21
317.797677878185
 31
0.0
  0
ARC
  5
381
330
A
100
AcDbEntity
  8
LAYER_1
  6
Continuous
 62
     7
100
AcDbCircle
 10
978.040439485419
 20
317.297677878185
 30
0.0
 40
0.5
100
AcDbArc
 50
0.0
 51
90.0
  0
ARC
  5
382
330
A
100
AcDbEntity
  8
LAYER_1
  6
Continuous
 62
     7
100
AcDbCircle
 10
975.0404394854189
 20
317.297677878185
 30
0.0
 40
0.5
100
AcDbArc
 50
90.0
 51
180.0
  0
LINE
  5
383
330
A
100
AcDbEntity
  8
LAYER_1
  6
Continuous
 62
     7
100
AcDbLine
 10
978.040439485419
 20
324.797677878185
 30
0.0
 11
975.0404394854189
 21
324.797677878185
 31
0.0
  0
ARC
  5
384
330
A
100
AcDbEntity
  8
LAYER_1
  6
Continuous
 62
     7
100
AcDbCircle
 10
975.0404394854189
 20
325.297677878185
 30
0.0
 40
0.5
100
AcDbArc
 50
180.0
 51
270.0
  0
ARC
  5
385
330
A
100
AcDbEntity
  8
LAYER_1
  6
Continuous
 62
     7
100
AcDbCircle
 10
978.040439485419
 20
325.297677878185
 30
0.0
 40
0.5
100
AcDbArc
 50
270.0
 51
0.0
  0
ARC
  5
386
330
A
100
AcDbEntity
  8
LAYER_1
  6
Continuous
 62
     7
100
AcDbCircle
 10
982.040439485419
 20
325.297677878185
 30
0.0
 40
0.5
100
AcDbArc
 50
180.0
 51
270.0
  0
ARC
  5
387
330
A
100
AcDbEntity
  8
LAYER_1
  6
Continuous
 62
     7
100
AcDbCircle
 10
982.040439485419
 20
317.297677878185
 30
0.0
 40
0.5
100
AcDbArc
 50
90.0
 51
180.0
  0
LINE
  5
388
330
A
100
AcDbEntity
  8
LAYER_1
  6
Continuous
 62
     7
100
AcDbLine
 10
985.0404394854191
 20
324.797677878185
 30
0.0
 11
982.040439485419
 21
324.797677878185
 31
0.0
  0
LINE
  5
389
330
A
100
AcDbEntity
  8
LAYER_1
  6
Continuous
 62
     7
100
AcDbLine
 10
982.040439485419
 20
317.797677878185
 30
0.0
 11
985.0404394854191
 21
317.797677878185
 31
0.0
  0
LINE
  5
38A
330
A
100
AcDbEntity
  8
LAYER_1
  6
Continuous
 62
     7
100
AcDbLine
 10
956.040439485419
 20
363.7976778781849
 30
0.0
 11
953.040439485419
 21
363.7976778781849
 31
0.0
  0
LINE
  5
38B
330
A
100
AcDbEntity
  8
LAYER_1
  6
Continuous
 62
     7
100
AcDbLine
 10
954.040439485419
 20
354.7976778781849
 30
0.0
 11
957.040439485419
 21
354.7976778781849
 31
0.0
  0
ARC
  5
38C
330
A
100
AcDbEntity
  8
LAYER_1
  6
Continuous
 62
     7
100
AcDbCircle
 10
935.0404394854191
 20
364.2976778781849
 30
0.0
 40
0.5
100
AcDbArc
 50
270.0
 51
0.0
  0
LINE
  5
38D
330
A
100
AcDbEntity
  8
LAYER_1
  6
Continuous
 62
     7
100
AcDbLine
 10
928.040439485419
 20
363.7976778781849
 30
0.0
 11
925.0404394854189
 21
363.7976778781849
 31
0.0
  0
ARC
  5
38E
330
A
100
AcDbEntity
  8
LAYER_1
  6
Continuous
 62
     7
100
AcDbCircle
 10
925.0404394854189
 20
364.2976778781849
 30
0.0
 40
0.5
100
AcDbArc
 50
180.0
 51
270.0
  0
ARC
  5
38F
330
A
100
AcDbEntity
  8
LAYER_1
  6
Continuous
 62
     7
100
AcDbCircle
 10
928.040439485419
 20
364.2976778781849
 30
0.0
 40
0.5
100
AcDbArc
 50
270.0
 51
0.0
  0
ARC
  5
390
330
A
100
AcDbEntity
  8
LAYER_1
  6
Continuous
 62
     7
100
AcDbCircle
 10
932.040439485419
 20
364.2976778781849
 30
0.0
 40
0.5
100
AcDbArc
 50
180.0
 51
270.0
  0
LINE
  5
391
330
A
100
AcDbEntity
  8
LAYER_1
  6
Continuous
 62
     7
100
AcDbLine
 10
935.0404394854191
 20
363.7976778781849
 30
0.0
 11
932.040439485419
 21
363.7976778781849
 31
0.0
  0
ARC
  5
392
330
A
100
AcDbEntity
  8
LAYER_1
  6
Continuous
 62
     7
100
AcDbCircle
 10
953.040439485419
 20
364.2976778781849
 30
0.0
 40
0.5
100
AcDbArc
 50
180.0
 51
270.0
  0
LINE
  5
393
330
A
100
AcDbEntity
  8
LAYER_1
  6
Continuous
 62
     7
100
AcDbLine
 10
949.040439485419
 20
363.7976778781849
 30
0.0
 11
946.040439485419
 21
363.7976778781849
 31
0.0
  0
ARC
  5
394
330
A
100
AcDbEntity
  8
LAYER_1
  6
Continuous
 62
     7
100
AcDbCircle
 10
946.040439485419
 20
364.2976778781849
 30
0.0
 40
0.5
100
AcDbArc
 50
180.0
 51
270.0
  0
ARC
  5
395
330
A
100
AcDbEntity
  8
LAYER_1
  6
Continuous
 62
     7
100
AcDbCircle
 10
942.0404394854189
 20
364.2976778781849
 30
0.0
 40
0.5
100
AcDbArc
 50
270.0
 51
0.0
  0
ARC
  5
396
330
A
100
AcDbEntity
  8
LAYER_1
  6
Continuous
 62
     7
100
AcDbCircle
 10
939.040439485419
 20
364.2976778781849
 30
0.0
 40
0.5
100
AcDbArc
 50
180.0
 51
270.0
  0
LINE
  5
397
330
A
100
AcDbEntity
  8
LAYER_1
  6
Continuous
 62
     7
100
AcDbLine
 10
942.0404394854189
 20
363.7976778781849
 30
0.0
 11
939.040439485419
 21
363.7976778781849
 31
0.0
  0
ARC
  5
398
330
A
100
AcDbEntity
  8
LAYER_1
  6
Continuous
 62
     7
100
AcDbCircle
 10
949.040439485419
 20
364.2976778781849
 30
0.0
 40
0.5
100
AcDbArc
 50
270.0
 51
0.0
  0
ARC
  5
399
330
A
100
AcDbEntity
  8
LAYER_1
  6
Continuous
 62
     7
100
AcDbCircle
 10
954.040439485419
 20
354.2976778781849
 30
0.0
 40
0.5
100
AcDbArc
 50
90.0
 51
180.0
  0
ARC
  5
39A
330
A
100
AcDbEntity
  8
LAYER_1
  6
Continuous
 62
     7
100
AcDbCircle
 10
950.0404394854189
 20
354.2976778781849
 30
0.0
 40
0.5
100
AcDbArc
 50
0.0
 51
90.0
  0
ARC
  5
39B
330
A
100
AcDbEntity
  8
LAYER_1
  6
Continuous
 62
     7
100
AcDbCircle
 10
947.040439485419
 20
354.2976778781849
 30
0.0
 40
0.5
100
AcDbArc
 50
90.0
 51
180.0
  0
LINE
  5
39C
330
A
100
AcDbEntity
  8
LAYER_1
  6
Continuous
 62
     7
100
AcDbLine
 10
947.040439485419
 20
354.7976778781849
 30
0.0
 11
950.0404394854189
 21
354.7976778781849
 31
0.0
  0
LINE
  5
39D
330
A
100
AcDbEntity
  8
LAYER_1
  6
Continuous
 62
     7
100
AcDbLine
 10
940.040439485419
 20
354.7976778781849
 30
0.0
 11
943.0404394854191
 21
354.7976778781849
 31
0.0
  0
ARC
  5
39E
330
A
100
AcDbEntity
  8
LAYER_1
  6
Continuous
 62
     7
100
AcDbCircle
 10
940.040439485419
 20
354.2976778781849
 30
0.0
 40
0.5
100
AcDbArc
 50
90.0
 51
180.0
  0
ARC
  5
39F
330
A
100
AcDbEntity
  8
LAYER_1
  6
Continuous
 62
     7
100
AcDbCircle
 10
943.0404394854191
 20
354.2976778781849
 30
0.0
 40
0.5
100
AcDbArc
 50
0.0
 51
90.0
  0
ARC
  5
3A0
330
A
100
AcDbEntity
  8
LAYER_1
  6
Continuous
 62
     7
100
AcDbCircle
 10
963.040439485419
 20
364.2976778781849
 30
0.0
 40
0.5
100
AcDbArc
 50
270.0
 51
0.0
  0
ARC
  5
3A1
330
A
100
AcDbEntity
  8
LAYER_1
  6
Continuous
 62
     7
100
AcDbCircle
 10
956.040439485419
 20
364.2976778781849
 30
0.0
 40
0.5
100
AcDbArc
 50
270.0
 51
0.0
  0
ARC
  5
3A2
330
A
100
AcDbEntity
  8
LAYER_1
  6
Continuous
 62
     7
100
AcDbCircle
 10
960.0404394854191
 20
364.2976778781849
 30
0.0
 40
0.5
100
AcDbArc
 50
180.0
 51
270.0
  0
LINE
  5
3A3
330
A
100
AcDbEntity
  8
LAYER_1
  6
Continuous
 62
     7
100
AcDbLine
 10
963.040439485419
 20
363.7976778781849
 30
0.0
 11
960.0404394854191
 21
363.7976778781849
 31
0.0
  0
ARC
  5
3A4
330
A
100
AcDbEntity
  8
LAYER_1
  6
Continuous
 62
     7
100
AcDbCircle
 10
971.040439485419
 20
354.2976778781849
 30
0.0
 40
0.5
100
AcDbArc
 50
0.0
 51
90.0
  0
LINE
  5
3A5
330
A
100
AcDbEntity
  8
LAYER_1
  6
Continuous
 62
     7
100
AcDbLine
 10
961.0404394854191
 20
354.7976778781849
 30
0.0
 11
964.040439485419
 21
354.7976778781849
 31
0.0
  0
ARC
  5
3A6
330
A
100
AcDbEntity
  8
LAYER_1
  6
Continuous
 62
     7
100
AcDbCircle
 10
961.0404394854191
 20
354.2976778781849
 30
0.0
 40
0.5
100
AcDbArc
 50
90.0
 51
180.0
  0
ARC
  5
3A7
330
A
100
AcDbEntity
  8
LAYER_1
  6
Continuous
 62
     7
100
AcDbCircle
 10
964.040439485419
 20
354.2976778781849
 30
0.0
 40
0.5
100
AcDbArc
 50
0.0
 51
90.0
  0
ARC
  5
3A8
330
A
100
AcDbEntity
  8
LAYER_1
  6
Continuous
 62
     7
100
AcDbCircle
 10
968.0404394854191
 20
354.2976778781849
 30
0.0
 40
0.5
100
AcDbArc
 50
90.0
 51
180.0
  0
LINE
  5
3A9
330
A
100
AcDbEntity
  8
LAYER_1
  6
Continuous
 62
     7
100
AcDbLine
 10
968.0404394854191
 20
354.7976778781849
 30
0.0
 11
971.040439485419
 21
354.7976778781849
 31
0.0
  0
ARC
  5
3AA
330
A
100
AcDbEntity
  8
LAYER_1
  6
Continuous
 62
     7
100
AcDbCircle
 10
957.040439485419
 20
354.2976778781849
 30
0.0
 40
0.5
100
AcDbArc
 50
0.0
 51
90.0
  0
ARC
  5
3AB
330
A
100
AcDbEntity
  8
LAYER_1
  6
Continuous
 62
     7
100
AcDbCircle
 10
985.0404394854191
 20
354.2976778781849
 30
0.0
 40
0.5
100
AcDbArc
 50
0.0
 51
90.0
  0
LINE
  5
3AC
330
A
100
AcDbEntity
  8
LAYER_1
  6
Continuous
 62
     7
100
AcDbLine
 10
975.0404394854189
 20
354.7976778781849
 30
0.0
 11
978.040439485419
 21
354.7976778781849
 31
0.0
  0
ARC
  5
3AD
330
A
100
AcDbEntity
  8
LAYER_1
  6
Continuous
 62
     7
100
AcDbCircle
 10
975.0404394854189
 20
354.2976778781849
 30
0.0
 40
0.5
100
AcDbArc
 50
90.0
 51
180.0
  0
ARC
  5
3AE
330
A
100
AcDbEntity
  8
LAYER_1
  6
Continuous
 62
     7
100
AcDbCircle
 10
978.040439485419
 20
354.2976778781849
 30
0.0
 40
0.5
100
AcDbArc
 50
0.0
 51
90.0
  0
ARC
  5
3AF
330
A
100
AcDbEntity
  8
LAYER_1
  6
Continuous
 62
     7
100
AcDbCircle
 10
982.040439485419
 20
354.2976778781849
 30
0.0
 40
0.5
100
AcDbArc
 50
90.0
 51
180.0
  0
LINE
  5
3B0
330
A
100
AcDbEntity
  8
LAYER_1
  6
Continuous
 62
     7
100
AcDbLine
 10
982.040439485419
 20
354.7976778781849
 30
0.0
 11
985.0404394854191
 21
354.7976778781849
 31
0.0
  0
LINE
  5
3B1
330
A
100
AcDbEntity
  8
LAYER_1
  6
Continuous
 62
     7
100
AcDbLine
 10
1048.540439485419
 20
354.2976778781849
 30
0.0
 11
1048.540439485419
 21
325.297677878185
 31
0.0
  0
LINE
  5
3B2
330
A
100
AcDbEntity
  8
LAYER_1
  6
Continuous
 62
     7
100
AcDbLine
 10
1044.540439485418
 20
325.297677878185
 30
0.0
 11
1044.540439485418
 21
354.2976778781849
 31
0.0
  0
LINE
  5
3B3
330
A
100
AcDbEntity
  8
LAYER_1
  6
Continuous
 62
     7
100
AcDbLine
 10
1051.540439485419
 20
325.297677878185
 30
0.0
 11
1051.540439485419
 21
354.2976778781849
 31
0.0
  0
LINE
  5
3B4
330
A
100
AcDbEntity
  8
LAYER_1
  6
Continuous
 62
     7
100
AcDbLine
 10
1006.54043948542
 20
354.2976778781849
 30
0.0
 11
1006.54043948542
 21
325.297677878185
 31
0.0
  0
LINE
  5
3B5
330
A
100
AcDbEntity
  8
LAYER_1
  6
Continuous
 62
     7
100
AcDbLine
 10
1002.540439485419
 20
325.297677878185
 30
0.0
 11
1002.540439485419
 21
354.2976778781849
 31
0.0
  0
LINE
  5
3B6
330
A
100
AcDbEntity
  8
LAYER_1
  6
Continuous
 62
     7
100
AcDbLine
 10
1009.540439485419
 20
325.297677878185
 30
0.0
 11
1009.540439485419
 21
354.2976778781849
 31
0.0
  0
LINE
  5
3B7
330
A
100
AcDbEntity
  8
LAYER_1
  6
Continuous
 62
     7
100
AcDbLine
 10
1013.540439485419
 20
354.2976778781849
 30
0.0
 11
1013.540439485419
 21
325.297677878185
 31
0.0
  0
LINE
  5
3B8
330
A
100
AcDbEntity
  8
LAYER_1
  6
Continuous
 62
     7
100
AcDbLine
 10
1027.540439485419
 20
354.2976778781849
 30
0.0
 11
1027.540439485419
 21
325.297677878185
 31
0.0
  0
LINE
  5
3B9
330
A
100
AcDbEntity
  8
LAYER_1
  6
Continuous
 62
     7
100
AcDbLine
 10
1023.540439485419
 20
325.297677878185
 30
0.0
 11
1023.540439485419
 21
354.2976778781849
 31
0.0
  0
LINE
  5
3BA
330
A
100
AcDbEntity
  8
LAYER_1
  6
Continuous
 62
     7
100
AcDbLine
 10
1016.540439485419
 20
325.297677878185
 30
0.0
 11
1016.540439485419
 21
354.2976778781849
 31
0.0
  0
LINE
  5
3BB
330
A
100
AcDbEntity
  8
LAYER_1
  6
Continuous
 62
     7
100
AcDbLine
 10
1020.540439485418
 20
354.2976778781849
 30
0.0
 11
1020.540439485418
 21
325.297677878185
 31
0.0
  0
LINE
  5
3BC
330
A
100
AcDbEntity
  8
LAYER_1
  6
Continuous
 62
     7
100
AcDbLine
 10
1041.540439485419
 20
354.2976778781849
 30
0.0
 11
1041.540439485419
 21
325.297677878185
 31
0.0
  0
LINE
  5
3BD
330
A
100
AcDbEntity
  8
LAYER_1
  6
Continuous
 62
     7
100
AcDbLine
 10
1037.540439485419
 20
325.297677878185
 30
0.0
 11
1037.540439485419
 21
354.2976778781849
 31
0.0
  0
LINE
  5
3BE
330
A
100
AcDbEntity
  8
LAYER_1
  6
Continuous
 62
     7
100
AcDbLine
 10
1030.540439485419
 20
325.297677878185
 30
0.0
 11
1030.540439485419
 21
354.2976778781849
 31
0.0
  0
LINE
  5
3BF
330
A
100
AcDbEntity
  8
LAYER_1
  6
Continuous
 62
     7
100
AcDbLine
 10
1034.540439485419
 20
354.2976778781849
 30
0.0
 11
1034.540439485419
 21
325.297677878185
 31
0.0
  0
LINE
  5
3C0
330
A
100
AcDbEntity
  8
LAYER_1
  6
Continuous
 62
     7
100
AcDbLine
 10
999.540439485419
 20
354.2976778781849
 30
0.0
 11
999.540439485419
 21
325.297677878185
 31
0.0
  0
LINE
  5
3C1
330
A
100
AcDbEntity
  8
LAYER_1
  6
Continuous
 62
     7
100
AcDbLine
 10
995.5404394854189
 20
325.297677878185
 30
0.0
 11
995.5404394854189
 21
354.2976778781849
 31
0.0
  0
LINE
  5
3C2
330
A
100
AcDbEntity
  8
LAYER_1
  6
Continuous
 62
     7
100
AcDbLine
 10
988.5404394854189
 20
325.297677878185
 30
0.0
 11
988.5404394854189
 21
354.2976778781849
 31
0.0
  0
LINE
  5
3C3
330
A
100
AcDbEntity
  8
LAYER_1
  6
Continuous
 62
     7
100
AcDbLine
 10
992.540439485419
 20
354.2976778781849
 30
0.0
 11
992.540439485419
 21
325.297677878185
 31
0.0
  0
LINE
  5
3C4
330
A
100
AcDbEntity
  8
LAYER_1
  6
Continuous
 62
     7
100
AcDbLine
 10
1013.540439485419
 20
317.297677878185
 30
0.0
 11
1013.540439485419
 21
288.297677878185
 31
0.0
  0
LINE
  5
3C5
330
A
100
AcDbEntity
  8
LAYER_1
  6
Continuous
 62
     7
100
AcDbLine
 10
1016.540439485419
 20
288.297677878185
 30
0.0
 11
1016.540439485419
 21
317.297677878185
 31
0.0
  0
LINE
  5
3C6
330
A
100
AcDbEntity
  8
LAYER_1
  6
Continuous
 62
     7
100
AcDbLine
 10
1020.540439485418
 20
317.297677878185
 30
0.0
 11
1020.540439485418
 21
288.297677878185
 31
0.0
  0
LINE
  5
3C7
330
A
100
AcDbEntity
  8
LAYER_1
  6
Continuous
 62
     7
100
AcDbLine
 10
1006.54043948542
 20
317.297677878185
 30
0.0
 11
1006.54043948542
 21
288.297677878185
 31
0.0
  0
LINE
  5
3C8
330
A
100
AcDbEntity
  8
LAYER_1
  6
Continuous
 62
     7
100
AcDbLine
 10
1002.540439485419
 20
288.297677878185
 30
0.0
 11
1002.540439485419
 21
317.297677878185
 31
0.0
  0
LINE
  5
3C9
330
A
100
AcDbEntity
  8
LAYER_1
  6
Continuous
 62
     7
100
AcDbLine
 10
1009.540439485419
 20
288.297677878185
 30
0.0
 11
1009.540439485419
 21
317.297677878185
 31
0.0
  0
LINE
  5
3CA
330
A
100
AcDbEntity
  8
LAYER_1
  6
Continuous
 62
     7
100
AcDbLine
 10
995.5404394854189
 20
288.297677878185
 30
0.0
 11
995.5404394854189
 21
317.297677878185
 31
0.0
  0
LINE
  5
3CB
330
A
100
AcDbEntity
  8
LAYER_1
  6
Continuous
 62
     7
100
AcDbLine
 10
988.5404394854189
 20
288.297677878185
 30
0.0
 11
988.5404394854189
 21
317.297677878185
 31
0.0
  0
LINE
  5
3CC
330
A
100
AcDbEntity
  8
LAYER_1
  6
Continuous
 62
     7
100
AcDbLine
 10
992.540439485419
 20
317.297677878185
 30
0.0
 11
992.540439485419
 21
288.297677878185
 31
0.0
  0
LINE
  5
3CD
330
A
100
AcDbEntity
  8
LAYER_1
  6
Continuous
 62
     7
100
AcDbLine
 10
999.540439485419
 20
317.297677878185
 30
0.0
 11
999.540439485419
 21
288.297677878185
 31
0.0
  0
LINE
  5
3CE
330
A
100
AcDbEntity
  8
LAYER_1
  6
Continuous
 62
     7
100
AcDbLine
 10
1006.040439485418
 20
287.797677878185
 30
0.0
 11
1003.040439485419
 21
287.797677878185
 31
0.0
  0
ARC
  5
3CF
330
A
100
AcDbEntity
  8
LAYER_1
  6
Continuous
 62
     7
100
AcDbCircle
 10
1003.040439485419
 20
288.297677878185
 30
0.0
 40
0.5
100
AcDbArc
 50
180.0
 51
270.0
  0
LINE
  5
3D0
330
A
100
AcDbEntity
  8
LAYER_1
  6
Continuous
 62
     7
100
AcDbLine
 10
999.040439485419
 20
287.797677878185
 30
0.0
 11
996.040439485419
 21
287.797677878185
 31
0.0
  0
ARC
  5
3D1
330
A
100
AcDbEntity
  8
LAYER_1
  6
Continuous
 62
     7
100
AcDbCircle
 10
996.040439485419
 20
288.297677878185
 30
0.0
 40
0.5
100
AcDbArc
 50
180.0
 51
270.0
  0
LINE
  5
3D2
330
A
100
AcDbEntity
  8
LAYER_1
  6
Continuous
 62
     7
100
AcDbLine
 10
992.0404394854189
 20
287.797677878185
 30
0.0
 11
989.040439485419
 21
287.797677878185
 31
0.0
  0
ARC
  5
3D3
330
A
100
AcDbEntity
  8
LAYER_1
  6
Continuous
 62
     7
100
AcDbCircle
 10
989.040439485419
 20
288.297677878185
 30
0.0
 40
0.5
100
AcDbArc
 50
180.0
 51
270.0
  0
ARC
  5
3D4
330
A
100
AcDbEntity
  8
LAYER_1
  6
Continuous
 62
     7
100
AcDbCircle
 10
992.0404394854189
 20
288.297677878185
 30
0.0
 40
0.5
100
AcDbArc
 50
270.0
 51
0.0
  0
ARC
  5
3D5
330
A
100
AcDbEntity
  8
LAYER_1
  6
Continuous
 62
     7
100
AcDbCircle
 10
999.040439485419
 20
288.297677878185
 30
0.0
 40
0.5
100
AcDbArc
 50
270.0
 51
0.0
  0
ARC
  5
3D6
330
A
100
AcDbEntity
  8
LAYER_1
  6
Continuous
 62
     7
100
AcDbCircle
 10
1013.040439485419
 20
288.297677878185
 30
0.0
 40
0.5
100
AcDbArc
 50
270.0
 51
0.0
  0
LINE
  5
3D7
330
A
100
AcDbEntity
  8
LAYER_1
  6
Continuous
 62
     7
100
AcDbLine
 10
1020.040439485419
 20
287.797677878185
 30
0.0
 11
1017.040439485419
 21
287.797677878185
 31
0.0
  0
ARC
  5
3D8
330
A
100
AcDbEntity
  8
LAYER_1
  6
Continuous
 62
     7
100
AcDbCircle
 10
1017.040439485419
 20
288.297677878185
 30
0.0
 40
0.5
100
AcDbArc
 50
180.0
 51
270.0
  0
ARC
  5
3D9
330
A
100
AcDbEntity
  8
LAYER_1
  6
Continuous
 62
     7
100
AcDbCircle
 10
1020.040439485419
 20
288.297677878185
 30
0.0
 40
0.5
100
AcDbArc
 50
270.0
 51
0.0
  0
ARC
  5
3DA
330
A
100
AcDbEntity
  8
LAYER_1
  6
Continuous
 62
     7
100
AcDbCircle
 10
1006.040439485418
 20
288.297677878185
 30
0.0
 40
0.5
100
AcDbArc
 50
270.0
 51
0.0
  0
ARC
  5
3DB
330
A
100
AcDbEntity
  8
LAYER_1
  6
Continuous
 62
     7
100
AcDbCircle
 10
1010.040439485419
 20
288.297677878185
 30
0.0
 40
0.5
100
AcDbArc
 50
180.0
 51
270.0
  0
LINE
  5
3DC
330
A
100
AcDbEntity
  8
LAYER_1
  6
Continuous
 62
     7
100
AcDbLine
 10
1013.040439485419
 20
287.797677878185
 30
0.0
 11
1010.040439485419
 21
287.797677878185
 31
0.0
  0
LINE
  5
3DD
330
A
100
AcDbEntity
  8
LAYER_1
  6
Continuous
 62
     7
100
AcDbLine
 10
1003.040439485419
 20
317.797677878185
 30
0.0
 11
1006.040439485418
 21
317.797677878185
 31
0.0
  0
LINE
  5
3DE
330
A
100
AcDbEntity
  8
LAYER_1
  6
Continuous
 62
     7
100
AcDbLine
 10
1006.040439485418
 20
324.797677878185
 30
0.0
 11
1003.040439485419
 21
324.797677878185
 31
0.0
  0
ARC
  5
3DF
330
A
100
AcDbEntity
  8
LAYER_1
  6
Continuous
 62
     7
100
AcDbCircle
 10
1003.040439485419
 20
317.297677878185
 30
0.0
 40
0.5
100
AcDbArc
 50
90.0
 51
180.0
  0
ARC
  5
3E0
330
A
100
AcDbEntity
  8
LAYER_1
  6
Continuous
 62
     7
100
AcDbCircle
 10
1003.040439485419
 20
325.297677878185
 30
0.0
 40
0.5
100
AcDbArc
 50
180.0
 51
270.0
  0
LINE
  5
3E1
330
A
100
AcDbEntity
  8
LAYER_1
  6
Continuous
 62
     7
100
AcDbLine
 10
996.040439485419
 20
317.797677878185
 30
0.0
 11
999.040439485419
 21
317.797677878185
 31
0.0
  0
LINE
  5
3E2
330
A
100
AcDbEntity
  8
LAYER_1
  6
Continuous
 62
     7
100
AcDbLine
 10
999.040439485419
 20
324.797677878185
 30
0.0
 11
996.040439485419
 21
324.797677878185
 31
0.0
  0
ARC
  5
3E3
330
A
100
AcDbEntity
  8
LAYER_1
  6
Continuous
 62
     7
100
AcDbCircle
 10
996.040439485419
 20
317.297677878185
 30
0.0
 40
0.5
100
AcDbArc
 50
90.0
 51
180.0
  0
ARC
  5
3E4
330
A
100
AcDbEntity
  8
LAYER_1
  6
Continuous
 62
     7
100
AcDbCircle
 10
996.040439485419
 20
325.297677878185
 30
0.0
 40
0.5
100
AcDbArc
 50
180.0
 51
270.0
  0
ARC
  5
3E5
330
A
100
AcDbEntity
  8
LAYER_1
  6
Continuous
 62
     7
100
AcDbCircle
 10
992.0404394854189
 20
325.297677878185
 30
0.0
 40
0.5
100
AcDbArc
 50
270.0
 51
0.0
  0
ARC
  5
3E6
330
A
100
AcDbEntity
  8
LAYER_1
  6
Continuous
 62
     7
100
AcDbCircle
 10
989.040439485419
 20
325.297677878185
 30
0.0
 40
0.5
100
AcDbArc
 50
180.0
 51
270.0
  0
LINE
  5
3E7
330
A
100
AcDbEntity
  8
LAYER_1
  6
Continuous
 62
     7
100
AcDbLine
 10
992.0404394854189
 20
324.797677878185
 30
0.0
 11
989.040439485419
 21
324.797677878185
 31
0.0
  0
ARC
  5
3E8
330
A
100
AcDbEntity
  8
LAYER_1
  6
Continuous
 62
     7
100
AcDbCircle
 10
989.040439485419
 20
317.297677878185
 30
0.0
 40
0.5
100
AcDbArc
 50
90.0
 51
180.0
  0
ARC
  5
3E9
330
A
100
AcDbEntity
  8
LAYER_1
  6
Continuous
 62
     7
100
AcDbCircle
 10
992.0404394854189
 20
317.297677878185
 30
0.0
 40
0.5
100
AcDbArc
 50
0.0
 51
90.0
  0
LINE
  5
3EA
330
A
100
AcDbEntity
  8
LAYER_1
  6
Continuous
 62
     7
100
AcDbLine
 10
989.040439485419
 20
317.797677878185
 30
0.0
 11
992.0404394854189
 21
317.797677878185
 31
0.0
  0
ARC
  5
3EB
330
A
100
AcDbEntity
  8
LAYER_1
  6
Continuous
 62
     7
100
AcDbCircle
 10
999.040439485419
 20
317.297677878185
 30
0.0
 40
0.5
100
AcDbArc
 50
0.0
 51
90.0
  0
ARC
  5
3EC
330
A
100
AcDbEntity
  8
LAYER_1
  6
Continuous
 62
     7
100
AcDbCircle
 10
999.040439485419
 20
325.297677878185
 30
0.0
 40
0.5
100
AcDbArc
 50
270.0
 51
0.0
  0
ARC
  5
3ED
330
A
100
AcDbEntity
  8
LAYER_1
  6
Continuous
 62
     7
100
AcDbCircle
 10
1013.040439485419
 20
325.297677878185
 30
0.0
 40
0.5
100
AcDbArc
 50
270.0
 51
0.0
  0
ARC
  5
3EE
330
A
100
AcDbEntity
  8
LAYER_1
  6
Continuous
 62
     7
100
AcDbCircle
 10
1013.040439485419
 20
317.297677878185
 30
0.0
 40
0.5
100
AcDbArc
 50
0.0
 51
90.0
  0
ARC
  5
3EF
330
A
100
AcDbEntity
  8
LAYER_1
  6
Continuous
 62
     7
100
AcDbCircle
 10
1020.040439485419
 20
325.297677878185
 30
0.0
 40
0.5
100
AcDbArc
 50
270.0
 51
0.0
  0
ARC
  5
3F0
330
A
100
AcDbEntity
  8
LAYER_1
  6
Continuous
 62
     7
100
AcDbCircle
 10
1017.040439485419
 20
325.297677878185
 30
0.0
 40
0.5
100
AcDbArc
 50
180.0
 51
270.0
  0
LINE
  5
3F1
330
A
100
AcDbEntity
  8
LAYER_1
  6
Continuous
 62
     7
100
AcDbLine
 10
1020.040439485419
 20
324.797677878185
 30
0.0
 11
1017.040439485419
 21
324.797677878185
 31
0.0
  0
ARC
  5
3F2
330
A
100
AcDbEntity
  8
LAYER_1
  6
Continuous
 62
     7
100
AcDbCircle
 10
1017.040439485419
 20
317.297677878185
 30
0.0
 40
0.5
100
AcDbArc
 50
90.0
 51
180.0
  0
ARC
  5
3F3
330
A
100
AcDbEntity
  8
LAYER_1
  6
Continuous
 62
     7
100
AcDbCircle
 10
1020.040439485419
 20
317.297677878185
 30
0.0
 40
0.5
100
AcDbArc
 50
0.0
 51
90.0
  0
LINE
  5
3F4
330
A
100
AcDbEntity
  8
LAYER_1
  6
Continuous
 62
     7
100
AcDbLine
 10
1017.040439485419
 20
317.797677878185
 30
0.0
 11
1020.040439485419
 21
317.797677878185
 31
0.0
  0
ARC
  5
3F5
330
A
100
AcDbEntity
  8
LAYER_1
  6
Continuous
 62
     7
100
AcDbCircle
 10
1006.040439485418
 20
317.297677878185
 30
0.0
 40
0.5
100
AcDbArc
 50
0.0
 51
90.0
  0
ARC
  5
3F6
330
A
100
AcDbEntity
  8
LAYER_1
  6
Continuous
 62
     7
100
AcDbCircle
 10
1006.040439485418
 20
325.297677878185
 30
0.0
 40
0.5
100
AcDbArc
 50
270.0
 51
0.0
  0
ARC
  5
3F7
330
A
100
AcDbEntity
  8
LAYER_1
  6
Continuous
 62
     7
100
AcDbCircle
 10
1010.040439485419
 20
325.297677878185
 30
0.0
 40
0.5
100
AcDbArc
 50
180.0
 51
270.0
  0
ARC
  5
3F8
330
A
100
AcDbEntity
  8
LAYER_1
  6
Continuous
 62
     7
100
AcDbCircle
 10
1010.040439485419
 20
317.297677878185
 30
0.0
 40
0.5
100
AcDbArc
 50
90.0
 51
180.0
  0
LINE
  5
3F9
330
A
100
AcDbEntity
  8
LAYER_1
  6
Continuous
 62
     7
100
AcDbLine
 10
1013.040439485419
 20
324.797677878185
 30
0.0
 11
1010.040439485419
 21
324.797677878185
 31
0.0
  0
LINE
  5
3FA
330
A
100
AcDbEntity
  8
LAYER_1
  6
Continuous
 62
     7
100
AcDbLine
 10
1010.040439485419
 20
317.797677878185
 30
0.0
 11
1013.040439485419
 21
317.797677878185
 31
0.0
  0
LINE
  5
3FB
330
A
100
AcDbEntity
  8
LAYER_1
  6
Continuous
 62
     7
100
AcDbLine
 10
1048.540439485419
 20
317.297677878185
 30
0.0
 11
1048.540439485419
 21
288.297677878185
 31
0.0
  0
LINE
  5
3FC
330
A
100
AcDbEntity
  8
LAYER_1
  6
Continuous
 62
     7
100
AcDbLine
 10
1044.540439485418
 20
288.297677878185
 30
0.0
 11
1044.540439485418
 21
317.297677878185
 31
0.0
  0
LINE
  5
3FD
330
A
100
AcDbEntity
  8
LAYER_1
  6
Continuous
 62
     7
100
AcDbLine
 10
1051.540439485419
 20
288.297677878185
 30
0.0
 11
1051.540439485419
 21
317.297677878185
 31
0.0
  0
LINE
  5
3FE
330
A
100
AcDbEntity
  8
LAYER_1
  6
Continuous
 62
     7
100
AcDbLine
 10
1023.540439485419
 20
288.297677878185
 30
0.0
 11
1023.540439485419
 21
317.297677878185
 31
0.0
  0
LINE
  5
3FF
330
A
100
AcDbEntity
  8
LAYER_1
  6
Continuous
 62
     7
100
AcDbLine
 10
1027.540439485419
 20
317.297677878185
 30
0.0
 11
1027.540439485419
 21
288.297677878185
 31
0.0
  0
LINE
  5
400
330
A
100
AcDbEntity
  8
LAYER_1
  6
Continuous
 62
     7
100
AcDbLine
 10
1037.540439485419
 20
288.297677878185
 30
0.0
 11
1037.540439485419
 21
317.297677878185
 31
0.0
  0
LINE
  5
401
330
A
100
AcDbEntity
  8
LAYER_1
  6
Continuous
 62
     7
100
AcDbLine
 10
1030.540439485419
 20
288.297677878185
 30
0.0
 11
1030.540439485419
 21
317.297677878185
 31
0.0
  0
LINE
  5
402
330
A
100
AcDbEntity
  8
LAYER_1
  6
Continuous
 62
     7
100
AcDbLine
 10
1034.540439485419
 20
317.297677878185
 30
0.0
 11
1034.540439485419
 21
288.297677878185
 31
0.0
  0
LINE
  5
403
330
A
100
AcDbEntity
  8
LAYER_1
  6
Continuous
 62
     7
100
AcDbLine
 10
1041.540439485419
 20
317.297677878185
 30
0.0
 11
1041.540439485419
 21
288.297677878185
 31
0.0
  0
LINE
  5
404
330
A
100
AcDbEntity
  8
LAYER_1
  6
Continuous
 62
     7
100
AcDbLine
 10
1041.040439485419
 20
287.797677878185
 30
0.0
 11
1038.040439485419
 21
287.797677878185
 31
0.0
  0
ARC
  5
405
330
A
100
AcDbEntity
  8
LAYER_1
  6
Continuous
 62
     7
100
AcDbCircle
 10
1038.040439485419
 20
288.297677878185
 30
0.0
 40
0.5
100
AcDbArc
 50
180.0
 51
270.0
  0
LINE
  5
406
330
A
100
AcDbEntity
  8
LAYER_1
  6
Continuous
 62
     7
100
AcDbLine
 10
1034.040439485419
 20
287.797677878185
 30
0.0
 11
1031.040439485419
 21
287.797677878185
 31
0.0
  0
ARC
  5
407
330
A
100
AcDbEntity
  8
LAYER_1
  6
Continuous
 62
     7
100
AcDbCircle
 10
1031.040439485419
 20
288.297677878185
 30
0.0
 40
0.5
100
AcDbArc
 50
180.0
 51
270.0
  0
ARC
  5
408
330
A
100
AcDbEntity
  8
LAYER_1
  6
Continuous
 62
     7
100
AcDbCircle
 10
1034.040439485419
 20
288.297677878185
 30
0.0
 40
0.5
100
AcDbArc
 50
270.0
 51
0.0
  0
LINE
  5
409
330
A
100
AcDbEntity
  8
LAYER_1
  6
Continuous
 62
     7
100
AcDbLine
 10
1027.040439485419
 20
287.797677878185
 30
0.0
 11
1024.040439485419
 21
287.797677878185
 31
0.0
  0
ARC
  5
40A
330
A
100
AcDbEntity
  8
LAYER_1
  6
Continuous
 62
     7
100
AcDbCircle
 10
1024.040439485419
 20
288.297677878185
 30
0.0
 40
0.5
100
AcDbArc
 50
180.0
 51
270.0
  0
ARC
  5
40B
330
A
100
AcDbEntity
  8
LAYER_1
  6
Continuous
 62
     7
100
AcDbCircle
 10
1027.040439485419
 20
288.297677878185
 30
0.0
 40
0.5
100
AcDbArc
 50
270.0
 51
0.0
  0
ARC
  5
40C
330
A
100
AcDbEntity
  8
LAYER_1
  6
Continuous
 62
     7
100
AcDbCircle
 10
1048.040439485419
 20
288.297677878185
 30
0.0
 40
0.5
100
AcDbArc
 50
270.0
 51
0.0
  0
ARC
  5
40D
330
A
100
AcDbEntity
  8
LAYER_1
  6
Continuous
 62
     7
100
AcDbCircle
 10
1045.040439485419
 20
288.297677878185
 30
0.0
 40
0.5
100
AcDbArc
 50
180.0
 51
270.0
  0
LINE
  5
40E
330
A
100
AcDbEntity
  8
LAYER_1
  6
Continuous
 62
     7
100
AcDbLine
 10
1048.040439485419
 20
287.797677878185
 30
0.0
 11
1045.040439485419
 21
287.797677878185
 31
0.0
  0
ARC
  5
40F
330
A
100
AcDbEntity
  8
LAYER_1
  6
Continuous
 62
     7
100
AcDbCircle
 10
1052.040439485419
 20
288.297677878185
 30
0.0
 40
0.5
100
AcDbArc
 50
180.0
 51
270.0
  0
LINE
  5
410
330
A
100
AcDbEntity
  8
LAYER_1
  6
Continuous
 62
     7
100
AcDbLine
 10
1055.040439485419
 20
287.797677878185
 30
0.0
 11
1052.040439485419
 21
287.797677878185
 31
0.0
  0
ARC
  5
411
330
A
100
AcDbEntity
  8
LAYER_1
  6
Continuous
 62
     7
100
AcDbCircle
 10
1041.040439485419
 20
288.297677878185
 30
0.0
 40
0.5
100
AcDbArc
 50
270.0
 51
0.0
  0
LINE
  5
412
330
A
100
AcDbEntity
  8
LAYER_1
  6
Continuous
 62
     7
100
AcDbLine
 10
1038.040439485419
 20
317.797677878185
 30
0.0
 11
1041.040439485419
 21
317.797677878185
 31
0.0
  0
LINE
  5
413
330
A
100
AcDbEntity
  8
LAYER_1
  6
Continuous
 62
     7
100
AcDbLine
 10
1041.040439485419
 20
324.797677878185
 30
0.0
 11
1038.040439485419
 21
324.797677878185
 31
0.0
  0
ARC
  5
414
330
A
100
AcDbEntity
  8
LAYER_1
  6
Continuous
 62
     7
100
AcDbCircle
 10
1038.040439485419
 20
317.297677878185
 30
0.0
 40
0.5
100
AcDbArc
 50
90.0
 51
180.0
  0
ARC
  5
415
330
A
100
AcDbEntity
  8
LAYER_1
  6
Continuous
 62
     7
100
AcDbCircle
 10
1038.040439485419
 20
325.297677878185
 30
0.0
 40
0.5
100
AcDbArc
 50
180.0
 51
270.0
  0
ARC
  5
416
330
A
100
AcDbEntity
  8
LAYER_1
  6
Continuous
 62
     7
100
AcDbCircle
 10
1034.040439485419
 20
325.297677878185
 30
0.0
 40
0.5
100
AcDbArc
 50
270.0
 51
0.0
  0
ARC
  5
417
330
A
100
AcDbEntity
  8
LAYER_1
  6
Continuous
 62
     7
100
AcDbCircle
 10
1031.040439485419
 20
325.297677878185
 30
0.0
 40
0.5
100
AcDbArc
 50
180.0
 51
270.0
  0
LINE
  5
418
330
A
100
AcDbEntity
  8
LAYER_1
  6
Continuous
 62
     7
100
AcDbLine
 10
1034.040439485419
 20
324.797677878185
 30
0.0
 11
1031.040439485419
 21
324.797677878185
 31
0.0
  0
ARC
  5
419
330
A
100
AcDbEntity
  8
LAYER_1
  6
Continuous
 62
     7
100
AcDbCircle
 10
1031.040439485419
 20
317.297677878185
 30
0.0
 40
0.5
100
AcDbArc
 50
90.0
 51
180.0
  0
ARC
  5
41A
330
A
100
AcDbEntity
  8
LAYER_1
  6
Continuous
 62
     7
100
AcDbCircle
 10
1034.040439485419
 20
317.297677878185
 30
0.0
 40
0.5
100
AcDbArc
 50
0.0
 51
90.0
  0
LINE
  5
41B
330
A
100
AcDbEntity
  8
LAYER_1
  6
Continuous
 62
     7
100
AcDbLine
 10
1031.040439485419
 20
317.797677878185
 30
0.0
 11
1034.040439485419
 21
317.797677878185
 31
0.0
  0
LINE
  5
41C
330
A
100
AcDbEntity
  8
LAYER_1
  6
Continuous
 62
     7
100
AcDbLine
 10
1024.040439485419
 20
317.797677878185
 30
0.0
 11
1027.040439485419
 21
317.797677878185
 31
0.0
  0
LINE
  5
41D
330
A
100
AcDbEntity
  8
LAYER_1
  6
Continuous
 62
     7
100
AcDbLine
 10
1027.040439485419
 20
324.797677878185
 30
0.0
 11
1024.040439485419
 21
324.797677878185
 31
0.0
  0
ARC
  5
41E
330
A
100
AcDbEntity
  8
LAYER_1
  6
Continuous
 62
     7
100
AcDbCircle
 10
1024.040439485419
 20
317.297677878185
 30
0.0
 40
0.5
100
AcDbArc
 50
90.0
 51
180.0
  0
ARC
  5
41F
330
A
100
AcDbEntity
  8
LAYER_1
  6
Continuous
 62
     7
100
AcDbCircle
 10
1024.040439485419
 20
325.297677878185
 30
0.0
 40
0.5
100
AcDbArc
 50
180.0
 51
270.0
  0
ARC
  5
420
330
A
100
AcDbEntity
  8
LAYER_1
  6
Continuous
 62
     7
100
AcDbCircle
 10
1027.040439485419
 20
317.297677878185
 30
0.0
 40
0.5
100
AcDbArc
 50
0.0
 51
90.0
  0
ARC
  5
421
330
A
100
AcDbEntity
  8
LAYER_1
  6
Continuous
 62
     7
100
AcDbCircle
 10
1027.040439485419
 20
325.297677878185
 30
0.0
 40
0.5
100
AcDbArc
 50
270.0
 51
0.0
  0
LINE
  5
422
330
A
100
AcDbEntity
  8
LAYER_1
  6
Continuous
 62
     7
100
AcDbLine
 10
1045.040439485419
 20
317.797677878185
 30
0.0
 11
1048.040439485419
 21
317.797677878185
 31
0.0
  0
ARC
  5
423
330
A
100
AcDbEntity
  8
LAYER_1
  6
Continuous
 62
     7
100
AcDbCircle
 10
1048.040439485419
 20
317.297677878185
 30
0.0
 40
0.5
100
AcDbArc
 50
0.0
 51
90.0
  0
ARC
  5
424
330
A
100
AcDbEntity
  8
LAYER_1
  6
Continuous
 62
     7
100
AcDbCircle
 10
1045.040439485419
 20
317.297677878185
 30
0.0
 40
0.5
100
AcDbArc
 50
90.0
 51
180.0
  0
LINE
  5
425
330
A
100
AcDbEntity
  8
LAYER_1
  6
Continuous
 62
     7
100
AcDbLine
 10
1048.040439485419
 20
324.797677878185
 30
0.0
 11
1045.040439485419
 21
324.797677878185
 31
0.0
  0
ARC
  5
426
330
A
100
AcDbEntity
  8
LAYER_1
  6
Continuous
 62
     7
100
AcDbCircle
 10
1045.040439485419
 20
325.297677878185
 30
0.0
 40
0.5
100
AcDbArc
 50
180.0
 51
270.0
  0
ARC
  5
427
330
A
100
AcDbEntity
  8
LAYER_1
  6
Continuous
 62
     7
100
AcDbCircle
 10
1048.040439485419
 20
325.297677878185
 30
0.0
 40
0.5
100
AcDbArc
 50
270.0
 51
0.0
  0
ARC
  5
428
330
A
100
AcDbEntity
  8
LAYER_1
  6
Continuous
 62
     7
100
AcDbCircle
 10
1052.040439485419
 20
325.297677878185
 30
0.0
 40
0.5
100
AcDbArc
 50
180.0
 51
270.0
  0
ARC
  5
429
330
A
100
AcDbEntity
  8
LAYER_1
  6
Continuous
 62
     7
100
AcDbCircle
 10
1052.040439485419
 20
317.297677878185
 30
0.0
 40
0.5
100
AcDbArc
 50
90.0
 51
180.0
  0
LINE
  5
42A
330
A
100
AcDbEntity
  8
LAYER_1
  6
Continuous
 62
     7
100
AcDbLine
 10
1055.040439485419
 20
324.797677878185
 30
0.0
 11
1052.040439485419
 21
324.797677878185
 31
0.0
  0
LINE
  5
42B
330
A
100
AcDbEntity
  8
LAYER_1
  6
Continuous
 62
     7
100
AcDbLine
 10
1052.040439485419
 20
317.797677878185
 30
0.0
 11
1055.040439485419
 21
317.797677878185
 31
0.0
  0
ARC
  5
42C
330
A
100
AcDbEntity
  8
LAYER_1
  6
Continuous
 62
     7
100
AcDbCircle
 10
1041.040439485419
 20
317.297677878185
 30
0.0
 40
0.5
100
AcDbArc
 50
0.0
 51
90.0
  0
ARC
  5
42D
330
A
100
AcDbEntity
  8
LAYER_1
  6
Continuous
 62
     7
100
AcDbCircle
 10
1041.040439485419
 20
325.297677878185
 30
0.0
 40
0.5
100
AcDbArc
 50
270.0
 51
0.0
  0
LINE
  5
42E
330
A
100
AcDbEntity
  8
LAYER_1
  6
Continuous
 62
     7
100
AcDbLine
 10
1003.040439485419
 20
354.7976778781849
 30
0.0
 11
1006.040439485418
 21
354.7976778781849
 31
0.0
  0
ARC
  5
42F
330
A
100
AcDbEntity
  8
LAYER_1
  6
Continuous
 62
     7
100
AcDbCircle
 10
1003.040439485419
 20
354.2976778781849
 30
0.0
 40
0.5
100
AcDbArc
 50
90.0
 51
180.0
  0
LINE
  5
430
330
A
100
AcDbEntity
  8
LAYER_1
  6
Continuous
 62
     7
100
AcDbLine
 10
996.040439485419
 20
354.7976778781849
 30
0.0
 11
999.040439485419
 21
354.7976778781849
 31
0.0
  0
ARC
  5
431
330
A
100
AcDbEntity
  8
LAYER_1
  6
Continuous
 62
     7
100
AcDbCircle
 10
996.040439485419
 20
354.2976778781849
 30
0.0
 40
0.5
100
AcDbArc
 50
90.0
 51
180.0
  0
ARC
  5
432
330
A
100
AcDbEntity
  8
LAYER_1
  6
Continuous
 62
     7
100
AcDbCircle
 10
992.0404394854189
 20
354.2976778781849
 30
0.0
 40
0.5
100
AcDbArc
 50
0.0
 51
90.0
  0
ARC
  5
433
330
A
100
AcDbEntity
  8
LAYER_1
  6
Continuous
 62
     7
100
AcDbCircle
 10
989.040439485419
 20
354.2976778781849
 30
0.0
 40
0.5
100
AcDbArc
 50
90.0
 51
180.0
  0
LINE
  5
434
330
A
100
AcDbEntity
  8
LAYER_1
  6
Continuous
 62
     7
100
AcDbLine
 10
989.040439485419
 20
354.7976778781849
 30
0.0
 11
992.0404394854189
 21
354.7976778781849
 31
0.0
  0
ARC
  5
435
330
A
100
AcDbEntity
  8
LAYER_1
  6
Continuous
 62
     7
100
AcDbCircle
 10
999.040439485419
 20
354.2976778781849
 30
0.0
 40
0.5
100
AcDbArc
 50
0.0
 51
90.0
  0
ARC
  5
436
330
A
100
AcDbEntity
  8
LAYER_1
  6
Continuous
 62
     7
100
AcDbCircle
 10
1013.040439485419
 20
354.2976778781849
 30
0.0
 40
0.5
100
AcDbArc
 50
0.0
 51
90.0
  0
ARC
  5
437
330
A
100
AcDbEntity
  8
LAYER_1
  6
Continuous
 62
     7
100
AcDbCircle
 10
1020.040439485419
 20
354.2976778781849
 30
0.0
 40
0.5
100
AcDbArc
 50
0.0
 51
90.0
  0
ARC
  5
438
330
A
100
AcDbEntity
  8
LAYER_1
  6
Continuous
 62
     7
100
AcDbCircle
 10
1017.040439485419
 20
354.2976778781849
 30
0.0
 40
0.5
100
AcDbArc
 50
90.0
 51
180.0
  0
LINE
  5
439
330
A
100
AcDbEntity
  8
LAYER_1
  6
Continuous
 62
     7
100
AcDbLine
 10
1017.040439485419
 20
354.7976778781849
 30
0.0
 11
1020.040439485419
 21
354.7976778781849
 31
0.0
  0
ARC
  5
43A
330
A
100
AcDbEntity
  8
LAYER_1
  6
Continuous
 62
     7
100
AcDbCircle
 10
1006.040439485418
 20
354.2976778781849
 30
0.0
 40
0.5
100
AcDbArc
 50
0.0
 51
90.0
  0
ARC
  5
43B
330
A
100
AcDbEntity
  8
LAYER_1
  6
Continuous
 62
     7
100
AcDbCircle
 10
1010.040439485419
 20
354.2976778781849
 30
0.0
 40
0.5
100
AcDbArc
 50
90.0
 51
180.0
  0
LINE
  5
43C
330
A
100
AcDbEntity
  8
LAYER_1
  6
Continuous
 62
     7
100
AcDbLine
 10
1010.040439485419
 20
354.7976778781849
 30
0.0
 11
1013.040439485419
 21
354.7976778781849
 31
0.0
  0
LINE
  5
43D
330
A
100
AcDbEntity
  8
LAYER_1
  6
Continuous
 62
     7
100
AcDbLine
 10
1038.040439485419
 20
354.7976778781849
 30
0.0
 11
1041.040439485419
 21
354.7976778781849
 31
0.0
  0
ARC
  5
43E
330
A
100
AcDbEntity
  8
LAYER_1
  6
Continuous
 62
     7
100
AcDbCircle
 10
1038.040439485419
 20
354.2976778781849
 30
0.0
 40
0.5
100
AcDbArc
 50
90.0
 51
180.0
  0
ARC
  5
43F
330
A
100
AcDbEntity
  8
LAYER_1
  6
Continuous
 62
     7
100
AcDbCircle
 10
1034.040439485419
 20
354.2976778781849
 30
0.0
 40
0.5
100
AcDbArc
 50
0.0
 51
90.0
  0
ARC
  5
440
330
A
100
AcDbEntity
  8
LAYER_1
  6
Continuous
 62
     7
100
AcDbCircle
 10
1031.040439485419
 20
354.2976778781849
 30
0.0
 40
0.5
100
AcDbArc
 50
90.0
 51
180.0
  0
LINE
  5
441
330
A
100
AcDbEntity
  8
LAYER_1
  6
Continuous
 62
     7
100
AcDbLine
 10
1031.040439485419
 20
354.7976778781849
 30
0.0
 11
1034.040439485419
 21
354.7976778781849
 31
0.0
  0
LINE
  5
442
330
A
100
AcDbEntity
  8
LAYER_1
  6
Continuous
 62
     7
100
AcDbLine
 10
1024.040439485419
 20
354.7976778781849
 30
0.0
 11
1027.040439485419
 21
354.7976778781849
 31
0.0
  0
ARC
  5
443
330
A
100
AcDbEntity
  8
LAYER_1
  6
Continuous
 62
     7
100
AcDbCircle
 10
1024.040439485419
 20
354.2976778781849
 30
0.0
 40
0.5
100
AcDbArc
 50
90.0
 51
180.0
  0
ARC
  5
444
330
A
100
AcDbEntity
  8
LAYER_1
  6
Continuous
 62
     7
100
AcDbCircle
 10
1027.040439485419
 20
354.2976778781849
 30
0.0
 40
0.5
100
AcDbArc
 50
0.0
 51
90.0
  0
LINE
  5
445
330
A
100
AcDbEntity
  8
LAYER_1
  6
Continuous
 62
     7
100
AcDbLine
 10
1045.040439485419
 20
354.7976778781849
 30
0.0
 11
1048.040439485419
 21
354.7976778781849
 31
0.0
  0
ARC
  5
446
330
A
100
AcDbEntity
  8
LAYER_1
  6
Continuous
 62
     7
100
AcDbCircle
 10
1045.040439485419
 20
354.2976778781849
 30
0.0
 40
0.5
100
AcDbArc
 50
90.0
 51
180.0
  0
ARC
  5
447
330
A
100
AcDbEntity
  8
LAYER_1
  6
Continuous
 62
     7
100
AcDbCircle
 10
1048.040439485419
 20
354.2976778781849
 30
0.0
 40
0.5
100
AcDbArc
 50
0.0
 51
90.0
  0
ARC
  5
448
330
A
100
AcDbEntity
  8
LAYER_1
  6
Continuous
 62
     7
100
AcDbCircle
 10
1052.040439485419
 20
354.2976778781849
 30
0.0
 40
0.5
100
AcDbArc
 50
90.0
 51
180.0
  0
LINE
  5
449
330
A
100
AcDbEntity
  8
LAYER_1
  6
Continuous
 62
     7
100
AcDbLine
 10
1052.040439485419
 20
354.7976778781849
 30
0.0
 11
1055.040439485419
 21
354.7976778781849
 31
0.0
  0
ARC
  5
44A
330
A
100
AcDbEntity
  8
LAYER_1
  6
Continuous
 62
     7
100
AcDbCircle
 10
1041.040439485419
 20
354.2976778781849
 30
0.0
 40
0.5
100
AcDbArc
 50
0.0
 51
90.0
  0
ARC
  5
44B
330
A
100
AcDbEntity
  8
LAYER_1
  6
Continuous
 62
     7
100
AcDbCircle
 10
921.040439485419
 20
386.2976778781849
 30
0.0
 40
0.5
100
AcDbArc
 50
0.0
 51
90.0
  0
LINE
  5
44C
330
A
100
AcDbEntity
  8
LAYER_1
  6
Continuous
 62
     7
100
AcDbLine
 10
904.040439485419
 20
386.7976778781849
 30
0.0
 11
907.040439485419
 21
386.7976778781849
 31
0.0
  0
ARC
  5
44D
330
A
100
AcDbEntity
  8
LAYER_1
  6
Continuous
 62
     7
100
AcDbCircle
 10
904.040439485419
 20
386.2976778781849
 30
0.0
 40
0.5
100
AcDbArc
 50
90.0
 51
180.0
  0
LINE
  5
44E
330
A
100
AcDbEntity
  8
LAYER_1
  6
Continuous
 62
     7
100
AcDbLine
 10
897.040439485419
 20
386.7976778781849
 30
0.0
 11
900.0404394854189
 21
386.7976778781849
 31
0.0
  0
ARC
  5
44F
330
A
100
AcDbEntity
  8
LAYER_1
  6
Continuous
 62
     7
100
AcDbCircle
 10
897.040439485419
 20
386.2976778781849
 30
0.0
 40
0.5
100
AcDbArc
 50
90.0
 51
180.0
  0
ARC
  5
450
330
A
100
AcDbEntity
  8
LAYER_1
  6
Continuous
 62
     7
100
AcDbCircle
 10
900.0404394854189
 20
386.2976778781849
 30
0.0
 40
0.5
100
AcDbArc
 50
0.0
 51
90.0
  0
ARC
  5
451
330
A
100
AcDbEntity
  8
LAYER_1
  6
Continuous
 62
     7
100
AcDbCircle
 10
893.0404394854191
 20
386.2976778781849
 30
0.0
 40
0.5
100
AcDbArc
 50
0.0
 51
90.0
  0
ARC
  5
452
330
A
100
AcDbEntity
  8
LAYER_1
  6
Continuous
 62
     7
100
AcDbCircle
 10
890.040439485419
 20
386.2976778781849
 30
0.0
 40
0.5
100
AcDbArc
 50
90.0
 51
180.0
  0
LINE
  5
453
330
A
100
AcDbEntity
  8
LAYER_1
  6
Continuous
 62
     7
100
AcDbLine
 10
890.040439485419
 20
386.7976778781849
 30
0.0
 11
893.0404394854191
 21
386.7976778781849
 31
0.0
  0
ARC
  5
454
330
A
100
AcDbEntity
  8
LAYER_1
  6
Continuous
 62
     7
100
AcDbCircle
 10
914.040439485419
 20
386.2976778781849
 30
0.0
 40
0.5
100
AcDbArc
 50
0.0
 51
90.0
  0
ARC
  5
455
330
A
100
AcDbEntity
  8
LAYER_1
  6
Continuous
 62
     7
100
AcDbCircle
 10
911.0404394854191
 20
386.2976778781849
 30
0.0
 40
0.5
100
AcDbArc
 50
90.0
 51
180.0
  0
LINE
  5
456
330
A
100
AcDbEntity
  8
LAYER_1
  6
Continuous
 62
     7
100
AcDbLine
 10
911.0404394854191
 20
386.7976778781849
 30
0.0
 11
914.040439485419
 21
386.7976778781849
 31
0.0
  0
ARC
  5
457
330
A
100
AcDbEntity
  8
LAYER_1
  6
Continuous
 62
     7
100
AcDbCircle
 10
918.0404394854191
 20
386.2976778781849
 30
0.0
 40
0.5
100
AcDbArc
 50
90.0
 51
180.0
  0
LINE
  5
458
330
A
100
AcDbEntity
  8
LAYER_1
  6
Continuous
 62
     7
100
AcDbLine
 10
918.0404394854191
 20
386.7976778781849
 30
0.0
 11
921.040439485419
 21
386.7976778781849
 31
0.0
  0
ARC
  5
459
330
A
100
AcDbEntity
  8
LAYER_1
  6
Continuous
 62
     7
100
AcDbCircle
 10
907.040439485419
 20
386.2976778781849
 30
0.0
 40
0.5
100
AcDbArc
 50
0.0
 51
90.0
  0
LINE
  5
45A
330
A
100
AcDbEntity
  8
LAYER_1
  6
Continuous
 62
     7
100
AcDbLine
 10
953.040439485419
 20
386.7976778781849
 30
0.0
 11
956.040439485419
 21
386.7976778781849
 31
0.0
  0
ARC
  5
45B
330
A
100
AcDbEntity
  8
LAYER_1
  6
Continuous
 62
     7
100
AcDbCircle
 10
935.0404394854191
 20
386.2976778781849
 30
0.0
 40
0.5
100
AcDbArc
 50
0.0
 51
90.0
  0
ARC
  5
45C
330
A
100
AcDbEntity
  8
LAYER_1
  6
Continuous
 62
     7
100
AcDbCircle
 10
928.040439485419
 20
386.2976778781849
 30
0.0
 40
0.5
100
AcDbArc
 50
0.0
 51
90.0
  0
ARC
  5
45D
330
A
100
AcDbEntity
  8
LAYER_1
  6
Continuous
 62
     7
100
AcDbCircle
 10
925.0404394854189
 20
386.2976778781849
 30
0.0
 40
0.5
100
AcDbArc
 50
90.0
 51
180.0
  0
LINE
  5
45E
330
A
100
AcDbEntity
  8
LAYER_1
  6
Continuous
 62
     7
100
AcDbLine
 10
925.0404394854189
 20
386.7976778781849
 30
0.0
 11
928.040439485419
 21
386.7976778781849
 31
0.0
  0
ARC
  5
45F
330
A
100
AcDbEntity
  8
LAYER_1
  6
Continuous
 62
     7
100
AcDbCircle
 10
932.040439485419
 20
386.2976778781849
 30
0.0
 40
0.5
100
AcDbArc
 50
90.0
 51
180.0
  0
LINE
  5
460
330
A
100
AcDbEntity
  8
LAYER_1
  6
Continuous
 62
     7
100
AcDbLine
 10
932.040439485419
 20
386.7976778781849
 30
0.0
 11
935.0404394854191
 21
386.7976778781849
 31
0.0
  0
ARC
  5
461
330
A
100
AcDbEntity
  8
LAYER_1
  6
Continuous
 62
     7
100
AcDbCircle
 10
953.040439485419
 20
386.2976778781849
 30
0.0
 40
0.5
100
AcDbArc
 50
90.0
 51
180.0
  0
LINE
  5
462
330
A
100
AcDbEntity
  8
LAYER_1
  6
Continuous
 62
     7
100
AcDbLine
 10
946.040439485419
 20
386.7976778781849
 30
0.0
 11
949.040439485419
 21
386.7976778781849
 31
0.0
  0
ARC
  5
463
330
A
100
AcDbEntity
  8
LAYER_1
  6
Continuous
 62
     7
100
AcDbCircle
 10
946.040439485419
 20
386.2976778781849
 30
0.0
 40
0.5
100
AcDbArc
 50
90.0
 51
180.0
  0
LINE
  5
464
330
A
100
AcDbEntity
  8
LAYER_1
  6
Continuous
 62
     7
100
AcDbLine
 10
939.040439485419
 20
386.7976778781849
 30
0.0
 11
942.0404394854189
 21
386.7976778781849
 31
0.0
  0
ARC
  5
465
330
A
100
AcDbEntity
  8
LAYER_1
  6
Continuous
 62
     7
100
AcDbCircle
 10
939.040439485419
 20
386.2976778781849
 30
0.0
 40
0.5
100
AcDbArc
 50
90.0
 51
180.0
  0
ARC
  5
466
330
A
100
AcDbEntity
  8
LAYER_1
  6
Continuous
 62
     7
100
AcDbCircle
 10
942.0404394854189
 20
386.2976778781849
 30
0.0
 40
0.5
100
AcDbArc
 50
0.0
 51
90.0
  0
ARC
  5
467
330
A
100
AcDbEntity
  8
LAYER_1
  6
Continuous
 62
     7
100
AcDbCircle
 10
949.040439485419
 20
386.2976778781849
 30
0.0
 40
0.5
100
AcDbArc
 50
0.0
 51
90.0
  0
ARC
  5
468
330
A
100
AcDbEntity
  8
LAYER_1
  6
Continuous
 62
     7
100
AcDbCircle
 10
963.040439485419
 20
386.2976778781849
 30
0.0
 40
0.5
100
AcDbArc
 50
0.0
 51
90.0
  0
ARC
  5
469
330
A
100
AcDbEntity
  8
LAYER_1
  6
Continuous
 62
     7
100
AcDbCircle
 10
956.040439485419
 20
386.2976778781849
 30
0.0
 40
0.5
100
AcDbArc
 50
0.0
 51
90.0
  0
ARC
  5
46A
330
A
100
AcDbEntity
  8
LAYER_1
  6
Continuous
 62
     7
100
AcDbCircle
 10
960.0404394854191
 20
386.2976778781849
 30
0.0
 40
0.5
100
AcDbArc
 50
90.0
 51
180.0
  0
LINE
  5
46B
330
A
100
AcDbEntity
  8
LAYER_1
  6
Continuous
 62
     7
100
AcDbLine
 10
960.0404394854191
 20
386.7976778781849
 30
0.0
 11
963.040439485419
 21
386.7976778781849
 31
0.0
  0
LINE
  5
46C
330
A
100
AcDbEntity
  8
LAYER_1
  6
Continuous
 62
     7
100
AcDbLine
 10
1111.540439485419
 20
354.2976778781849
 30
0.0
 11
1111.540439485419
 21
325.297677878185
 31
0.0
  0
LINE
  5
46D
330
A
100
AcDbEntity
  8
LAYER_1
  6
Continuous
 62
     7
100
AcDbLine
 10
1107.540439485419
 20
325.297677878185
 30
0.0
 11
1107.540439485419
 21
354.2976778781849
 31
0.0
  0
LINE
  5
46E
330
A
100
AcDbEntity
  8
LAYER_1
  6
Continuous
 62
     7
100
AcDbLine
 10
1100.540439485419
 20
325.297677878185
 30
0.0
 11
1100.540439485419
 21
354.2976778781849
 31
0.0
  0
LINE
  5
46F
330
A
100
AcDbEntity
  8
LAYER_1
  6
Continuous
 62
     7
100
AcDbLine
 10
1104.540439485419
 20
354.2976778781849
 30
0.0
 11
1104.540439485419
 21
325.297677878185
 31
0.0
  0
LINE
  5
470
330
A
100
AcDbEntity
  8
LAYER_1
  6
Continuous
 62
     7
100
AcDbLine
 10
1090.540439485419
 20
354.2976778781849
 30
0.0
 11
1090.540439485419
 21
325.297677878185
 31
0.0
  0
LINE
  5
471
330
A
100
AcDbEntity
  8
LAYER_1
  6
Continuous
 62
     7
100
AcDbLine
 10
1086.540439485419
 20
325.297677878185
 30
0.0
 11
1086.540439485419
 21
354.2976778781849
 31
0.0
  0
LINE
  5
472
330
A
100
AcDbEntity
  8
LAYER_1
  6
Continuous
 62
     7
100
AcDbLine
 10
1093.540439485419
 20
325.297677878185
 30
0.0
 11
1093.540439485419
 21
354.2976778781849
 31
0.0
  0
LINE
  5
473
330
A
100
AcDbEntity
  8
LAYER_1
  6
Continuous
 62
     7
100
AcDbLine
 10
1097.540439485419
 20
354.2976778781849
 30
0.0
 11
1097.540439485419
 21
325.297677878185
 31
0.0
  0
LINE
  5
474
330
A
100
AcDbEntity
  8
LAYER_1
  6
Continuous
 62
     7
100
AcDbLine
 10
1083.540439485419
 20
354.2976778781849
 30
0.0
 11
1083.540439485419
 21
325.297677878185
 31
0.0
  0
LINE
  5
475
330
A
100
AcDbEntity
  8
LAYER_1
  6
Continuous
 62
     7
100
AcDbLine
 10
1062.540439485418
 20
354.2976778781849
 30
0.0
 11
1062.540439485418
 21
325.297677878185
 31
0.0
  0
LINE
  5
476
330
A
100
AcDbEntity
  8
LAYER_1
  6
Continuous
 62
     7
100
AcDbLine
 10
1058.540439485419
 20
325.297677878185
 30
0.0
 11
1058.540439485419
 21
354.2976778781849
 31
0.0
  0
LINE
  5
477
330
A
100
AcDbEntity
  8
LAYER_1
  6
Continuous
 62
     7
100
AcDbLine
 10
1065.540439485419
 20
325.297677878185
 30
0.0
 11
1065.540439485419
 21
354.2976778781849
 31
0.0
  0
LINE
  5
478
330
A
100
AcDbEntity
  8
LAYER_1
  6
Continuous
 62
     7
100
AcDbLine
 10
1069.540439485419
 20
354.2976778781849
 30
0.0
 11
1069.540439485419
 21
325.297677878185
 31
0.0
  0
LINE
  5
479
330
A
100
AcDbEntity
  8
LAYER_1
  6
Continuous
 62
     7
100
AcDbLine
 10
1079.540439485419
 20
325.297677878185
 30
0.0
 11
1079.540439485419
 21
354.2976778781849
 31
0.0
  0
LINE
  5
47A
330
A
100
AcDbEntity
  8
LAYER_1
  6
Continuous
 62
     7
100
AcDbLine
 10
1072.540439485419
 20
325.297677878185
 30
0.0
 11
1072.540439485419
 21
354.2976778781849
 31
0.0
  0
LINE
  5
47B
330
A
100
AcDbEntity
  8
LAYER_1
  6
Continuous
 62
     7
100
AcDbLine
 10
1076.540439485418
 20
354.2976778781849
 30
0.0
 11
1076.540439485418
 21
325.297677878185
 31
0.0
  0
LINE
  5
47C
330
A
100
AcDbEntity
  8
LAYER_1
  6
Continuous
 62
     7
100
AcDbLine
 10
1055.540439485419
 20
354.2976778781849
 30
0.0
 11
1055.540439485419
 21
325.297677878185
 31
0.0
  0
LINE
  5
47D
330
A
100
AcDbEntity
  8
LAYER_1
  6
Continuous
 62
     7
100
AcDbLine
 10
1087.040439485419
 20
317.797677878185
 30
0.0
 11
1090.040439485419
 21
317.797677878185
 31
0.0
  0
LINE
  5
47E
330
A
100
AcDbEntity
  8
LAYER_1
  6
Continuous
 62
     7
100
AcDbLine
 10
1090.040439485419
 20
324.797677878185
 30
0.0
 11
1087.040439485419
 21
324.797677878185
 31
0.0
  0
LINE
  5
47F
330
A
100
AcDbEntity
  8
LAYER_1
  6
Continuous
 62
     7
100
AcDbLine
 10
1090.040439485419
 20
287.797677878185
 30
0.0
 11
1087.040439485419
 21
287.797677878185
 31
0.0
  0
LINE
  5
480
330
A
100
AcDbEntity
  8
LAYER_1
  6
Continuous
 62
     7
100
AcDbLine
 10
1086.540439485419
 20
288.297677878185
 30
0.0
 11
1086.540439485419
 21
317.297677878185
 31
0.0
  0
LINE
  5
481
330
A
100
AcDbEntity
  8
LAYER_1
  6
Continuous
 62
     7
100
AcDbLine
 10
1083.540439485419
 20
317.297677878185
 30
0.0
 11
1083.540439485419
 21
288.297677878185
 31
0.0
  0
LINE
  5
482
330
A
100
AcDbEntity
  8
LAYER_1
  6
Continuous
 62
     7
100
AcDbLine
 10
1069.540439485419
 20
317.297677878185
 30
0.0
 11
1069.540439485419
 21
288.297677878185
 31
0.0
  0
LINE
  5
483
330
A
100
AcDbEntity
  8
LAYER_1
  6
Continuous
 62
     7
100
AcDbLine
 10
1062.540439485418
 20
317.297677878185
 30
0.0
 11
1062.540439485418
 21
288.297677878185
 31
0.0
  0
LINE
  5
484
330
A
100
AcDbEntity
  8
LAYER_1
  6
Continuous
 62
     7
100
AcDbLine
 10
1058.540439485419
 20
288.297677878185
 30
0.0
 11
1058.540439485419
 21
317.297677878185
 31
0.0
  0
LINE
  5
485
330
A
100
AcDbEntity
  8
LAYER_1
  6
Continuous
 62
     7
100
AcDbLine
 10
1065.540439485419
 20
288.297677878185
 30
0.0
 11
1065.540439485419
 21
317.297677878185
 31
0.0
  0
LINE
  5
486
330
A
100
AcDbEntity
  8
LAYER_1
  6
Continuous
 62
     7
100
AcDbLine
 10
1079.540439485419
 20
288.297677878185
 30
0.0
 11
1079.540439485419
 21
317.297677878185
 31
0.0
  0
LINE
  5
487
330
A
100
AcDbEntity
  8
LAYER_1
  6
Continuous
 62
     7
100
AcDbLine
 10
1072.540439485419
 20
288.297677878185
 30
0.0
 11
1072.540439485419
 21
317.297677878185
 31
0.0
  0
LINE
  5
488
330
A
100
AcDbEntity
  8
LAYER_1
  6
Continuous
 62
     7
100
AcDbLine
 10
1076.540439485418
 20
317.297677878185
 30
0.0
 11
1076.540439485418
 21
288.297677878185
 31
0.0
  0
LINE
  5
489
330
A
100
AcDbEntity
  8
LAYER_1
  6
Continuous
 62
     7
100
AcDbLine
 10
1055.540439485419
 20
317.297677878185
 30
0.0
 11
1055.540439485419
 21
288.297677878185
 31
0.0
  0
ARC
  5
48A
330
A
100
AcDbEntity
  8
LAYER_1
  6
Continuous
 62
     7
100
AcDbCircle
 10
1069.04043948542
 20
288.297677878185
 30
0.0
 40
0.5
100
AcDbArc
 50
270.0
 51
0.0
  0
ARC
  5
48B
330
A
100
AcDbEntity
  8
LAYER_1
  6
Continuous
 62
     7
100
AcDbCircle
 10
1062.040439485419
 20
288.297677878185
 30
0.0
 40
0.5
100
AcDbArc
 50
270.0
 51
0.0
  0
ARC
  5
48C
330
A
100
AcDbEntity
  8
LAYER_1
  6
Continuous
 62
     7
100
AcDbCircle
 10
1059.040439485418
 20
288.297677878185
 30
0.0
 40
0.5
100
AcDbArc
 50
180.0
 51
270.0
  0
LINE
  5
48D
330
A
100
AcDbEntity
  8
LAYER_1
  6
Continuous
 62
     7
100
AcDbLine
 10
1062.040439485419
 20
287.797677878185
 30
0.0
 11
1059.040439485418
 21
287.797677878185
 31
0.0
  0
ARC
  5
48E
330
A
100
AcDbEntity
  8
LAYER_1
  6
Continuous
 62
     7
100
AcDbCircle
 10
1066.040439485419
 20
288.297677878185
 30
0.0
 40
0.5
100
AcDbArc
 50
180.0
 51
270.0
  0
LINE
  5
48F
330
A
100
AcDbEntity
  8
LAYER_1
  6
Continuous
 62
     7
100
AcDbLine
 10
1069.04043948542
 20
287.797677878185
 30
0.0
 11
1066.040439485419
 21
287.797677878185
 31
0.0
  0
ARC
  5
490
330
A
100
AcDbEntity
  8
LAYER_1
  6
Continuous
 62
     7
100
AcDbCircle
 10
1087.040439485419
 20
288.297677878185
 30
0.0
 40
0.5
100
AcDbArc
 50
180.0
 51
270.0
  0
LINE
  5
491
330
A
100
AcDbEntity
  8
LAYER_1
  6
Continuous
 62
     7
100
AcDbLine
 10
1083.040439485418
 20
287.797677878185
 30
0.0
 11
1080.040439485419
 21
287.797677878185
 31
0.0
  0
ARC
  5
492
330
A
100
AcDbEntity
  8
LAYER_1
  6
Continuous
 62
     7
100
AcDbCircle
 10
1080.040439485419
 20
288.297677878185
 30
0.0
 40
0.5
100
AcDbArc
 50
180.0
 51
270.0
  0
LINE
  5
493
330
A
100
AcDbEntity
  8
LAYER_1
  6
Continuous
 62
     7
100
AcDbLine
 10
1076.040439485419
 20
287.797677878185
 30
0.0
 11
1073.04043948542
 21
287.797677878185
 31
0.0
  0
ARC
  5
494
330
A
100
AcDbEntity
  8
LAYER_1
  6
Continuous
 62
     7
100
AcDbCircle
 10
1073.04043948542
 20
288.297677878185
 30
0.0
 40
0.5
100
AcDbArc
 50
180.0
 51
270.0
  0
ARC
  5
495
330
A
100
AcDbEntity
  8
LAYER_1
  6
Continuous
 62
     7
100
AcDbCircle
 10
1076.040439485419
 20
288.297677878185
 30
0.0
 40
0.5
100
AcDbArc
 50
270.0
 51
0.0
  0
ARC
  5
496
330
A
100
AcDbEntity
  8
LAYER_1
  6
Continuous
 62
     7
100
AcDbCircle
 10
1083.040439485418
 20
288.297677878185
 30
0.0
 40
0.5
100
AcDbArc
 50
270.0
 51
0.0
  0
ARC
  5
497
330
A
100
AcDbEntity
  8
LAYER_1
  6
Continuous
 62
     7
100
AcDbCircle
 10
1069.04043948542
 20
325.297677878185
 30
0.0
 40
0.5
100
AcDbArc
 50
270.0
 51
0.0
  0
ARC
  5
498
330
A
100
AcDbEntity
  8
LAYER_1
  6
Continuous
 62
     7
100
AcDbCircle
 10
1069.04043948542
 20
317.297677878185
 30
0.0
 40
0.5
100
AcDbArc
 50
0.0
 51
90.0
  0
LINE
  5
499
330
A
100
AcDbEntity
  8
LAYER_1
  6
Continuous
 62
     7
100
AcDbLine
 10
1059.040439485418
 20
317.797677878185
 30
0.0
 11
1062.040439485419
 21
317.797677878185
 31
0.0
  0
ARC
  5
49A
330
A
100
AcDbEntity
  8
LAYER_1
  6
Continuous
 62
     7
100
AcDbCircle
 10
1062.040439485419
 20
317.297677878185
 30
0.0
 40
0.5
100
AcDbArc
 50
0.0
 51
90.0
  0
ARC
  5
49B
330
A
100
AcDbEntity
  8
LAYER_1
  6
Continuous
 62
     7
100
AcDbCircle
 10
1059.040439485418
 20
317.297677878185
 30
0.0
 40
0.5
100
AcDbArc
 50
90.0
 51
180.0
  0
LINE
  5
49C
330
A
100
AcDbEntity
  8
LAYER_1
  6
Continuous
 62
     7
100
AcDbLine
 10
1062.040439485419
 20
324.797677878185
 30
0.0
 11
1059.040439485418
 21
324.797677878185
 31
0.0
  0
ARC
  5
49D
330
A
100
AcDbEntity
  8
LAYER_1
  6
Continuous
 62
     7
100
AcDbCircle
 10
1059.040439485418
 20
325.297677878185
 30
0.0
 40
0.5
100
AcDbArc
 50
180.0
 51
270.0
  0
ARC
  5
49E
330
A
100
AcDbEntity
  8
LAYER_1
  6
Continuous
 62
     7
100
AcDbCircle
 10
1062.040439485419
 20
325.297677878185
 30
0.0
 40
0.5
100
AcDbArc
 50
270.0
 51
0.0
  0
ARC
  5
49F
330
A
100
AcDbEntity
  8
LAYER_1
  6
Continuous
 62
     7
100
AcDbCircle
 10
1066.040439485419
 20
325.297677878185
 30
0.0
 40
0.5
100
AcDbArc
 50
180.0
 51
270.0
  0
ARC
  5
4A0
330
A
100
AcDbEntity
  8
LAYER_1
  6
Continuous
 62
     7
100
AcDbCircle
 10
1066.040439485419
 20
317.297677878185
 30
0.0
 40
0.5
100
AcDbArc
 50
90.0
 51
180.0
  0
LINE
  5
4A1
330
A
100
AcDbEntity
  8
LAYER_1
  6
Continuous
 62
     7
100
AcDbLine
 10
1069.04043948542
 20
324.797677878185
 30
0.0
 11
1066.040439485419
 21
324.797677878185
 31
0.0
  0
LINE
  5
4A2
330
A
100
AcDbEntity
  8
LAYER_1
  6
Continuous
 62
     7
100
AcDbLine
 10
1066.040439485419
 20
317.797677878185
 30
0.0
 11
1069.04043948542
 21
317.797677878185
 31
0.0
  0
ARC
  5
4A3
330
A
100
AcDbEntity
  8
LAYER_1
  6
Continuous
 62
     7
100
AcDbCircle
 10
1087.040439485419
 20
317.297677878185
 30
0.0
 40
0.5
100
AcDbArc
 50
90.0
 51
180.0
  0
ARC
  5
4A4
330
A
100
AcDbEntity
  8
LAYER_1
  6
Continuous
 62
     7
100
AcDbCircle
 10
1087.040439485419
 20
325.297677878185
 30
0.0
 40
0.5
100
AcDbArc
 50
180.0
 51
270.0
  0
LINE
  5
4A5
330
A
100
AcDbEntity
  8
LAYER_1
  6
Continuous
 62
     7
100
AcDbLine
 10
1080.040439485419
 20
317.797677878185
 30
0.0
 11
1083.040439485418
 21
317.797677878185
 31
0.0
  0
LINE
  5
4A6
330
A
100
AcDbEntity
  8
LAYER_1
  6
Continuous
 62
     7
100
AcDbLine
 10
1083.040439485418
 20
324.797677878185
 30
0.0
 11
1080.040439485419
 21
324.797677878185
 31
0.0
  0
ARC
  5
4A7
330
A
100
AcDbEntity
  8
LAYER_1
  6
Continuous
 62
     7
100
AcDbCircle
 10
1080.040439485419
 20
317.297677878185
 30
0.0
 40
0.5
100
AcDbArc
 50
90.0
 51
180.0
  0
ARC
  5
4A8
330
A
100
AcDbEntity
  8
LAYER_1
  6
Continuous
 62
     7
100
AcDbCircle
 10
1080.040439485419
 20
325.297677878185
 30
0.0
 40
0.5
100
AcDbArc
 50
180.0
 51
270.0
  0
ARC
  5
4A9
330
A
100
AcDbEntity
  8
LAYER_1
  6
Continuous
 62
     7
100
AcDbCircle
 10
1076.040439485419
 20
325.297677878185
 30
0.0
 40
0.5
100
AcDbArc
 50
270.0
 51
0.0
  0
ARC
  5
4AA
330
A
100
AcDbEntity
  8
LAYER_1
  6
Continuous
 62
     7
100
AcDbCircle
 10
1073.04043948542
 20
325.297677878185
 30
0.0
 40
0.5
100
AcDbArc
 50
180.0
 51
270.0
  0
LINE
  5
4AB
330
A
100
AcDbEntity
  8
LAYER_1
  6
Continuous
 62
     7
100
AcDbLine
 10
1076.040439485419
 20
324.797677878185
 30
0.0
 11
1073.04043948542
 21
324.797677878185
 31
0.0
  0
ARC
  5
4AC
330
A
100
AcDbEntity
  8
LAYER_1
  6
Continuous
 62
     7
100
AcDbCircle
 10
1073.04043948542
 20
317.297677878185
 30
0.0
 40
0.5
100
AcDbArc
 50
90.0
 51
180.0
  0
ARC
  5
4AD
330
A
100
AcDbEntity
  8
LAYER_1
  6
Continuous
 62
     7
100
AcDbCircle
 10
1076.040439485419
 20
317.297677878185
 30
0.0
 40
0.5
100
AcDbArc
 50
0.0
 51
90.0
  0
LINE
  5
4AE
330
A
100
AcDbEntity
  8
LAYER_1
  6
Continuous
 62
     7
100
AcDbLine
 10
1073.04043948542
 20
317.797677878185
 30
0.0
 11
1076.040439485419
 21
317.797677878185
 31
0.0
  0
ARC
  5
4AF
330
A
100
AcDbEntity
  8
LAYER_1
  6
Continuous
 62
     7
100
AcDbCircle
 10
1083.040439485418
 20
317.297677878185
 30
0.0
 40
0.5
100
AcDbArc
 50
0.0
 51
90.0
  0
ARC
  5
4B0
330
A
100
AcDbEntity
  8
LAYER_1
  6
Continuous
 62
     7
100
AcDbCircle
 10
1083.040439485418
 20
325.297677878185
 30
0.0
 40
0.5
100
AcDbArc
 50
270.0
 51
0.0
  0
LINE
  5
4B1
330
A
100
AcDbEntity
  8
LAYER_1
  6
Continuous
 62
     7
100
AcDbLine
 10
1111.540439485419
 20
317.297677878185
 30
0.0
 11
1111.540439485419
 21
288.297677878185
 31
0.0
  0
LINE
  5
4B2
330
A
100
AcDbEntity
  8
LAYER_1
  6
Continuous
 62
     7
100
AcDbLine
 10
1107.540439485419
 20
288.297677878185
 30
0.0
 11
1107.540439485419
 21
317.297677878185
 31
0.0
  0
LINE
  5
4B3
330
A
100
AcDbEntity
  8
LAYER_1
  6
Continuous
 62
     7
100
AcDbLine
 10
1104.540439485419
 20
317.297677878185
 30
0.0
 11
1104.540439485419
 21
288.297677878185
 31
0.0
  0
LINE
  5
4B4
330
A
100
AcDbEntity
  8
LAYER_1
  6
Continuous
 62
     7
100
AcDbLine
 10
1100.540439485419
 20
288.297677878185
 30
0.0
 11
1100.540439485419
 21
317.297677878185
 31
0.0
  0
LINE
  5
4B5
330
A
100
AcDbEntity
  8
LAYER_1
  6
Continuous
 62
     7
100
AcDbLine
 10
1090.540439485419
 20
317.297677878185
 30
0.0
 11
1090.540439485419
 21
288.297677878185
 31
0.0
  0
LINE
  5
4B6
330
A
100
AcDbEntity
  8
LAYER_1
  6
Continuous
 62
     7
100
AcDbLine
 10
1093.540439485419
 20
288.297677878185
 30
0.0
 11
1093.540439485419
 21
317.297677878185
 31
0.0
  0
LINE
  5
4B7
330
A
100
AcDbEntity
  8
LAYER_1
  6
Continuous
 62
     7
100
AcDbLine
 10
1097.540439485419
 20
317.297677878185
 30
0.0
 11
1097.540439485419
 21
288.297677878185
 31
0.0
  0
ARC
  5
4B8
330
A
100
AcDbEntity
  8
LAYER_1
  6
Continuous
 62
     7
100
AcDbCircle
 10
1104.040439485419
 20
288.297677878185
 30
0.0
 40
0.5
100
AcDbArc
 50
270.0
 51
0.0
  0
ARC
  5
4B9
330
A
100
AcDbEntity
  8
LAYER_1
  6
Continuous
 62
     7
100
AcDbCircle
 10
1101.040439485418
 20
288.297677878185
 30
0.0
 40
0.5
100
AcDbArc
 50
180.0
 51
270.0
  0
LINE
  5
4BA
330
A
100
AcDbEntity
  8
LAYER_1
  6
Continuous
 62
     7
100
AcDbLine
 10
1104.040439485419
 20
287.797677878185
 30
0.0
 11
1101.040439485418
 21
287.797677878185
 31
0.0
  0
ARC
  5
4BB
330
A
100
AcDbEntity
  8
LAYER_1
  6
Continuous
 62
     7
100
AcDbCircle
 10
1097.040439485419
 20
288.297677878185
 30
0.0
 40
0.5
100
AcDbArc
 50
270.0
 51
0.0
  0
ARC
  5
4BC
330
A
100
AcDbEntity
  8
LAYER_1
  6
Continuous
 62
     7
100
AcDbCircle
 10
1090.040439485419
 20
288.297677878185
 30
0.0
 40
0.5
100
AcDbArc
 50
270.0
 51
0.0
  0
ARC
  5
4BD
330
A
100
AcDbEntity
  8
LAYER_1
  6
Continuous
 62
     7
100
AcDbCircle
 10
1094.040439485419
 20
288.297677878185
 30
0.0
 40
0.5
100
AcDbArc
 50
180.0
 51
270.0
  0
LINE
  5
4BE
330
A
100
AcDbEntity
  8
LAYER_1
  6
Continuous
 62
     7
100
AcDbLine
 10
1097.040439485419
 20
287.797677878185
 30
0.0
 11
1094.040439485419
 21
287.797677878185
 31
0.0
  0
LINE
  5
4BF
330
A
100
AcDbEntity
  8
LAYER_1
  6
Continuous
 62
     7
100
AcDbLine
 10
1111.040439485419
 20
287.797677878185
 30
0.0
 11
1108.040439485419
 21
287.797677878185
 31
0.0
  0
ARC
  5
4C0
330
A
100
AcDbEntity
  8
LAYER_1
  6
Continuous
 62
     7
100
AcDbCircle
 10
1108.040439485419
 20
288.297677878185
 30
0.0
 40
0.5
100
AcDbArc
 50
180.0
 51
270.0
  0
ARC
  5
4C1
330
A
100
AcDbEntity
  8
LAYER_1
  6
Continuous
 62
     7
100
AcDbCircle
 10
1111.040439485419
 20
288.297677878185
 30
0.0
 40
0.5
100
AcDbArc
 50
270.0
 51
0.0
  0
ARC
  5
4C2
330
A
100
AcDbEntity
  8
LAYER_1
  6
Continuous
 62
     7
100
AcDbCircle
 10
1104.040439485419
 20
325.297677878185
 30
0.0
 40
0.5
100
AcDbArc
 50
270.0
 51
0.0
  0
ARC
  5
4C3
330
A
100
AcDbEntity
  8
LAYER_1
  6
Continuous
 62
     7
100
AcDbCircle
 10
1104.040439485419
 20
317.297677878185
 30
0.0
 40
0.5
100
AcDbArc
 50
0.0
 51
90.0
  0
ARC
  5
4C4
330
A
100
AcDbEntity
  8
LAYER_1
  6
Continuous
 62
     7
100
AcDbCircle
 10
1101.040439485418
 20
325.297677878185
 30
0.0
 40
0.5
100
AcDbArc
 50
180.0
 51
270.0
  0
ARC
  5
4C5
330
A
100
AcDbEntity
  8
LAYER_1
  6
Continuous
 62
     7
100
AcDbCircle
 10
1101.040439485418
 20
317.297677878185
 30
0.0
 40
0.5
100
AcDbArc
 50
90.0
 51
180.0
  0
LINE
  5
4C6
330
A
100
AcDbEntity
  8
LAYER_1
  6
Continuous
 62
     7
100
AcDbLine
 10
1104.040439485419
 20
324.797677878185
 30
0.0
 11
1101.040439485418
 21
324.797677878185
 31
0.0
  0
LINE
  5
4C7
330
A
100
AcDbEntity
  8
LAYER_1
  6
Continuous
 62
     7
100
AcDbLine
 10
1101.040439485418
 20
317.797677878185
 30
0.0
 11
1104.040439485419
 21
317.797677878185
 31
0.0
  0
ARC
  5
4C8
330
A
100
AcDbEntity
  8
LAYER_1
  6
Continuous
 62
     7
100
AcDbCircle
 10
1097.040439485419
 20
325.297677878185
 30
0.0
 40
0.5
100
AcDbArc
 50
270.0
 51
0.0
  0
ARC
  5
4C9
330
A
100
AcDbEntity
  8
LAYER_1
  6
Continuous
 62
     7
100
AcDbCircle
 10
1097.040439485419
 20
317.297677878185
 30
0.0
 40
0.5
100
AcDbArc
 50
0.0
 51
90.0
  0
ARC
  5
4CA
330
A
100
AcDbEntity
  8
LAYER_1
  6
Continuous
 62
     7
100
AcDbCircle
 10
1090.040439485419
 20
317.297677878185
 30
0.0
 40
0.5
100
AcDbArc
 50
0.0
 51
90.0
  0
ARC
  5
4CB
330
A
100
AcDbEntity
  8
LAYER_1
  6
Continuous
 62
     7
100
AcDbCircle
 10
1090.040439485419
 20
325.297677878185
 30
0.0
 40
0.5
100
AcDbArc
 50
270.0
 51
0.0
  0
ARC
  5
4CC
330
A
100
AcDbEntity
  8
LAYER_1
  6
Continuous
 62
     7
100
AcDbCircle
 10
1094.040439485419
 20
325.297677878185
 30
0.0
 40
0.5
100
AcDbArc
 50
180.0
 51
270.0
  0
ARC
  5
4CD
330
A
100
AcDbEntity
  8
LAYER_1
  6
Continuous
 62
     7
100
AcDbCircle
 10
1094.040439485419
 20
317.297677878185
 30
0.0
 40
0.5
100
AcDbArc
 50
90.0
 51
180.0
  0
LINE
  5
4CE
330
A
100
AcDbEntity
  8
LAYER_1
  6
Continuous
 62
     7
100
AcDbLine
 10
1097.040439485419
 20
324.797677878185
 30
0.0
 11
1094.040439485419
 21
324.797677878185
 31
0.0
  0
LINE
  5
4CF
330
A
100
AcDbEntity
  8
LAYER_1
  6
Continuous
 62
     7
100
AcDbLine
 10
1094.040439485419
 20
317.797677878185
 30
0.0
 11
1097.040439485419
 21
317.797677878185
 31
0.0
  0
LINE
  5
4D0
330
A
100
AcDbEntity
  8
LAYER_1
  6
Continuous
 62
     7
100
AcDbLine
 10
1108.040439485419
 20
317.797677878185
 30
0.0
 11
1111.040439485419
 21
317.797677878185
 31
0.0
  0
LINE
  5
4D1
330
A
100
AcDbEntity
  8
LAYER_1
  6
Continuous
 62
     7
100
AcDbLine
 10
1111.040439485419
 20
324.797677878185
 30
0.0
 11
1108.040439485419
 21
324.797677878185
 31
0.0
  0
ARC
  5
4D2
330
A
100
AcDbEntity
  8
LAYER_1
  6
Continuous
 62
     7
100
AcDbCircle
 10
1108.040439485419
 20
317.297677878185
 30
0.0
 40
0.5
100
AcDbArc
 50
90.0
 51
180.0
  0
ARC
  5
4D3
330
A
100
AcDbEntity
  8
LAYER_1
  6
Continuous
 62
     7
100
AcDbCircle
 10
1108.040439485419
 20
325.297677878185
 30
0.0
 40
0.5
100
AcDbArc
 50
180.0
 51
270.0
  0
ARC
  5
4D4
330
A
100
AcDbEntity
  8
LAYER_1
  6
Continuous
 62
     7
100
AcDbCircle
 10
1111.040439485419
 20
317.297677878185
 30
0.0
 40
0.5
100
AcDbArc
 50
0.0
 51
90.0
  0
ARC
  5
4D5
330
A
100
AcDbEntity
  8
LAYER_1
  6
Continuous
 62
     7
100
AcDbCircle
 10
1111.040439485419
 20
325.297677878185
 30
0.0
 40
0.5
100
AcDbArc
 50
270.0
 51
0.0
  0
LINE
  5
4D6
330
A
100
AcDbEntity
  8
LAYER_1
  6
Continuous
 62
     7
100
AcDbLine
 10
1087.040439485419
 20
354.7976778781849
 30
0.0
 11
1090.040439485419
 21
354.7976778781849
 31
0.0
  0
ARC
  5
4D7
330
A
100
AcDbEntity
  8
LAYER_1
  6
Continuous
 62
     7
100
AcDbCircle
 10
1069.04043948542
 20
354.2976778781849
 30
0.0
 40
0.5
100
AcDbArc
 50
0.0
 51
90.0
  0
LINE
  5
4D8
330
A
100
AcDbEntity
  8
LAYER_1
  6
Continuous
 62
     7
100
AcDbLine
 10
1059.040439485418
 20
354.7976778781849
 30
0.0
 11
1062.040439485419
 21
354.7976778781849
 31
0.0
  0
ARC
  5
4D9
330
A
100
AcDbEntity
  8
LAYER_1
  6
Continuous
 62
     7
100
AcDbCircle
 10
1059.040439485418
 20
354.2976778781849
 30
0.0
 40
0.5
100
AcDbArc
 50
90.0
 51
180.0
  0
ARC
  5
4DA
330
A
100
AcDbEntity
  8
LAYER_1
  6
Continuous
 62
     7
100
AcDbCircle
 10
1062.040439485419
 20
354.2976778781849
 30
0.0
 40
0.5
100
AcDbArc
 50
0.0
 51
90.0
  0
ARC
  5
4DB
330
A
100
AcDbEntity
  8
LAYER_1
  6
Continuous
 62
     7
100
AcDbCircle
 10
1066.040439485419
 20
354.2976778781849
 30
0.0
 40
0.5
100
AcDbArc
 50
90.0
 51
180.0
  0
LINE
  5
4DC
330
A
100
AcDbEntity
  8
LAYER_1
  6
Continuous
 62
     7
100
AcDbLine
 10
1066.040439485419
 20
354.7976778781849
 30
0.0
 11
1069.04043948542
 21
354.7976778781849
 31
0.0
  0
ARC
  5
4DD
330
A
100
AcDbEntity
  8
LAYER_1
  6
Continuous
 62
     7
100
AcDbCircle
 10
1087.040439485419
 20
354.2976778781849
 30
0.0
 40
0.5
100
AcDbArc
 50
90.0
 51
180.0
  0
LINE
  5
4DE
330
A
100
AcDbEntity
  8
LAYER_1
  6
Continuous
 62
     7
100
AcDbLine
 10
1080.040439485419
 20
354.7976778781849
 30
0.0
 11
1083.040439485418
 21
354.7976778781849
 31
0.0
  0
ARC
  5
4DF
330
A
100
AcDbEntity
  8
LAYER_1
  6
Continuous
 62
     7
100
AcDbCircle
 10
1080.040439485419
 20
354.2976778781849
 30
0.0
 40
0.5
100
AcDbArc
 50
90.0
 51
180.0
  0
ARC
  5
4E0
330
A
100
AcDbEntity
  8
LAYER_1
  6
Continuous
 62
     7
100
AcDbCircle
 10
1076.040439485419
 20
354.2976778781849
 30
0.0
 40
0.5
100
AcDbArc
 50
0.0
 51
90.0
  0
ARC
  5
4E1
330
A
100
AcDbEntity
  8
LAYER_1
  6
Continuous
 62
     7
100
AcDbCircle
 10
1073.04043948542
 20
354.2976778781849
 30
0.0
 40
0.5
100
AcDbArc
 50
90.0
 51
180.0
  0
LINE
  5
4E2
330
A
100
AcDbEntity
  8
LAYER_1
  6
Continuous
 62
     7
100
AcDbLine
 10
1073.04043948542
 20
354.7976778781849
 30
0.0
 11
1076.040439485419
 21
354.7976778781849
 31
0.0
  0
ARC
  5
4E3
330
A
100
AcDbEntity
  8
LAYER_1
  6
Continuous
 62
     7
100
AcDbCircle
 10
1083.040439485418
 20
354.2976778781849
 30
0.0
 40
0.5
100
AcDbArc
 50
0.0
 51
90.0
  0
ARC
  5
4E4
330
A
100
AcDbEntity
  8
LAYER_1
  6
Continuous
 62
     7
100
AcDbCircle
 10
1104.040439485419
 20
354.2976778781849
 30
0.0
 40
0.5
100
AcDbArc
 50
0.0
 51
90.0
  0
ARC
  5
4E5
330
A
100
AcDbEntity
  8
LAYER_1
  6
Continuous
 62
     7
100
AcDbCircle
 10
1101.040439485418
 20
354.2976778781849
 30
0.0
 40
0.5
100
AcDbArc
 50
90.0
 51
180.0
  0
LINE
  5
4E6
330
A
100
AcDbEntity
  8
LAYER_1
  6
Continuous
 62
     7
100
AcDbLine
 10
1101.040439485418
 20
354.7976778781849
 30
0.0
 11
1104.040439485419
 21
354.7976778781849
 31
0.0
  0
ARC
  5
4E7
330
A
100
AcDbEntity
  8
LAYER_1
  6
Continuous
 62
     7
100
AcDbCircle
 10
1097.040439485419
 20
354.2976778781849
 30
0.0
 40
0.5
100
AcDbArc
 50
0.0
 51
90.0
  0
ARC
  5
4E8
330
A
100
AcDbEntity
  8
LAYER_1
  6
Continuous
 62
     7
100
AcDbCircle
 10
1090.040439485419
 20
354.2976778781849
 30
0.0
 40
0.5
100
AcDbArc
 50
0.0
 51
90.0
  0
ARC
  5
4E9
330
A
100
AcDbEntity
  8
LAYER_1
  6
Continuous
 62
     7
100
AcDbCircle
 10
1094.040439485419
 20
354.2976778781849
 30
0.0
 40
0.5
100
AcDbArc
 50
90.0
 51
180.0
  0
LINE
  5
4EA
330
A
100
AcDbEntity
  8
LAYER_1
  6
Continuous
 62
     7
100
AcDbLine
 10
1094.040439485419
 20
354.7976778781849
 30
0.0
 11
1097.040439485419
 21
354.7976778781849
 31
0.0
  0
LINE
  5
4EB
330
A
100
AcDbEntity
  8
LAYER_1
  6
Continuous
 62
     7
100
AcDbLine
 10
1108.040439485419
 20
354.7976778781849
 30
0.0
 11
1111.040439485419
 21
354.7976778781849
 31
0.0
  0
ARC
  5
4EC
330
A
100
AcDbEntity
  8
LAYER_1
  6
Continuous
 62
     7
100
AcDbCircle
 10
1108.040439485419
 20
354.2976778781849
 30
0.0
 40
0.5
100
AcDbArc
 50
90.0
 51
180.0
  0
ARC
  5
4ED
330
A
100
AcDbEntity
  8
LAYER_1
  6
Continuous
 62
     7
100
AcDbCircle
 10
1111.040439485419
 20
354.2976778781849
 30
0.0
 40
0.5
100
AcDbArc
 50
0.0
 51
90.0
  0
CIRCLE
  5
4EE
330
A
100
AcDbEntity
  8
LAYER_1
  6
Continuous
 62
     7
100
AcDbCircle
 10
907.540439485419
 20
313.797677878185
 30
0.0
 40
17.75
  0
CIRCLE
  5
4EF
330
A
100
AcDbEntity
  8
LAYER_1
  6
Continuous
 62
     7
100
AcDbCircle
 10
907.540439485419
 20
313.797677878185
 30
0.0
 40
16.75
  0
LINE
  5
4F0
330
A
100
AcDbEntity
  8
LAYER_1
  6
Continuous
 62
     7
100
AcDbLine
 10
214.5404394854189
 20
317.797677878186
 30
0.0
 11
239.5404394854189
 21
317.797677878186
 31
0.0
  0
LINE
  5
4F1
330
A
100
AcDbEntity
  8
LAYER_1
  6
Continuous
 62
     7
100
AcDbLine
 10
214.540439485418
 20
287.797677878186
 30
0.0
 11
239.5404394854189
 21
287.797677878186
 31
0.0
  0
LINE
  5
4F2
330
A
100
AcDbEntity
  8
LAYER_1
  6
Continuous
 62
     7
100
AcDbLine
 10
231.540439485419
 20
331.797677878185
 30
0.0
 11
239.5404394854189
 21
331.797677878186
 31
0.0
  0
ARC
  5
4F3
330
A
100
AcDbEntity
  8
LAYER_1
  6
Continuous
 62
     7
100
AcDbCircle
 10
231.540439485419
 20
333.797677878186
 30
0.0
 40
2.0
100
AcDbArc
 50
180.0
 51
270.0
  0
LINE
  5
4F4
330
A
100
AcDbEntity
  8
LAYER_1
  6
Continuous
 62
     7
100
AcDbLine
 10
231.540439485419
 20
339.797677878185
 30
0.0
 11
239.5404394854189
 21
339.797677878186
 31
0.0
  0
ARC
  5
4F5
330
A
100
AcDbEntity
  8
LAYER_1
  6
Continuous
 62
     7
100
AcDbCircle
 10
231.540439485419
 20
337.797677878186
 30
0.0
 40
2.0
100
AcDbArc
 50
90.0
 51
180.0
  0
LINE
  5
4F6
330
A
100
AcDbEntity
  8
LAYER_1
  6
Continuous
 62
     7
100
AcDbLine
 10
229.540439485419
 20
321.797677878186
 30
0.0
 11
229.540439485419
 21
317.797677878186
 31
0.0
  0
LINE
  5
4F7
330
A
100
AcDbEntity
  8
LAYER_1
  6
Continuous
 62
     7
100
AcDbLine
 10
231.540439485419
 20
323.797677878185
 30
0.0
 11
239.5404394854189
 21
323.797677878186
 31
0.0
  0
ARC
  5
4F8
330
A
100
AcDbEntity
  8
LAYER_1
  6
Continuous
 62
     7
100
AcDbCircle
 10
231.540439485419
 20
321.797677878186
 30
0.0
 40
2.0
100
AcDbArc
 50
90.0
 51
180.0
  0
LINE
  5
4F9
330
A
100
AcDbEntity
  8
LAYER_1
  6
Continuous
 62
     7
100
AcDbLine
 10
229.540439485419
 20
353.797677878186
 30
0.0
 11
229.540439485419
 21
349.7976778781849
 31
0.0
  0
LINE
  5
4FA
330
A
100
AcDbEntity
  8
LAYER_1
  6
Continuous
 62
     7
100
AcDbLine
 10
231.540439485419
 20
347.7976778781849
 30
0.0
 11
239.5404394854189
 21
347.797677878186
 31
0.0
  0
ARC
  5
4FB
330
A
100
AcDbEntity
  8
LAYER_1
  6
Continuous
 62
     7
100
AcDbCircle
 10
231.540439485419
 20
349.7976778781849
 30
0.0
 40
2.0
100
AcDbArc
 50
180.0
 51
270.0
  0
LINE
  5
4FC
330
A
100
AcDbEntity
  8
LAYER_1
  6
Continuous
 62
     7
100
AcDbLine
 10
231.540439485419
 20
355.7976778781849
 30
0.0
 11
239.5404394854189
 21
355.797677878186
 31
0.0
  0
ARC
  5
4FD
330
A
100
AcDbEntity
  8
LAYER_1
  6
Continuous
 62
     7
100
AcDbCircle
 10
231.540439485419
 20
353.797677878186
 30
0.0
 40
2.0
100
AcDbArc
 50
90.0
 51
180.0
  0
LINE
  5
4FE
330
A
100
AcDbEntity
  8
LAYER_1
  6
Continuous
 62
     7
100
AcDbLine
 10
229.540439485419
 20
369.797677878186
 30
0.0
 11
229.540439485419
 21
365.7976778781849
 31
0.0
  0
LINE
  5
4FF
330
A
100
AcDbEntity
  8
LAYER_1
  6
Continuous
 62
     7
100
AcDbLine
 10
231.540439485419
 20
363.7976778781849
 30
0.0
 11
239.5404394854189
 21
363.797677878186
 31
0.0
  0
ARC
  5
500
330
A
100
AcDbEntity
  8
LAYER_1
  6
Continuous
 62
     7
100
AcDbCircle
 10
231.540439485419
 20
365.7976778781849
 30
0.0
 40
2.0
100
AcDbArc
 50
180.0
 51
270.0
  0
LINE
  5
501
330
A
100
AcDbEntity
  8
LAYER_1
  6
Continuous
 62
     7
100
AcDbLine
 10
231.540439485419
 20
371.7976778781849
 30
0.0
 11
239.5404394854189
 21
371.797677878186
 31
0.0
  0
ARC
  5
502
330
A
100
AcDbEntity
  8
LAYER_1
  6
Continuous
 62
     7
100
AcDbCircle
 10
231.540439485419
 20
369.797677878186
 30
0.0
 40
2.0
100
AcDbArc
 50
90.0
 51
180.0
  0
LINE
  5
503
330
A
100
AcDbEntity
  8
LAYER_1
  6
Continuous
 62
     7
100
AcDbLine
 10
229.540439485419
 20
385.797677878186
 30
0.0
 11
229.540439485419
 21
381.7976778781849
 31
0.0
  0
LINE
  5
504
330
A
100
AcDbEntity
  8
LAYER_1
  6
Continuous
 62
     7
100
AcDbLine
 10
231.540439485419
 20
379.7976778781849
 30
0.0
 11
239.5404394854189
 21
379.797677878186
 31
0.0
  0
ARC
  5
505
330
A
100
AcDbEntity
  8
LAYER_1
  6
Continuous
 62
     7
100
AcDbCircle
 10
231.540439485419
 20
381.7976778781849
 30
0.0
 40
2.0
100
AcDbArc
 50
180.0
 51
270.0
  0
LINE
  5
506
330
A
100
AcDbEntity
  8
LAYER_1
  6
Continuous
 62
     7
100
AcDbLine
 10
231.540439485419
 20
387.7976778781849
 30
0.0
 11
239.5404394854189
 21
387.797677878186
 31
0.0
  0
ARC
  5
507
330
A
100
AcDbEntity
  8
LAYER_1
  6
Continuous
 62
     7
100
AcDbCircle
 10
231.540439485419
 20
385.797677878186
 30
0.0
 40
2.0
100
AcDbArc
 50
90.0
 51
180.0
  0
LINE
  5
508
330
A
100
AcDbEntity
  8
LAYER_1
  6
Continuous
 62
     7
100
AcDbLine
 10
224.5404394854189
 20
703.5476778781848
 30
0.0
 11
239.5404394854189
 21
703.5476778781848
 31
0.0
  0
LINE
  5
509
330
A
100
AcDbEntity
  8
LAYER_1
  6
Continuous
 62
     7
100
AcDbLine
 10
224.5404394854189
 20
693.0476778781849
 30
0.0
 11
239.5404394854189
 21
693.0476778781849
 31
0.0
  0
LINE
  5
50A
330
A
100
AcDbEntity
  8
LAYER_1
  6
Continuous
 62
     7
100
AcDbLine
 10
214.5404394854189
 20
763.7976778781848
 30
0.0
 11
214.5404394854189
 21
733.7976778781849
 31
0.0
  0
LINE
  5
50B
330
A
100
AcDbEntity
  8
LAYER_1
  6
Continuous
 62
     7
100
AcDbLine
 10
214.5404394854189
 20
763.7976778781848
 30
0.0
 11
239.5404394854189
 21
763.7976778781848
 31
0.0
  0
LINE
  5
50C
330
A
100
AcDbEntity
  8
LAYER_1
  6
Continuous
 62
     7
100
AcDbLine
 10
214.5404394854189
 20
733.7976778781849
 30
0.0
 11
239.5404394854189
 21
733.7976778781849
 31
0.0
  0
LINE
  5
50D
330
A
100
AcDbEntity
  8
LAYER_1
  6
Continuous
 62
     7
100
AcDbLine
 10
229.540439485419
 20
788.2976778781848
 30
0.0
 11
229.540439485419
 21
784.2976778781848
 31
0.0
  0
LINE
  5
50E
330
A
100
AcDbEntity
  8
LAYER_1
  6
Continuous
 62
     7
100
AcDbLine
 10
231.540439485419
 20
782.2976778781849
 30
0.0
 11
239.5404394854189
 21
782.297677878186
 31
0.0
  0
ARC
  5
50F
330
A
100
AcDbEntity
  8
LAYER_1
  6
Continuous
 62
     7
100
AcDbCircle
 10
231.540439485419
 20
784.2976778781848
 30
0.0
 40
2.0
100
AcDbArc
 50
180.0
 51
270.0
  0
LINE
  5
510
330
A
100
AcDbEntity
  8
LAYER_1
  6
Continuous
 62
     7
100
AcDbLine
 10
231.540439485419
 20
790.2976778781849
 30
0.0
 11
239.5404394854189
 21
790.2976778781861
 31
0.0
  0
ARC
  5
511
330
A
100
AcDbEntity
  8
LAYER_1
  6
Continuous
 62
     7
100
AcDbCircle
 10
231.540439485419
 20
788.2976778781848
 30
0.0
 40
2.0
100
AcDbArc
 50
90.0
 51
180.0
  0
LINE
  5
512
330
A
100
AcDbEntity
  8
LAYER_1
  6
Continuous
 62
     7
100
AcDbLine
 10
730.540439485419
 20
333.797677878184
 30
0.0
 11
725.540439485419
 21
333.797677878184
 31
0.0
  0
LINE
  5
513
330
A
100
AcDbEntity
  8
LAYER_1
  6
Continuous
 62
     7
100
AcDbLine
 10
730.540439485419
 20
293.7976778781859
 30
0.0
 11
725.540439485419
 21
293.7976778781859
 31
0.0
  0
LINE
  5
514
330
A
100
AcDbEntity
  8
LAYER_1
  6
Continuous
 62
     7
100
AcDbLine
 10
750.540439485419
 20
331.547677878185
 30
0.0
 11
730.540439485419
 21
331.547677878186
 31
0.0
  0
LINE
  5
515
330
A
100
AcDbEntity
  8
LAYER_1
  6
Continuous
 62
     7
100
AcDbLine
 10
750.540439485419
 20
296.047677878185
 30
0.0
 11
730.540439485419
 21
296.047677878185
 31
0.0
  0
LINE
  5
516
330
A
100
AcDbEntity
  8
LAYER_1
  6
Continuous
 62
     7
100
AcDbLine
 10
738.540439485419
 20
368.7976778781849
 30
0.0
 11
725.540439485419
 21
368.7976778781849
 31
0.0
  0
LINE
  5
517
330
A
100
AcDbEntity
  8
LAYER_1
  6
Continuous
 62
     7
100
AcDbLine
 10
738.540439485419
 20
380.7976778781849
 30
0.0
 11
725.540439485419
 21
380.7976778781849
 31
0.0
  0
ARC
  5
518
330
A
100
AcDbEntity
  8
LAYER_1
  6
Continuous
 62
     7
100
AcDbCircle
 10
738.540439485419
 20
378.7976778781849
 30
0.0
 40
2.0
100
AcDbArc
 50
0.0
 51
90.0
  0
LINE
  5
519
330
A
100
AcDbEntity
  8
LAYER_1
  6
Continuous
 62
     7
100
AcDbLine
 10
745.540439485419
 20
397.2976778781849
 30
0.0
 11
725.540439485419
 21
397.2976778781849
 31
0.0
  0
LINE
  5
51A
330
A
100
AcDbEntity
  8
LAYER_1
  6
Continuous
 62
     7
100
AcDbLine
 10
745.540439485419
 20
369.2976778781849
 30
0.0
 11
739.8633151409509
 21
369.2976778781849
 31
0.0
  0
LINE
  5
51B
330
A
100
AcDbEntity
  8
LAYER_1
  6
Continuous
 62
     7
100
AcDbLine
 10
730.540439485419
 20
602.7976778781849
 30
0.0
 11
730.540439485419
 21
562.7976778781849
 31
0.0
  0
LINE
  5
51C
330
A
100
AcDbEntity
  8
LAYER_1
  6
Continuous
 62
     7
100
AcDbLine
 10
750.540439485419
 20
600.5476778781849
 30
0.0
 11
750.5404394854179
 21
565.0476778781849
 31
0.0
  0
LINE
  5
51D
330
A
100
AcDbEntity
  8
LAYER_1
  6
Continuous
 62
     7
100
AcDbLine
 10
730.540439485419
 20
602.7976778781849
 30
0.0
 11
725.540439485419
 21
602.7976778781849
 31
0.0
  0
LINE
  5
51E
330
A
100
AcDbEntity
  8
LAYER_1
  6
Continuous
 62
     7
100
AcDbLine
 10
730.540439485419
 20
562.7976778781849
 30
0.0
 11
725.540439485419
 21
562.7976778781849
 31
0.0
  0
LINE
  5
51F
330
A
100
AcDbEntity
  8
LAYER_1
  6
Continuous
 62
     7
100
AcDbLine
 10
750.540439485419
 20
600.5476778781849
 30
0.0
 11
730.540439485419
 21
600.5476778781849
 31
0.0
  0
LINE
  5
520
330
A
100
AcDbEntity
  8
LAYER_1
  6
Continuous
 62
     7
100
AcDbLine
 10
750.540439485419
 20
565.047677878186
 30
0.0
 11
730.540439485419
 21
565.0476778781849
 31
0.0
  0
LINE
  5
521
330
A
100
AcDbEntity
  8
LAYER_1
  6
Continuous
 62
     7
100
AcDbLine
 10
740.540439485419
 20
667.797677878186
 30
0.0
 11
740.540439485419
 21
659.797677878186
 31
0.0
  0
ARC
  5
522
330
A
100
AcDbEntity
  8
LAYER_1
  6
Continuous
 62
     7
100
AcDbCircle
 10
738.540439485419
 20
659.797677878186
 30
0.0
 40
2.0
100
AcDbArc
 50
270.0
 51
0.0
  0
LINE
  5
523
330
A
100
AcDbEntity
  8
LAYER_1
  6
Continuous
 62
     7
100
AcDbLine
 10
738.540439485419
 20
657.797677878186
 30
0.0
 11
725.540439485419
 21
657.797677878186
 31
0.0
  0
LINE
  5
524
330
A
100
AcDbEntity
  8
LAYER_1
  6
Continuous
 62
     7
100
AcDbLine
 10
738.540439485419
 20
669.797677878186
 30
0.0
 11
725.540439485419
 21
669.797677878186
 31
0.0
  0
ARC
  5
525
330
A
100
AcDbEntity
  8
LAYER_1
  6
Continuous
 62
     7
100
AcDbCircle
 10
738.540439485419
 20
667.797677878186
 30
0.0
 40
2.0
100
AcDbArc
 50
0.0
 51
90.0
  0
LINE
  5
526
330
A
100
AcDbEntity
  8
LAYER_1
  6
Continuous
 62
     7
100
AcDbLine
 10
745.540439485419
 20
798.2976778781861
 30
0.0
 11
745.540439485419
 21
753.2976778781849
 31
0.0
  0
LINE
  5
527
330
A
100
AcDbEntity
  8
LAYER_1
  6
Continuous
 62
     7
100
AcDbLine
 10
745.54043948542
 20
798.2976778781861
 30
0.0
 11
725.540439485419
 21
798.2976778781849
 31
0.0
  0
LINE
  5
528
330
A
100
AcDbEntity
  8
LAYER_1
  6
Continuous
 62
     7
100
AcDbLine
 10
745.54043948542
 20
753.2976778781849
 30
0.0
 11
725.540439485419
 21
753.2976778781849
 31
0.0
  0
LINE
  5
529
330
A
100
AcDbEntity
  8
LAYER_1
  6
Continuous
 62
     7
100
AcDbLine
 10
745.540439485419
 20
737.7976778781849
 30
0.0
 11
745.540439485419
 21
705.7976778781849
 31
0.0
  0
LINE
  5
52A
330
A
100
AcDbEntity
  8
LAYER_1
  6
Continuous
 62
     7
100
AcDbLine
 10
745.540439485419
 20
737.7976778781849
 30
0.0
 11
725.540439485419
 21
737.7976778781849
 31
0.0
  0
LINE
  5
52B
330
A
100
AcDbEntity
  8
LAYER_1
  6
Continuous
 62
     7
100
AcDbLine
 10
745.540439485419
 20
705.7976778781849
 30
0.0
 11
725.540439485419
 21
705.7976778781849
 31
0.0
  0
LINE
  5
52C
330
A
100
AcDbEntity
  8
LAYER_1
  6
Continuous
 62
     7
100
AcDbLine
 10
318.040439485419
 20
241.797677878185
 30
0.0
 11
319.540439485419
 21
258.797677878185
 31
0.0
  0
LINE
  5
52D
330
A
100
AcDbEntity
  8
LAYER_1
  6
Continuous
 62
     7
100
AcDbLine
 10
291.040439485419
 20
241.797677878185
 30
0.0
 11
289.540439485419
 21
258.797677878185
 31
0.0
  0
LINE
  5
52E
330
A
100
AcDbEntity
  8
LAYER_1
  6
Continuous
 62
     7
100
AcDbLine
 10
674.040439485419
 20
241.797677878185
 30
0.0
 11
647.040439485419
 21
241.797677878185
 31
0.0
  0
LINE
  5
52F
330
A
100
AcDbEntity
  8
LAYER_1
  6
Continuous
 62
     7
100
AcDbLine
 10
647.040439485419
 20
241.797677878185
 30
0.0
 11
645.540439485419
 21
258.797677878185
 31
0.0
  0
LINE
  5
530
330
A
100
AcDbEntity
  8
LAYER_1
  6
Continuous
 62
     7
100
AcDbLine
 10
674.040439485419
 20
241.797677878185
 30
0.0
 11
675.540439485419
 21
258.797677878185
 31
0.0
  0
LINE
  5
531
330
A
100
AcDbEntity
  8
LAYER_1
  6
Continuous
 62
     7
100
AcDbLine
 10
-150.459560514581
 20
241.797677878185
 30
0.0
 11
-123.45956051458
 21
241.7976778781859
 31
0.0
  0
LINE
  5
532
330
A
100
AcDbEntity
  8
LAYER_1
  6
Continuous
 62
     7
100
AcDbLine
 10
-123.45956051458
 20
241.7976778781859
 30
0.0
 11
-121.95956051458
 21
258.797677878186
 31
0.0
  0
LINE
  5
533
330
A
100
AcDbEntity
  8
LAYER_1
  6
Continuous
 62
     7
100
AcDbLine
 10
-150.459560514581
 20
241.7976778781859
 30
0.0
 11
-151.9595605145809
 21
258.797677878186
 31
0.0
  0
LINE
  5
534
330
A
100
AcDbEntity
  8
LAYER_1
  6
Continuous
 62
     7
100
AcDbLine
 10
76.540439485419
 20
241.797677878185
 30
0.0
 11
49.54043948542
 21
241.7976778781859
 31
0.0
  0
LINE
  5
535
330
A
100
AcDbEntity
  8
LAYER_1
  6
Continuous
 62
     7
100
AcDbLine
 10
49.54043948542
 20
241.7976778781859
 30
0.0
 11
48.04043948541999
 21
258.797677878186
 31
0.0
  0
LINE
  5
536
330
A
100
AcDbEntity
  8
LAYER_1
  6
Continuous
 62
     7
100
AcDbLine
 10
76.540439485419
 20
241.7976778781859
 30
0.0
 11
78.040439485419
 21
258.797677878186
 31
0.0
  0
LINE
  5
537
330
A
100
AcDbEntity
  8
LAYER_1
  6
Continuous
 62
     7
100
AcDbLine
 10
888.5404394854189
 20
241.797677878185
 30
0.0
 11
915.540439485419
 21
241.797677878185
 31
0.0
  0
LINE
  5
538
330
A
100
AcDbEntity
  8
LAYER_1
  6
Continuous
 62
     7
100
AcDbLine
 10
915.540439485419
 20
241.797677878185
 30
0.0
 11
917.0404394854189
 21
258.797677878185
 31
0.0
  0
LINE
  5
539
330
A
100
AcDbEntity
  8
LAYER_1
  6
Continuous
 62
     7
100
AcDbLine
 10
888.5404394854189
 20
241.797677878185
 30
0.0
 11
887.040439485419
 21
258.797677878185
 31
0.0
  0
LINE
  5
53A
330
A
100
AcDbEntity
  8
LAYER_1
  6
Continuous
 62
     7
100
AcDbLine
 10
1115.540439485419
 20
241.797677878185
 30
0.0
 11
1088.540439485419
 21
241.797677878185
 31
0.0
  0
LINE
  5
53B
330
A
100
AcDbEntity
  8
LAYER_1
  6
Continuous
 62
     7
100
AcDbLine
 10
1088.540439485419
 20
241.797677878185
 30
0.0
 11
1087.040439485419
 21
258.797677878185
 31
0.0
  0
LINE
  5
53C
330
A
100
AcDbEntity
  8
LAYER_1
  6
Continuous
 62
     7
100
AcDbLine
 10
1115.540439485419
 20
241.797677878185
 30
0.0
 11
1117.040439485418
 21
258.797677878185
 31
0.0
  0
LINE
  5
53D
330
A
100
AcDbEntity
  8
LAYER_1
  6
Continuous
 62
     7
100
AcDbLine
 10
988.5404394854178
 20
378.7976778781849
 30
0.0
 11
988.5404394854178
 21
370.7976778781849
 31
0.0
  0
LINE
  5
53E
330
A
100
AcDbEntity
  8
LAYER_1
  6
Continuous
 62
     7
100
AcDbLine
 10
980.5404394854178
 20
378.7976778781849
 30
0.0
 11
980.5404394854178
 21
370.7976778781849
 31
0.0
  0
LINE
  5
53F
330
A
100
AcDbEntity
  8
LAYER_1
  6
Continuous
 62
     7
100
AcDbLine
 10
996.5404394854179
 20
378.7976778781849
 30
0.0
 11
996.5404394854179
 21
370.7976778781849
 31
0.0
  0
LINE
  5
540
330
A
100
AcDbEntity
  8
LAYER_1
  6
Continuous
 62
     7
100
AcDbLine
 10
978.0581484142558
 20
367.177782573935
 30
0.0
 11
978.0581484142558
 21
368.216300617545
 31
0.0
  0
LINE
  5
541
330
A
100
AcDbEntity
  8
LAYER_1
  6
Continuous
 62
     7
100
AcDbLine
 10
985.4106388807331
 20
368.216300617545
 30
0.0
 11
985.4106388807331
 21
367.177782573935
 31
0.0
  0
ARC
  5
542
330
A
100
AcDbEntity
  8
LAYER_1
  6
Continuous
 62
     7
100
AcDbCircle
 10
984.910638880733
 20
367.177782573935
 30
0.0
 40
0.5
100
AcDbArc
 50
270.0
 51
0.0
  0
ARC
  5
543
330
A
100
AcDbEntity
  8
LAYER_1
  6
Continuous
 62
     7
100
AcDbCircle
 10
978.5581484142559
 20
367.177782573935
 30
0.0
 40
0.5
100
AcDbArc
 50
180.0
 51
270.0
  0
LINE
  5
544
330
A
100
AcDbEntity
  8
LAYER_1
  6
Continuous
 62
     7
100
AcDbLine
 10
984.910638880733
 20
366.677782573935
 30
0.0
 11
978.5581484142559
 21
366.677782573935
 31
0.0
  0
LINE
  5
545
330
A
100
AcDbEntity
  8
LAYER_1
  6
Continuous
 62
     7
100
AcDbLine
 10
999.0227305565809
 20
367.177782573935
 30
0.0
 11
999.0227305565809
 21
368.216300617545
 31
0.0
  0
LINE
  5
546
330
A
100
AcDbEntity
  8
LAYER_1
  6
Continuous
 62
     7
100
AcDbLine
 10
991.6702400901041
 20
368.216300617545
 30
0.0
 11
991.6702400901041
 21
367.177782573935
 31
0.0
  0
ARC
  5
547
330
A
100
AcDbEntity
  8
LAYER_1
  6
Continuous
 62
     7
100
AcDbCircle
 10
992.170240090104
 20
367.177782573935
 30
0.0
 40
0.5
100
AcDbArc
 50
180.0
 51
270.0
  0
ARC
  5
548
330
A
100
AcDbEntity
  8
LAYER_1
  6
Continuous
 62
     7
100
AcDbCircle
 10
998.522730556581
 20
367.177782573935
 30
0.0
 40
0.5
100
AcDbArc
 50
270.0
 51
0.0
  0
LINE
  5
549
330
A
100
AcDbEntity
  8
LAYER_1
  6
Continuous
 62
     7
100
AcDbLine
 10
992.170240090104
 20
366.677782573935
 30
0.0
 11
998.522730556581
 21
366.677782573935
 31
0.0
  0
CIRCLE
  5
54A
330
A
100
AcDbEntity
  8
LAYER_1
  6
Continuous
 62
     7
100
AcDbCircle
 10
1120.540439485419
 20
383.2976778781849
 30
0.0
 40
2.0
  0
LINE
  5
54B
330
A
100
AcDbEntity
  8
LAYER_1
  6
Continuous
 62
     7
100
AcDbLine
 10
1112.621866470208
 20
372.8598207999579
 30
0.0
 11
1121.930607469006
 21
381.8598207999579
 31
0.0
  0
LINE
  5
54C
330
A
100
AcDbEntity
  8
LAYER_1
  6
Continuous
 62
     7
100
AcDbLine
 10
1112.621866470208
 20
393.735534956412
 30
0.0
 11
1121.930607469006
 21
384.7355349564119
 31
0.0
  0
ARC
  5
54D
330
A
100
AcDbEntity
  8
LAYER_1
  6
Continuous
 62
     7
100
AcDbCircle
 10
1111.231698486619
 20
392.2976778781849
 30
0.0
 40
2.0
100
AcDbArc
 50
45.96608935233899
 51
90.0
  0
CIRCLE
  5
54E
330
A
100
AcDbEntity
  8
LAYER_1
  6
Continuous
 62
     7
100
AcDbCircle
 10
1080.540439485419
 20
383.2976778781849
 30
0.0
 40
2.0
  0
LINE
  5
54F
330
A
100
AcDbEntity
  8
LAYER_1
  6
Continuous
 62
     7
100
AcDbLine
 10
1088.459012500631
 20
372.8598207999579
 30
0.0
 11
1079.150271501831
 21
381.8598207999579
 31
0.0
  0
LINE
  5
550
330
A
100
AcDbEntity
  8
LAYER_1
  6
Continuous
 62
     7
100
AcDbLine
 10
1088.459012500631
 20
393.735534956412
 30
0.0
 11
1079.150271501831
 21
384.7355349564119
 31
0.0
  0
LINE
  5
551
330
A
100
AcDbEntity
  8
LAYER_1
  6
Continuous
 62
     7
100
AcDbLine
 10
1089.040439485419
 20
393.297677878186
 30
0.0
 11
1112.040439485419
 21
393.297677878186
 31
0.0
  0
LINE
  5
552
330
A
100
AcDbEntity
  8
LAYER_1
  6
Continuous
 62
     7
100
AcDbLine
 10
1112.040439485419
 20
393.297677878186
 30
0.0
 11
1112.040439485419
 21
373.2976778781849
 31
0.0
  0
LINE
  5
553
330
A
100
AcDbEntity
  8
LAYER_1
  6
Continuous
 62
     7
100
AcDbLine
 10
1112.040439485419
 20
373.2976778781849
 30
0.0
 11
1089.040439485419
 21
373.2976778781849
 31
0.0
  0
LINE
  5
554
330
A
100
AcDbEntity
  8
LAYER_1
  6
Continuous
 62
     7
100
AcDbLine
 10
1089.040439485419
 20
373.2976778781849
 30
0.0
 11
1089.040439485419
 21
393.297677878186
 31
0.0
  0
LWPOLYLINE
  5
555
330
A
100
AcDbEntity
  8
LAYER_1
  6
Continuous
 62
     7
100
AcDbPolyline
 90
        4
 70
     1
 43
0.0
 10
1093.528485990188
 20
391.7970227645469
 10
1095.20336272473
 20
391.7970227645469
 10
1095.20336272473
 20
386.565888501163
 10
1093.528485990188
 20
386.565888501163
  0
LWPOLYLINE
  5
55B
330
A
100
AcDbEntity
  8
LAYER_1
  6
Continuous
 62
     7
100
AcDbPolyline
 90
        4
 70
     1
 43
0.0
 10
1107.55239298065
 20
391.7970227645469
 10
1105.877516246108
 20
391.7970227645469
 10
1105.877516246108
 20
386.565888501163
 10
1107.55239298065
 20
386.565888501163
  0
LWPOLYLINE
  5
561
330
A
100
AcDbEntity
  8
LAYER_1
  6
Continuous
 62
     7
100
AcDbPolyline
 90
        4
 70
     1
 43
0.0
 10
1099.703001118147
 20
380.95115363033
 10
1101.37787785269
 20
380.95115363033
 10
1101.37787785269
 20
375.720019366946
 10
1099.703001118147
 20
375.720019366946
  0
LINE
  5
567
330
A
100
AcDbEntity
  8
LAYER_1
  6
Continuous
 62
     7
100
AcDbLine
 10
1051.763504144824
 20
394.2976778781849
 30
0.0
 11
1051.763504144824
 21
372.2976778781849
 31
0.0
  0
LWPOLYLINE
  5
568
330
A
100
AcDbEntity
  8
LAYER_1
  6
Continuous
 62
     7
100
AcDbPolyline
 90
        4
 70
     1
 43
0.0
 10
1043.876132974351
 20
383.8214805948819
 10
1050.854526835879
 20
383.8214805948819
 10
1050.854526835879
 20
382.6913612320059
 10
1043.876132974351
 20
382.6913612320059
  0
CIRCLE
  5
56E
330
A
100
AcDbEntity
  8
LAYER_1
  6
Continuous
 62
     7
100
AcDbCircle
 10
1034.502978355928
 20
383.2976778781849
 30
0.0
 40
2.065195660764
  0
CIRCLE
  5
56F
330
A
100
AcDbEntity
  8
LAYER_1
  6
Continuous
 62
     7
100
AcDbCircle
 10
1034.502978355928
 20
383.2976778781849
 30
0.0
 40
1.065195660764
  0
INSERT
  5
570
330
A
100
AcDbEntity
  8
0
  6
Continuous
 62
    96
100
AcDbBlockReference
  2
_POLYLINE_$1$
 10
0.0
 20
0.0
 30
0.0
  0
LINE
  5
571
330
A
100
AcDbEntity
  8
LAYER_1
  6
Continuous
 62
     7
100
AcDbLine
 10
-52.70956051458099
 20
314.4080011195589
 30
0.0
 11
-63.20956051458001
 21
314.4080011195589
 31
0.0
  0
LINE
  5
572
330
A
100
AcDbEntity
  8
LAYER_1
  6
Continuous
 62
     7
100
AcDbLine
 10
2363.540439485475
 20
157.5976778781829
 30
0.0
 11
2543.540439485475
 21
157.5976778781829
 31
0.0
  0
LINE
  5
573
330
A
100
AcDbEntity
  8
LAYER_1
  6
Continuous
 62
     7
100
AcDbLine
 10
2363.540439485475
 20
359.5976778781829
 30
0.0
 11
2363.540439485475
 21
157.5976778781829
 31
0.0
  0
LINE
  5
574
330
A
100
AcDbEntity
  8
LAYER_1
  6
Continuous
 62
     7
100
AcDbLine
 10
2543.540439485475
 20
157.5976778781829
 30
0.0
 11
2543.540439485475
 21
359.5976778781829
 31
0.0
  0
LINE
  5
575
330
A
100
AcDbEntity
  8
LAYER_1
  6
Continuous
 62
     7
100
AcDbLine
 10
1907.540439485475
 20
157.5976778781829
 30
0.0
 11
2183.540439485474
 21
157.5976778781829
 31
0.0
  0
LINE
  5
576
330
A
100
AcDbEntity
  8
LAYER_1
  6
Continuous
 62
     7
100
AcDbLine
 10
1907.540439485475
 20
359.5976778781839
 30
0.0
 11
1907.540439485475
 21
157.5976778781829
 31
0.0
  0
ARC
  5
577
330
A
100
AcDbEntity
  8
LAYER_1
  6
Continuous
 62
     7
100
AcDbCircle
 10
2543.540439485479
 20
239.597677878184
 30
0.0
 40
8.0
100
AcDbArc
 50
0.0
 51
90.0
  0
LINE
  5
578
330
A
100
AcDbEntity
  8
LAYER_1
  6
Continuous
 62
     7
100
AcDbLine
 10
2183.540439485474
 20
157.5976778781829
 30
0.0
 11
2183.540439485474
 21
359.5976778781839
 31
0.0
  0
LINE
  5
579
330
A
100
AcDbEntity
  8
LAYER_1
  6
Continuous
 62
     7
100
AcDbLine
 10
2551.540439485479
 20
217.597677878184
 30
0.0
 11
2551.540439485479
 21
219.597677878184
 31
0.0
  0
LINE
  5
57A
330
A
100
AcDbEntity
  8
LAYER_1
  6
Continuous
 62
     7
100
AcDbLine
 10
2543.540439485479
 20
217.597677878184
 30
0.0
 11
2551.540439485479
 21
217.597677878184
 31
0.0
  0
LINE
  5
57B
330
A
100
AcDbEntity
  8
LAYER_1
  6
Continuous
 62
     7
100
AcDbLine
 10
2551.540439485479
 20
197.597677878184
 30
0.0
 11
2551.540439485479
 21
199.597677878184
 31
0.0
  0
LINE
  5
57C
330
A
100
AcDbEntity
  8
LAYER_1
  6
Continuous
 62
     7
100
AcDbLine
 10
2543.540439485479
 20
197.597677878184
 30
0.0
 11
2551.540439485479
 21
197.597677878184
 31
0.0
  0
ARC
  5
57D
330
A
100
AcDbEntity
  8
LAYER_1
  6
Continuous
 62
     7
100
AcDbCircle
 10
2543.540439485479
 20
199.597677878184
 30
0.0
 40
8.0
100
AcDbArc
 50
0.0
 51
90.0
  0
LINE
  5
57E
330
A
100
AcDbEntity
  8
LAYER_1
  6
Continuous
 62
     7
100
AcDbLine
 10
2551.540439485479
 20
237.5976778781839
 30
0.0
 11
2551.540439485479
 21
239.597677878184
 31
0.0
  0
LINE
  5
57F
330
A
100
AcDbEntity
  8
LAYER_1
  6
Continuous
 62
     7
100
AcDbLine
 10
2543.540439485479
 20
237.5976778781839
 30
0.0
 11
2551.540439485479
 21
237.5976778781839
 31
0.0
  0
ARC
  5
580
330
A
100
AcDbEntity
  8
LAYER_1
  6
Continuous
 62
     7
100
AcDbCircle
 10
2543.540439485479
 20
219.597677878184
 30
0.0
 40
8.0
100
AcDbArc
 50
0.0
 51
90.0
  0
LINE
  5
581
330
A
100
AcDbEntity
  8
LAYER_1
  6
Continuous
 62
     7
100
AcDbLine
 10
2543.540439485479
 20
277.597677878184
 30
0.0
 11
2551.540439485479
 21
277.597677878184
 31
0.0
  0
LINE
  5
582
330
A
100
AcDbEntity
  8
LAYER_1
  6
Continuous
 62
     7
100
AcDbLine
 10
2551.540439485479
 20
277.597677878184
 30
0.0
 11
2551.540439485479
 21
279.597677878184
 31
0.0
  0
LINE
  5
583
330
A
100
AcDbEntity
  8
LAYER_1
  6
Continuous
 62
     7
100
AcDbLine
 10
2543.540439485479
 20
257.597677878184
 30
0.0
 11
2551.540439485479
 21
257.597677878184
 31
0.0
  0
LINE
  5
584
330
A
100
AcDbEntity
  8
LAYER_1
  6
Continuous
 62
     7
100
AcDbLine
 10
2551.540439485479
 20
257.597677878184
 30
0.0
 11
2551.540439485479
 21
259.597677878184
 31
0.0
  0
ARC
  5
585
330
A
100
AcDbEntity
  8
LAYER_1
  6
Continuous
 62
     7
100
AcDbCircle
 10
2543.540439485479
 20
259.597677878184
 30
0.0
 40
8.0
100
AcDbArc
 50
0.0
 51
90.0
  0
ARC
  5
586
330
A
100
AcDbEntity
  8
LAYER_1
  6
Continuous
 62
     7
100
AcDbCircle
 10
2543.540439485479
 20
279.597677878184
 30
0.0
 40
8.0
100
AcDbArc
 50
0.0
 51
90.0
  0
LINE
  5
587
330
A
100
AcDbEntity
  8
LAYER_1
  6
Continuous
 62
     7
100
AcDbLine
 10
1907.540439485475
 20
157.5976778781829
 30
0.0
 11
2183.540439485474
 21
157.5976778781829
 31
0.0
  0
LINE
  5
588
330
A
100
AcDbEntity
  8
LAYER_1
  6
Continuous
 62
     7
100
AcDbLine
 10
2363.540439485475
 20
157.5976778781829
 30
0.0
 11
2543.540439485475
 21
157.5976778781829
 31
0.0
  0
LINE
  5
589
330
A
100
AcDbEntity
  8
LAYER_1
  6
Continuous
 62
     7
100
AcDbLine
 10
2545.540439485479
 20
379.5976778781839
 30
0.0
 11
2361.540439485479
 21
379.5976778781839
 31
0.0
  0
LINE
  5
58A
330
A
100
AcDbEntity
  8
LAYER_1
  6
Continuous
 62
     7
100
AcDbLine
 10
2361.540439485479
 20
379.5976778781839
 30
0.0
 11
2361.540439485479
 21
359.5976778781839
 31
0.0
  0
LINE
  5
58B
330
A
100
AcDbEntity
  8
LAYER_1
  6
Continuous
 62
     7
100
AcDbLine
 10
2545.540439485479
 20
359.5976778781839
 30
0.0
 11
2545.540439485479
 21
379.5976778781839
 31
0.0
  0
LINE
  5
58C
330
A
100
AcDbEntity
  8
LAYER_1
  6
Continuous
 62
     7
100
AcDbLine
 10
2185.540439485479
 20
379.5976778781839
 30
0.0
 11
1905.540439485475
 21
379.5976778781839
 31
0.0
  0
LINE
  5
58D
330
A
100
AcDbEntity
  8
LAYER_1
  6
Continuous
 62
     7
100
AcDbLine
 10
1905.540439485475
 20
359.5976778781839
 30
0.0
 11
2185.540439485475
 21
359.5976778781839
 31
0.0
  0
LINE
  5
58E
330
A
100
AcDbEntity
  8
LAYER_1
  6
Continuous
 62
     7
100
AcDbLine
 10
1905.540439485475
 20
379.5976778781839
 30
0.0
 11
1905.540439485475
 21
359.5976778781839
 31
0.0
  0
LINE
  5
58F
330
A
100
AcDbEntity
  8
LAYER_1
  6
Continuous
 62
     7
100
AcDbLine
 10
2185.540439485475
 20
359.5976778781839
 30
0.0
 11
2185.540439485479
 21
379.5976778781839
 31
0.0
  0
LINE
  5
590
330
A
100
AcDbEntity
  8
LAYER_1
  6
Continuous
 62
     7
100
AcDbLine
 10
2539.540439485479
 20
379.5976778781839
 30
0.0
 11
2543.540439485479
 21
379.5976778781839
 31
0.0
  0
LINE
  5
591
330
A
100
AcDbEntity
  8
LAYER_1
  6
Continuous
 62
     7
100
AcDbLine
 10
2133.540439485468
 20
379.5976778781839
 30
0.0
 11
2178.040439485474
 21
379.5976778781839
 31
0.0
  0
LINE
  5
592
330
A
100
AcDbEntity
  8
LAYER_1
  6
Continuous
 62
     7
100
AcDbLine
 10
1965.540439485461
 20
379.5976778781839
 30
0.0
 11
2125.540439485468
 21
379.5976778781839
 31
0.0
  0
LINE
  5
593
330
A
100
AcDbEntity
  8
LAYER_1
  6
Continuous
 62
     7
100
AcDbLine
 10
1965.540439485461
 20
380.7976778781839
 30
0.0
 11
2125.540439485472
 21
380.7976778781839
 31
0.0
  0
LINE
  5
594
330
A
100
AcDbEntity
  8
LAYER_1
  6
Continuous
 62
     7
100
AcDbLine
 10
1987.464790209368
 20
382.251879938539
 30
0.0
 11
1989.064790209367
 21
382.251879938539
 31
0.0
  0
LINE
  5
595
330
A
100
AcDbEntity
  8
LAYER_1
  6
Continuous
 62
     7
100
AcDbLine
 10
1986.285733194859
 20
383.2976778781839
 30
0.0
 11
1987.464790209368
 21
383.2976778781839
 31
0.0
  0
LINE
  5
596
330
A
100
AcDbEntity
  8
LAYER_1
  6
Continuous
 62
     7
100
AcDbLine
 10
1989.064790209361
 20
383.2976778781839
 30
0.0
 11
1990.243847223876
 21
383.2976778781839
 31
0.0
  0
LINE
  5
597
330
A
100
AcDbEntity
  8
LAYER_1
  6
Continuous
 62
     7
100
AcDbLine
 10
2119.540439485475
 20
410.7976778781849
 30
0.0
 11
1971.540439485476
 21
410.7976778781849
 31
0.0
  0
LINE
  5
598
330
A
100
AcDbEntity
  8
LAYER_1
  6
Continuous
 62
     7
100
AcDbLine
 10
2125.540439485421
 20
611.797677878181
 30
0.0
 11
1965.540439485415
 21
611.797677878188
 31
0.0
  0
LINE
  5
599
330
A
100
AcDbEntity
  8
LAYER_1
  6
Continuous
 62
     7
100
AcDbLine
 10
1965.540439485421
 20
771.797677878188
 30
0.0
 11
2125.540439485415
 21
771.797677878181
 31
0.0
  0
LINE
  5
59A
330
A
100
AcDbEntity
  8
LAYER_1
  6
Continuous
 62
     7
100
AcDbLine
 10
1965.540439485415
 20
611.797677878188
 30
0.0
 11
1965.540439485421
 21
771.797677878188
 31
0.0
  0
LINE
  5
59B
330
A
100
AcDbEntity
  8
LAYER_1
  6
Continuous
 62
     7
100
AcDbLine
 10
2125.540439485421
 20
611.797677878181
 30
0.0
 11
2125.540439485415
 21
771.797677878181
 31
0.0
  0
LINE
  5
59C
330
A
100
AcDbEntity
  8
LAYER_1
  6
Continuous
 62
     7
100
AcDbLine
 10
2119.540439485475
 20
380.7976778781839
 30
0.0
 11
2119.540439485475
 21
410.7976778781849
 31
0.0
  0
LINE
  5
59D
330
A
100
AcDbEntity
  8
LAYER_1
  6
Continuous
 62
     7
100
AcDbLine
 10
1971.540439485476
 20
380.7976778781839
 30
0.0
 11
1971.540439485476
 21
410.7976778781849
 31
0.0
  0
CIRCLE
  5
59E
330
A
100
AcDbEntity
  8
LAYER_1
  6
Continuous
 62
     7
100
AcDbCircle
 10
2045.540439485447
 20
691.797677878188
 30
0.0
 40
74.0
  0
CIRCLE
  5
59F
330
A
100
AcDbEntity
  8
LAYER_1
  6
Continuous
 62
     7
100
AcDbCircle
 10
2045.540439485447
 20
691.797677878188
 30
0.0
 40
72.8
  0
LINE
  5
5A0
330
A
100
AcDbEntity
  8
LAYER_1
  6
Continuous
 62
     7
100
AcDbLine
 10
1965.540439485461
 20
379.5976778781839
 30
0.0
 11
1965.540439485461
 21
380.7976778781839
 31
0.0
  0
LINE
  5
5A1
330
A
100
AcDbEntity
  8
LAYER_1
  6
Continuous
 62
     7
100
AcDbLine
 10
2125.540439485472
 20
379.5976778781839
 30
0.0
 11
2125.540439485472
 21
380.7976778781839
 31
0.0
  0
LINE
  5
5A2
330
A
100
AcDbEntity
  8
LAYER_1
  6
Continuous
 62
     7
100
AcDbLine
 10
2373.540439485475
 20
379.5976778781839
 30
0.0
 11
2533.540439485483
 21
379.5976778781839
 31
0.0
  0
LINE
  5
5A3
330
A
100
AcDbEntity
  8
LAYER_1
  6
Continuous
 62
     7
100
AcDbLine
 10
2373.540439485475
 20
380.7976778781839
 30
0.0
 11
2533.540439485486
 21
380.7976778781839
 31
0.0
  0
LINE
  5
5A4
330
A
100
AcDbEntity
  8
LAYER_1
  6
Continuous
 62
     7
100
AcDbLine
 10
2527.540439485489
 20
410.7976778781849
 30
0.0
 11
2379.540439485489
 21
410.7976778781849
 31
0.0
  0
LINE
  5
5A5
330
A
100
AcDbEntity
  8
LAYER_1
  6
Continuous
 62
     7
100
AcDbLine
 10
2527.540439485489
 20
380.7976778781839
 30
0.0
 11
2527.540439485489
 21
410.7976778781849
 31
0.0
  0
LINE
  5
5A6
330
A
100
AcDbEntity
  8
LAYER_1
  6
Continuous
 62
     7
100
AcDbLine
 10
2379.540439485489
 20
380.7976778781839
 30
0.0
 11
2379.540439485489
 21
410.7976778781849
 31
0.0
  0
LINE
  5
5A7
330
A
100
AcDbEntity
  8
LAYER_1
  6
Continuous
 62
     7
100
AcDbLine
 10
2373.540439485475
 20
379.5976778781839
 30
0.0
 11
2373.540439485475
 21
380.7976778781839
 31
0.0
  0
LINE
  5
5A8
330
A
100
AcDbEntity
  8
LAYER_1
  6
Continuous
 62
     7
100
AcDbLine
 10
2533.540439485486
 20
379.5976778781839
 30
0.0
 11
2533.540439485486
 21
380.7976778781839
 31
0.0
  0
LINE
  5
5A9
330
A
100
AcDbEntity
  8
LAYER_1
  6
Continuous
 62
     7
100
AcDbLine
 10
2117.540439485475
 20
-80.40232212181999
 30
0.0
 11
1973.540439485475
 21
-80.40232212181999
 31
0.0
  0
LINE
  5
5AA
330
A
100
AcDbEntity
  8
LAYER_1
  6
Continuous
 62
     7
100
AcDbLine
 10
2117.540439485475
 20
-80.40232212181999
 30
0.0
 11
2117.540439485475
 21
-224.40232212182
 31
0.0
  0
LINE
  5
5AB
330
A
100
AcDbEntity
  8
LAYER_1
  6
Continuous
 62
     7
100
AcDbLine
 10
1973.540439485475
 20
-80.40232212181999
 30
0.0
 11
1973.540439485472
 21
-224.40232212182
 31
0.0
  0
LINE
  5
5AC
330
A
100
AcDbEntity
  8
LAYER_1
  6
Continuous
 62
     7
100
AcDbLine
 10
2117.540439485475
 20
-224.40232212182
 30
0.0
 11
1973.540439485472
 21
-224.40232212182
 31
0.0
  0
ARC
  5
5AD
330
A
100
AcDbEntity
  8
LAYER_1
  6
DIVIDE
 62
     7
100
AcDbCircle
 10
2045.54043948538
 20
691.797677878284
 30
0.0
 40
52.5
100
AcDbArc
 50
204.390506037085
 51
286.895286602873
  0
LINE
  5
5AE
330
A
100
AcDbEntity
  8
LAYER_1
  6
DIVIDE
 62
     7
100
AcDbLine
 10
2061.441711412153
 20
633.8608149354899
 30
0.0
 11
2058.319305424564
 21
671.234707189312
 31
0.0
  0
LINE
  5
5AF
330
A
100
AcDbEntity
  8
LAYER_1
  6
DIVIDE
 62
     7
100
AcDbLine
 10
2067.758871418419
 20
637.5391055295129
 30
0.0
 11
2063.890415226972
 21
683.842906336433
 31
0.0
  0
ARC
  5
5B0
330
A
100
AcDbEntity
  8
LAYER_1
  6
DIVIDE
 62
     7
100
AcDbCircle
 10
2045.54043948538
 20
691.797677878284
 30
0.0
 40
55.0
100
AcDbArc
 50
203.4650021590199
 51
286.3366059370449
  0
ARC
  5
5B1
330
A
100
AcDbEntity
  8
LAYER_1
  6
DIVIDE
 62
     7
100
AcDbCircle
 10
2045.54043948538
 20
691.797677878284
 30
0.0
 40
52.5
100
AcDbArc
 50
294.390506037051
 51
16.895286602877
  0
ARC
  5
5B2
330
A
100
AcDbEntity
  8
LAYER_1
  6
DIVIDE
 62
     7
100
AcDbCircle
 10
2045.54043948538
 20
691.797677878284
 30
0.0
 40
55.0
100
AcDbArc
 50
293.4650021591339
 51
16.33660593694
  0
ARC
  5
5B3
330
A
100
AcDbEntity
  8
LAYER_1
  6
DIVIDE
 62
     7
100
AcDbCircle
 10
2045.54043948538
 20
691.797677878284
 30
0.0
 40
62.601974449659
100
AcDbArc
 50
241.5771919892399
 51
282.511283092658
  0
ARC
  5
5B4
330
A
100
AcDbEntity
  8
LAYER_1
  6
DIVIDE
 62
     7
100
AcDbCircle
 10
2070.748456230221
 20
637.788870725317
 30
0.0
 40
3.0
100
AcDbArc
 50
184.7756917796809
 51
295.020296717243
  0
ARC
  5
5B5
330
A
100
AcDbEntity
  8
LAYER_1
  6
DIVIDE
 62
     7
100
AcDbCircle
 10
2058.452126600344
 20
633.611049739686
 30
0.0
 40
3.0
100
AcDbArc
 50
282.511283092658
 51
4.775691779577
  0
ARC
  5
5B6
330
A
100
AcDbEntity
  8
LAYER_1
  6
DIVIDE
 62
     7
100
AcDbCircle
 10
2045.54043948538
 20
691.797677878284
 30
0.0
 40
62.601974449659
100
AcDbArc
 50
295.020296717243
 51
298.4228080108739
  0
ARC
  5
5B7
330
A
100
AcDbEntity
  8
LAYER_1
  6
DIVIDE
 62
     7
100
AcDbCircle
 10
2045.54043948538
 20
691.797677878284
 30
0.0
 40
64.878501260042
100
AcDbArc
 50
247.360943612855
 51
292.639056387145
  0
LINE
  5
5B8
330
A
100
AcDbEntity
  8
LAYER_1
  6
DIVIDE
 62
     7
100
AcDbLine
 10
2103.477302428174
 20
707.6989498050458
 30
0.0
 11
2066.103410174342
 21
704.5765438174569
 31
0.0
  0
ARC
  5
5B9
330
A
100
AcDbEntity
  8
LAYER_1
  6
DIVIDE
 62
     7
100
AcDbCircle
 10
2099.549246638344
 20
717.0056946231239
 30
0.0
 40
3.0
100
AcDbArc
 50
274.7756917798899
 51
25.02029671739
  0
ARC
  5
5BA
330
A
100
AcDbEntity
  8
LAYER_1
  6
DIVIDE
 62
     7
100
AcDbCircle
 10
2045.54043948538
 20
691.797677878284
 30
0.0
 40
62.601974449659
100
AcDbArc
 50
25.02029671739
 51
28.422808010997
  0
ARC
  5
5BB
330
A
100
AcDbEntity
  8
LAYER_1
  6
DIVIDE
 62
     7
100
AcDbCircle
 10
2103.727067623976
 20
704.709364993247
 30
0.0
 40
3.0
100
AcDbArc
 50
12.511283092553
 51
94.77569177988899
  0
ARC
  5
5BC
330
A
100
AcDbEntity
  8
LAYER_1
  6
DIVIDE
 62
     7
100
AcDbCircle
 10
2045.54043948538
 20
691.797677878284
 30
0.0
 40
62.601974449659
100
AcDbArc
 50
61.57719198923999
 51
102.5112830926599
  0
LINE
  5
5BD
330
A
100
AcDbEntity
  8
LAYER_1
  6
DIVIDE
 62
     7
100
AcDbLine
 10
2029.639167558605
 20
749.734540821071
 30
0.0
 11
2032.761573546204
 21
712.360648567245
 31
0.0
  0
LINE
  5
5BE
330
A
100
AcDbEntity
  8
LAYER_1
  6
DIVIDE
 62
     7
100
AcDbLine
 10
2023.322007552346
 20
746.0562502270449
 30
0.0
 11
2027.130018659989
 21
700.475951763542
 31
0.0
  0
ARC
  5
5BF
330
A
100
AcDbEntity
  8
LAYER_1
  6
DIVIDE
 62
     7
100
AcDbCircle
 10
2045.54043948538
 20
691.797677878284
 30
0.0
 40
20.0
100
AcDbArc
 50
66.563118074227
 51
115.189971862618
  0
ARC
  5
5C0
330
A
100
AcDbEntity
  8
LAYER_1
  6
DIVIDE
 62
     7
100
AcDbCircle
 10
2066.35317537015
 20
701.586959005659
 30
0.0
 40
3.0
100
AcDbArc
 50
94.77569177988899
 51
205.189971862731
  0
LINE
  5
5C1
330
A
100
AcDbEntity
  8
LAYER_1
  6
DIVIDE
 62
     7
100
AcDbLine
 10
2099.799011834149
 20
714.016109811316
 30
0.0
 11
2053.495211027227
 21
710.1476536198689
 31
0.0
  0
ARC
  5
5C2
330
A
100
AcDbEntity
  8
LAYER_1
  6
DIVIDE
 62
     7
100
AcDbCircle
 10
2024.140433848193
 20
700.226186567739
 30
0.0
 40
3.0
100
AcDbArc
 50
338.502729674249
 51
4.775691779577
  0
ARC
  5
5C3
330
A
100
AcDbEntity
  8
LAYER_1
  6
DIVIDE
 62
     7
100
AcDbCircle
 10
2035.751158358007
 20
712.6104137630569
 30
0.0
 40
3.0
100
AcDbArc
 50
184.7756917796809
 51
295.1899718626179
  0
ARC
  5
5C4
330
A
100
AcDbEntity
  8
LAYER_1
  6
DIVIDE
 62
     7
100
AcDbCircle
 10
2020.332422740542
 20
745.8064850312499
 30
0.0
 40
3.0
100
AcDbArc
 50
4.775691779577
 51
115.020296717243
  0
ARC
  5
5C5
330
A
100
AcDbEntity
  8
LAYER_1
  6
DIVIDE
 62
     7
100
AcDbCircle
 10
2032.62875237041
 20
749.984306016882
 30
0.0
 40
3.0
100
AcDbArc
 50
102.5112830926599
 51
184.7756917796809
  0
ARC
  5
5C6
330
A
100
AcDbEntity
  8
LAYER_1
  6
DIVIDE
 62
     7
100
AcDbCircle
 10
2045.54043948538
 20
691.797677878284
 30
0.0
 40
62.601974449659
100
AcDbArc
 50
115.020296717243
 51
118.422808010874
  0
ARC
  5
5C7
330
A
100
AcDbEntity
  8
LAYER_1
  6
DIVIDE
 62
     7
100
AcDbCircle
 10
2045.54043948538
 20
691.797677878284
 30
0.0
 40
64.878501260042
100
AcDbArc
 50
67.36094361285999
 51
112.6390563871399
  0
ARC
  5
5C8
330
A
100
AcDbEntity
  8
LAYER_1
  6
DIVIDE
 62
     7
100
AcDbCircle
 10
1991.531632332416
 20
666.589661133444
 30
0.0
 40
3.0
100
AcDbArc
 50
94.77569177988899
 51
205.0202967173899
  0
ARC
  5
5C9
330
A
100
AcDbEntity
  8
LAYER_1
  6
DIVIDE
 62
     7
100
AcDbCircle
 10
1987.353811346786
 20
678.8859907633179
 30
0.0
 40
3.0
100
AcDbArc
 50
192.5112830925529
 51
274.7756917798899
  0
ARC
  5
5CA
330
A
100
AcDbEntity
  8
LAYER_1
  6
DIVIDE
 62
     7
100
AcDbCircle
 10
2045.54043948538
 20
691.797677878284
 30
0.0
 40
62.601974449659
100
AcDbArc
 50
205.0202967173899
 51
208.422808010997
  0
ARC
  5
5CB
330
A
100
AcDbEntity
  8
LAYER_1
  6
DIVIDE
 62
     7
100
AcDbCircle
 10
2045.54043948538
 20
691.797677878284
 30
0.0
 40
20.0
100
AcDbArc
 50
246.563118074227
 51
295.1899718626179
  0
ARC
  5
5CC
330
A
100
AcDbEntity
  8
LAYER_1
  6
DIVIDE
 62
     7
100
AcDbCircle
 10
2055.32972061276
 20
670.9849419935109
 30
0.0
 40
3.0
100
AcDbArc
 50
4.775691779577
 51
115.189971862618
  0
ARC
  5
5CD
330
A
100
AcDbEntity
  8
LAYER_1
  6
DIVIDE
 62
     7
100
AcDbCircle
 10
2024.727703600609
 20
682.0083967509069
 30
0.0
 40
3.0
100
AcDbArc
 50
274.7756917798899
 51
25.189971862731
  0
LINE
  5
5CE
330
A
100
AcDbEntity
  8
LAYER_1
  6
DIVIDE
 62
     7
100
AcDbLine
 10
1987.60357654259
 20
675.8964059515079
 30
0.0
 11
2024.977468796411
 21
679.018811939103
 31
0.0
  0
LINE
  5
5CF
330
A
100
AcDbEntity
  8
LAYER_1
  6
DIVIDE
 62
     7
100
AcDbLine
 10
1991.281867136608
 20
669.5792459452429
 30
0.0
 11
2037.585667943529
 21
673.4477021366879
 31
0.0
  0
ARC
  5
5D0
330
A
100
AcDbEntity
  8
LAYER_1
  6
DIVIDE
 62
     7
100
AcDbCircle
 10
2045.54043948538
 20
691.797677878284
 30
0.0
 40
62.601974449659
100
AcDbArc
 50
331.57719198924
 51
12.511283092553
  0
ARC
  5
5D1
330
A
100
AcDbEntity
  8
LAYER_1
  6
DIVIDE
 62
     7
100
AcDbCircle
 10
2045.54043948538
 20
691.797677878284
 30
0.0
 40
64.878501260042
100
AcDbArc
 50
337.360943612943
 51
22.639056387368
  0
ARC
  5
5D2
330
A
100
AcDbEntity
  8
LAYER_1
  6
DIVIDE
 62
     7
100
AcDbCircle
 10
2045.54043948538
 20
691.797677878284
 30
0.0
 40
52.5
100
AcDbArc
 50
114.390506037056
 51
196.895286602877
  0
ARC
  5
5D3
330
A
100
AcDbEntity
  8
LAYER_1
  6
DIVIDE
 62
     7
100
AcDbCircle
 10
2045.54043948538
 20
691.797677878284
 30
0.0
 40
55.0
100
AcDbArc
 50
113.46500215913
 51
196.3366059369399
  0
ARC
  5
5D4
330
A
100
AcDbEntity
  8
LAYER_1
  6
DIVIDE
 62
     7
100
AcDbCircle
 10
2045.54043948538
 20
691.797677878284
 30
0.0
 40
62.601974449659
100
AcDbArc
 50
151.57719198924
 51
192.5112830925529
  0
ARC
  5
5D5
330
A
100
AcDbEntity
  8
LAYER_1
  6
DIVIDE
 62
     7
100
AcDbCircle
 10
2045.54043948538
 20
691.797677878284
 30
0.0
 40
64.878501260042
100
AcDbArc
 50
157.360943612943
 51
202.639056387368
  0
ARC
  5
5D6
330
A
100
AcDbEntity
  8
LAYER_1
  6
DIVIDE
 62
     7
100
AcDbCircle
 10
2045.54043948538
 20
691.797677878284
 30
0.0
 40
20.0
100
AcDbArc
 50
158.502729674249
 51
205.189971862731
  0
CIRCLE
  5
5D7
330
A
100
AcDbEntity
  8
LAYER_1
  6
DIVIDE
 62
     7
100
AcDbCircle
 10
2045.54043948538
 20
691.797677878284
 30
0.0
 40
12.5
  0
CIRCLE
  5
5D8
330
A
100
AcDbEntity
  8
LAYER_1
  6
DIVIDE
 62
     7
100
AcDbCircle
 10
2045.54043948538
 20
691.797677878284
 30
0.0
 40
17.5
  0
ARC
  5
5D9
330
A
100
AcDbEntity
  8
LAYER_1
  6
DIVIDE
 62
     7
100
AcDbCircle
 10
2045.54043948538
 20
691.797677878284
 30
0.0
 40
20.0
100
AcDbArc
 50
336.563118074374
 51
25.189971862731
  0
LINE
  5
5DA
330
A
100
AcDbEntity
  8
LAYER_1
  6
DASHED
 62
     7
100
AcDbLine
 10
2167.590439485477
 20
379.5976778781839
 30
0.0
 11
2161.390439485479
 21
379.5976778781839
 31
0.0
  0
LINE
  5
5DB
330
A
100
AcDbEntity
  8
LAYER_1
  6
DASHED
 62
     7
100
AcDbLine
 10
2149.790439485474
 20
379.5976778781839
 30
0.0
 11
2143.590439485477
 21
379.5976778781839
 31
0.0
  0
LINE
  5
5DC
330
A
100
AcDbEntity
  8
LAYER_1
  6
Continuous
 62
     7
100
AcDbLine
 10
2138.290439485475
 20
383.0976778781839
 30
0.0
 11
2138.290439485475
 21
404.5976778781839
 31
0.0
  0
LINE
  5
5DD
330
A
100
AcDbEntity
  8
LAYER_1
  6
Continuous
 62
     7
100
AcDbLine
 10
2173.290439485479
 20
383.0976778781759
 30
0.0
 11
2173.290439485479
 21
404.5976778781839
 31
0.0
  0
LINE
  5
5DE
330
A
100
AcDbEntity
  8
LAYER_1
  6
Continuous
 62
     7
100
AcDbLine
 10
2178.040439485474
 20
379.5976778781759
 30
0.0
 11
2178.040439485474
 21
383.0976778781759
 31
0.0
  0
LINE
  5
5DF
330
A
100
AcDbEntity
  8
LAYER_1
  6
Continuous
 62
     7
100
AcDbLine
 10
2174.040439485474
 20
383.0976778781759
 30
0.0
 11
2178.040439485474
 21
383.0976778781759
 31
0.0
  0
LINE
  5
5E0
330
A
100
AcDbEntity
  8
LAYER_1
  6
Continuous
 62
     7
100
AcDbLine
 10
2174.040439485474
 20
383.0976778781759
 30
0.0
 11
2137.540439485468
 21
383.0976778781839
 31
0.0
  0
LINE
  5
5E1
330
A
100
AcDbEntity
  8
LAYER_1
  6
Continuous
 62
     7
100
AcDbLine
 10
2133.540439485468
 20
383.0976778781839
 30
0.0
 11
2137.540439485468
 21
383.0976778781839
 31
0.0
  0
LINE
  5
5E2
330
A
100
AcDbEntity
  8
LAYER_1
  6
Continuous
 62
     7
100
AcDbLine
 10
2133.540439485468
 20
379.5976778781839
 30
0.0
 11
2133.540439485468
 21
383.0976778781839
 31
0.0
  0
LINE
  5
5E3
330
A
100
AcDbEntity
  8
LAYER_1
  6
Continuous
 62
     7
100
AcDbLine
 10
2133.540439485468
 20
379.5976778781839
 30
0.0
 11
2178.040439485474
 21
379.5976778781839
 31
0.0
  0
LINE
  5
5E4
330
A
100
AcDbEntity
  8
LAYER_1
  6
Continuous
 62
     7
100
AcDbLine
 10
2138.290439485475
 20
404.5976778781839
 30
0.0
 11
2173.290439485479
 21
404.5976778781839
 31
0.0
  0
CIRCLE
  5
5E5
330
A
100
AcDbEntity
  8
LAYER_1
  6
Continuous
 62
     7
100
AcDbCircle
 10
2138.927498011706
 20
764.2976778781931
 30
0.0
 40
1.2295
  0
CIRCLE
  5
5E6
330
A
100
AcDbEntity
  8
LAYER_1
  6
Continuous
 62
     7
100
AcDbCircle
 10
2156.427498011692
 20
746.79767787819
 30
0.0
 40
18.0
  0
CIRCLE
  5
5E7
330
A
100
AcDbEntity
  8
LAYER_1
  6
Continuous
 62
     7
100
AcDbCircle
 10
2138.92749801172
 20
764.2976778781931
 30
0.0
 40
1.2295
  0
CIRCLE
  5
5E8
330
A
100
AcDbEntity
  8
LAYER_1
  6
Continuous
 62
     7
100
AcDbCircle
 10
2156.427498011706
 20
746.79767787819
 30
0.0
 40
18.0
  0
CIRCLE
  5
5E9
330
A
100
AcDbEntity
  8
LAYER_1
  6
Continuous
 62
     7
100
AcDbCircle
 10
2156.427498011706
 20
746.79767787819
 30
0.0
 40
18.00000000000499
  0
CIRCLE
  5
5EA
330
A
100
AcDbEntity
  8
LAYER_1
  6
Continuous
 62
     7
100
AcDbCircle
 10
2138.92749801172
 20
764.2976778781931
 30
0.0
 40
1.2295
  0
CIRCLE
  5
5EB
330
A
100
AcDbEntity
  8
LAYER_1
  6
Continuous
 62
     7
100
AcDbCircle
 10
2156.427498011713
 20
746.79767787819
 30
0.0
 40
21.500000000004
  0
CIRCLE
  5
5EC
330
A
100
AcDbEntity
  8
LAYER_1
  6
Continuous
 62
     7
100
AcDbCircle
 10
2156.427498011706
 20
746.79767787819
 30
0.0
 40
11.000000000002
  0
CIRCLE
  5
5ED
330
A
100
AcDbEntity
  8
LAYER_1
  6
Continuous
 62
     7
100
AcDbCircle
 10
2138.92749801172
 20
764.29767787819
 30
0.0
 40
2.0
  0
LINE
  5
5EE
330
A
100
AcDbEntity
  8
LAYER_1
  6
Continuous
 62
     7
100
AcDbLine
 10
2178.677498011724
 20
728.54767787819
 30
0.0
 11
2178.677498011727
 21
765.04767787819
 31
0.0
  0
ARC
  5
5EF
330
A
100
AcDbEntity
  8
LAYER_1
  6
Continuous
 62
     7
100
AcDbCircle
 10
2174.677498011728
 20
765.04767787819
 30
0.0
 40
4.000000000001
100
AcDbArc
 50
0.0
 51
90.0
  0
LINE
  5
5F0
330
A
100
AcDbEntity
  8
LAYER_1
  6
Continuous
 62
     7
100
AcDbLine
 10
2174.677498011728
 20
769.04767787819
 30
0.0
 11
2138.17749801172
 21
769.04767787819
 31
0.0
  0
ARC
  5
5F1
330
A
100
AcDbEntity
  8
LAYER_1
  6
Continuous
 62
     7
100
AcDbCircle
 10
2138.17749801172
 20
765.04767787819
 30
0.0
 40
4.000000000001
100
AcDbArc
 50
90.0
 51
180.0
  0
LINE
  5
5F2
330
A
100
AcDbEntity
  8
LAYER_1
  6
Continuous
 62
     7
100
AcDbLine
 10
2134.177498011722
 20
765.04767787819
 30
0.0
 11
2134.177498011722
 21
728.5476778781931
 31
0.0
  0
ARC
  5
5F3
330
A
100
AcDbEntity
  8
LAYER_1
  6
Continuous
 62
     7
100
AcDbCircle
 10
2138.17749801172
 20
728.5476778781919
 30
0.0
 40
4.000000000001
100
AcDbArc
 50
180.0
 51
270.0
  0
LINE
  5
5F4
330
A
100
AcDbEntity
  8
LAYER_1
  6
Continuous
 62
     7
100
AcDbLine
 10
2138.17749801172
 20
724.5476778781931
 30
0.0
 11
2174.677498011722
 21
724.54767787819
 31
0.0
  0
ARC
  5
5F5
330
A
100
AcDbEntity
  8
LAYER_1
  6
Continuous
 62
     7
100
AcDbCircle
 10
2174.677498011723
 20
728.54767787819
 30
0.0
 40
4.000000000001
100
AcDbArc
 50
270.0
 51
0.0
  0
LINE
  5
5F6
330
A
100
AcDbEntity
  8
LAYER_1
  6
Continuous
 62
     7
100
AcDbLine
 10
2551.540439485475
 20
177.5976778781829
 30
0.0
 11
2551.540439485475
 21
179.5976778781829
 31
0.0
  0
LINE
  5
5F7
330
A
100
AcDbEntity
  8
LAYER_1
  6
Continuous
 62
     7
100
AcDbLine
 10
2543.540439485475
 20
177.5976778781829
 30
0.0
 11
2551.540439485475
 21
177.5976778781829
 31
0.0
  0
ARC
  5
5F8
330
A
100
AcDbEntity
  8
LAYER_1
  6
Continuous
 62
     7
100
AcDbCircle
 10
2543.540439485475
 20
179.5976778781829
 30
0.0
 40
8.0
100
AcDbArc
 50
0.0
 51
90.0
  0
ARC
  5
5F9
330
A
100
AcDbEntity
  8
LAYER_1
  6
Continuous
 62
     7
100
AcDbCircle
 10
2363.540439485472
 20
239.597677878184
 30
0.0
 40
8.0
100
AcDbArc
 50
90.0
 51
180.0
  0
LINE
  5
5FA
330
A
100
AcDbEntity
  8
LAYER_1
  6
Continuous
 62
     7
100
AcDbLine
 10
2355.540439485472
 20
217.597677878184
 30
0.0
 11
2355.540439485472
 21
219.597677878184
 31
0.0
  0
LINE
  5
5FB
330
A
100
AcDbEntity
  8
LAYER_1
  6
Continuous
 62
     7
100
AcDbLine
 10
2363.540439485472
 20
217.597677878184
 30
0.0
 11
2355.540439485472
 21
217.597677878184
 31
0.0
  0
LINE
  5
5FC
330
A
100
AcDbEntity
  8
LAYER_1
  6
Continuous
 62
     7
100
AcDbLine
 10
2355.540439485472
 20
197.597677878184
 30
0.0
 11
2355.540439485472
 21
199.597677878184
 31
0.0
  0
LINE
  5
5FD
330
A
100
AcDbEntity
  8
LAYER_1
  6
Continuous
 62
     7
100
AcDbLine
 10
2363.540439485472
 20
197.597677878184
 30
0.0
 11
2355.540439485472
 21
197.597677878184
 31
0.0
  0
ARC
  5
5FE
330
A
100
AcDbEntity
  8
LAYER_1
  6
Continuous
 62
     7
100
AcDbCircle
 10
2363.540439485472
 20
199.597677878184
 30
0.0
 40
8.0
100
AcDbArc
 50
90.0
 51
180.0
  0
LINE
  5
5FF
330
A
100
AcDbEntity
  8
LAYER_1
  6
Continuous
 62
     7
100
AcDbLine
 10
2355.540439485472
 20
237.5976778781839
 30
0.0
 11
2355.540439485472
 21
239.597677878184
 31
0.0
  0
LINE
  5
600
330
A
100
AcDbEntity
  8
LAYER_1
  6
Continuous
 62
     7
100
AcDbLine
 10
2363.540439485472
 20
237.5976778781839
 30
0.0
 11
2355.540439485472
 21
237.5976778781839
 31
0.0
  0
ARC
  5
601
330
A
100
AcDbEntity
  8
LAYER_1
  6
Continuous
 62
     7
100
AcDbCircle
 10
2363.540439485472
 20
219.597677878184
 30
0.0
 40
8.0
100
AcDbArc
 50
90.0
 51
180.0
  0
LINE
  5
602
330
A
100
AcDbEntity
  8
LAYER_1
  6
Continuous
 62
     7
100
AcDbLine
 10
2363.540439485472
 20
277.597677878184
 30
0.0
 11
2355.540439485472
 21
277.597677878184
 31
0.0
  0
LINE
  5
603
330
A
100
AcDbEntity
  8
LAYER_1
  6
Continuous
 62
     7
100
AcDbLine
 10
2355.540439485472
 20
277.597677878184
 30
0.0
 11
2355.540439485472
 21
279.597677878184
 31
0.0
  0
LINE
  5
604
330
A
100
AcDbEntity
  8
LAYER_1
  6
Continuous
 62
     7
100
AcDbLine
 10
2363.540439485472
 20
257.597677878184
 30
0.0
 11
2355.540439485472
 21
257.597677878184
 31
0.0
  0
LINE
  5
605
330
A
100
AcDbEntity
  8
LAYER_1
  6
Continuous
 62
     7
100
AcDbLine
 10
2355.540439485472
 20
257.597677878184
 30
0.0
 11
2355.540439485472
 21
259.597677878184
 31
0.0
  0
ARC
  5
606
330
A
100
AcDbEntity
  8
LAYER_1
  6
Continuous
 62
     7
100
AcDbCircle
 10
2363.540439485472
 20
259.597677878184
 30
0.0
 40
8.0
100
AcDbArc
 50
90.0
 51
180.0
  0
ARC
  5
607
330
A
100
AcDbEntity
  8
LAYER_1
  6
Continuous
 62
     7
100
AcDbCircle
 10
2363.540439485472
 20
279.597677878184
 30
0.0
 40
8.0
100
AcDbArc
 50
90.0
 51
180.0
  0
LINE
  5
608
330
A
100
AcDbEntity
  8
LAYER_1
  6
Continuous
 62
     7
100
AcDbLine
 10
2355.540439485475
 20
177.5976778781829
 30
0.0
 11
2355.540439485475
 21
179.5976778781829
 31
0.0
  0
LINE
  5
609
330
A
100
AcDbEntity
  8
LAYER_1
  6
Continuous
 62
     7
100
AcDbLine
 10
2363.540439485475
 20
177.5976778781829
 30
0.0
 11
2355.540439485475
 21
177.5976778781829
 31
0.0
  0
ARC
  5
60A
330
A
100
AcDbEntity
  8
LAYER_1
  6
Continuous
 62
     7
100
AcDbCircle
 10
2363.540439485475
 20
179.5976778781829
 30
0.0
 40
8.0
100
AcDbArc
 50
90.0
 51
180.0
  0
LINE
  5
60B
330
A
100
AcDbEntity
  8
LAYER_1
  6
Continuous
 62
     7
100
AcDbLine
 10
2361.540439485479
 20
359.5976778781839
 30
0.0
 11
2545.540439485479
 21
359.5976778781839
 31
0.0
  0
CIRCLE
  5
60C
330
A
100
AcDbEntity
  8
LAYER_1
  6
Continuous
 62
     7
100
AcDbCircle
 10
1988.264790209404
 20
749.0733271545239
 30
0.0
 40
5.0
  0
CIRCLE
  5
60D
330
A
100
AcDbEntity
  8
LAYER_1
  6
Continuous
 62
     7
100
AcDbCircle
 10
2102.816088761645
 20
749.073327154299
 30
0.0
 40
4.0
  0
CIRCLE
  5
60E
330
A
100
AcDbEntity
  8
LAYER_1
  6
Continuous
 62
     7
100
AcDbCircle
 10
1988.264790209369
 20
634.522028602076
 30
0.0
 40
4.0
  0
CIRCLE
  5
60F
330
A
100
AcDbEntity
  8
LAYER_1
  6
Continuous
 62
     7
100
AcDbCircle
 10
2102.81608876162
 20
634.5220286023069
 30
0.0
 40
5.0
  0
ARC
  5
610
330
A
100
AcDbEntity
  8
LAYER_1
  6
Continuous
 62
     7
100
AcDbCircle
 10
1988.264790209369
 20
379.631011211519
 30
0.0
 40
4.166666666665999
100
AcDbArc
 50
16.260204708324
 51
61.642363423644
  0
ARC
  5
611
330
A
100
AcDbEntity
  8
LAYER_1
  6
Continuous
 62
     7
100
AcDbCircle
 10
1988.264790209369
 20
379.631011211519
 30
0.0
 40
4.166666666665999
100
AcDbArc
 50
118.3576365764719
 51
163.739795291676
  0
LINE
  5
612
330
A
100
AcDbEntity
  8
LAYER_1
  6
Continuous
 62
     7
100
AcDbLine
 10
1987.464790209368
 20
383.297677878183
 30
0.0
 11
1987.464790209368
 21
382.2518799385399
 31
0.0
  0
LINE
  5
613
330
A
100
AcDbEntity
  8
LAYER_1
  6
Continuous
 62
     7
100
AcDbLine
 10
1989.064790209364
 20
383.2976778781839
 30
0.0
 11
1989.064790209367
 21
382.2518799385399
 31
0.0
  0
LINE
  5
614
330
A
100
AcDbEntity
  8
LAYER_1
  6
Continuous
 62
     7
100
AcDbLine
 10
2102.01608876162
 20
382.25187993877
 30
0.0
 11
2103.616088761619
 21
382.25187993877
 31
0.0
  0
LINE
  5
615
330
A
100
AcDbEntity
  8
LAYER_1
  6
Continuous
 62
     7
100
AcDbLine
 10
2100.837031747112
 20
383.297677878415
 30
0.0
 11
2102.01608876162
 21
383.297677878415
 31
0.0
  0
LINE
  5
616
330
A
100
AcDbEntity
  8
LAYER_1
  6
Continuous
 62
     7
100
AcDbLine
 10
2103.616088761615
 20
383.297677878415
 30
0.0
 11
2104.79514577613
 21
383.297677878415
 31
0.0
  0
ARC
  5
617
330
A
100
AcDbEntity
  8
LAYER_1
  6
Continuous
 62
     7
100
AcDbCircle
 10
2102.81608876162
 20
379.63101121175
 30
0.0
 40
4.166666666665999
100
AcDbArc
 50
16.260204708324
 51
61.642363423644
  0
ARC
  5
618
330
A
100
AcDbEntity
  8
LAYER_1
  6
Continuous
 62
     7
100
AcDbCircle
 10
2102.81608876162
 20
379.63101121175
 30
0.0
 40
4.166666666665999
100
AcDbArc
 50
118.3576365764719
 51
163.739795291676
  0
LINE
  5
619
330
A
100
AcDbEntity
  8
LAYER_1
  6
Continuous
 62
     7
100
AcDbLine
 10
2102.01608876162
 20
383.2976778784139
 30
0.0
 11
2102.01608876162
 21
382.2518799387709
 31
0.0
  0
LINE
  5
61A
330
A
100
AcDbEntity
  8
LAYER_1
  6
Continuous
 62
     7
100
AcDbLine
 10
2103.616088761616
 20
383.297677878415
 30
0.0
 11
2103.616088761619
 21
382.2518799387709
 31
0.0
  0
INSERT
  5
61B
330
A
100
AcDbEntity
  8
0
  6
Continuous
 62
    96
100
AcDbBlockReference
  2
BO1_$2$
 10
0.0
 20
0.0
 30
0.0
  0
INSERT
  5
61C
330
A
100
AcDbEntity
  8
0
  6
Continuous
 62
    96
100
AcDbBlockReference
  2
BO1_$3$
 10
0.0
 20
0.0
 30
0.0
  0
LINE
  5
61D
330
A
100
AcDbEntity
  8
LAYER_1
  6
Continuous
 62
     7
100
AcDbLine
 10
2015.540439485474
 20
177.5976778781829
 30
0.0
 11
2075.540439485475
 21
177.5976778781829
 31
0.0
  0
ARC
  5
61E
330
A
100
AcDbEntity
  8
LAYER_1
  6
Continuous
 62
     7
100
AcDbCircle
 10
2067.540439485474
 20
179.5976778781829
 30
0.0
 40
8.0
100
AcDbArc
 50
0.0
 51
90.0
  0
LINE
  5
61F
330
A
100
AcDbEntity
  8
LAYER_1
  6
Continuous
 62
     7
100
AcDbLine
 10
2067.540439485474
 20
187.5976778781829
 30
0.0
 11
2023.540439485475
 21
187.5976778781829
 31
0.0
  0
LINE
  5
620
330
A
100
AcDbEntity
  8
LAYER_1
  6
Continuous
 62
     7
100
AcDbLine
 10
2015.540439485474
 20
179.5976778781829
 30
0.0
 11
2015.540439485474
 21
177.5976778781829
 31
0.0
  0
ARC
  5
621
330
A
100
AcDbEntity
  8
LAYER_1
  6
Continuous
 62
     7
100
AcDbCircle
 10
2023.540439485475
 20
179.5976778781829
 30
0.0
 40
8.0
100
AcDbArc
 50
90.0
 51
180.0
  0
LINE
  5
622
330
A
100
AcDbEntity
  8
LAYER_1
  6
Continuous
 62
     7
100
AcDbLine
 10
2075.540439485475
 20
177.5976778781829
 30
0.0
 11
2075.540439485475
 21
179.5976778781829
 31
0.0
  0
LINE
  5
623
330
A
100
AcDbEntity
  8
LAYER_1
  6
Continuous
 62
     7
100
AcDbLine
 10
1935.540439485475
 20
177.5976778781829
 30
0.0
 11
1995.540439485474
 21
177.5976778781829
 31
0.0
  0
ARC
  5
624
330
A
100
AcDbEntity
  8
LAYER_1
  6
Continuous
 62
     7
100
AcDbCircle
 10
1987.540439485475
 20
179.5976778781829
 30
0.0
 40
8.0
100
AcDbArc
 50
0.0
 51
90.0
  0
LINE
  5
625
330
A
100
AcDbEntity
  8
LAYER_1
  6
Continuous
 62
     7
100
AcDbLine
 10
1987.540439485475
 20
187.5976778781829
 30
0.0
 11
1943.540439485475
 21
187.5976778781829
 31
0.0
  0
LINE
  5
626
330
A
100
AcDbEntity
  8
LAYER_1
  6
Continuous
 62
     7
100
AcDbLine
 10
1935.540439485475
 20
179.5976778781829
 30
0.0
 11
1935.540439485475
 21
177.5976778781829
 31
0.0
  0
ARC
  5
627
330
A
100
AcDbEntity
  8
LAYER_1
  6
Continuous
 62
     7
100
AcDbCircle
 10
1943.540439485475
 20
179.5976778781829
 30
0.0
 40
8.0
100
AcDbArc
 50
90.0
 51
180.0
  0
LINE
  5
628
330
A
100
AcDbEntity
  8
LAYER_1
  6
Continuous
 62
     7
100
AcDbLine
 10
1995.540439485474
 20
177.5976778781829
 30
0.0
 11
1995.540439485474
 21
179.5976778781829
 31
0.0
  0
LINE
  5
629
330
A
100
AcDbEntity
  8
LAYER_1
  6
Continuous
 62
     7
100
AcDbLine
 10
2095.540439485474
 20
177.5976778781829
 30
0.0
 11
2155.540439485475
 21
177.5976778781829
 31
0.0
  0
ARC
  5
62A
330
A
100
AcDbEntity
  8
LAYER_1
  6
Continuous
 62
     7
100
AcDbCircle
 10
2147.540439485474
 20
179.5976778781829
 30
0.0
 40
8.0
100
AcDbArc
 50
0.0
 51
90.0
  0
LINE
  5
62B
330
A
100
AcDbEntity
  8
LAYER_1
  6
Continuous
 62
     7
100
AcDbLine
 10
2147.540439485474
 20
187.5976778781829
 30
0.0
 11
2103.540439485475
 21
187.5976778781829
 31
0.0
  0
LINE
  5
62C
330
A
100
AcDbEntity
  8
LAYER_1
  6
Continuous
 62
     7
100
AcDbLine
 10
2095.540439485474
 20
179.5976778781829
 30
0.0
 11
2095.540439485474
 21
177.5976778781829
 31
0.0
  0
ARC
  5
62D
330
A
100
AcDbEntity
  8
LAYER_1
  6
Continuous
 62
     7
100
AcDbCircle
 10
2103.540439485475
 20
179.5976778781829
 30
0.0
 40
8.0
100
AcDbArc
 50
90.0
 51
180.0
  0
LINE
  5
62E
330
A
100
AcDbEntity
  8
LAYER_1
  6
Continuous
 62
     7
100
AcDbLine
 10
2155.540439485475
 20
177.5976778781829
 30
0.0
 11
2155.540439485475
 21
179.5976778781829
 31
0.0
  0
LINE
  5
62F
330
A
100
AcDbEntity
  8
LAYER_1
  6
Continuous
 62
     7
100
AcDbLine
 10
2015.540439485474
 20
197.597677878184
 30
0.0
 11
2075.540439485475
 21
197.597677878184
 31
0.0
  0
ARC
  5
630
330
A
100
AcDbEntity
  8
LAYER_1
  6
Continuous
 62
     7
100
AcDbCircle
 10
2067.540439485474
 20
199.597677878184
 30
0.0
 40
8.0
100
AcDbArc
 50
0.0
 51
90.0
  0
LINE
  5
631
330
A
100
AcDbEntity
  8
LAYER_1
  6
Continuous
 62
     7
100
AcDbLine
 10
2067.540439485474
 20
207.597677878184
 30
0.0
 11
2023.540439485475
 21
207.597677878184
 31
0.0
  0
LINE
  5
632
330
A
100
AcDbEntity
  8
LAYER_1
  6
Continuous
 62
     7
100
AcDbLine
 10
2015.540439485474
 20
199.597677878184
 30
0.0
 11
2015.540439485474
 21
197.597677878184
 31
0.0
  0
ARC
  5
633
330
A
100
AcDbEntity
  8
LAYER_1
  6
Continuous
 62
     7
100
AcDbCircle
 10
2023.540439485475
 20
199.597677878184
 30
0.0
 40
8.0
100
AcDbArc
 50
90.0
 51
180.0
  0
LINE
  5
634
330
A
100
AcDbEntity
  8
LAYER_1
  6
Continuous
 62
     7
100
AcDbLine
 10
2075.540439485475
 20
197.597677878184
 30
0.0
 11
2075.540439485475
 21
199.597677878184
 31
0.0
  0
LINE
  5
635
330
A
100
AcDbEntity
  8
LAYER_1
  6
Continuous
 62
     7
100
AcDbLine
 10
1935.540439485475
 20
197.597677878184
 30
0.0
 11
1995.540439485474
 21
197.597677878184
 31
0.0
  0
ARC
  5
636
330
A
100
AcDbEntity
  8
LAYER_1
  6
Continuous
 62
     7
100
AcDbCircle
 10
1987.540439485475
 20
199.597677878184
 30
0.0
 40
8.0
100
AcDbArc
 50
0.0
 51
90.0
  0
LINE
  5
637
330
A
100
AcDbEntity
  8
LAYER_1
  6
Continuous
 62
     7
100
AcDbLine
 10
1987.540439485475
 20
207.597677878184
 30
0.0
 11
1943.540439485475
 21
207.597677878184
 31
0.0
  0
LINE
  5
638
330
A
100
AcDbEntity
  8
LAYER_1
  6
Continuous
 62
     7
100
AcDbLine
 10
1935.540439485475
 20
199.597677878184
 30
0.0
 11
1935.540439485475
 21
197.597677878184
 31
0.0
  0
ARC
  5
639
330
A
100
AcDbEntity
  8
LAYER_1
  6
Continuous
 62
     7
100
AcDbCircle
 10
1943.540439485475
 20
199.597677878184
 30
0.0
 40
8.0
100
AcDbArc
 50
90.0
 51
180.0
  0
LINE
  5
63A
330
A
100
AcDbEntity
  8
LAYER_1
  6
Continuous
 62
     7
100
AcDbLine
 10
1995.540439485474
 20
197.597677878184
 30
0.0
 11
1995.540439485474
 21
199.597677878184
 31
0.0
  0
LINE
  5
63B
330
A
100
AcDbEntity
  8
LAYER_1
  6
Continuous
 62
     7
100
AcDbLine
 10
2095.540439485474
 20
197.597677878184
 30
0.0
 11
2155.540439485475
 21
197.597677878184
 31
0.0
  0
ARC
  5
63C
330
A
100
AcDbEntity
  8
LAYER_1
  6
Continuous
 62
     7
100
AcDbCircle
 10
2147.540439485474
 20
199.597677878184
 30
0.0
 40
8.0
100
AcDbArc
 50
0.0
 51
90.0
  0
LINE
  5
63D
330
A
100
AcDbEntity
  8
LAYER_1
  6
Continuous
 62
     7
100
AcDbLine
 10
2147.540439485474
 20
207.597677878184
 30
0.0
 11
2103.540439485475
 21
207.597677878184
 31
0.0
  0
LINE
  5
63E
330
A
100
AcDbEntity
  8
LAYER_1
  6
Continuous
 62
     7
100
AcDbLine
 10
2095.540439485474
 20
199.597677878184
 30
0.0
 11
2095.540439485474
 21
197.597677878184
 31
0.0
  0
ARC
  5
63F
330
A
100
AcDbEntity
  8
LAYER_1
  6
Continuous
 62
     7
100
AcDbCircle
 10
2103.540439485475
 20
199.597677878184
 30
0.0
 40
8.0
100
AcDbArc
 50
90.0
 51
180.0
  0
LINE
  5
640
330
A
100
AcDbEntity
  8
LAYER_1
  6
Continuous
 62
     7
100
AcDbLine
 10
2155.540439485475
 20
197.597677878184
 30
0.0
 11
2155.540439485475
 21
199.597677878184
 31
0.0
  0
LINE
  5
641
330
A
100
AcDbEntity
  8
LAYER_1
  6
Continuous
 62
     7
100
AcDbLine
 10
2015.540439485474
 20
217.597677878184
 30
0.0
 11
2075.540439485475
 21
217.597677878184
 31
0.0
  0
ARC
  5
642
330
A
100
AcDbEntity
  8
LAYER_1
  6
Continuous
 62
     7
100
AcDbCircle
 10
2067.540439485474
 20
219.597677878184
 30
0.0
 40
8.0
100
AcDbArc
 50
0.0
 51
90.0
  0
LINE
  5
643
330
A
100
AcDbEntity
  8
LAYER_1
  6
Continuous
 62
     7
100
AcDbLine
 10
2067.540439485474
 20
227.597677878184
 30
0.0
 11
2023.540439485475
 21
227.597677878184
 31
0.0
  0
LINE
  5
644
330
A
100
AcDbEntity
  8
LAYER_1
  6
Continuous
 62
     7
100
AcDbLine
 10
2015.540439485474
 20
219.597677878184
 30
0.0
 11
2015.540439485474
 21
217.597677878184
 31
0.0
  0
ARC
  5
645
330
A
100
AcDbEntity
  8
LAYER_1
  6
Continuous
 62
     7
100
AcDbCircle
 10
2023.540439485475
 20
219.597677878184
 30
0.0
 40
8.0
100
AcDbArc
 50
90.0
 51
180.0
  0
LINE
  5
646
330
A
100
AcDbEntity
  8
LAYER_1
  6
Continuous
 62
     7
100
AcDbLine
 10
2075.540439485475
 20
217.597677878184
 30
0.0
 11
2075.540439485475
 21
219.597677878184
 31
0.0
  0
LINE
  5
647
330
A
100
AcDbEntity
  8
LAYER_1
  6
Continuous
 62
     7
100
AcDbLine
 10
1935.540439485475
 20
217.597677878184
 30
0.0
 11
1995.540439485474
 21
217.597677878184
 31
0.0
  0
ARC
  5
648
330
A
100
AcDbEntity
  8
LAYER_1
  6
Continuous
 62
     7
100
AcDbCircle
 10
1987.540439485475
 20
219.597677878184
 30
0.0
 40
8.0
100
AcDbArc
 50
0.0
 51
90.0
  0
LINE
  5
649
330
A
100
AcDbEntity
  8
LAYER_1
  6
Continuous
 62
     7
100
AcDbLine
 10
1987.540439485475
 20
227.597677878184
 30
0.0
 11
1943.540439485475
 21
227.597677878184
 31
0.0
  0
LINE
  5
64A
330
A
100
AcDbEntity
  8
LAYER_1
  6
Continuous
 62
     7
100
AcDbLine
 10
1935.540439485475
 20
219.597677878184
 30
0.0
 11
1935.540439485475
 21
217.597677878184
 31
0.0
  0
ARC
  5
64B
330
A
100
AcDbEntity
  8
LAYER_1
  6
Continuous
 62
     7
100
AcDbCircle
 10
1943.540439485475
 20
219.597677878184
 30
0.0
 40
8.0
100
AcDbArc
 50
90.0
 51
180.0
  0
LINE
  5
64C
330
A
100
AcDbEntity
  8
LAYER_1
  6
Continuous
 62
     7
100
AcDbLine
 10
1995.540439485474
 20
217.597677878184
 30
0.0
 11
1995.540439485474
 21
219.597677878184
 31
0.0
  0
LINE
  5
64D
330
A
100
AcDbEntity
  8
LAYER_1
  6
Continuous
 62
     7
100
AcDbLine
 10
2095.540439485474
 20
217.597677878184
 30
0.0
 11
2155.540439485475
 21
217.597677878184
 31
0.0
  0
ARC
  5
64E
330
A
100
AcDbEntity
  8
LAYER_1
  6
Continuous
 62
     7
100
AcDbCircle
 10
2147.540439485474
 20
219.597677878184
 30
0.0
 40
8.0
100
AcDbArc
 50
0.0
 51
90.0
  0
LINE
  5
64F
330
A
100
AcDbEntity
  8
LAYER_1
  6
Continuous
 62
     7
100
AcDbLine
 10
2147.540439485474
 20
227.597677878184
 30
0.0
 11
2103.540439485475
 21
227.597677878184
 31
0.0
  0
LINE
  5
650
330
A
100
AcDbEntity
  8
LAYER_1
  6
Continuous
 62
     7
100
AcDbLine
 10
2095.540439485474
 20
219.597677878184
 30
0.0
 11
2095.540439485474
 21
217.597677878184
 31
0.0
  0
ARC
  5
651
330
A
100
AcDbEntity
  8
LAYER_1
  6
Continuous
 62
     7
100
AcDbCircle
 10
2103.540439485475
 20
219.597677878184
 30
0.0
 40
8.0
100
AcDbArc
 50
90.0
 51
180.0
  0
LINE
  5
652
330
A
100
AcDbEntity
  8
LAYER_1
  6
Continuous
 62
     7
100
AcDbLine
 10
2155.540439485475
 20
217.597677878184
 30
0.0
 11
2155.540439485475
 21
219.597677878184
 31
0.0
  0
LINE
  5
653
330
A
100
AcDbEntity
  8
LAYER_1
  6
Continuous
 62
     7
100
AcDbLine
 10
2015.540439485474
 20
237.5976778781839
 30
0.0
 11
2075.540439485475
 21
237.5976778781839
 31
0.0
  0
ARC
  5
654
330
A
100
AcDbEntity
  8
LAYER_1
  6
Continuous
 62
     7
100
AcDbCircle
 10
2067.540439485474
 20
239.597677878184
 30
0.0
 40
8.0
100
AcDbArc
 50
0.0
 51
90.0
  0
LINE
  5
655
330
A
100
AcDbEntity
  8
LAYER_1
  6
Continuous
 62
     7
100
AcDbLine
 10
2067.540439485474
 20
247.597677878184
 30
0.0
 11
2023.540439485475
 21
247.597677878184
 31
0.0
  0
LINE
  5
656
330
A
100
AcDbEntity
  8
LAYER_1
  6
Continuous
 62
     7
100
AcDbLine
 10
2015.540439485474
 20
239.597677878184
 30
0.0
 11
2015.540439485474
 21
237.5976778781839
 31
0.0
  0
ARC
  5
657
330
A
100
AcDbEntity
  8
LAYER_1
  6
Continuous
 62
     7
100
AcDbCircle
 10
2023.540439485475
 20
239.597677878184
 30
0.0
 40
8.0
100
AcDbArc
 50
90.0
 51
180.0
  0
LINE
  5
658
330
A
100
AcDbEntity
  8
LAYER_1
  6
Continuous
 62
     7
100
AcDbLine
 10
2075.540439485475
 20
237.5976778781839
 30
0.0
 11
2075.540439485475
 21
239.597677878184
 31
0.0
  0
LINE
  5
659
330
A
100
AcDbEntity
  8
LAYER_1
  6
Continuous
 62
     7
100
AcDbLine
 10
1935.540439485475
 20
237.5976778781839
 30
0.0
 11
1995.540439485474
 21
237.5976778781839
 31
0.0
  0
ARC
  5
65A
330
A
100
AcDbEntity
  8
LAYER_1
  6
Continuous
 62
     7
100
AcDbCircle
 10
1987.540439485475
 20
239.597677878184
 30
0.0
 40
8.0
100
AcDbArc
 50
0.0
 51
90.0
  0
LINE
  5
65B
330
A
100
AcDbEntity
  8
LAYER_1
  6
Continuous
 62
     7
100
AcDbLine
 10
1987.540439485475
 20
247.597677878184
 30
0.0
 11
1943.540439485475
 21
247.597677878184
 31
0.0
  0
LINE
  5
65C
330
A
100
AcDbEntity
  8
LAYER_1
  6
Continuous
 62
     7
100
AcDbLine
 10
1935.540439485475
 20
239.597677878184
 30
0.0
 11
1935.540439485475
 21
237.5976778781839
 31
0.0
  0
ARC
  5
65D
330
A
100
AcDbEntity
  8
LAYER_1
  6
Continuous
 62
     7
100
AcDbCircle
 10
1943.540439485475
 20
239.597677878184
 30
0.0
 40
8.0
100
AcDbArc
 50
90.0
 51
180.0
  0
LINE
  5
65E
330
A
100
AcDbEntity
  8
LAYER_1
  6
Continuous
 62
     7
100
AcDbLine
 10
1995.540439485474
 20
237.5976778781839
 30
0.0
 11
1995.540439485474
 21
239.597677878184
 31
0.0
  0
LINE
  5
65F
330
A
100
AcDbEntity
  8
LAYER_1
  6
Continuous
 62
     7
100
AcDbLine
 10
2095.540439485474
 20
237.5976778781839
 30
0.0
 11
2155.540439485475
 21
237.5976778781839
 31
0.0
  0
ARC
  5
660
330
A
100
AcDbEntity
  8
LAYER_1
  6
Continuous
 62
     7
100
AcDbCircle
 10
2147.540439485474
 20
239.597677878184
 30
0.0
 40
8.0
100
AcDbArc
 50
0.0
 51
90.0
  0
LINE
  5
661
330
A
100
AcDbEntity
  8
LAYER_1
  6
Continuous
 62
     7
100
AcDbLine
 10
2147.540439485474
 20
247.597677878184
 30
0.0
 11
2103.540439485475
 21
247.597677878184
 31
0.0
  0
LINE
  5
662
330
A
100
AcDbEntity
  8
LAYER_1
  6
Continuous
 62
     7
100
AcDbLine
 10
2095.540439485474
 20
239.597677878184
 30
0.0
 11
2095.540439485474
 21
237.5976778781839
 31
0.0
  0
ARC
  5
663
330
A
100
AcDbEntity
  8
LAYER_1
  6
Continuous
 62
     7
100
AcDbCircle
 10
2103.540439485475
 20
239.597677878184
 30
0.0
 40
8.0
100
AcDbArc
 50
90.0
 51
180.0
  0
LINE
  5
664
330
A
100
AcDbEntity
  8
LAYER_1
  6
Continuous
 62
     7
100
AcDbLine
 10
2155.540439485475
 20
237.5976778781839
 30
0.0
 11
2155.540439485475
 21
239.597677878184
 31
0.0
  0
LINE
  5
665
330
A
100
AcDbEntity
  8
LAYER_1
  6
Continuous
 62
     7
100
AcDbLine
 10
2015.540439485474
 20
257.597677878184
 30
0.0
 11
2075.540439485475
 21
257.597677878184
 31
0.0
  0
ARC
  5
666
330
A
100
AcDbEntity
  8
LAYER_1
  6
Continuous
 62
     7
100
AcDbCircle
 10
2067.540439485474
 20
259.597677878184
 30
0.0
 40
8.0
100
AcDbArc
 50
0.0
 51
90.0
  0
LINE
  5
667
330
A
100
AcDbEntity
  8
LAYER_1
  6
Continuous
 62
     7
100
AcDbLine
 10
2067.540439485474
 20
267.597677878184
 30
0.0
 11
2023.540439485475
 21
267.597677878184
 31
0.0
  0
LINE
  5
668
330
A
100
AcDbEntity
  8
LAYER_1
  6
Continuous
 62
     7
100
AcDbLine
 10
2015.540439485474
 20
259.597677878184
 30
0.0
 11
2015.540439485474
 21
257.597677878184
 31
0.0
  0
ARC
  5
669
330
A
100
AcDbEntity
  8
LAYER_1
  6
Continuous
 62
     7
100
AcDbCircle
 10
2023.540439485475
 20
259.597677878184
 30
0.0
 40
8.0
100
AcDbArc
 50
90.0
 51
180.0
  0
LINE
  5
66A
330
A
100
AcDbEntity
  8
LAYER_1
  6
Continuous
 62
     7
100
AcDbLine
 10
2075.540439485475
 20
257.597677878184
 30
0.0
 11
2075.540439485475
 21
259.597677878184
 31
0.0
  0
LINE
  5
66B
330
A
100
AcDbEntity
  8
LAYER_1
  6
Continuous
 62
     7
100
AcDbLine
 10
1935.540439485475
 20
257.597677878184
 30
0.0
 11
1995.540439485474
 21
257.597677878184
 31
0.0
  0
ARC
  5
66C
330
A
100
AcDbEntity
  8
LAYER_1
  6
Continuous
 62
     7
100
AcDbCircle
 10
1987.540439485475
 20
259.597677878184
 30
0.0
 40
8.0
100
AcDbArc
 50
0.0
 51
90.0
  0
LINE
  5
66D
330
A
100
AcDbEntity
  8
LAYER_1
  6
Continuous
 62
     7
100
AcDbLine
 10
1987.540439485475
 20
267.597677878184
 30
0.0
 11
1943.540439485475
 21
267.597677878184
 31
0.0
  0
LINE
  5
66E
330
A
100
AcDbEntity
  8
LAYER_1
  6
Continuous
 62
     7
100
AcDbLine
 10
1935.540439485475
 20
259.597677878184
 30
0.0
 11
1935.540439485475
 21
257.597677878184
 31
0.0
  0
ARC
  5
66F
330
A
100
AcDbEntity
  8
LAYER_1
  6
Continuous
 62
     7
100
AcDbCircle
 10
1943.540439485475
 20
259.597677878184
 30
0.0
 40
8.0
100
AcDbArc
 50
90.0
 51
180.0
  0
LINE
  5
670
330
A
100
AcDbEntity
  8
LAYER_1
  6
Continuous
 62
     7
100
AcDbLine
 10
1995.540439485474
 20
257.597677878184
 30
0.0
 11
1995.540439485474
 21
259.597677878184
 31
0.0
  0
LINE
  5
671
330
A
100
AcDbEntity
  8
LAYER_1
  6
Continuous
 62
     7
100
AcDbLine
 10
2095.540439485474
 20
257.597677878184
 30
0.0
 11
2155.540439485475
 21
257.597677878184
 31
0.0
  0
ARC
  5
672
330
A
100
AcDbEntity
  8
LAYER_1
  6
Continuous
 62
     7
100
AcDbCircle
 10
2147.540439485474
 20
259.597677878184
 30
0.0
 40
8.0
100
AcDbArc
 50
0.0
 51
90.0
  0
LINE
  5
673
330
A
100
AcDbEntity
  8
LAYER_1
  6
Continuous
 62
     7
100
AcDbLine
 10
2147.540439485474
 20
267.597677878184
 30
0.0
 11
2103.540439485475
 21
267.597677878184
 31
0.0
  0
LINE
  5
674
330
A
100
AcDbEntity
  8
LAYER_1
  6
Continuous
 62
     7
100
AcDbLine
 10
2095.540439485474
 20
259.597677878184
 30
0.0
 11
2095.540439485474
 21
257.597677878184
 31
0.0
  0
ARC
  5
675
330
A
100
AcDbEntity
  8
LAYER_1
  6
Continuous
 62
     7
100
AcDbCircle
 10
2103.540439485475
 20
259.597677878184
 30
0.0
 40
8.0
100
AcDbArc
 50
90.0
 51
180.0
  0
LINE
  5
676
330
A
100
AcDbEntity
  8
LAYER_1
  6
Continuous
 62
     7
100
AcDbLine
 10
2155.540439485475
 20
257.597677878184
 30
0.0
 11
2155.540439485475
 21
259.597677878184
 31
0.0
  0
LINE
  5
677
330
A
100
AcDbEntity
  8
LAYER_1
  6
Continuous
 62
     7
100
AcDbLine
 10
2015.540439485474
 20
277.597677878184
 30
0.0
 11
2075.540439485475
 21
277.597677878184
 31
0.0
  0
ARC
  5
678
330
A
100
AcDbEntity
  8
LAYER_1
  6
Continuous
 62
     7
100
AcDbCircle
 10
2067.540439485474
 20
279.597677878184
 30
0.0
 40
8.0
100
AcDbArc
 50
0.0
 51
90.0
  0
LINE
  5
679
330
A
100
AcDbEntity
  8
LAYER_1
  6
Continuous
 62
     7
100
AcDbLine
 10
2067.540439485474
 20
287.597677878184
 30
0.0
 11
2023.540439485475
 21
287.597677878184
 31
0.0
  0
LINE
  5
67A
330
A
100
AcDbEntity
  8
LAYER_1
  6
Continuous
 62
     7
100
AcDbLine
 10
2015.540439485474
 20
279.597677878184
 30
0.0
 11
2015.540439485474
 21
277.597677878184
 31
0.0
  0
ARC
  5
67B
330
A
100
AcDbEntity
  8
LAYER_1
  6
Continuous
 62
     7
100
AcDbCircle
 10
2023.540439485475
 20
279.597677878184
 30
0.0
 40
8.0
100
AcDbArc
 50
90.0
 51
180.0
  0
LINE
  5
67C
330
A
100
AcDbEntity
  8
LAYER_1
  6
Continuous
 62
     7
100
AcDbLine
 10
2075.540439485475
 20
277.597677878184
 30
0.0
 11
2075.540439485475
 21
279.597677878184
 31
0.0
  0
LINE
  5
67D
330
A
100
AcDbEntity
  8
LAYER_1
  6
Continuous
 62
     7
100
AcDbLine
 10
1935.540439485475
 20
277.597677878184
 30
0.0
 11
1995.540439485474
 21
277.597677878184
 31
0.0
  0
ARC
  5
67E
330
A
100
AcDbEntity
  8
LAYER_1
  6
Continuous
 62
     7
100
AcDbCircle
 10
1987.540439485475
 20
279.597677878184
 30
0.0
 40
8.0
100
AcDbArc
 50
0.0
 51
90.0
  0
LINE
  5
67F
330
A
100
AcDbEntity
  8
LAYER_1
  6
Continuous
 62
     7
100
AcDbLine
 10
1987.540439485475
 20
287.597677878184
 30
0.0
 11
1943.540439485475
 21
287.597677878184
 31
0.0
  0
LINE
  5
680
330
A
100
AcDbEntity
  8
LAYER_1
  6
Continuous
 62
     7
100
AcDbLine
 10
1935.540439485475
 20
279.597677878184
 30
0.0
 11
1935.540439485475
 21
277.597677878184
 31
0.0
  0
ARC
  5
681
330
A
100
AcDbEntity
  8
LAYER_1
  6
Continuous
 62
     7
100
AcDbCircle
 10
1943.540439485475
 20
279.597677878184
 30
0.0
 40
8.0
100
AcDbArc
 50
90.0
 51
180.0
  0
LINE
  5
682
330
A
100
AcDbEntity
  8
LAYER_1
  6
Continuous
 62
     7
100
AcDbLine
 10
1995.540439485474
 20
277.597677878184
 30
0.0
 11
1995.540439485474
 21
279.597677878184
 31
0.0
  0
LINE
  5
683
330
A
100
AcDbEntity
  8
LAYER_1
  6
Continuous
 62
     7
100
AcDbLine
 10
2095.540439485474
 20
277.597677878184
 30
0.0
 11
2155.540439485475
 21
277.597677878184
 31
0.0
  0
ARC
  5
684
330
A
100
AcDbEntity
  8
LAYER_1
  6
Continuous
 62
     7
100
AcDbCircle
 10
2147.540439485474
 20
279.597677878184
 30
0.0
 40
8.0
100
AcDbArc
 50
0.0
 51
90.0
  0
LINE
  5
685
330
A
100
AcDbEntity
  8
LAYER_1
  6
Continuous
 62
     7
100
AcDbLine
 10
2147.540439485474
 20
287.597677878184
 30
0.0
 11
2103.540439485475
 21
287.597677878184
 31
0.0
  0
LINE
  5
686
330
A
100
AcDbEntity
  8
LAYER_1
  6
Continuous
 62
     7
100
AcDbLine
 10
2095.540439485474
 20
279.597677878184
 30
0.0
 11
2095.540439485474
 21
277.597677878184
 31
0.0
  0
ARC
  5
687
330
A
100
AcDbEntity
  8
LAYER_1
  6
Continuous
 62
     7
100
AcDbCircle
 10
2103.540439485475
 20
279.597677878184
 30
0.0
 40
8.0
100
AcDbArc
 50
90.0
 51
180.0
  0
LINE
  5
688
330
A
100
AcDbEntity
  8
LAYER_1
  6
Continuous
 62
     7
100
AcDbLine
 10
2155.540439485475
 20
277.597677878184
 30
0.0
 11
2155.540439485475
 21
279.597677878184
 31
0.0
  0
LINE
  5
689
330
A
100
AcDbEntity
  8
LAYER_1
  6
Continuous
 62
     7
100
AcDbLine
 10
2515.790439485508
 20
379.5976778781839
 30
0.0
 11
2471.290439485501
 21
379.5976778781839
 31
0.0
  0
LINE
  5
68A
330
A
100
AcDbEntity
  8
LAYER_1
  6
DASHED
 62
     7
100
AcDbLine
 10
2481.740439485498
 20
379.5976778781839
 30
0.0
 11
2487.940439485495
 21
379.5976778781839
 31
0.0
  0
LINE
  5
68B
330
A
100
AcDbEntity
  8
LAYER_1
  6
DASHED
 62
     7
100
AcDbLine
 10
2499.5404394855
 20
379.5976778781839
 30
0.0
 11
2505.740439485498
 21
379.5976778781839
 31
0.0
  0
LINE
  5
68C
330
A
100
AcDbEntity
  8
LAYER_1
  6
Continuous
 62
     7
100
AcDbLine
 10
2511.040439485501
 20
383.0976778781839
 30
0.0
 11
2511.040439485501
 21
392.0976778781759
 31
0.0
  0
LINE
  5
68D
330
A
100
AcDbEntity
  8
LAYER_1
  6
Continuous
 62
     7
100
AcDbLine
 10
2476.040439485497
 20
383.0976778781759
 30
0.0
 11
2476.040439485497
 21
392.0976778781759
 31
0.0
  0
LINE
  5
68E
330
A
100
AcDbEntity
  8
LAYER_1
  6
Continuous
 62
     7
100
AcDbLine
 10
2471.290439485501
 20
379.5976778781759
 30
0.0
 11
2471.290439485501
 21
383.0976778781759
 31
0.0
  0
LINE
  5
68F
330
A
100
AcDbEntity
  8
LAYER_1
  6
Continuous
 62
     7
100
AcDbLine
 10
2475.290439485501
 20
383.0976778781759
 30
0.0
 11
2471.290439485501
 21
383.0976778781759
 31
0.0
  0
LINE
  5
690
330
A
100
AcDbEntity
  8
LAYER_1
  6
Continuous
 62
     7
100
AcDbLine
 10
2475.290439485501
 20
383.0976778781759
 30
0.0
 11
2511.790439485508
 21
383.0976778781839
 31
0.0
  0
LINE
  5
691
330
A
100
AcDbEntity
  8
LAYER_1
  6
Continuous
 62
     7
100
AcDbLine
 10
2515.790439485508
 20
383.0976778781839
 30
0.0
 11
2511.790439485508
 21
383.0976778781839
 31
0.0
  0
LINE
  5
692
330
A
100
AcDbEntity
  8
LAYER_1
  6
Continuous
 62
     7
100
AcDbLine
 10
2515.790439485508
 20
379.5976778781839
 30
0.0
 11
2515.790439485508
 21
383.0976778781839
 31
0.0
  0
LINE
  5
693
330
A
100
AcDbEntity
  8
LAYER_1
  6
Continuous
 62
     7
100
AcDbLine
 10
2515.790439485508
 20
379.5976778781839
 30
0.0
 11
2471.290439485501
 21
379.5976778781839
 31
0.0
  0
LINE
  5
694
330
A
100
AcDbEntity
  8
LAYER_1
  6
Continuous
 62
     7
100
AcDbLine
 10
1973.540439485469
 20
-80.40232212183099
 30
0.0
 11
2117.540439485469
 21
-80.40232212183099
 31
0.0
  0
LINE
  5
695
330
A
100
AcDbEntity
  8
LAYER_1
  6
Continuous
 62
     7
100
AcDbLine
 10
2117.540439485469
 20
-80.40232212183099
 30
0.0
 11
2117.540439485469
 21
-224.402322121831
 31
0.0
  0
LINE
  5
696
330
A
100
AcDbEntity
  8
LAYER_1
  6
Continuous
 62
     7
100
AcDbLine
 10
2117.540439485469
 20
-224.402322121831
 30
0.0
 11
1973.540439485469
 21
-224.402322121831
 31
0.0
  0
LINE
  5
697
330
A
100
AcDbEntity
  8
LAYER_1
  6
Continuous
 62
     7
100
AcDbLine
 10
1973.540439485469
 20
-224.402322121831
 30
0.0
 11
1973.540439485469
 21
-80.40232212183099
 31
0.0
  0
LINE
  5
698
330
A
100
AcDbEntity
  8
LAYER_1
  6
Continuous
 62
     7
100
AcDbLine
 10
2542.540439485475
 20
157.5976778781829
 30
0.0
 11
2364.540439485475
 21
157.5976778781829
 31
0.0
  0
LINE
  5
699
330
A
100
AcDbEntity
  8
LAYER_1
  6
Continuous
 62
     7
100
AcDbLine
 10
2476.040439485508
 20
383.0976778781839
 30
0.0
 11
2476.040439485508
 21
404.5976778781839
 31
0.0
  0
LINE
  5
69A
330
A
100
AcDbEntity
  8
LAYER_1
  6
Continuous
 62
     7
100
AcDbLine
 10
2511.040439485512
 20
383.0976778781759
 30
0.0
 11
2511.040439485512
 21
404.5976778781839
 31
0.0
  0
LINE
  5
69B
330
A
100
AcDbEntity
  8
LAYER_1
  6
Continuous
 62
     7
100
AcDbLine
 10
2476.040439485508
 20
404.5976778781839
 30
0.0
 11
2511.040439485512
 21
404.5976778781839
 31
0.0
  0
CIRCLE
  5
69C
330
A
100
AcDbEntity
  8
LAYER_1
  6
Continuous
 62
     7
100
AcDbCircle
 10
1950.54043948547
 20
-87.40232212182501
 30
0.0
 40
1.620999999999999
  0
CIRCLE
  5
69D
330
A
100
AcDbEntity
  8
LAYER_1
  6
Continuous
 62
     7
100
AcDbCircle
 10
1950.54043948547
 20
-217.4023221218249
 30
0.0
 40
1.620999999999999
  0
CIRCLE
  5
69E
330
A
100
AcDbEntity
  8
LAYER_1
  6
Continuous
 62
     7
100
AcDbCircle
 10
1950.54043948547
 20
-87.40232212182501
 30
0.0
 40
2.0
  0
CIRCLE
  5
69F
330
A
100
AcDbEntity
  8
LAYER_1
  6
Continuous
 62
     7
100
AcDbCircle
 10
1950.54043948547
 20
-217.4023221218249
 30
0.0
 40
2.0
  0
LINE
  5
6A0
330
A
100
AcDbEntity
  8
LAYER_1
  6
Continuous
 62
     7
100
AcDbLine
 10
1914.54043948547
 20
-236.402322121834
 30
0.0
 11
1914.54043948547
 21
-68.402322121834
 31
0.0
  0
LINE
  5
6A1
330
A
100
AcDbEntity
  8
LAYER_1
  6
Continuous
 62
     7
100
AcDbLine
 10
1961.540439485471
 20
-63.402322121834
 30
0.0
 11
1919.54043948547
 21
-63.402322121834
 31
0.0
  0
LINE
  5
6A2
330
A
100
AcDbEntity
  8
LAYER_1
  6
Continuous
 62
     7
100
AcDbLine
 10
1942.540439485471
 20
-241.4023221218339
 30
0.0
 11
1942.540439485471
 21
-63.402322121834
 31
0.0
  0
LINE
  5
6A3
330
A
100
AcDbEntity
  8
LAYER_1
  6
Continuous
 62
     7
100
AcDbLine
 10
1919.54043948547
 20
-241.4023221218339
 30
0.0
 11
1961.540439485471
 21
-241.4023221218339
 31
0.0
  0
LINE
  5
6A4
330
A
100
AcDbEntity
  8
LAYER_1
  6
Continuous
 62
     7
100
AcDbLine
 10
2129.540439485471
 20
-63.402322121826
 30
0.0
 11
1961.540439485471
 21
-63.402322121826
 31
0.0
  0
LINE
  5
6A5
330
A
100
AcDbEntity
  8
LAYER_1
  6
Continuous
 62
     7
100
AcDbLine
 10
1961.540439485471
 20
-241.402322121825
 30
0.0
 11
2129.540439485471
 21
-241.402322121825
 31
0.0
  0
CIRCLE
  5
6A6
330
A
100
AcDbEntity
  8
LAYER_1
  6
Continuous
 62
     7
100
AcDbCircle
 10
1926.540439485469
 20
-74.402322121834
 30
0.0
 40
3.0
  0
CIRCLE
  5
6A7
330
A
100
AcDbEntity
  8
LAYER_1
  6
Continuous
 62
     7
100
AcDbCircle
 10
1926.540439485469
 20
-230.402322121834
 30
0.0
 40
3.0
  0
ARC
  5
6A8
330
A
100
AcDbEntity
  8
LAYER_1
  6
Continuous
 62
     7
100
AcDbCircle
 10
1919.54043948547
 20
-236.402322121834
 30
0.0
 40
5.0
100
AcDbArc
 50
180.0
 51
270.0
  0
ARC
  5
6A9
330
A
100
AcDbEntity
  8
LAYER_1
  6
Continuous
 62
     7
100
AcDbCircle
 10
1919.54043948547
 20
-68.402322121834
 30
0.0
 40
5.0
100
AcDbArc
 50
90.0
 51
180.0
  0
LINE
  5
6AA
330
A
100
AcDbEntity
  8
LAYER_1
  6
Continuous
 62
     7
100
AcDbLine
 10
2117.540439485471
 20
-80.402322121825
 30
0.0
 11
2117.540439485471
 21
-224.4023221218249
 31
0.0
  0
LINE
  5
6AB
330
A
100
AcDbEntity
  8
LAYER_1
  6
Continuous
 62
     7
100
AcDbLine
 10
2117.540439485471
 20
-224.4023221218249
 30
0.0
 11
1973.54043948547
 21
-224.4023221218249
 31
0.0
  0
LINE
  5
6AC
330
A
100
AcDbEntity
  8
LAYER_1
  6
Continuous
 62
     7
100
AcDbLine
 10
1973.54043948547
 20
-224.4023221218249
 30
0.0
 11
1973.54043948547
 21
-80.402322121825
 31
0.0
  0
LINE
  5
6AD
330
A
100
AcDbEntity
  8
LAYER_1
  6
Continuous
 62
     7
100
AcDbLine
 10
1973.54043948547
 20
-80.402322121825
 30
0.0
 11
2117.540439485471
 21
-80.402322121825
 31
0.0
  0
CIRCLE
  5
6AE
330
A
100
AcDbEntity
  8
LAYER_1
  6
Continuous
 62
     7
100
AcDbCircle
 10
2140.540439485471
 20
-87.40232212182501
 30
0.0
 40
1.620999999999999
  0
CIRCLE
  5
6AF
330
A
100
AcDbEntity
  8
LAYER_1
  6
Continuous
 62
     7
100
AcDbCircle
 10
2140.540439485471
 20
-217.4023221218249
 30
0.0
 40
1.620999999999999
  0
CIRCLE
  5
6B0
330
A
100
AcDbEntity
  8
LAYER_1
  6
Continuous
 62
     7
100
AcDbCircle
 10
2140.540439485471
 20
-87.40232212182501
 30
0.0
 40
2.0
  0
CIRCLE
  5
6B1
330
A
100
AcDbEntity
  8
LAYER_1
  6
Continuous
 62
     7
100
AcDbCircle
 10
2140.540439485471
 20
-217.4023221218249
 30
0.0
 40
2.0
  0
LINE
  5
6B2
330
A
100
AcDbEntity
  8
LAYER_1
  6
Continuous
 62
     7
100
AcDbLine
 10
2176.54043948547
 20
-236.402322121834
 30
0.0
 11
2176.54043948547
 21
-68.402322121834
 31
0.0
  0
LINE
  5
6B3
330
A
100
AcDbEntity
  8
LAYER_1
  6
Continuous
 62
     7
100
AcDbLine
 10
2129.540439485471
 20
-63.402322121834
 30
0.0
 11
2171.54043948547
 21
-63.402322121834
 31
0.0
  0
LINE
  5
6B4
330
A
100
AcDbEntity
  8
LAYER_1
  6
Continuous
 62
     7
100
AcDbLine
 10
2148.54043948547
 20
-241.4023221218339
 30
0.0
 11
2148.54043948547
 21
-63.402322121834
 31
0.0
  0
LINE
  5
6B5
330
A
100
AcDbEntity
  8
LAYER_1
  6
Continuous
 62
     7
100
AcDbLine
 10
2171.54043948547
 20
-241.4023221218339
 30
0.0
 11
2129.540439485471
 21
-241.4023221218339
 31
0.0
  0
CIRCLE
  5
6B6
330
A
100
AcDbEntity
  8
LAYER_1
  6
Continuous
 62
     7
100
AcDbCircle
 10
2164.540439485475
 20
-74.402322121834
 30
0.0
 40
3.0
  0
CIRCLE
  5
6B7
330
A
100
AcDbEntity
  8
LAYER_1
  6
Continuous
 62
     7
100
AcDbCircle
 10
2164.540439485475
 20
-230.402322121834
 30
0.0
 40
3.0
  0
ARC
  5
6B8
330
A
100
AcDbEntity
  8
LAYER_1
  6
Continuous
 62
     7
100
AcDbCircle
 10
2171.54043948547
 20
-236.402322121834
 30
0.0
 40
5.0
100
AcDbArc
 50
270.0
 51
0.0
  0
ARC
  5
6B9
330
A
100
AcDbEntity
  8
LAYER_1
  6
Continuous
 62
     7
100
AcDbCircle
 10
2171.54043948547
 20
-68.402322121834
 30
0.0
 40
5.0
100
AcDbArc
 50
0.0
 51
90.0
  0
LINE
  5
6BA
330
A
100
AcDbEntity
  8
LAYER_1
  6
Continuous
 62
     7
100
AcDbLine
 10
1921.540439485475
 20
155.5976778781829
 30
0.0
 11
1916.540439485475
 21
155.5976778781829
 31
0.0
  0
LINE
  5
6BB
330
A
100
AcDbEntity
  8
LAYER_1
  6
Continuous
 62
     7
100
AcDbLine
 10
1916.540439485475
 20
157.5976778781829
 30
0.0
 11
1921.540439485475
 21
157.5976778781829
 31
0.0
  0
LINE
  5
6BC
330
A
100
AcDbEntity
  8
LAYER_1
  6
Continuous
 62
     7
100
AcDbLine
 10
1916.540439485475
 20
157.5976778781829
 30
0.0
 11
1916.540439485475
 21
155.5976778781829
 31
0.0
  0
LINE
  5
6BD
330
A
100
AcDbEntity
  8
LAYER_1
  6
Continuous
 62
     7
100
AcDbLine
 10
1940.540439485475
 20
155.5976778781829
 30
0.0
 11
1921.540439485475
 21
155.5976778781829
 31
0.0
  0
LINE
  5
6BE
330
A
100
AcDbEntity
  8
LAYER_1
  6
Continuous
 62
     7
100
AcDbLine
 10
1921.540439485475
 20
157.5976778781829
 30
0.0
 11
1942.540439485474
 21
157.5976778781829
 31
0.0
  0
LINE
  5
6BF
330
A
100
AcDbEntity
  8
LAYER_1
  6
Continuous
 62
     7
100
AcDbLine
 10
1942.540439485474
 20
129.5976778781809
 30
0.0
 11
1942.540439485474
 21
157.5976778781829
 31
0.0
  0
LINE
  5
6C0
330
A
100
AcDbEntity
  8
LAYER_1
  6
Continuous
 62
     7
100
AcDbLine
 10
2148.540439485475
 20
129.5976778781809
 30
0.0
 11
1942.540439485474
 21
129.5976778781809
 31
0.0
  0
LINE
  5
6C1
330
A
100
AcDbEntity
  8
LAYER_1
  6
Continuous
 62
     7
100
AcDbLine
 10
2148.540439485475
 20
157.5976778781829
 30
0.0
 11
2148.540439485475
 21
129.5976778781809
 31
0.0
  0
LINE
  5
6C2
330
A
100
AcDbEntity
  8
LAYER_1
  6
Continuous
 62
     7
100
AcDbLine
 10
2150.540439485475
 20
127.597677878183
 30
0.0
 11
2150.540439485475
 21
155.5976778781829
 31
0.0
  0
LINE
  5
6C3
330
A
100
AcDbEntity
  8
LAYER_1
  6
Continuous
 62
     7
100
AcDbLine
 10
1940.540439485475
 20
127.597677878183
 30
0.0
 11
2150.540439485475
 21
127.597677878183
 31
0.0
  0
LINE
  5
6C4
330
A
100
AcDbEntity
  8
LAYER_1
  6
Continuous
 62
     7
100
AcDbLine
 10
1940.540439485473
 20
155.5976778781829
 30
0.0
 11
1940.540439485475
 21
127.597677878183
 31
0.0
  0
LINE
  5
6C5
330
A
100
AcDbEntity
  8
LAYER_1
  6
Continuous
 62
     7
100
AcDbLine
 10
2502.540439485475
 20
155.5976778781829
 30
0.0
 11
2404.540439485475
 21
155.5976778781829
 31
0.0
  0
LINE
  5
6C6
330
A
100
AcDbEntity
  8
LAYER_1
  6
Continuous
 62
     7
100
AcDbLine
 10
2542.540439485475
 20
157.5976778781829
 30
0.0
 11
2364.540439485475
 21
157.5976778781829
 31
0.0
  0
LINE
  5
6C7
330
A
100
AcDbEntity
  8
LAYER_1
  6
Continuous
 62
     7
100
AcDbLine
 10
2404.540439485475
 20
129.5976778781829
 30
0.0
 11
2502.540439485475
 21
129.5976778781829
 31
0.0
  0
LINE
  5
6C8
330
A
100
AcDbEntity
  8
LAYER_1
  6
Continuous
 62
     7
100
AcDbLine
 10
2364.540439485475
 20
127.597677878183
 30
0.0
 11
2364.540439485475
 21
157.5976778781829
 31
0.0
  0
LINE
  5
6C9
330
A
100
AcDbEntity
  8
LAYER_1
  6
Continuous
 62
     7
100
AcDbLine
 10
2542.540439485475
 20
157.5976778781829
 30
0.0
 11
2542.540439485475
 21
127.597677878183
 31
0.0
  0
LINE
  5
6CA
330
A
100
AcDbEntity
  8
LAYER_1
  6
Continuous
 62
     7
100
AcDbLine
 10
2542.540439485475
 20
127.597677878183
 30
0.0
 11
2364.540439485475
 21
127.597677878183
 31
0.0
  0
LINE
  5
6CB
330
A
100
AcDbEntity
  8
LAYER_1
  6
Continuous
 62
     7
100
AcDbLine
 10
2404.540439485475
 20
155.5976778781829
 30
0.0
 11
2404.540439485475
 21
129.5976778781829
 31
0.0
  0
LINE
  5
6CC
330
A
100
AcDbEntity
  8
LAYER_1
  6
Continuous
 62
     7
100
AcDbLine
 10
2502.540439485475
 20
129.5976778781829
 30
0.0
 11
2502.540439485475
 21
155.5976778781829
 31
0.0
  0
LINE
  5
6CD
330
A
100
AcDbEntity
  8
LAYER_1
  6
Continuous
 62
     7
100
AcDbLine
 10
2169.540439485475
 20
155.5976778781829
 30
0.0
 11
2174.540439485475
 21
155.5976778781829
 31
0.0
  0
LINE
  5
6CE
330
A
100
AcDbEntity
  8
LAYER_1
  6
Continuous
 62
     7
100
AcDbLine
 10
2174.540439485475
 20
157.5976778781829
 30
0.0
 11
2169.540439485475
 21
157.5976778781829
 31
0.0
  0
LINE
  5
6CF
330
A
100
AcDbEntity
  8
LAYER_1
  6
Continuous
 62
     7
100
AcDbLine
 10
2174.540439485475
 20
157.5976778781829
 30
0.0
 11
2174.540439485475
 21
155.5976778781829
 31
0.0
  0
LINE
  5
6D0
330
A
100
AcDbEntity
  8
LAYER_1
  6
Continuous
 62
     7
100
AcDbLine
 10
2150.540439485475
 20
155.5976778781829
 30
0.0
 11
2169.540439485475
 21
155.5976778781829
 31
0.0
  0
LINE
  5
6D1
330
A
100
AcDbEntity
  8
LAYER_1
  6
Continuous
 62
     7
100
AcDbLine
 10
2169.540439485475
 20
157.5976778781829
 30
0.0
 11
2148.540439485475
 21
157.5976778781829
 31
0.0
  0
TEXT
  5
6D2
330
A
100
AcDbEntity
  8
LAYER_1
 62
     7
100
AcDbText
 10
-283.0089373666389
 20
950.3409730475469
 30
0.0
 40
18.0
  1
POWER SUPPLY UNIT
 41
1.033333333332999
  7
ＭＳ_ゴシック
100
AcDbText
  0
DIMENSION
  5
6D3
330
A
100
AcDbEntity
  8
LAYER_1
  6
Continuous
 62
     7
100
AcDbDimension
  2
*D5
 10
99.54043948541901
 20
158.7976778781849
 30
0.0
 11
-76.99194199807699
 21
161.797677878185
 31
0.0
 71
     5
 42
-1.0
  3
MARK2_DIMSTYLE
100
AcDbAlignedDimension
 13
-173.459560514581
 23
258.797677878185
 33
0.0
 14
99.54043948541901
 24
258.797677878186
 34
0.0
100
AcDbRotatedDimension
1001
ACAD
1000
DSTYLE
1002
{
1070
    41
1040
6.0
1070
   140
1040
9.0
1002
}
  0
DIMENSION
  5
6D4
330
A
100
AcDbEntity
  8
LAYER_1
  6
Continuous
 62
     7
100
AcDbDimension
  2
*D6
 10
725.540439485419
 20
158.7976778781849
 30
0.0
 11
482.540439485419
 21
161.797677878185
 31
0.0
 71
     5
 42
-1.0
  3
MARK2_DIMSTYLE
100
AcDbAlignedDimension
 13
239.5404394854189
 23
258.797677878185
 33
0.0
 14
725.540439485419
 24
258.797677878185
 34
0.0
100
AcDbRotatedDimension
1001
ACAD
1000
DSTYLE
1002
{
1070
    41
1040
6.0
1070
   140
1040
9.0
1002
}
  0
DIMENSION
  5
6D5
330
A
100
AcDbEntity
  8
LAYER_1
  6
Continuous
 62
     7
100
AcDbDimension
  2
*D7
 10
750.5404394854179
 20
68.797677878185
 30
0.0
 11
482.540439485418
 21
71.797677878185
 31
0.0
 71
     5
 42
-1.0
  3
MARK2_DIMSTYLE
100
AcDbAlignedDimension
 13
214.5404394854189
 23
287.797677878186
 33
0.0
 14
750.5404394854179
 24
296.047677878185
 34
0.0
100
AcDbRotatedDimension
1001
ACAD
1000
DSTYLE
1002
{
1070
    41
1040
6.0
1070
   140
1040
9.0
1002
}
  0
CIRCLE
  5
6D6
330
A
100
AcDbEntity
  8
LAYER_1
  6
Continuous
 62
     7
100
AcDbCircle
 10
2173.927498011739
 20
764.2976778781931
 30
0.0
 40
1.2295
  0
CIRCLE
  5
6D7
330
A
100
AcDbEntity
  8
LAYER_1
  6
Continuous
 62
     7
100
AcDbCircle
 10
2173.927498011724
 20
764.2976778781931
 30
0.0
 40
1.2295
  0
CIRCLE
  5
6D8
330
A
100
AcDbEntity
  8
LAYER_1
  6
Continuous
 62
     7
100
AcDbCircle
 10
2173.927498011724
 20
764.2976778781931
 30
0.0
 40
1.2295
  0
CIRCLE
  5
6D9
330
A
100
AcDbEntity
  8
LAYER_1
  6
Continuous
 62
     7
100
AcDbCircle
 10
2173.927498011724
 20
764.29767787819
 30
0.0
 40
2.0
  0
CIRCLE
  5
6DA
330
A
100
AcDbEntity
  8
LAYER_1
  6
Continuous
 62
     7
100
AcDbCircle
 10
2138.927498011706
 20
729.29767787819
 30
0.0
 40
1.2295
  0
CIRCLE
  5
6DB
330
A
100
AcDbEntity
  8
LAYER_1
  6
Continuous
 62
     7
100
AcDbCircle
 10
2138.92749801172
 20
729.29767787819
 30
0.0
 40
1.2295
  0
CIRCLE
  5
6DC
330
A
100
AcDbEntity
  8
LAYER_1
  6
Continuous
 62
     7
100
AcDbCircle
 10
2138.92749801172
 20
729.29767787819
 30
0.0
 40
1.2295
  0
CIRCLE
  5
6DD
330
A
100
AcDbEntity
  8
LAYER_1
  6
Continuous
 62
     7
100
AcDbCircle
 10
2138.92749801172
 20
729.297677878193
 30
0.0
 40
2.0
  0
CIRCLE
  5
6DE
330
A
100
AcDbEntity
  8
LAYER_1
  6
Continuous
 62
     7
100
AcDbCircle
 10
2173.927498011739
 20
729.29767787819
 30
0.0
 40
1.2295
  0
CIRCLE
  5
6DF
330
A
100
AcDbEntity
  8
LAYER_1
  6
Continuous
 62
     7
100
AcDbCircle
 10
2173.927498011724
 20
729.29767787819
 30
0.0
 40
1.2295
  0
CIRCLE
  5
6E0
330
A
100
AcDbEntity
  8
LAYER_1
  6
Continuous
 62
     7
100
AcDbCircle
 10
2173.927498011724
 20
729.29767787819
 30
0.0
 40
1.2295
  0
CIRCLE
  5
6E1
330
A
100
AcDbEntity
  8
LAYER_1
  6
Continuous
 62
     7
100
AcDbCircle
 10
2173.927498011724
 20
729.297677878193
 30
0.0
 40
2.0
  0
CIRCLE
  5
6E2
330
A
100
AcDbEntity
  8
LAYER_1
  6
Continuous
 62
     7
100
AcDbCircle
 10
2150.540439485475
 20
367.5976778781839
 30
0.0
 40
4.0
  0
CIRCLE
  5
6E3
330
A
100
AcDbEntity
  8
LAYER_1
  6
Continuous
 62
     7
100
AcDbCircle
 10
1940.540439485475
 20
367.5976778781839
 30
0.0
 40
4.0
  0
INSERT
  5
6E4
330
A
100
AcDbEntity
  8
0
  6
Continuous
 62
    96
100
AcDbBlockReference
  2
BO1_$7$
 10
0.0
 20
0.0
 30
0.0
  0
INSERT
  5
6E5
330
A
100
AcDbEntity
  8
0
  6
Continuous
 62
    96
100
AcDbBlockReference
  2
BO1_$8$
 10
0.0
 20
0.0
 30
0.0
  0
INSERT
  5
6E6
330
A
100
AcDbEntity
  8
0
  6
Continuous
 62
    96
100
AcDbBlockReference
  2
BO1_$9$
 10
0.0
 20
0.0
 30
0.0
  0
INSERT
  5
6E7
330
A
100
AcDbEntity
  8
0
  6
Continuous
 62
    96
100
AcDbBlockReference
  2
BO1_$10$
 10
0.0
 20
0.0
 30
0.0
  0
INSERT
  5
6E8
330
A
100
AcDbEntity
  8
0
  6
Continuous
 62
    96
100
AcDbBlockReference
  2
BO1_$11$
 10
0.0
 20
0.0
 30
0.0
  0
INSERT
  5
6E9
330
A
100
AcDbEntity
  8
0
  6
Continuous
 62
    96
100
AcDbBlockReference
  2
BO1_$12$
 10
0.0
 20
0.0
 30
0.0
  0
INSERT
  5
6EA
330
A
100
AcDbEntity
  8
0
  6
Continuous
 62
    96
100
AcDbBlockReference
  2
BO1_$13$
 10
0.0
 20
0.0
 30
0.0
  0
INSERT
  5
6EB
330
A
100
AcDbEntity
  8
0
  6
Continuous
 62
    96
100
AcDbBlockReference
  2
BO1_$14$
 10
0.0
 20
0.0
 30
0.0
  0
LINE
  5
6EC
330
A
100
AcDbEntity
  8
LAYER_1
  6
Continuous
 62
     7
100
AcDbLine
 10
1905.540439485418
 20
783.797677878191
 30
0.0
 11
1905.54043948541
 21
599.7976778781909
 31
0.0
  0
INSERT
  5
6ED
330
A
100
AcDbEntity
  8
0
  6
Continuous
 62
    96
100
AcDbBlockReference
  2
BO1_$15$
 10
0.0
 20
0.0
 30
0.0
  0
INSERT
  5
6EE
330
A
100
AcDbEntity
  8
0
  6
Continuous
 62
    96
100
AcDbBlockReference
  2
BO1_$16$
 10
0.0
 20
0.0
 30
0.0
  0
LINE
  5
6EF
330
A
100
AcDbEntity
  8
LAYER_1
  6
Continuous
 62
     7
100
AcDbLine
 10
2185.540439485424
 20
783.797677878179
 30
0.0
 11
2185.540439485504
 21
599.797677878179
 31
0.0
  0
LINE
  5
6F0
330
A
100
AcDbEntity
  8
LAYER_1
  6
Continuous
 62
     7
100
AcDbLine
 10
1905.540439485418
 20
783.797677878191
 30
0.0
 11
2185.540439485424
 21
783.797677878179
 31
0.0
  0
LINE
  5
6F1
330
A
100
AcDbEntity
  8
LAYER_1
  6
Continuous
 62
     7
100
AcDbLine
 10
1905.54043948541
 20
599.7976778781909
 30
0.0
 11
2185.540439485504
 21
599.797677878179
 31
0.0
  0
DIMENSION
  5
6F2
330
A
100
AcDbEntity
  8
LAYER_1
  6
Continuous
 62
     7
100
AcDbDimension
  2
*D18
 10
2183.540439485474
 20
27.597677878183
 30
0.0
 11
2045.540439485475
 21
30.597677878183
 31
0.0
 71
     5
 42
-1.0
  3
MARK2_DIMSTYLE
100
AcDbAlignedDimension
 13
1907.540439485475
 23
157.5976778781829
 33
0.0
 14
2183.540439485474
 24
157.5976778781829
 34
0.0
100
AcDbRotatedDimension
1001
ACAD
1000
DSTYLE
1002
{
1070
    41
1040
6.0
1070
   140
1040
9.0
1002
}
  0
CIRCLE
  5
6F3
330
A
100
AcDbEntity
  8
LAYER_1
  6
Continuous
 62
     7
100
AcDbCircle
 10
2371.540439485475
 20
367.5976778781839
 30
0.0
 40
4.0
  0
CIRCLE
  5
6F4
330
A
100
AcDbEntity
  8
LAYER_1
  6
Continuous
 62
     7
100
AcDbCircle
 10
2535.540439485475
 20
367.5976778781839
 30
0.0
 40
4.0
  0
DIMENSION
  5
6F5
330
A
100
AcDbEntity
  8
LAYER_1
  6
Continuous
 62
     7
100
AcDbDimension
  2
*D19
 10
2545.540439485479
 20
460.7976778781849
 30
0.0
 11
2453.540439485479
 21
463.7976778781849
 31
0.0
 71
     5
 42
-1.0
  3
MARK2_DIMSTYLE
100
AcDbAlignedDimension
 13
2361.540439485479
 23
379.5976778781839
 33
0.0
 14
2545.540439485479
 24
379.5976778781839
 34
0.0
100
AcDbRotatedDimension
1001
ACAD
1000
DSTYLE
1002
{
1070
    41
1040
6.0
1070
   140
1040
9.0
1002
}
  0
DIMENSION
  5
6F6
330
A
100
AcDbEntity
  8
LAYER_1
  6
Continuous
 62
     7
100
AcDbDimension
  2
*D20
 10
1757.540439485475
 20
410.7976778781849
 30
0.0
 11
1754.540439485475
 21
269.197677878185
 31
0.0
 71
     5
 42
-1.0
  3
MARK2_DIMSTYLE
100
AcDbAlignedDimension
 13
1940.540439485475
 23
127.597677878183
 33
0.0
 14
1971.540439485476
 24
410.7976778781849
 34
0.0
 50
90.0
100
AcDbRotatedDimension
1001
ACAD
1000
DSTYLE
1002
{
1070
    41
1040
6.0
1070
   140
1040
9.0
1002
}
  0
DIMENSION
  5
6F7
330
A
100
AcDbEntity
  8
LAYER_1
  6
Continuous
 62
     7
100
AcDbDimension
  2
*D21
 10
2543.540439485475
 20
27.597677878183
 30
0.0
 11
2453.540439485475
 21
30.597677878183
 31
0.0
 71
     5
 42
-1.0
  3
MARK2_DIMSTYLE
100
AcDbAlignedDimension
 13
2363.540439485475
 23
157.5976778781829
 33
0.0
 14
2543.540439485475
 24
157.5976778781829
 34
0.0
100
AcDbRotatedDimension
1001
ACAD
1000
DSTYLE
1002
{
1070
    41
1040
6.0
1070
   140
1040
9.0
1002
}
  0
DIMENSION
  5
6F8
330
A
100
AcDbEntity
  8
LAYER_1
  6
Continuous
 62
     7
100
AcDbDimension
  2
*D22
 10
2185.540439485479
 20
460.7976778781849
 30
0.0
 11
2045.540439485477
 21
463.7976778781849
 31
0.0
 71
     5
 42
-1.0
  3
MARK2_DIMSTYLE
100
AcDbAlignedDimension
 13
1905.540439485475
 23
379.5976778781839
 33
0.0
 14
2185.540439485479
 24
379.5976778781839
 34
0.0
100
AcDbRotatedDimension
1001
ACAD
1000
DSTYLE
1002
{
1070
    41
1040
6.0
1070
   140
1040
9.0
1002
}
  0
LWPOLYLINE
  5
6F9
330
A
100
AcDbEntity
  8
LAYER_1
  6
Continuous
 62
     7
100
AcDbPolyline
 90
        2
 70
     0
 43
0.0
 10
1907.540439485478
 20
-242.402322121817
 10
1907.540439485478
 20
-62.402322121817
  0
LWPOLYLINE
  5
6FD
330
A
100
AcDbEntity
  8
LAYER_1
  6
Continuous
 62
     7
100
AcDbPolyline
 90
        2
 70
     0
 43
0.0
 10
2183.540439485464
 20
-242.402322121819
 10
2183.540439485466
 20
-62.402322121819
  0
LWPOLYLINE
  5
701
330
A
100
AcDbEntity
  8
LAYER_1
  6
Continuous
 62
     7
100
AcDbPolyline
 90
        2
 70
     0
 43
0.0
 10
1907.540439485478
 20
-62.402322121817
 10
2183.540439485466
 20
-62.402322121817
  0
LWPOLYLINE
  5
705
330
A
100
AcDbEntity
  8
LAYER_1
  6
Continuous
 62
     7
100
AcDbPolyline
 90
        2
 70
     0
 43
0.0
 10
1907.540439485478
 20
-242.402322121817
 10
2183.540439485464
 20
-242.402322121817
  0
DIMENSION
  5
709
330
A
100
AcDbEntity
  8
LAYER_1
  6
Continuous
 62
     7
100
AcDbDimension
  2
*D23
 10
-248.459560514581
 20
410.7976778781849
 30
0.0
 11
-251.459560514581
 21
334.797677878185
 31
0.0
 71
     5
 42
-1.0
  3
MARK2_DIMSTYLE
100
AcDbAlignedDimension
 13
-173.459560514581
 23
258.797677878185
 33
0.0
 14
-173.459560514581
 24
410.7976778781849
 34
0.0
 50
90.0
100
AcDbRotatedDimension
1001
ACAD
1000
DSTYLE
1002
{
1070
    41
1040
6.0
1070
   140
1040
9.0
1002
}
  0
TEXT
  5
70A
330
A
100
AcDbEntity
  8
LAYER_1
 62
     7
100
AcDbText
 10
1702.517615576914
 20
950.3409730475469
 30
0.0
 40
18.0
  1
LAMP UNIT
 41
1.033333333332999
  7
ＭＳ_ゴシック
100
AcDbText
  0
LINE
  5
70B
330
A
100
AcDbEntity
  8
LAYER_1
  6
DASHDOT
 62
     7
100
AcDbLine
 10
1918.540439485468
 20
-74.402322121834
 30
0.0
 11
1934.540439485468
 21
-74.402322121834
 31
0.0
  0
LINE
  5
70C
330
A
100
AcDbEntity
  8
LAYER_1
  6
DASHDOT
 62
     7
100
AcDbLine
 10
1926.540439485469
 20
-82.402322121834
 30
0.0
 11
1926.540439485469
 21
-66.402322121834
 31
0.0
  0
LINE
  5
70D
330
A
100
AcDbEntity
  8
LAYER_1
  6
DASHDOT
 62
     7
100
AcDbLine
 10
1918.540439485468
 20
-230.402322121834
 30
0.0
 11
1934.540439485468
 21
-230.402322121834
 31
0.0
  0
LINE
  5
70E
330
A
100
AcDbEntity
  8
LAYER_1
  6
DASHDOT
 62
     7
100
AcDbLine
 10
1926.540439485469
 20
-238.402322121834
 30
0.0
 11
1926.540439485469
 21
-222.4023221218339
 31
0.0
  0
LINE
  5
70F
330
A
100
AcDbEntity
  8
LAYER_1
  6
DASHDOT
 62
     7
100
AcDbLine
 10
2156.540439485474
 20
-74.402322121834
 30
0.0
 11
2172.540439485474
 21
-74.402322121834
 31
0.0
  0
LINE
  5
710
330
A
100
AcDbEntity
  8
LAYER_1
  6
DASHDOT
 62
     7
100
AcDbLine
 10
2164.540439485475
 20
-82.402322121834
 30
0.0
 11
2164.540439485475
 21
-66.402322121834
 31
0.0
  0
LINE
  5
711
330
A
100
AcDbEntity
  8
LAYER_1
  6
DASHDOT
 62
     7
100
AcDbLine
 10
2156.540439485474
 20
-230.402322121834
 30
0.0
 11
2172.540439485474
 21
-230.402322121834
 31
0.0
  0
LINE
  5
712
330
A
100
AcDbEntity
  8
LAYER_1
  6
DASHDOT
 62
     7
100
AcDbLine
 10
2164.540439485475
 20
-238.402322121834
 30
0.0
 11
2164.540439485475
 21
-222.4023221218339
 31
0.0
  0
DIMENSION
  5
713
330
A
100
AcDbEntity
  8
LAYER_1
  6
Continuous
 62
     7
100
AcDbDimension
  2
*D24
 10
1832.540439485475
 20
-74.402322121834
 30
0.0
 11
1829.540439485475
 21
-152.402322121833
 31
0.0
 71
     5
 42
-1.0
  3
MARK2_DIMSTYLE
100
AcDbAlignedDimension
 13
1918.540439485468
 23
-230.402322121834
 33
0.0
 14
1918.540439485468
 24
-74.402322121834
 34
0.0
 50
90.0
100
AcDbRotatedDimension
1001
ACAD
1000
DSTYLE
1002
{
1070
    41
1040
6.0
1070
   140
1040
9.0
1002
}
  0
DIMENSION
  5
714
330
A
100
AcDbEntity
  8
LAYER_1
  6
Continuous
 62
     7
100
AcDbDimension
  2
*D25
 10
2164.540439485475
 20
-317.402322121817
 30
0.0
 11
2045.540439485471
 21
-314.402322121817
 31
0.0
 71
     5
 42
-1.0
  3
MARK2_DIMSTYLE
100
AcDbAlignedDimension
 13
1926.540439485469
 23
-238.402322121834
 33
0.0
 14
2164.540439485475
 24
-238.402322121834
 34
0.0
100
AcDbRotatedDimension
1001
ACAD
1000
DSTYLE
1002
{
1070
    41
1040
6.0
1070
   140
1040
9.0
1002
}
  0
DIMENSION
  5
715
330
A
100
AcDbEntity
  8
LAYER_1
  6
Continuous
 62
     7
100
AcDbDimension
  2
*D26
 10
1832.540439485475
 20
157.5976778781829
 30
0.0
 11
1830.540439485475
 21
2.080038556899
 31
0.0
 71
     5
 42
-1.0
  3
MARK2_DIMSTYLE
100
AcDbAlignedDimension
 13
1940.540439485475
 23
127.597677878183
 33
0.0
 14
1907.540439485475
 24
157.5976778781829
 34
0.0
 50
90.0
100
AcDbRotatedDimension
1001
ACAD
1000
DSTYLE
1002
{
1070
    41
1040
6.0
1070
   140
1040
9.0
1002
}
  0
LEADER
  5
716
330
A
100
AcDbEntity
  8
LAYER_1
  6
Continuous
 62
     7
100
AcDbLeader
  3
MARK2_DIMSTYLE
 73
     0
 74
     0
 40
12.0
 41
72.0
 76
     3
 10
1050.918844222276
 20
396.2976778781849
 30
0.0
 10
1165.418844222275
 20
510.7976778781849
 30
0.0
 10
1474.173036213794
 20
510.7976778781849
 30
0.0
340
717
  0
MTEXT
  5
717
330
A
100
AcDbEntity
  8
LAYER_1
 62
     7
100
AcDbMText
 10
1540.7726305038
 20
513.7976778781848
 30
0.0
 40
9.0
 41
75.59999999999999
 71
     9
 72
     5
  1
\W1.034;Power Switch
  7
ＭＳ_ゴシック
 73
     1
 44
1.0
  0
LEADER
  5
718
330
A
100
AcDbEntity
  8
LAYER_1
  6
Continuous
 62
     7
100
AcDbLeader
  3
MARK2_DIMSTYLE
 73
     0
 74
     0
 40
12.0
 41
84.0
 76
     3
 10
988.5404394854178
 20
379.7976778781849
 30
0.0
 10
1121.908351668222
 20
610.7976778781849
 30
0.0
 10
1483.712585424913
 20
610.7976778781849
 30
0.0
340
719
  0
MTEXT
  5
719
330
A
100
AcDbEntity
  8
LAYER_1
 62
     7
100
AcDbMText
 10
1549.773306687121
 20
613.7976778781848
 30
0.0
 40
9.0
 41
88.2
 71
     9
 72
     5
  1
\W1.034;Terminal Block
  7
ＭＳ_ゴシック
 73
     1
 44
1.0
  0
LEADER
  5
71A
330
A
100
AcDbEntity
  8
LAYER_1
  6
Continuous
 62
     7
100
AcDbLeader
  3
MARK2_DIMSTYLE
 73
     0
 74
     0
 40
12.0
 41
108.0
 76
     3
 10
-52.70956051458099
 20
294.297677878186
 30
0.0
 10
135.217952106643
 20
-31.202322121815
 30
0.0
 10
618.2089974568969
 20
-31.202322121815
 30
0.0
340
71B
  0
MTEXT
  5
71B
330
A
100
AcDbEntity
  8
LAYER_1
 62
     7
100
AcDbMText
 10
708.5552574118179
 20
-28.202322121815
 30
0.0
 40
9.0
 41
113.4
 71
     9
 72
     5
  1
\W1.034;Lamp ON/OFF Switch
  7
ＭＳ_ゴシック
 73
     1
 44
1.0
  0
LINE
  5
71C
330
A
100
AcDbEntity
  8
LAYER_1
  6
Continuous
 62
     7
100
AcDbLine
 10
1757.540439485475
 20
359.5976778781839
 30
0.0
 11
1757.540439485475
 21
157.5976778781829
 31
0.0
  0
INSERT
  5
71D
330
A
100
AcDbEntity
  8
LAYER_1
  6
Continuous
 62
    96
100
AcDbBlockReference
  2
HATCHING__FILL_$26$
 10
0.0
 20
0.0
 30
0.0
  0
ENDSEC
  0
SECTION
  2
OBJECTS
  0
DICTIONARY
  5
19
330
0
100
AcDbDictionary
281
     1
  3
ACAD_GROUP
350
1A
  3
ACAD_LAYOUT
350
725
  3
ACAD_MLINESTYLE
350
1B
  3
ACAD_PLOTSETTINGS
350
726
  3
ACAD_PLOTSTYLENAME
350
723
  0
DICTIONARY
  5
1A
102
{ACAD_REACTORS
330
19
102
}
330
19
100
AcDbDictionary
281
     1
  0
DICTIONARY
  5
725
102
{ACAD_REACTORS
330
19
102
}
330
19
100
AcDbDictionary
281
     1
  3
Model
350
727
  3
ﾚｲｱｳﾄ1
350
728
  0
DICTIONARY
  5
1B
102
{ACAD_REACTORS
330
19
102
}
330
19
100
AcDbDictionary
281
     1
  3
STANDARD
350
1C
  0
DICTIONARY
  5
726
102
{ACAD_REACTORS
330
19
102
}
330
19
100
AcDbDictionary
281
     1
  0
ACDBDICTIONARYWDFLT
  5
723
102
{ACAD_REACTORS
330
19
102
}
330
19
100
AcDbDictionary
281
     1
  3
Normal
350
724
100
AcDbDictionaryWithDefault
340
724
  0
LAYOUT
  5
727
102
{ACAD_REACTORS
330
725
102
}
330
725
100
AcDbPlotSettings
  1

  2
\\HCTD010A\RICOH imagio MP C4500 RPCS
  4

  6

 40
0.0
 41
0.0
 42
0.0
 43
0.0
 44
0.0
 45
0.0
 46
0.0
 47
0.0
 48
0.0
 49
0.0
140
0.0
141
0.0
142
1.0
143
1.0
 70
  1712
 72
     0
 73
     0
 74
     0
  7

 75
     0
147
1.0
148
0.0
149
0.0
100
AcDbLayout
  1
Model
 70
     1
 71
     0
 10
0.0
 20
0.0
 11
12.0
 21
9.0
 12
0.0
 22
0.0
 32
0.0
 14
0.0
 24
0.0
 34
0.0
 15
0.0
 25
0.0
 35
0.0
146
0.0
 13
0.0
 23
0.0
 33
0.0
 16
1.0
 26
0.0
 36
0.0
 17
0.0
 27
1.0
 37
0.0
 76
     0
330
A
  0
LAYOUT
  5
728
102
{ACAD_REACTORS
330
725
102
}
330
725
100
AcDbPlotSettings
  1

  2
\\HCTD010A\RICOH imagio MP C4500 RPCS
  4

  6

 40
0.0
 41
0.0
 42
0.0
 43
0.0
 44
0.0
 45
0.0
 46
0.0
 47
0.0
 48
0.0
 49
0.0
140
0.0
141
0.0
142
1.0
143
1.0
 70
   688
 72
     0
 73
     0
 74
     5
  7

 75
    16
147
1.0
148
0.0
149
0.0
100
AcDbLayout
  1
ﾚｲｱｳﾄ1
 70
     0
 71
     1
 10
0.0
 20
0.0
 11
12.0
 21
9.0
 12
0.0
 22
0.0
 32
0.0
 14
1.000000000000000E+20
 24
1.000000000000000E+20
 34
1.000000000000000E+20
 15
-1.000000000000000E+20
 25
-1.000000000000000E+20
 35
-1.000000000000000E+20
146
0.0
 13
0.0
 23
0.0
 33
0.0
 16
1.0
 26
0.0
 36
0.0
 17
0.0
 27
1.0
 37
0.0
 76
     0
330
B
  0
MLINESTYLE
  5
1C
102
{ACAD_REACTORS
330
1B
102
}
330
1B
100
AcDbMlineStyle
  2
STANDARD
 70
     0
  3

 62
     0
 51
90.0
 52
90.0
 71
     2
 49
0.5
 62
   256
  6
BYLAYER
 49
-0.5
 62
   256
  6
BYLAYER
  0
ACDBPLACEHOLDER
  5
724
102
{ACAD_REACTORS
330
723
102
}
330
723
  0
ENDSEC
  0
EOF
