  0
SECTION
  2
HEADER
  9
$ACADVER
  1
AC1015
  9
$ACADMAINTVER
 70
    10
  9
$DWGCODEPAGE
  3
ANSI_932
  9
$INSBASE
 10
0.0
 20
0.0
 30
0.0
  9
$EXTMIN
 10
65.883777610819
 20
139.027303569806
 30
0.0
  9
$EXTMAX
 10
466.7430573093
 20
344.4975518898923
 30
0.0
  9
$LIMMIN
 10
0.0
 20
0.0
  9
$LIMMAX
 10
297.0
 20
210.0
  9
$ORTHOMODE
 70
     0
  9
$REGENMODE
 70
     1
  9
$FILLMODE
 70
     1
  9
$QTEXTMODE
 70
     0
  9
$MIRRTEXT
 70
     1
  9
$LTSCALE
 40
1.0
  9
$ATTMODE
 70
     1
  9
$TEXTSIZE
 40
0.0
  9
$TRACEWID
 40
0.05
  9
$TEXTSTYLE
  7
STANDARD
  9
$CLAYER
  8
HM-2_1_2
  9
$CELTYPE
  6
CONTINUOUS
  9
$CECOLOR
 62
   256
  9
$CELTSCALE
 40
1.0
  9
$DISPSILH
 70
     0
  9
$DIMSCALE
 40
1.0
  9
$DIMASZ
 40
0.18
  9
$DIMEXO
 40
0.0625
  9
$DIMDLI
 40
0.38
  9
$DIMRND
 40
0.0
  9
$DIMDLE
 40
0.0
  9
$DIMEXE
 40
0.18
  9
$DIMTP
 40
0.0
  9
$DIMTM
 40
0.0
  9
$DIMTXT
 40
0.18
  9
$DIMCEN
 40
0.09
  9
$DIMTSZ
 40
0.0
  9
$DIMTOL
 70
     0
  9
$DIMLIM
 70
     0
  9
$DIMTIH
 70
     1
  9
$DIMTOH
 70
     1
  9
$DIMSE1
 70
     0
  9
$DIMSE2
 70
     0
  9
$DIMTAD
 70
     0
  9
$DIMZIN
 70
     0
  9
$DIMBLK
  1

  9
$DIMASO
 70
     1
  9
$DIMSHO
 70
     1
  9
$DIMPOST
  1

  9
$DIMAPOST
  1

  9
$DIMALT
 70
     0
  9
$DIMALTD
 70
     2
  9
$DIMALTF
 40
25.4
  9
$DIMLFAC
 40
1.0
  9
$DIMTOFL
 70
     0
  9
$DIMTVP
 40
0.0
  9
$DIMTIX
 70
     0
  9
$DIMSOXD
 70
     0
  9
$DIMSAH
 70
     0
  9
$DIMBLK1
  1

  9
$DIMBLK2
  1

  9
$DIMSTYLE
  2
STANDARD
  9
$DIMCLRD
 70
     0
  9
$DIMCLRE
 70
     0
  9
$DIMCLRT
 70
     0
  9
$DIMTFAC
 40
1.0
  9
$DIMGAP
 40
0.09
  9
$DIMJUST
 70
     0
  9
$DIMSD1
 70
     0
  9
$DIMSD2
 70
     0
  9
$DIMTOLJ
 70
     1
  9
$DIMTZIN
 70
     0
  9
$DIMALTZ
 70
     0
  9
$DIMALTTZ
 70
     0
  9
$DIMUPT
 70
     0
  9
$DIMDEC
 70
     4
  9
$DIMTDEC
 70
     4
  9
$DIMALTU
 70
     2
  9
$DIMALTTD
 70
     2
  9
$DIMTXSTY
  7
STANDARD
  9
$DIMAUNIT
 70
     0
  9
$DIMADEC
 70
     0
  9
$DIMALTRND
 40
0.0
  9
$DIMAZIN
 70
     0
  9
$DIMDSEP
 70
    46
  9
$DIMATFIT
 70
     3
  9
$DIMFRAC
 70
     0
  9
$DIMLDRBLK
  1

  9
$DIMLUNIT
 70
     2
  9
$DIMLWD
 70
    -2
  9
$DIMLWE
 70
    -2
  9
$DIMTMOVE
 70
     0
  9
$LUNITS
 70
     2
  9
$LUPREC
 70
     4
  9
$SKETCHINC
 40
0.1
  9
$FILLETRAD
 40
0.0
  9
$AUNITS
 70
     0
  9
$AUPREC
 70
     0
  9
$MENU
  1
acad
  9
$ELEVATION
 40
0.0
  9
$PELEVATION
 40
0.0
  9
$THICKNESS
 40
0.0
  9
$LIMCHECK
 70
     0
  9
$CHAMFERA
 40
0.0
  9
$CHAMFERB
 40
0.0
  9
$CHAMFERC
 40
0.0
  9
$CHAMFERD
 40
0.0
  9
$SKPOLY
 70
     0
  9
$TDCREATE
 40
2311945.702129432
  9
$TDUCREATE
 40
2311945.327129433
  9
$TDUPDATE
 40
2456666.487904872
  9
$TDUUPDATE
 40
2456666.112904872
  9
$TDINDWG
 40
0.0001103125
  9
$TDUSRTIMER
 40
0.0001103125
  9
$USRTIMER
 70
     1
  9
$ANGBASE
 50
0.0
  9
$ANGDIR
 70
     0
  9
$PDMODE
 70
     0
  9
$PDSIZE
 40
0.0
  9
$PLINEWID
 40
0.0
  9
$SPLFRAME
 70
     0
  9
$SPLINETYPE
 70
     6
  9
$SPLINESEGS
 70
     8
  9
$HANDSEED
  5
1A3
  9
$SURFTAB1
 70
     6
  9
$SURFTAB2
 70
     6
  9
$SURFTYPE
 70
     6
  9
$SURFU
 70
     6
  9
$SURFV
 70
     6
  9
$UCSBASE
  2

  9
$UCSNAME
  2

  9
$UCSORG
 10
0.0
 20
0.0
 30
0.0
  9
$UCSXDIR
 10
1.0
 20
0.0
 30
0.0
  9
$UCSYDIR
 10
0.0
 20
1.0
 30
0.0
  9
$UCSORTHOREF
  2

  9
$UCSORTHOVIEW
 70
     0
  9
$UCSORGTOP
 10
0.0
 20
0.0
 30
0.0
  9
$UCSORGBOTTOM
 10
0.0
 20
0.0
 30
0.0
  9
$UCSORGLEFT
 10
0.0
 20
0.0
 30
0.0
  9
$UCSORGRIGHT
 10
0.0
 20
0.0
 30
0.0
  9
$UCSORGFRONT
 10
0.0
 20
0.0
 30
0.0
  9
$UCSORGBACK
 10
0.0
 20
0.0
 30
0.0
  9
$PUCSBASE
  2

  9
$PUCSNAME
  2

  9
$PUCSORG
 10
0.0
 20
0.0
 30
0.0
  9
$PUCSXDIR
 10
1.0
 20
0.0
 30
0.0
  9
$PUCSYDIR
 10
0.0
 20
1.0
 30
0.0
  9
$PUCSORTHOREF
  2

  9
$PUCSORTHOVIEW
 70
     0
  9
$PUCSORGTOP
 10
0.0
 20
0.0
 30
0.0
  9
$PUCSORGBOTTOM
 10
0.0
 20
0.0
 30
0.0
  9
$PUCSORGLEFT
 10
0.0
 20
0.0
 30
0.0
  9
$PUCSORGRIGHT
 10
0.0
 20
0.0
 30
0.0
  9
$PUCSORGFRONT
 10
0.0
 20
0.0
 30
0.0
  9
$PUCSORGBACK
 10
0.0
 20
0.0
 30
0.0
  9
$USERI1
 70
     0
  9
$USERI2
 70
     0
  9
$USERI3
 70
     0
  9
$USERI4
 70
     0
  9
$USERI5
 70
     0
  9
$USERR1
 40
0.0
  9
$USERR2
 40
0.0
  9
$USERR3
 40
0.0
  9
$USERR4
 40
0.0
  9
$USERR5
 40
0.0
  9
$WORLDVIEW
 70
     1
  9
$SHADEDGE
 70
     3
  9
$SHADEDIF
 70
    70
  9
$TILEMODE
 70
     1
  9
$MAXACTVP
 70
    16
  9
$PINSBASE
 10
0.0
 20
0.0
 30
0.0
  9
$PLIMCHECK
 70
     0
  9
$PEXTMIN
 10
1.000000000000000E+20
 20
1.000000000000000E+20
 30
1.000000000000000E+20
  9
$PEXTMAX
 10
-1.000000000000000E+20
 20
-1.000000000000000E+20
 30
-1.000000000000000E+20
  9
$PLIMMIN
 10
0.0
 20
0.0
  9
$PLIMMAX
 10
12.0
 20
9.0
  9
$UNITMODE
 70
     0
  9
$VISRETAIN
 70
     0
  9
$PLINEGEN
 70
     1
  9
$PSLTSCALE
 70
     0
  9
$TREEDEPTH
 70
  3020
  9
$CMLSTYLE
  2
STANDARD
  9
$CMLJUST
 70
     0
  9
$CMLSCALE
 40
1.0
  9
$PROXYGRAPHICS
 70
     1
  9
$MEASUREMENT
 70
     0
  9
$CELWEIGHT
370
    -1
  9
$ENDCAPS
280
     0
  9
$JOINSTYLE
280
     0
  9
$LWDISPLAY
290
     0
  9
$INSUNITS
 70
     0
  9
$HYPERLINKBASE
  1

  9
$STYLESHEET
  1

  9
$XEDIT
290
     1
  9
$CEPSNTYPE
380
     0
  9
$PSTYLEMODE
290
     1
  9
$FINGERPRINTGUID
  2
{67ECED90-B5B8-4F7E-8BB3-68D25BE0621C}
  9
$VERSIONGUID
  2
{AB6F6142-79E9-49E7-A479-49FCD5B9238E}
  9
$EXTNAMES
290
     1
  9
$PSVPSCALE
 40
0.0
  9
$OLESTARTUP
290
     0
  0
ENDSEC
  0
SECTION
  2
CLASSES
  0
CLASS
  1
LWPOLYLINE
  2
AcDbPolyline
  3
AutoCAD 2000
 90
    32768
280
     0
281
     1
  0
CLASS
  1
IMAGE
  2
AcDbRasterImage
  3
ISM
 90
    32895
280
     0
281
     1
  0
CLASS
  1
OLE2FRAME
  2
AcDbOle2Frame
  3
AutoCAD 2000
 90
    32768
280
     0
281
     1
  0
CLASS
  1
HATCH
  2
AcDbHatch
  3
AutoCAD 2000
 90
    32768
280
     0
281
     1
  0
CLASS
  1
DICTIONARYVAR
  2
AcDbDictionaryVar
  3
AutoCAD 2000
 90
    32768
280
     0
281
     0
  0
CLASS
  1
RASTERVARIABLES
  2
AcDbRasterVariables
  3
ISM
 90
    32768
280
     0
281
     0
  0
CLASS
  1
IMAGEDEF
  2
AcDbRasterImageDef
  3
ISM
 90
    32768
280
     0
281
     0
  0
CLASS
  1
IMAGEDEF_REACTOR
  2
AcDbRasterImageDefReactor
  3
ISM
 90
    32769
280
     0
281
     0
  0
CLASS
  1
IDBUFFER
  2
AcDbIdBuffer
  3
AutoCAD 2000
 90
    32768
280
     0
281
     0
  0
CLASS
  1
SPATIAL_FILTER
  2
AcDbSpatialFilter
  3
AutoCAD 2000
 90
    32768
280
     0
281
     0
  0
CLASS
  1
XRECORD
  2
AcDbXrecord
  3
AutoCAD 2000
 90
    32768
280
     0
281
     0
  0
CLASS
  1
SORTENTSTABLE
  2
AcDbSortentsTable
  3
AutoCAD 2000
 90
    32768
280
     0
281
     0
  0
CLASS
  1
LAYER_INDEX
  2
AcDbLayerIndex
  3
AutoCAD 2000
 90
    32768
280
     0
281
     0
  0
CLASS
  1
SPATIAL_INDEX
  2
AcDbSpatialIndex
  3
AutoCAD 2000
 90
    32768
280
     0
281
     0
  0
CLASS
  1
OBJECT_PTR
  2
CAseDLPNTableRecord
  3
"ASE-LPNTableRecord"
 90
    32769
280
     0
281
     0
  0
CLASS
  1
LAYOUT
  2
AcDbLayout
  3
AutoCAD 2000
 90
        0
280
     0
281
     0
  0
CLASS
  1
PLOTSETTINGS
  2
AcDbPlotSettings
  3
AutoCAD 2000
 90
    32768
280
     0
281
     0
  0
CLASS
  1
ACDBDICTIONARYWDFLT
  2
AcDbDictionaryWithDefault
  3
AutoCAD 2000
 90
        0
280
     0
281
     0
  0
CLASS
  1
ACDBPLACEHOLDER
  2
AcDbPlaceHolder
  3
AutoCAD 2000
 90
        0
280
     0
281
     0
  0
CLASS
  1
VBA_PROJECT
  2
AcDbVbaProject
  3
"acadvba"
 90
    32768
280
     0
281
     0
  0
CLASS
  1
WIPEOUT
  2
AcDbWipeout
  3
WipeOut|AutoCAD Express Tool|expresstools@autodesk.com
 90
    32895
280
     0
281
     1
  0
CLASS
  1
WIPEOUTVARIABLES
  2
AcDbWipeoutVariables
  3
WipeOut|AutoCAD Express Tool|expresstools@autodesk.com
 90
    32768
280
     0
281
     0
  0
CLASS
  1
RTEXT
  2
RText
  3
RText|AutoCAD Express Tool|expresstools@autodesk.com
 90
    32768
280
     0
281
     1
  0
CLASS
  1
ARCALIGNEDTEXT
  2
AcDbArcAlignedText
  3
ATEXT|AutoCAD Express Tool|expresstools@autodesk.com
 90
    32768
280
     0
281
     1
  0
ENDSEC
  0
SECTION
  2
TABLES
  0
TABLE
  2
VPORT
  5
7
330
0
100
AcDbSymbolTable
 70
     2
  0
VPORT
  5
1A2
330
7
100
AcDbSymbolTableRecord
100
AcDbViewportTableRecord
  2
*Active
 70
     0
 10
0.0
 20
0.0
 11
1.0
 21
1.0
 12
245.895290571096
 22
98.40548724253233
 13
0.0
 23
0.0
 14
1.0
 24
1.0
 15
0.0
 25
0.0
 16
0.0
 26
0.0
 36
1.0
 17
0.0
 27
0.0
 37
0.0
 40
726.5596503406412
 41
2.119005328596802
 42
50.0
 43
0.0
 44
0.0
 50
0.0
 51
0.0
 71
     0
 72
   100
 73
     1
 74
     1
 75
     0
 76
     0
 77
     0
 78
     0
281
     0
 65
     1
110
0.0
120
0.0
130
0.0
111
1.0
121
0.0
131
0.0
112
0.0
122
1.0
132
0.0
 79
     0
146
0.0
  0
ENDTAB
  0
TABLE
  2
LTYPE
  5
4
330
0
100
AcDbSymbolTable
 70
     6
  0
LTYPE
  5
11
330
4
100
AcDbSymbolTableRecord
100
AcDbLinetypeTableRecord
  2
BYBLOCK
 70
     0
  3

 72
    65
 73
     0
 40
0.0
  0
LTYPE
  5
12
330
4
100
AcDbSymbolTableRecord
100
AcDbLinetypeTableRecord
  2
BYLAYER
 70
     0
  3

 72
    65
 73
     0
 40
0.0
  0
LTYPE
  5
13
330
4
100
AcDbSymbolTableRecord
100
AcDbLinetypeTableRecord
  2
CONTINUOUS
 70
     0
  3
Solid line
 72
    65
 73
     0
 40
0.0
  0
LTYPE
  5
1D
330
4
100
AcDbSymbolTableRecord
100
AcDbLinetypeTableRecord
  2
DASHED
 70
     0
  3
__ __ __ __ __ __ __ __ __ __ __ __ __ __ __
 72
    65
 73
     2
 40
4.0
 49
3.0
 74
     0
 49
-1.0
 74
     0
  0
LTYPE
  5
1E
330
4
100
AcDbSymbolTableRecord
100
AcDbLinetypeTableRecord
  2
HIDDEN
 70
     0
  3
_ _ _ _ _ _ _ _ _ _ _ _ _ _ _ _ _ _ _ _ _ _ _
 72
    65
 73
     2
 40
2.25
 49
0.25
 74
     0
 49
-2.0
 74
     0
  0
LTYPE
  5
1F
330
4
100
AcDbSymbolTableRecord
100
AcDbLinetypeTableRecord
  2
DOT
 70
     0
  3
...............................................
 72
    65
 73
     2
 40
4.0
 49
1.0
 74
     0
 49
-3.0
 74
     0
  0
LTYPE
  5
20
330
4
100
AcDbSymbolTableRecord
100
AcDbLinetypeTableRecord
  2
DASHDOT
 70
     0
  3
__ . __ . __ . __ . __ . __ . __ . __ . __ . __
 72
    65
 73
     4
 40
7.5
 49
6.0
 74
     0
 49
-0.5
 74
     0
 49
0.5
 74
     0
 49
-0.5
 74
     0
  0
LTYPE
  5
21
330
4
100
AcDbSymbolTableRecord
100
AcDbLinetypeTableRecord
  2
DIVIDE
 70
     0
  3
__ . . __ . . __ . . __ . . __ . . __ . . __
 72
    65
 73
     6
 40
8.5
 49
6.0
 74
     0
 49
-0.5
 74
     0
 49
0.5
 74
     0
 49
-0.5
 74
     0
 49
0.5
 74
     0
 49
-0.5
 74
     0
  0
ENDTAB
  0
TABLE
  2
LAYER
  5
2
330
0
100
AcDbSymbolTable
 70
     3
  0
LAYER
  5
14
330
2
100
AcDbSymbolTableRecord
100
AcDbLayerTableRecord
  2
0
 70
     0
 62
     7
  6
CONTINUOUS
370
    -3
390
199
  0
LAYER
  5
22
330
2
100
AcDbSymbolTableRecord
100
AcDbLayerTableRecord
  2
HM-2_1_2
 70
     0
 62
     7
  6
CONTINUOUS
370
    -3
390
199
  0
LAYER
  5
23
330
2
100
AcDbSymbolTableRecord
100
AcDbLayerTableRecord
  2
未使用
 70
     0
 62
     7
  6
CONTINUOUS
370
    -3
390
199
  0
ENDTAB
  0
TABLE
  2
STYLE
  5
3
330
0
100
AcDbSymbolTable
 70
     3
  0
STYLE
  5
17
330
3
100
AcDbSymbolTableRecord
100
AcDbTextStyleTableRecord
  2
STANDARD
 70
     0
 40
0.0
 41
1.0
 50
0.0
 71
     0
 42
0.0
  3
txt
  4

  0
STYLE
  5
24
330
3
100
AcDbSymbolTableRecord
100
AcDbTextStyleTableRecord
  2
BIGFONT
 70
     0
 40
1.0
 41
1.0
 50
0.0
 71
     0
 42
0.0
  3
monotxt.shx
  4
bigfont
  0
STYLE
  5
25
330
3
100
AcDbSymbolTableRecord
100
AcDbTextStyleTableRecord
  2
ＭＳ_ゴシック
 70
     0
 40
0.0
 41
1.0
 50
0.0
 71
     0
 42
0.0
  3
MS Gothic.ttf
  4

1001
ACAD
1000
MS Gothic
1071
    32817
  0
ENDTAB
  0
TABLE
  2
VIEW
  5
5
330
0
100
AcDbSymbolTable
 70
     0
  0
ENDTAB
  0
TABLE
  2
UCS
  5
6
330
0
100
AcDbSymbolTable
 70
     0
  0
ENDTAB
  0
TABLE
  2
APPID
  5
8
330
0
100
AcDbSymbolTable
 70
     1
  0
APPID
  5
16
330
8
100
AcDbSymbolTableRecord
100
AcDbRegAppTableRecord
  2
ACAD
 70
     0
  0
ENDTAB
  0
TABLE
  2
DIMSTYLE
  5
9
330
0
100
AcDbSymbolTable
 70
     2
100
AcDbDimStyleTable
 71
     0
  0
DIMSTYLE
105
18
330
9
100
AcDbSymbolTableRecord
100
AcDbDimStyleTableRecord
  2
STANDARD
 70
     0
340
17
  0
DIMSTYLE
105
26
102
{ACAD_REACTORS
330
17F
330
180
330
181
330
18C
102
}
330
9
100
AcDbSymbolTableRecord
100
AcDbDimStyleTableRecord
  2
MARK2_DIMSTYLE
 70
     0
 41
2.0
 42
1.0
 43
10.0
 44
1.0
 73
     0
 77
     1
140
6.0
146
0.5
147
1.0
271
     2
340
25
341
27
342
27
  0
ENDTAB
  0
TABLE
  2
BLOCK_RECORD
  5
1
330
0
100
AcDbSymbolTable
 70
     6
  0
BLOCK_RECORD
  5
A
330
1
100
AcDbSymbolTableRecord
100
AcDbBlockTableRecord
  2
*MODEL_SPACE
340
19C
  0
BLOCK_RECORD
  5
B
330
1
100
AcDbSymbolTableRecord
100
AcDbBlockTableRecord
  2
*PAPER_SPACE
340
19D
  0
BLOCK_RECORD
  5
27
330
1
100
AcDbSymbolTableRecord
100
AcDbBlockTableRecord
  2
_OPEN
340
0
102
{BLKREFS
331
34
331
35
331
36
331
37
331
3F
331
40
331
41
331
42
331
4A
331
4B
331
4C
331
4D
331
55
331
56
331
57
331
58
102
}
  0
BLOCK_RECORD
  5
2D
330
1
100
AcDbSymbolTableRecord
100
AcDbBlockTableRecord
  2
_NONE
340
0
  0
BLOCK_RECORD
  5
30
330
1
100
AcDbSymbolTableRecord
100
AcDbBlockTableRecord
  2
*D2
340
0
  0
BLOCK_RECORD
  5
3B
330
1
100
AcDbSymbolTableRecord
100
AcDbBlockTableRecord
  2
*D3
340
0
  0
BLOCK_RECORD
  5
46
330
1
100
AcDbSymbolTableRecord
100
AcDbBlockTableRecord
  2
*D4
340
0
  0
BLOCK_RECORD
  5
51
330
1
100
AcDbSymbolTableRecord
100
AcDbBlockTableRecord
  2
*D5
340
0
  0
ENDTAB
  0
ENDSEC
  0
SECTION
  2
BLOCKS
  0
BLOCK
  5
D
330
A
100
AcDbEntity
  8
0
100
AcDbBlockBegin
  2
*MODEL_SPACE
 70
     0
 10
0.0
 20
0.0
 30
0.0
  3
*MODEL_SPACE
  1

  0
ENDBLK
  5
E
330
A
100
AcDbEntity
  8
0
100
AcDbBlockEnd
  0
BLOCK
  5
F
330
B
100
AcDbEntity
 67
     1
  8
0
100
AcDbBlockBegin
  2
*PAPER_SPACE
 70
     0
 10
0.0
 20
0.0
 30
0.0
  3
*PAPER_SPACE
  1

  0
ENDBLK
  5
10
330
B
100
AcDbEntity
 67
     1
  8
0
100
AcDbBlockEnd
  0
BLOCK
  5
28
330
27
100
AcDbEntity
  8
0
 62
     0
100
AcDbBlockBegin
  2
_OPEN
 70
     0
 10
0.0
 20
0.0
 30
0.0
  3
_OPEN
  1

  0
LINE
  5
29
330
27
100
AcDbEntity
  8
0
 62
     0
100
AcDbLine
 10
-1.0
 20
0.166666666667
 30
0.0
 11
0.0
 21
0.0
 31
0.0
  0
LINE
  5
2A
330
27
100
AcDbEntity
  8
0
 62
     0
100
AcDbLine
 10
-1.0
 20
-0.166666666667
 30
0.0
 11
0.0
 21
0.0
 31
0.0
  0
LINE
  5
2B
330
27
100
AcDbEntity
  8
0
 62
     0
100
AcDbLine
 10
0.0
 20
0.0
 30
0.0
 11
-1.0
 21
0.0
 31
0.0
  0
ENDBLK
  5
2C
330
27
100
AcDbEntity
  8
0
100
AcDbBlockEnd
  0
BLOCK
  5
2E
330
2D
100
AcDbEntity
  8
0
 62
     0
100
AcDbBlockBegin
  2
_NONE
 70
     0
 10
0.0
 20
0.0
 30
0.0
  3
_NONE
  1

  0
ENDBLK
  5
2F
330
2D
100
AcDbEntity
  8
0
100
AcDbBlockEnd
  0
BLOCK
  5
31
330
30
100
AcDbEntity
  8
0
 62
     7
100
AcDbBlockBegin
  2
*D2
 70
     1
 10
0.0
 20
0.0
 30
0.0
  3
*D2
  1

  0
LINE
  5
32
330
30
100
AcDbEntity
  8
HM-2_1_2
  6
Continuous
 62
     7
100
AcDbLine
 10
214.26156957527
 20
141.527303569806
 30
0.0
 11
194.26156957527
 21
141.527303569806
 31
0.0
  0
LINE
  5
33
330
30
100
AcDbEntity
  8
HM-2_1_2
  6
Continuous
 62
     7
100
AcDbLine
 10
214.26156957527
 20
281.5273035698059
 30
0.0
 11
194.26156957527
 21
281.5273035698059
 31
0.0
  0
INSERT
  5
34
330
30
100
AcDbEntity
  8
HM-2_1_2
  6
Continuous
 62
     7
100
AcDbBlockReference
  2
_OPEN
 10
196.26156957527
 20
141.527303569806
 30
0.0
 41
4.0
 42
4.0
 50
270.0
  0
INSERT
  5
35
330
30
100
AcDbEntity
  8
HM-2_1_2
  6
Continuous
 62
     7
100
AcDbBlockReference
  2
_OPEN
 10
196.26156957527
 20
281.5273035698059
 30
0.0
 41
4.0
 42
4.0
 50
90.0
  0
INSERT
  5
36
330
30
100
AcDbEntity
  8
HM-2_1_2
  6
Continuous
 62
     7
100
AcDbBlockReference
  2
_OPEN
 10
196.26156957527
 20
141.527303569806
 30
0.0
 41
4.0
 42
4.0
 50
270.0
  0
INSERT
  5
37
330
30
100
AcDbEntity
  8
HM-2_1_2
  6
Continuous
 62
     7
100
AcDbBlockReference
  2
_OPEN
 10
196.26156957527
 20
281.5273035698059
 30
0.0
 41
4.0
 42
4.0
 50
90.0
  0
LINE
  5
38
330
30
100
AcDbEntity
  8
HM-2_1_2
  6
Continuous
 62
     7
100
AcDbLine
 10
196.26156957527
 20
141.527303569806
 30
0.0
 11
196.26156957527
 21
281.5273035698059
 31
0.0
  0
TEXT
  5
39
330
30
100
AcDbEntity
  8
HM-2_1_2
 62
     7
100
AcDbText
 10
194.26156957527
 20
205.4846639758993
 30
0.0
 40
6.0
  1
140
 50
90.0
 41
1.033333333332999
  7
ＭＳ_ゴシック
 72
     1
 11
194.26156957527
 21
211.5273035698059
 31
0.0
100
AcDbText
  0
ENDBLK
  5
3A
330
30
100
AcDbEntity
  8
0
100
AcDbBlockEnd
  0
BLOCK
  5
3C
330
3B
100
AcDbEntity
  8
0
 62
     7
100
AcDbBlockBegin
  2
*D3
 70
     1
 10
0.0
 20
0.0
 30
0.0
  3
*D3
  1

  0
LINE
  5
3D
330
3B
100
AcDbEntity
  8
HM-2_1_2
  6
Continuous
 62
     7
100
AcDbLine
 10
216.26156957527
 20
283.527303569806
 30
0.0
 11
216.26156957527
 21
303.527303569806
 31
0.0
  0
LINE
  5
3E
330
3B
100
AcDbEntity
  8
HM-2_1_2
  6
Continuous
 62
     7
100
AcDbLine
 10
286.26156957527
 20
283.527303569806
 30
0.0
 11
286.26156957527
 21
303.527303569806
 31
0.0
  0
INSERT
  5
3F
330
3B
100
AcDbEntity
  8
HM-2_1_2
  6
Continuous
 62
     7
100
AcDbBlockReference
  2
_OPEN
 10
216.26156957527
 20
301.527303569806
 30
0.0
 41
4.0
 42
4.0
 50
180.0
  0
INSERT
  5
40
330
3B
100
AcDbEntity
  8
HM-2_1_2
  6
Continuous
 62
     7
100
AcDbBlockReference
  2
_OPEN
 10
286.26156957527
 20
301.527303569806
 30
0.0
 41
4.0
 42
4.0
  0
INSERT
  5
41
330
3B
100
AcDbEntity
  8
HM-2_1_2
  6
Continuous
 62
     7
100
AcDbBlockReference
  2
_OPEN
 10
216.26156957527
 20
301.527303569806
 30
0.0
 41
4.0
 42
4.0
 50
180.0
  0
INSERT
  5
42
330
3B
100
AcDbEntity
  8
HM-2_1_2
  6
Continuous
 62
     7
100
AcDbBlockReference
  2
_OPEN
 10
286.26156957527
 20
301.527303569806
 30
0.0
 41
4.0
 42
4.0
  0
LINE
  5
43
330
3B
100
AcDbEntity
  8
HM-2_1_2
  6
Continuous
 62
     7
100
AcDbLine
 10
216.26156957527
 20
301.527303569806
 30
0.0
 11
286.26156957527
 21
301.527303569806
 31
0.0
  0
TEXT
  5
44
330
3B
100
AcDbEntity
  8
HM-2_1_2
 62
     7
100
AcDbText
 10
247.2331431793322
 20
303.527303569806
 30
0.0
 40
6.0
  1
70
 41
1.033333333332999
  7
ＭＳ_ゴシック
 72
     1
 11
251.26156957527
 21
303.527303569806
 31
0.0
100
AcDbText
  0
ENDBLK
  5
45
330
3B
100
AcDbEntity
  8
0
100
AcDbBlockEnd
  0
BLOCK
  5
47
330
46
100
AcDbEntity
  8
0
 62
     7
100
AcDbBlockBegin
  2
*D4
 70
     1
 10
0.0
 20
0.0
 30
0.0
  3
*D4
  1

  0
LINE
  5
48
330
46
100
AcDbEntity
  8
HM-2_1_2
  6
Continuous
 62
     7
100
AcDbLine
 10
216.26156957527
 20
283.527303569806
 30
0.0
 11
216.26156957527
 21
318.527303569806
 31
0.0
  0
LINE
  5
49
330
46
100
AcDbEntity
  8
HM-2_1_2
  6
Continuous
 62
     7
100
AcDbLine
 10
309.26156957527
 20
272.3273035698059
 30
0.0
 11
309.26156957527
 21
318.527303569806
 31
0.0
  0
INSERT
  5
4A
330
46
100
AcDbEntity
  8
HM-2_1_2
  6
Continuous
 62
     7
100
AcDbBlockReference
  2
_OPEN
 10
216.26156957527
 20
316.527303569806
 30
0.0
 41
4.0
 42
4.0
 50
180.0
  0
INSERT
  5
4B
330
46
100
AcDbEntity
  8
HM-2_1_2
  6
Continuous
 62
     7
100
AcDbBlockReference
  2
_OPEN
 10
309.26156957527
 20
316.527303569806
 30
0.0
 41
4.0
 42
4.0
  0
INSERT
  5
4C
330
46
100
AcDbEntity
  8
HM-2_1_2
  6
Continuous
 62
     7
100
AcDbBlockReference
  2
_OPEN
 10
216.26156957527
 20
316.527303569806
 30
0.0
 41
4.0
 42
4.0
 50
180.0
  0
INSERT
  5
4D
330
46
100
AcDbEntity
  8
HM-2_1_2
  6
Continuous
 62
     7
100
AcDbBlockReference
  2
_OPEN
 10
309.26156957527
 20
316.527303569806
 30
0.0
 41
4.0
 42
4.0
  0
LINE
  5
4E
330
46
100
AcDbEntity
  8
HM-2_1_2
  6
Continuous
 62
     7
100
AcDbLine
 10
216.26156957527
 20
316.527303569806
 30
0.0
 11
309.26156957527
 21
316.527303569806
 31
0.0
  0
TEXT
  5
4F
330
46
100
AcDbEntity
  8
HM-2_1_2
 62
     7
100
AcDbText
 10
254.7047167833944
 20
318.527303569806
 30
0.0
 40
6.0
  1
(93)
 41
1.033333333332999
  7
ＭＳ_ゴシック
 72
     1
 11
262.76156957527
 21
318.527303569806
 31
0.0
100
AcDbText
  0
ENDBLK
  5
50
330
46
100
AcDbEntity
  8
0
100
AcDbBlockEnd
  0
BLOCK
  5
52
330
51
100
AcDbEntity
  8
0
 62
     7
100
AcDbBlockBegin
  2
*D5
 70
     1
 10
0.0
 20
0.0
 30
0.0
  3
*D5
  1

  0
LINE
  5
53
330
51
100
AcDbEntity
  8
HM-2_1_2
  6
Continuous
 62
     7
100
AcDbLine
 10
351.26156957527
 20
283.527303569806
 30
0.0
 11
351.26156957527
 21
303.527303569806
 31
0.0
  0
LINE
  5
54
330
51
100
AcDbEntity
  8
HM-2_1_2
  6
Continuous
 62
     7
100
AcDbLine
 10
381.26156957527
 20
281.5273035698059
 30
0.0
 11
381.26156957527
 21
303.527303569806
 31
0.0
  0
INSERT
  5
55
330
51
100
AcDbEntity
  8
HM-2_1_2
  6
Continuous
 62
     7
100
AcDbBlockReference
  2
_OPEN
 10
351.2615695752689
 20
301.527303569806
 30
0.0
 41
4.0
 42
4.0
 50
180.0
  0
INSERT
  5
56
330
51
100
AcDbEntity
  8
HM-2_1_2
  6
Continuous
 62
     7
100
AcDbBlockReference
  2
_OPEN
 10
381.261569575269
 20
301.527303569806
 30
0.0
 41
4.0
 42
4.0
  0
INSERT
  5
57
330
51
100
AcDbEntity
  8
HM-2_1_2
  6
Continuous
 62
     7
100
AcDbBlockReference
  2
_OPEN
 10
351.2615695752689
 20
301.527303569806
 30
0.0
 41
4.0
 42
4.0
 50
180.0
  0
INSERT
  5
58
330
51
100
AcDbEntity
  8
HM-2_1_2
  6
Continuous
 62
     7
100
AcDbBlockReference
  2
_OPEN
 10
381.261569575269
 20
301.527303569806
 30
0.0
 41
4.0
 42
4.0
  0
LINE
  5
59
330
51
100
AcDbEntity
  8
HM-2_1_2
  6
Continuous
 62
     7
100
AcDbLine
 10
351.2615695752689
 20
301.527303569806
 30
0.0
 11
381.261569575269
 21
301.527303569806
 31
0.0
  0
TEXT
  5
5A
330
51
100
AcDbEntity
  8
HM-2_1_2
 62
     7
100
AcDbText
 10
362.2331431793312
 20
303.527303569806
 30
0.0
 40
6.0
  1
30
 41
1.033333333332999
  7
ＭＳ_ゴシック
 72
     1
 11
366.2615695752689
 21
303.527303569806
 31
0.0
100
AcDbText
  0
ENDBLK
  5
5B
330
51
100
AcDbEntity
  8
0
100
AcDbBlockEnd
  0
ENDSEC
  0
SECTION
  2
ENTITIES
  0
TEXT
  5
5C
330
A
100
AcDbEntity
  8
HM-2_1_2
 62
     7
100
AcDbText
 10
65.89600624025
 20
331.0965366614659
 30
0.0
 40
12.0
  1
HM-2
 41
1.033333333332999
  7
ＭＳ_ゴシック
100
AcDbText
  0
LWPOLYLINE
  5
5D
330
A
100
AcDbEntity
  8
HM-2_1_2
  6
Continuous
 62
     7
100
AcDbPolyline
 90
        2
 70
     0
 43
0.0
 10
216.26156957527
 20
281.5273035698059
 10
216.26156957527
 20
141.527303569806
  0
LWPOLYLINE
  5
61
330
A
100
AcDbEntity
  8
HM-2_1_2
  6
Continuous
 62
     7
100
AcDbPolyline
 90
        2
 70
     0
 43
0.0
 10
216.26156957527
 20
281.5273035698059
 10
286.26156957527
 20
281.5273035698059
  0
LWPOLYLINE
  5
65
330
A
100
AcDbEntity
  8
HM-2_1_2
  6
Continuous
 62
     7
100
AcDbPolyline
 90
        2
 70
     0
 43
0.0
 10
286.26156957527
 20
141.527303569806
 10
286.26156957527
 20
281.5273035698059
  0
ARC
  5
69
330
A
100
AcDbEntity
  8
HM-2_1_2
  6
Continuous
 62
     7
100
AcDbCircle
 10
307.76156957527
 20
155.027303569806
 30
0.0
 40
0.5
100
AcDbArc
 50
0.0
 51
90.0
  0
ARC
  5
6A
330
A
100
AcDbEntity
  8
HM-2_1_2
  6
Continuous
 62
     7
100
AcDbCircle
 10
307.76156957527
 20
162.027303569806
 30
0.0
 40
0.5
100
AcDbArc
 50
270.0
 51
0.0
  0
ARC
  5
6B
330
A
100
AcDbEntity
  8
HM-2_1_2
  6
Continuous
 62
     7
100
AcDbCircle
 10
306.76156957527
 20
261.027303569806
 30
0.0
 40
0.5
100
AcDbArc
 50
0.0
 51
90.0
  0
ARC
  5
6C
330
A
100
AcDbEntity
  8
HM-2_1_2
  6
Continuous
 62
     7
100
AcDbCircle
 10
306.76156957527
 20
268.027303569806
 30
0.0
 40
0.5
100
AcDbArc
 50
270.0
 51
0.0
  0
LWPOLYLINE
  5
6D
330
A
100
AcDbEntity
  8
HM-2_1_2
  6
Continuous
 62
     7
100
AcDbPolyline
 90
        2
 70
     0
 43
0.0
 10
308.26156957527
 20
152.7273035698059
 10
308.26156957527
 20
164.327303569806
  0
LWPOLYLINE
  5
71
330
A
100
AcDbEntity
  8
HM-2_1_2
  6
Continuous
 62
     7
100
AcDbPolyline
 90
        2
 70
     0
 43
0.0
 10
308.46156957527
 20
152.527303569806
 10
308.26156957527
 20
152.7273035698059
  0
LWPOLYLINE
  5
75
330
A
100
AcDbEntity
  8
HM-2_1_2
  6
Continuous
 62
     7
100
AcDbPolyline
 90
        2
 70
     0
 43
0.0
 10
308.46156957527
 20
164.527303569806
 10
308.26156957527
 20
164.327303569806
  0
LWPOLYLINE
  5
79
330
A
100
AcDbEntity
  8
HM-2_1_2
  6
Continuous
 62
     7
100
AcDbPolyline
 90
        2
 70
     0
 43
0.0
 10
307.4615695752699
 20
258.5273035698059
 10
307.26156957527
 20
258.727303569806
  0
LWPOLYLINE
  5
7D
330
A
100
AcDbEntity
  8
HM-2_1_2
  6
Continuous
 62
     7
100
AcDbPolyline
 90
        2
 70
     0
 43
0.0
 10
307.4615695752699
 20
270.527303569806
 10
307.26156957527
 20
270.3273035698059
  0
LWPOLYLINE
  5
81
330
A
100
AcDbEntity
  8
HM-2_1_2
  6
Continuous
 62
     7
100
AcDbPolyline
 90
        2
 70
     0
 43
0.0
 10
307.26156957527
 20
258.727303569806
 10
307.26156957527
 20
270.3273035698059
  0
LWPOLYLINE
  5
85
330
A
100
AcDbEntity
  8
HM-2_1_2
  6
Continuous
 62
     7
100
AcDbPolyline
 90
        2
 70
     0
 43
0.0
 10
216.26156957527
 20
218.827303514951
 10
216.26156957527
 20
210.827303514951
  0
ARC
  5
89
330
A
100
AcDbEntity
  8
HM-2_1_2
  6
Continuous
 62
     7
100
AcDbCircle
 10
220.4615695752699
 20
214.827303569806
 30
0.0
 40
5.799999999999999
100
AcDbArc
 50
136.3971810272969
 51
223.602818972703
  0
CIRCLE
  5
8A
330
A
100
AcDbEntity
  8
HM-2_1_2
  6
Continuous
 62
     7
100
AcDbCircle
 10
144.86156957527
 20
214.827303569806
 30
0.0
 40
4.0
  0
LWPOLYLINE
  5
8B
330
A
100
AcDbEntity
  8
HM-2_1_2
  6
Continuous
 62
     7
100
AcDbPolyline
 90
        2
 70
     0
 43
0.0
 10
126.2615695752699
 20
279.5273035698059
 10
126.2615695752699
 20
143.527303569806
  0
LWPOLYLINE
  5
8F
330
A
100
AcDbEntity
  8
HM-2_1_2
  6
Continuous
 62
     7
100
AcDbPolyline
 90
        2
 70
     0
 43
0.0
 10
156.26156957527
 20
281.527303569807
 10
156.26156957527
 20
141.527303569806
  0
LWPOLYLINE
  5
93
330
A
100
AcDbEntity
  8
HM-2_1_2
  6
Continuous
 62
     7
100
AcDbPolyline
 90
        2
 70
     0
 43
0.0
 10
156.26156957527
 20
141.527303569806
 10
128.26156957527
 20
141.527303569806
  0
CIRCLE
  5
97
330
A
100
AcDbEntity
  8
HM-2_1_2
  6
Continuous
 62
     7
100
AcDbCircle
 10
145.16156957527
 20
203.7273035698059
 30
0.0
 40
4.0
  0
LWPOLYLINE
  5
98
330
A
100
AcDbEntity
  8
HM-2_1_2
  6
Continuous
 62
     7
100
AcDbPolyline
 90
        2
 70
     0
 43
0.0
 10
216.26156957527
 20
141.527303569806
 10
286.26156957527
 20
141.527303569806
  0
TEXT
  5
9C
330
A
100
AcDbEntity
  8
HM-2_1_2
 62
     7
100
AcDbText
 10
219.5615695752699
 20
144.527303569806
 30
0.0
 40
10.2
  1
HOYA
 41
1.099725
  7
ＭＳ_ゴシック
100
AcDbText
  0
LWPOLYLINE
  5
9D
330
A
100
AcDbEntity
  8
HM-2_1_2
  6
Continuous
 62
     7
100
AcDbPolyline
 90
        2
 70
     0
 43
0.0
 10
228.36156957527
 20
197.6273035698059
 10
228.36156957527
 20
181.4273035698059
  0
LWPOLYLINE
  5
A1
330
A
100
AcDbEntity
  8
HM-2_1_2
  6
Continuous
 62
     7
100
AcDbPolyline
 90
        2
 70
     0
 43
0.0
 10
244.5615695752699
 20
197.6273035698059
 10
244.5615695752699
 20
181.4273035698059
  0
LWPOLYLINE
  5
A5
330
A
100
AcDbEntity
  8
HM-2_1_2
  6
Continuous
 62
     7
100
AcDbPolyline
 90
        2
 70
     0
 43
0.0
 10
228.36156957527
 20
181.4273035698059
 10
244.5615695752699
 20
181.4273035698059
  0
LWPOLYLINE
  5
A9
330
A
100
AcDbEntity
  8
HM-2_1_2
  6
Continuous
 62
     7
100
AcDbPolyline
 90
        2
 70
     0
 43
0.0
 10
228.36156957527
 20
197.6273035698059
 10
244.5615695752699
 20
197.6273035698059
  0
LWPOLYLINE
  5
AD
330
A
100
AcDbEntity
  8
HM-2_1_2
  6
Continuous
 62
     7
100
AcDbPolyline
 90
        2
 70
     0
 43
0.0
 10
286.26156957527
 20
155.527303569806
 10
307.76156957527
 20
155.527303569806
  0
LWPOLYLINE
  5
B1
330
A
100
AcDbEntity
  8
HM-2_1_2
  6
Continuous
 62
     7
100
AcDbPolyline
 90
        2
 70
     0
 43
0.0
 10
286.26156957527
 20
161.5273035698059
 10
307.76156957527
 20
161.5273035698059
  0
CIRCLE
  5
B5
330
A
100
AcDbEntity
  8
HM-2_1_2
  6
Continuous
 62
     7
100
AcDbCircle
 10
304.26156957527
 20
158.527303569806
 30
0.0
 40
1.5
  0
CIRCLE
  5
B6
330
A
100
AcDbEntity
  8
HM-2_1_2
  6
Continuous
 62
     7
100
AcDbCircle
 10
144.86156957527
 20
223.427303569806
 30
0.0
 40
4.0
  0
LWPOLYLINE
  5
B7
330
A
100
AcDbEntity
  8
HM-2_1_2
  6
Continuous
 62
     7
100
AcDbPolyline
 90
        2
 70
     0
 43
0.0
 10
128.26156957527
 20
281.5273035698059
 10
156.26156957527
 20
281.5273035698059
  0
CIRCLE
  5
BB
330
A
100
AcDbEntity
  8
HM-2_1_2
  6
Continuous
 62
     7
100
AcDbCircle
 10
244.06156957527
 20
231.727303569806
 30
0.0
 40
4.25
  0
LWPOLYLINE
  5
BC
330
A
100
AcDbEntity
  8
HM-2_1_2
  6
Continuous
 62
     7
100
AcDbPolyline
 90
        2
 70
     0
 43
0.0
 10
229.76156957527
 20
251.5273035698059
 10
272.76156957527
 20
251.5273035698059
  0
LWPOLYLINE
  5
C0
330
A
100
AcDbEntity
  8
HM-2_1_2
  6
Continuous
 62
     7
100
AcDbPolyline
 90
        2
 70
     0
 43
0.0
 10
229.76156957527
 20
263.527303569806
 10
272.76156957527
 20
263.527303569806
  0
LWPOLYLINE
  5
C4
330
A
100
AcDbEntity
  8
HM-2_1_2
  6
Continuous
 62
     7
100
AcDbPolyline
 90
        2
 70
     0
 43
0.0
 10
216.26156957527
 20
227.427303569806
 10
216.26156957527
 20
219.4273035698059
  0
ARC
  5
C8
330
A
100
AcDbEntity
  8
HM-2_1_2
  6
Continuous
 62
     7
100
AcDbCircle
 10
220.4615695752699
 20
223.427303569806
 30
0.0
 40
5.799999999999999
100
AcDbArc
 50
136.3971810272969
 51
223.602818972703
  0
CIRCLE
  5
C9
330
A
100
AcDbEntity
  8
HM-2_1_2
  6
Continuous
 62
     7
100
AcDbCircle
 10
229.6615695752699
 20
231.727303569806
 30
0.0
 40
4.25
  0
ARC
  5
CA
330
A
100
AcDbEntity
  8
HM-2_1_2
  6
Continuous
 62
     7
100
AcDbCircle
 10
229.76156957527
 20
253.5273035698059
 30
0.0
 40
2.0
100
AcDbArc
 50
180.0
 51
270.0
  0
LWPOLYLINE
  5
CB
330
A
100
AcDbEntity
  8
HM-2_1_2
  6
Continuous
 62
     7
100
AcDbPolyline
 90
        2
 70
     0
 43
0.0
 10
227.76156957527
 20
261.527303569806
 10
227.76156957527
 20
253.5273035698059
  0
ARC
  5
CF
330
A
100
AcDbEntity
  8
HM-2_1_2
  6
Continuous
 62
     7
100
AcDbCircle
 10
229.76156957527
 20
261.527303569806
 30
0.0
 40
2.0
100
AcDbArc
 50
90.0
 51
180.0
  0
CIRCLE
  5
D0
330
A
100
AcDbEntity
  8
HM-2_1_2
  6
Continuous
 62
     7
100
AcDbCircle
 10
303.26156957527
 20
264.527303569806
 30
0.0
 40
1.5
  0
CIRCLE
  5
D1
330
A
100
AcDbEntity
  8
HM-2_1_2
  6
Continuous
 62
     7
100
AcDbCircle
 10
272.8615695752699
 20
231.727303569806
 30
0.0
 40
4.25
  0
CIRCLE
  5
D2
330
A
100
AcDbEntity
  8
HM-2_1_2
  6
Continuous
 62
     7
100
AcDbCircle
 10
258.46156957527
 20
231.727303569806
 30
0.0
 40
4.25
  0
ARC
  5
D3
330
A
100
AcDbEntity
  8
HM-2_1_2
  6
Continuous
 62
     7
100
AcDbCircle
 10
272.76156957527
 20
253.5273035698059
 30
0.0
 40
2.0
100
AcDbArc
 50
270.0
 51
0.0
  0
LWPOLYLINE
  5
D4
330
A
100
AcDbEntity
  8
HM-2_1_2
  6
Continuous
 62
     7
100
AcDbPolyline
 90
        2
 70
     0
 43
0.0
 10
274.76156957527
 20
261.527303569806
 10
274.76156957527
 20
253.5273035698059
  0
ARC
  5
D8
330
A
100
AcDbEntity
  8
HM-2_1_2
  6
Continuous
 62
     7
100
AcDbCircle
 10
272.76156957527
 20
261.527303569806
 30
0.0
 40
2.0
100
AcDbArc
 50
0.0
 51
90.0
  0
LWPOLYLINE
  5
D9
330
A
100
AcDbEntity
  8
HM-2_1_2
  6
Continuous
 62
     7
100
AcDbPolyline
 90
        2
 70
     0
 43
0.0
 10
286.26156957527
 20
261.527303569806
 10
306.76156957527
 20
261.527303569806
  0
LWPOLYLINE
  5
DD
330
A
100
AcDbEntity
  8
HM-2_1_2
  6
Continuous
 62
     7
100
AcDbPolyline
 90
        2
 70
     0
 43
0.0
 10
286.26156957527
 20
267.527303569806
 10
306.76156957527
 20
267.527303569806
  0
TEXT
  5
E1
330
A
100
AcDbEntity
  8
HM-2_1_2
 62
     7
100
AcDbText
 10
375.8615695752699
 20
214.827303569806
 30
0.0
 40
5.099999999999999
  1
OUT
 50
90.0
 41
0.59985
  7
ＭＳ_ゴシック
100
AcDbText
  0
LWPOLYLINE
  5
E2
330
A
100
AcDbEntity
  8
HM-2_1_2
  6
Continuous
 62
     7
100
AcDbPolyline
 90
        2
 70
     0
 43
0.0
 10
381.26156957527
 20
279.5273035698059
 10
381.26156957527
 20
143.527303569806
  0
LWPOLYLINE
  5
E6
330
A
100
AcDbEntity
  8
HM-2_1_2
  6
Continuous
 62
     7
100
AcDbPolyline
 90
        2
 70
     0
 43
0.0
 10
351.26156957527
 20
281.5273035698059
 10
351.26156957527
 20
267.8439283601619
  0
CIRCLE
  5
EA
330
A
100
AcDbEntity
  8
HM-2_1_2
  6
Continuous
 62
     7
100
AcDbCircle
 10
362.26156957527
 20
217.5273035698059
 30
0.0
 40
7.9
  0
LWPOLYLINE
  5
EB
330
A
100
AcDbEntity
  8
HM-2_1_2
  6
Continuous
 62
     7
100
AcDbPolyline
 90
        2
 70
     0
 43
0.0
 10
351.26156957527
 20
141.527303569806
 10
379.26156957527
 20
141.527303569806
  0
LWPOLYLINE
  5
EF
330
A
100
AcDbEntity
  8
HM-2_1_2
  6
Continuous
 62
     7
100
AcDbPolyline
 90
        2
 70
     0
 43
0.0
 10
310.26156957527
 20
164.327303569806
 10
310.26156957527
 20
152.7273035698059
  0
LWPOLYLINE
  5
F3
330
A
100
AcDbEntity
  8
HM-2_1_2
  6
Continuous
 62
     7
100
AcDbPolyline
 90
        2
 70
     0
 43
0.0
 10
310.06156957527
 20
152.527303569806
 10
308.46156957527
 20
152.527303569806
  0
LWPOLYLINE
  5
F7
330
A
100
AcDbEntity
  8
HM-2_1_2
  6
Continuous
 62
     7
100
AcDbPolyline
 90
        2
 70
     0
 43
0.0
 10
310.06156957527
 20
152.527303569806
 10
310.26156957527
 20
152.7273035698059
  0
LWPOLYLINE
  5
FB
330
A
100
AcDbEntity
  8
HM-2_1_2
  6
Continuous
 62
     7
100
AcDbPolyline
 90
        2
 70
     0
 43
0.0
 10
310.06156957527
 20
164.527303569806
 10
308.46156957527
 20
164.527303569806
  0
LWPOLYLINE
  5
FF
330
A
100
AcDbEntity
  8
HM-2_1_2
  6
Continuous
 62
     7
100
AcDbPolyline
 90
        2
 70
     0
 43
0.0
 10
310.06156957527
 20
164.527303569806
 10
310.26156957527
 20
164.327303569806
  0
CIRCLE
  5
103
330
A
100
AcDbEntity
  8
HM-2_1_2
  6
Continuous
 62
     7
100
AcDbCircle
 10
356.26156957527
 20
158.527303569806
 30
0.0
 40
6.0
  0
CIRCLE
  5
104
330
A
100
AcDbEntity
  8
HM-2_1_2
  6
Continuous
 62
     7
100
AcDbCircle
 10
362.26156957527
 20
199.5273035698059
 30
0.0
 40
7.9
  0
TEXT
  5
105
330
A
100
AcDbEntity
  8
HM-2_1_2
 62
     7
100
AcDbText
 10
375.8615695752699
 20
197.727303569806
 30
0.0
 40
5.099999999999999
  1
IN
 50
90.0
 41
0.59985
  7
ＭＳ_ゴシック
100
AcDbText
  0
LWPOLYLINE
  5
106
330
A
100
AcDbEntity
  8
HM-2_1_2
  6
Continuous
 62
     7
100
AcDbPolyline
 90
        2
 70
     0
 43
0.0
 10
351.26156957527
 20
281.5273035698059
 10
379.26156957527
 20
281.5273035698059
  0
CIRCLE
  5
10A
330
A
100
AcDbEntity
  8
HM-2_1_2
  6
Continuous
 62
     7
100
AcDbCircle
 10
356.26156957527
 20
264.527303569806
 30
0.0
 40
6.0
  0
LWPOLYLINE
  5
10B
330
A
100
AcDbEntity
  8
HM-2_1_2
  6
Continuous
 62
     7
100
AcDbPolyline
 90
        2
 70
     0
 43
0.0
 10
309.26156957527
 20
270.3273035698059
 10
309.26156957527
 20
258.727303569806
  0
LWPOLYLINE
  5
10F
330
A
100
AcDbEntity
  8
HM-2_1_2
  6
Continuous
 62
     7
100
AcDbPolyline
 90
        2
 70
     0
 43
0.0
 10
309.06156957527
 20
258.5273035698059
 10
309.26156957527
 20
258.727303569806
  0
LWPOLYLINE
  5
113
330
A
100
AcDbEntity
  8
HM-2_1_2
  6
Continuous
 62
     7
100
AcDbPolyline
 90
        2
 70
     0
 43
0.0
 10
309.06156957527
 20
258.5273035698059
 10
307.4615695752699
 20
258.5273035698059
  0
LWPOLYLINE
  5
117
330
A
100
AcDbEntity
  8
HM-2_1_2
  6
Continuous
 62
     7
100
AcDbPolyline
 90
        2
 70
     0
 43
0.0
 10
309.06156957527
 20
270.527303569806
 10
309.26156957527
 20
270.3273035698059
  0
LWPOLYLINE
  5
11B
330
A
100
AcDbEntity
  8
HM-2_1_2
  6
Continuous
 62
     7
100
AcDbPolyline
 90
        2
 70
     0
 43
0.0
 10
309.06156957527
 20
270.527303569806
 10
307.4615695752699
 20
270.527303569806
  0
LWPOLYLINE
  5
11F
330
A
100
AcDbEntity
  8
HM-2_1_2
  6
Continuous
 62
     7
100
AcDbPolyline
 90
        2
 70
     0
 43
0.0
 10
154.76156957527
 20
139.327303569806
 10
146.76156957527
 20
139.327303569806
  0
LWPOLYLINE
  5
123
330
A
100
AcDbEntity
  8
HM-2_1_2
  6
Continuous
 62
     7
100
AcDbPolyline
 90
        2
 70
     0
 43
0.0
 10
147.06156957527
 20
139.027303569806
 10
154.46156957527
 20
139.027303569806
  0
LWPOLYLINE
  5
127
330
A
100
AcDbEntity
  8
HM-2_1_2
  6
Continuous
 62
     7
100
AcDbPolyline
 90
        2
 70
     0
 43
0.0
 10
146.76156957527
 20
141.527303569806
 10
146.76156957527
 20
139.327303569806
  0
LWPOLYLINE
  5
12B
330
A
100
AcDbEntity
  8
HM-2_1_2
  6
Continuous
 62
     7
100
AcDbPolyline
 90
        2
 70
     0
 43
0.0
 10
146.76156957527
 20
139.327303569806
 10
147.06156957527
 20
139.027303569806
  0
LWPOLYLINE
  5
12F
330
A
100
AcDbEntity
  8
HM-2_1_2
  6
Continuous
 62
     7
100
AcDbPolyline
 90
        2
 70
     0
 43
0.0
 10
154.76156957527
 20
141.527303569806
 10
154.76156957527
 20
139.327303569806
  0
LWPOLYLINE
  5
133
330
A
100
AcDbEntity
  8
HM-2_1_2
  6
Continuous
 62
     7
100
AcDbPolyline
 90
        2
 70
     0
 43
0.0
 10
154.76156957527
 20
139.327303569806
 10
154.46156957527
 20
139.027303569806
  0
LWPOLYLINE
  5
137
330
A
100
AcDbEntity
  8
HM-2_1_2
  6
Continuous
 62
     7
100
AcDbPolyline
 90
        2
 70
     0
 43
0.0
 10
255.26156957527
 20
139.327303569806
 10
252.51156957527
 20
139.327303569806
  0
LWPOLYLINE
  5
13B
330
A
100
AcDbEntity
  8
HM-2_1_2
  6
Continuous
 62
     7
100
AcDbPolyline
 90
        2
 70
     0
 43
0.0
 10
252.51156957527
 20
139.027303569806
 10
254.96156957527
 20
139.027303569806
  0
LWPOLYLINE
  5
13F
330
A
100
AcDbEntity
  8
HM-2_1_2
  6
Continuous
 62
     7
100
AcDbPolyline
 90
        2
 70
     0
 43
0.0
 10
247.26156957527
 20
139.327303569806
 10
247.26156957527
 20
141.527303569806
  0
LWPOLYLINE
  5
143
330
A
100
AcDbEntity
  8
HM-2_1_2
  6
Continuous
 62
     7
100
AcDbPolyline
 90
        2
 70
     0
 43
0.0
 10
250.01156957527
 20
140.527303569806
 10
252.51156957527
 20
140.527303569806
  0
LWPOLYLINE
  5
147
330
A
100
AcDbEntity
  8
HM-2_1_2
  6
Continuous
 62
     7
100
AcDbPolyline
 90
        2
 70
     0
 43
0.0
 10
247.26156957527
 20
139.327303569806
 10
250.01156957527
 20
139.327303569806
  0
LWPOLYLINE
  5
14B
330
A
100
AcDbEntity
  8
HM-2_1_2
  6
Continuous
 62
     7
100
AcDbPolyline
 90
        2
 70
     0
 43
0.0
 10
247.26156957527
 20
139.327303569806
 10
247.56156957527
 20
139.027303569806
  0
LWPOLYLINE
  5
14F
330
A
100
AcDbEntity
  8
HM-2_1_2
  6
Continuous
 62
     7
100
AcDbPolyline
 90
        2
 70
     0
 43
0.0
 10
247.56156957527
 20
139.027303569806
 10
250.01156957527
 20
139.027303569806
  0
LWPOLYLINE
  5
153
330
A
100
AcDbEntity
  8
HM-2_1_2
  6
Continuous
 62
     7
100
AcDbPolyline
 90
        2
 70
     0
 43
0.0
 10
250.01156957527
 20
140.527303569806
 10
250.01156957527
 20
139.027303569806
  0
LWPOLYLINE
  5
157
330
A
100
AcDbEntity
  8
HM-2_1_2
  6
Continuous
 62
     7
100
AcDbPolyline
 90
        2
 70
     0
 43
0.0
 10
252.51156957527
 20
140.527303569806
 10
252.51156957527
 20
139.027303569806
  0
LWPOLYLINE
  5
15B
330
A
100
AcDbEntity
  8
HM-2_1_2
  6
Continuous
 62
     7
100
AcDbPolyline
 90
        2
 70
     0
 43
0.0
 10
255.26156957527
 20
141.527303569806
 10
255.26156957527
 20
139.327303569806
  0
LWPOLYLINE
  5
15F
330
A
100
AcDbEntity
  8
HM-2_1_2
  6
Continuous
 62
     7
100
AcDbPolyline
 90
        2
 70
     0
 43
0.0
 10
255.26156957527
 20
139.327303569806
 10
254.96156957527
 20
139.027303569806
  0
LWPOLYLINE
  5
163
330
A
100
AcDbEntity
  8
HM-2_1_2
  6
Continuous
 62
     7
100
AcDbPolyline
 90
        2
 70
     0
 43
0.0
 10
360.76156957527
 20
139.327303569806
 10
352.76156957527
 20
139.327303569806
  0
LWPOLYLINE
  5
167
330
A
100
AcDbEntity
  8
HM-2_1_2
  6
Continuous
 62
     7
100
AcDbPolyline
 90
        2
 70
     0
 43
0.0
 10
353.06156957527
 20
139.027303569806
 10
360.46156957527
 20
139.027303569806
  0
LWPOLYLINE
  5
16B
330
A
100
AcDbEntity
  8
HM-2_1_2
  6
Continuous
 62
     7
100
AcDbPolyline
 90
        2
 70
     0
 43
0.0
 10
352.76156957527
 20
141.527303569806
 10
352.76156957527
 20
139.327303569806
  0
LWPOLYLINE
  5
16F
330
A
100
AcDbEntity
  8
HM-2_1_2
  6
Continuous
 62
     7
100
AcDbPolyline
 90
        2
 70
     0
 43
0.0
 10
352.76156957527
 20
139.327303569806
 10
353.06156957527
 20
139.027303569806
  0
LWPOLYLINE
  5
173
330
A
100
AcDbEntity
  8
HM-2_1_2
  6
Continuous
 62
     7
100
AcDbPolyline
 90
        2
 70
     0
 43
0.0
 10
360.76156957527
 20
141.527303569806
 10
360.76156957527
 20
139.327303569806
  0
LWPOLYLINE
  5
177
330
A
100
AcDbEntity
  8
HM-2_1_2
  6
Continuous
 62
     7
100
AcDbPolyline
 90
        2
 70
     0
 43
0.0
 10
360.76156957527
 20
139.327303569806
 10
360.46156957527
 20
139.027303569806
  0
ARC
  5
17B
330
A
100
AcDbEntity
  8
HM-2_1_2
  6
Continuous
 62
     7
100
AcDbCircle
 10
128.26156957527
 20
279.5273035698059
 30
0.0
 40
2.0
100
AcDbArc
 50
90.0
 51
180.0
  0
ARC
  5
17C
330
A
100
AcDbEntity
  8
HM-2_1_2
  6
Continuous
 62
     7
100
AcDbCircle
 10
128.26156957527
 20
143.527303569806
 30
0.0
 40
2.0
100
AcDbArc
 50
180.0
 51
270.0
  0
LEADER
  5
17D
330
A
100
AcDbEntity
  8
HM-2_1_2
  6
Continuous
 62
     7
100
AcDbLeader
  3
MARK2_DIMSTYLE
 73
     0
 74
     0
 40
8.0
 41
28.0
 76
     3
 10
144.444999564592
 20
199.792011024163
 30
0.0
 10
103.7064732334
 20
159.053484692971
 30
0.0
 10
94.88377761081899
 20
159.053484692971
 30
0.0
340
17E
211
-1.0
221
0.0000000000000001
231
0.0
  0
MTEXT
  5
17E
330
A
100
AcDbEntity
  8
HM-2_1_2
 62
     7
100
AcDbMText
 10
73.120935837716
 20
161.053484692971
 30
0.0
 40
6.0
 41
29.39999999999999
 71
     7
 72
     5
  1
\W1.034;DC Jack
  7
ＭＳ_ゴシック
 73
     1
 44
1.0
  0
DIMENSION
  5
17F
330
A
100
AcDbEntity
  8
HM-2_1_2
  6
Continuous
 62
     7
100
AcDbDimension
  2
*D2
 10
196.26156957527
 20
281.5273035698059
 30
0.0
 11
194.26156957527
 21
211.5273035698059
 31
0.0
 71
     5
 42
-1.0
  3
MARK2_DIMSTYLE
100
AcDbAlignedDimension
 13
216.26156957527
 23
141.527303569806
 33
0.0
 14
216.26156957527
 24
281.5273035698059
 34
0.0
 50
90.0
100
AcDbRotatedDimension
1001
ACAD
1000
DSTYLE
1002
{
1070
    41
1040
4.0
1002
}
  0
DIMENSION
  5
180
330
A
100
AcDbEntity
  8
HM-2_1_2
  6
Continuous
 62
     7
100
AcDbDimension
  2
*D3
 10
286.26156957527
 20
301.527303569806
 30
0.0
 11
251.26156957527
 21
303.527303569806
 31
0.0
 71
     5
 42
-1.0
  3
MARK2_DIMSTYLE
100
AcDbAlignedDimension
 13
216.26156957527
 23
281.5273035698059
 33
0.0
 14
286.26156957527
 24
281.5273035698059
 34
0.0
100
AcDbRotatedDimension
1001
ACAD
1000
DSTYLE
1002
{
1070
    41
1040
4.0
1002
}
  0
DIMENSION
  5
181
330
A
100
AcDbEntity
  8
HM-2_1_2
  6
Continuous
 62
     7
100
AcDbDimension
  2
*D4
 10
309.26156957527
 20
316.527303569806
 30
0.0
 11
262.76156957527
 21
318.527303569806
 31
0.0
 71
     5
 42
-1.0
  3
MARK2_DIMSTYLE
100
AcDbAlignedDimension
 13
216.26156957527
 23
281.5273035698059
 33
0.0
 14
309.26156957527
 24
270.3273035698059
 34
0.0
100
AcDbRotatedDimension
1001
ACAD
1000
DSTYLE
1002
{
1070
    41
1040
4.0
1002
}
  0
LWPOLYLINE
  5
182
330
A
100
AcDbEntity
  8
HM-2_1_2
  6
Continuous
 62
     7
100
AcDbPolyline
 90
        2
 70
     0
 43
0.0
 10
351.26156957527
 20
261.2106787794509
 10
351.26156957527
 20
161.8439283601619
  0
LWPOLYLINE
  5
186
330
A
100
AcDbEntity
  8
HM-2_1_2
  6
Continuous
 62
     7
100
AcDbPolyline
 90
        2
 70
     0
 43
0.0
 10
351.26156957527
 20
155.210678779451
 10
351.26156957527
 20
141.527303569806
  0
ARC
  5
18A
330
A
100
AcDbEntity
  8
HM-2_1_2
  6
Continuous
 62
     7
100
AcDbCircle
 10
379.26156957527
 20
279.5273035698059
 30
0.0
 40
2.0
100
AcDbArc
 50
0.0
 51
90.0
  0
ARC
  5
18B
330
A
100
AcDbEntity
  8
HM-2_1_2
  6
Continuous
 62
     7
100
AcDbCircle
 10
379.26156957527
 20
143.527303569806
 30
0.0
 40
2.0
100
AcDbArc
 50
270.0
 51
0.0
  0
DIMENSION
  5
18C
330
A
100
AcDbEntity
  8
HM-2_1_2
  6
Continuous
 62
     7
100
AcDbDimension
  2
*D5
 10
381.26156957527
 20
301.527303569806
 30
0.0
 11
366.2615695752689
 21
303.527303569806
 31
0.0
 71
     5
 42
-1.0
  3
MARK2_DIMSTYLE
100
AcDbAlignedDimension
 13
351.26156957527
 23
281.5273035698059
 33
0.0
 14
381.26156957527
 24
279.5273035698059
 34
0.0
100
AcDbRotatedDimension
1001
ACAD
1000
DSTYLE
1002
{
1070
    41
1040
4.0
1002
}
  0
LEADER
  5
18D
330
A
100
AcDbEntity
  8
HM-2_1_2
  6
Continuous
 62
     7
100
AcDbLeader
  3
MARK2_DIMSTYLE
 73
     0
 74
     0
 40
8.0
 41
68.0
 76
     3
 10
368.1873686993009
 20
194.302850991628
 30
0.0
 10
388.538599820594
 20
159.053484692971
 30
0.0
 10
397.7430573093
 20
159.053484692971
 30
0.0
340
18E
  0
MTEXT
  5
18E
330
A
100
AcDbEntity
  8
HM-2_1_2
 62
     7
100
AcDbMText
 10
458.8132572494429
 20
161.053484692971
 30
0.0
 40
6.0
 41
71.4
 71
     9
 72
     5
  1
\W1.034;Connector (Input)
  7
ＭＳ_ゴシック
 73
     1
 44
1.0
  0
LEADER
  5
18F
330
A
100
AcDbEntity
  8
HM-2_1_2
  6
Continuous
 62
     7
100
AcDbLeader
  3
MARK2_DIMSTYLE
 73
     0
 74
     0
 40
8.0
 41
72.0
 76
     3
 10
369.1194065585269
 20
213.605560091318
 30
0.0
 10
388.538599820594
 20
194.1863668292509
 30
0.0
 10
393.7430573093
 20
194.1863668292509
 30
0.0
340
190
  0
MTEXT
  5
190
330
A
100
AcDbEntity
  8
HM-2_1_2
 62
     7
100
AcDbMText
 10
463.2972455234679
 20
196.1863668292509
 30
0.0
 40
6.0
 41
75.59999999999999
 71
     9
 72
     5
  1
\W1.034;Connector (Output)
  7
ＭＳ_ゴシック
 73
     1
 44
1.0
  0
LEADER
  5
191
330
A
100
AcDbEntity
  8
HM-2_1_2
  6
Continuous
 62
     7
100
AcDbLeader
  3
MARK2_DIMSTYLE
 73
     0
 74
     0
 40
8.0
 41
48.0
 76
     3
 10
244.5615695752699
 20
189.5273035698059
 30
0.0
 10
294.077855396774
 20
218.1155445181219
 30
0.0
 10
297.767525770098
 20
218.1155445181219
 30
0.0
340
192
  0
MTEXT
  5
192
330
A
100
AcDbEntity
  8
HM-2_1_2
 62
     7
100
AcDbMText
 10
343.7981029224279
 20
220.1155445181219
 30
0.0
 40
6.0
 41
50.4
 71
     9
 72
     5
  1
\W1.034;Power Switch
  7
ＭＳ_ゴシック
 73
     1
 44
1.0
  0
ENDSEC
  0
SECTION
  2
OBJECTS
  0
DICTIONARY
  5
19
330
0
100
AcDbDictionary
281
     1
  3
ACAD_GROUP
350
1A
  3
ACAD_LAYOUT
350
19A
  3
ACAD_MLINESTYLE
350
1B
  3
ACAD_PLOTSETTINGS
350
19B
  3
ACAD_PLOTSTYLENAME
350
198
  0
DICTIONARY
  5
1A
102
{ACAD_REACTORS
330
19
102
}
330
19
100
AcDbDictionary
281
     1
  0
DICTIONARY
  5
19A
102
{ACAD_REACTORS
330
19
102
}
330
19
100
AcDbDictionary
281
     1
  3
Model
350
19C
  3
ﾚｲｱｳﾄ1
350
19D
  0
DICTIONARY
  5
1B
102
{ACAD_REACTORS
330
19
102
}
330
19
100
AcDbDictionary
281
     1
  3
STANDARD
350
1C
  0
DICTIONARY
  5
19B
102
{ACAD_REACTORS
330
19
102
}
330
19
100
AcDbDictionary
281
     1
  0
ACDBDICTIONARYWDFLT
  5
198
102
{ACAD_REACTORS
330
19
102
}
330
19
100
AcDbDictionary
281
     1
  3
Normal
350
199
100
AcDbDictionaryWithDefault
340
199
  0
LAYOUT
  5
19C
102
{ACAD_REACTORS
330
19A
102
}
330
19A
100
AcDbPlotSettings
  1

  2
\\HCTD010A\RICOH imagio MP C4500 RPCS
  4

  6

 40
0.0
 41
0.0
 42
0.0
 43
0.0
 44
0.0
 45
0.0
 46
0.0
 47
0.0
 48
0.0
 49
0.0
140
0.0
141
0.0
142
1.0
143
1.0
 70
  1712
 72
     0
 73
     0
 74
     0
  7

 75
     0
147
1.0
148
0.0
149
0.0
100
AcDbLayout
  1
Model
 70
     1
 71
     0
 10
0.0
 20
0.0
 11
12.0
 21
9.0
 12
0.0
 22
0.0
 32
0.0
 14
0.0
 24
0.0
 34
0.0
 15
0.0
 25
0.0
 35
0.0
146
0.0
 13
0.0
 23
0.0
 33
0.0
 16
1.0
 26
0.0
 36
0.0
 17
0.0
 27
1.0
 37
0.0
 76
     0
330
A
  0
LAYOUT
  5
19D
102
{ACAD_REACTORS
330
19A
102
}
330
19A
100
AcDbPlotSettings
  1

  2
\\HCTD010A\RICOH imagio MP C4500 RPCS
  4

  6

 40
0.0
 41
0.0
 42
0.0
 43
0.0
 44
0.0
 45
0.0
 46
0.0
 47
0.0
 48
0.0
 49
0.0
140
0.0
141
0.0
142
1.0
143
1.0
 70
   688
 72
     0
 73
     0
 74
     5
  7

 75
    16
147
1.0
148
0.0
149
0.0
100
AcDbLayout
  1
ﾚｲｱｳﾄ1
 70
     0
 71
     1
 10
0.0
 20
0.0
 11
12.0
 21
9.0
 12
0.0
 22
0.0
 32
0.0
 14
1.000000000000000E+20
 24
1.000000000000000E+20
 34
1.000000000000000E+20
 15
-1.000000000000000E+20
 25
-1.000000000000000E+20
 35
-1.000000000000000E+20
146
0.0
 13
0.0
 23
0.0
 33
0.0
 16
1.0
 26
0.0
 36
0.0
 17
0.0
 27
1.0
 37
0.0
 76
     0
330
B
  0
MLINESTYLE
  5
1C
102
{ACAD_REACTORS
330
1B
102
}
330
1B
100
AcDbMlineStyle
  2
STANDARD
 70
     0
  3

 62
     0
 51
90.0
 52
90.0
 71
     2
 49
0.5
 62
   256
  6
BYLAYER
 49
-0.5
 62
   256
  6
BYLAYER
  0
ACDBPLACEHOLDER
  5
199
102
{ACAD_REACTORS
330
198
102
}
330
198
  0
ENDSEC
  0
EOF
