  0
SECTION
  2
HEADER
  9
$ACADVER
  1
AC1015
  9
$ACADMAINTVER
 70
    10
  9
$DWGCODEPAGE
  3
ANSI_932
  9
$INSBASE
 10
0.0
 20
0.0
 30
0.0
  9
$EXTMIN
 10
12.90673898778243
 20
16.46392873076718
 30
-0.0015258207003583
  9
$EXTMAX
 10
276.2304846761171
 20
176.2486271586369
 30
0.0000000349246037
  9
$LIMMIN
 10
0.0
 20
0.0
  9
$LIMMAX
 10
297.0
 20
210.0
  9
$ORTHOMODE
 70
     0
  9
$REGENMODE
 70
     1
  9
$FILLMODE
 70
     1
  9
$QTEXTMODE
 70
     0
  9
$MIRRTEXT
 70
     1
  9
$LTSCALE
 40
15.0
  9
$ATTMODE
 70
     1
  9
$TEXTSIZE
 40
0.2
  9
$TRACEWID
 40
0.05
  9
$TEXTSTYLE
  7
Standard
  9
$CLAYER
  8
CSLAYER17
  9
$CELTYPE
  6
ByLayer
  9
$CECOLOR
 62
   256
  9
$CELTSCALE
 40
1.0
  9
$DISPSILH
 70
     0
  9
$DIMSCALE
 40
1.0
  9
$DIMASZ
 40
0.18
  9
$DIMEXO
 40
0.0625
  9
$DIMDLI
 40
0.38
  9
$DIMRND
 40
0.0
  9
$DIMDLE
 40
0.0
  9
$DIMEXE
 40
0.18
  9
$DIMTP
 40
0.0
  9
$DIMTM
 40
0.0
  9
$DIMTXT
 40
0.18
  9
$DIMCEN
 40
0.09
  9
$DIMTSZ
 40
0.0
  9
$DIMTOL
 70
     0
  9
$DIMLIM
 70
     0
  9
$DIMTIH
 70
     1
  9
$DIMTOH
 70
     1
  9
$DIMSE1
 70
     0
  9
$DIMSE2
 70
     0
  9
$DIMTAD
 70
     0
  9
$DIMZIN
 70
     0
  9
$DIMBLK
  1

  9
$DIMASO
 70
     1
  9
$DIMSHO
 70
     1
  9
$DIMPOST
  1

  9
$DIMAPOST
  1

  9
$DIMALT
 70
     0
  9
$DIMALTD
 70
     2
  9
$DIMALTF
 40
25.4
  9
$DIMLFAC
 40
1.0
  9
$DIMTOFL
 70
     0
  9
$DIMTVP
 40
0.0
  9
$DIMTIX
 70
     0
  9
$DIMSOXD
 70
     0
  9
$DIMSAH
 70
     0
  9
$DIMBLK1
  1

  9
$DIMBLK2
  1

  9
$DIMSTYLE
  2
Standard
  9
$DIMCLRD
 70
     0
  9
$DIMCLRE
 70
     0
  9
$DIMCLRT
 70
     0
  9
$DIMTFAC
 40
1.0
  9
$DIMGAP
 40
0.09
  9
$DIMJUST
 70
     0
  9
$DIMSD1
 70
     0
  9
$DIMSD2
 70
     0
  9
$DIMTOLJ
 70
     1
  9
$DIMTZIN
 70
     0
  9
$DIMALTZ
 70
     0
  9
$DIMALTTZ
 70
     0
  9
$DIMUPT
 70
     0
  9
$DIMDEC
 70
     4
  9
$DIMTDEC
 70
     4
  9
$DIMALTU
 70
     2
  9
$DIMALTTD
 70
     2
  9
$DIMTXSTY
  7
Standard
  9
$DIMAUNIT
 70
     0
  9
$DIMADEC
 70
     0
  9
$DIMALTRND
 40
0.0
  9
$DIMAZIN
 70
     0
  9
$DIMDSEP
 70
    46
  9
$DIMATFIT
 70
     3
  9
$DIMFRAC
 70
     0
  9
$DIMLDRBLK
  1

  9
$DIMLUNIT
 70
     2
  9
$DIMLWD
 70
    -2
  9
$DIMLWE
 70
    -2
  9
$DIMTMOVE
 70
     0
  9
$LUNITS
 70
     2
  9
$LUPREC
 70
     4
  9
$SKETCHINC
 40
0.1
  9
$FILLETRAD
 40
0.0
  9
$AUNITS
 70
     0
  9
$AUPREC
 70
     0
  9
$MENU
  1
ACAD
  9
$ELEVATION
 40
0.0
  9
$PELEVATION
 40
0.0
  9
$THICKNESS
 40
0.0
  9
$LIMCHECK
 70
     0
  9
$CHAMFERA
 40
0.0
  9
$CHAMFERB
 40
0.0
  9
$CHAMFERC
 40
0.0
  9
$CHAMFERD
 40
0.0
  9
$SKPOLY
 70
     0
  9
$TDCREATE
 40
2453172.000000000
  9
$TDUCREATE
 40
2453171.625000000
  9
$TDUPDATE
 40
2456666.498172222
  9
$TDUUPDATE
 40
2456666.123172222
  9
$TDINDWG
 40
0.0009391319
  9
$TDUSRTIMER
 40
0.0009389583
  9
$USRTIMER
 70
     1
  9
$ANGBASE
 50
0.0
  9
$ANGDIR
 70
     0
  9
$PDMODE
 70
     0
  9
$PDSIZE
 40
0.0
  9
$PLINEWID
 40
0.0
  9
$SPLFRAME
 70
     0
  9
$SPLINETYPE
 70
     6
  9
$SPLINESEGS
 70
     8
  9
$HANDSEED
  5
418
  9
$SURFTAB1
 70
     6
  9
$SURFTAB2
 70
     6
  9
$SURFTYPE
 70
     6
  9
$SURFU
 70
     6
  9
$SURFV
 70
     6
  9
$UCSBASE
  2

  9
$UCSNAME
  2

  9
$UCSORG
 10
0.0
 20
0.0
 30
0.0
  9
$UCSXDIR
 10
1.0
 20
0.0
 30
0.0
  9
$UCSYDIR
 10
0.0
 20
1.0
 30
0.0
  9
$UCSORTHOREF
  2

  9
$UCSORTHOVIEW
 70
     0
  9
$UCSORGTOP
 10
0.0
 20
0.0
 30
0.0
  9
$UCSORGBOTTOM
 10
0.0
 20
0.0
 30
0.0
  9
$UCSORGLEFT
 10
0.0
 20
0.0
 30
0.0
  9
$UCSORGRIGHT
 10
0.0
 20
0.0
 30
0.0
  9
$UCSORGFRONT
 10
0.0
 20
0.0
 30
0.0
  9
$UCSORGBACK
 10
0.0
 20
0.0
 30
0.0
  9
$PUCSBASE
  2

  9
$PUCSNAME
  2

  9
$PUCSORG
 10
0.0
 20
0.0
 30
0.0
  9
$PUCSXDIR
 10
1.0
 20
0.0
 30
0.0
  9
$PUCSYDIR
 10
0.0
 20
1.0
 30
0.0
  9
$PUCSORTHOREF
  2

  9
$PUCSORTHOVIEW
 70
     0
  9
$PUCSORGTOP
 10
0.0
 20
0.0
 30
0.0
  9
$PUCSORGBOTTOM
 10
0.0
 20
0.0
 30
0.0
  9
$PUCSORGLEFT
 10
0.0
 20
0.0
 30
0.0
  9
$PUCSORGRIGHT
 10
0.0
 20
0.0
 30
0.0
  9
$PUCSORGFRONT
 10
0.0
 20
0.0
 30
0.0
  9
$PUCSORGBACK
 10
0.0
 20
0.0
 30
0.0
  9
$USERI1
 70
     0
  9
$USERI2
 70
     0
  9
$USERI3
 70
     0
  9
$USERI4
 70
     0
  9
$USERI5
 70
     0
  9
$USERR1
 40
0.0
  9
$USERR2
 40
0.0
  9
$USERR3
 40
0.0
  9
$USERR4
 40
0.0
  9
$USERR5
 40
0.0
  9
$WORLDVIEW
 70
     1
  9
$SHADEDGE
 70
     3
  9
$SHADEDIF
 70
    70
  9
$TILEMODE
 70
     1
  9
$MAXACTVP
 70
    64
  9
$PINSBASE
 10
0.0
 20
0.0
 30
0.0
  9
$PLIMCHECK
 70
     0
  9
$PEXTMIN
 10
1.000000000000000E+20
 20
1.000000000000000E+20
 30
1.000000000000000E+20
  9
$PEXTMAX
 10
-1.000000000000000E+20
 20
-1.000000000000000E+20
 30
-1.000000000000000E+20
  9
$PLIMMIN
 10
0.0
 20
0.0
  9
$PLIMMAX
 10
12.0
 20
9.0
  9
$UNITMODE
 70
     0
  9
$VISRETAIN
 70
     1
  9
$PLINEGEN
 70
     0
  9
$PSLTSCALE
 70
     1
  9
$TREEDEPTH
 70
  3020
  9
$CMLSTYLE
  2
Standard
  9
$CMLJUST
 70
     0
  9
$CMLSCALE
 40
1.0
  9
$PROXYGRAPHICS
 70
     1
  9
$MEASUREMENT
 70
     0
  9
$CELWEIGHT
370
    -1
  9
$ENDCAPS
280
     0
  9
$JOINSTYLE
280
     0
  9
$LWDISPLAY
290
     0
  9
$INSUNITS
 70
     0
  9
$HYPERLINKBASE
  1

  9
$STYLESHEET
  1

  9
$XEDIT
290
     1
  9
$CEPSNTYPE
380
     0
  9
$PSTYLEMODE
290
     1
  9
$FINGERPRINTGUID
  2
{E467FAEE-5579-4430-94FF-7D9F96581068}
  9
$VERSIONGUID
  2
{598EB693-4124-4BC9-8DCA-55AB22E5C1B3}
  9
$EXTNAMES
290
     1
  9
$PSVPSCALE
 40
0.0
  9
$OLESTARTUP
290
     0
  0
ENDSEC
  0
SECTION
  2
CLASSES
  0
CLASS
  1
ACDBDICTIONARYWDFLT
  2
AcDbDictionaryWithDefault
  3
AutoCAD 2000
 90
        0
280
     0
281
     0
  0
CLASS
  1
ACDBPLACEHOLDER
  2
AcDbPlaceHolder
  3
AutoCAD 2000
 90
        0
280
     0
281
     0
  0
CLASS
  1
LAYOUT
  2
AcDbLayout
  3
AutoCAD 2000
 90
        0
280
     0
281
     0
  0
ENDSEC
  0
SECTION
  2
TABLES
  0
TABLE
  2
VPORT
  5
8
330
0
100
AcDbSymbolTable
 70
     2
  0
VPORT
  5
417
330
8
100
AcDbSymbolTableRecord
100
AcDbViewportTableRecord
  2
*Active
 70
     0
 10
0.0
 20
0.0
 11
1.0
 21
1.0
 12
153.5035410393874
 22
97.5082919583734
 13
0.0
 23
0.0
 14
1.0
 24
1.0
 15
0.0
 25
0.0
 16
0.0
 26
0.0
 36
1.0
 17
0.0
 27
0.0
 37
0.0
 40
191.6917661360388
 41
2.119005328596802
 42
50.0
 43
0.0
 44
0.0
 50
0.0
 51
0.0
 71
     0
 72
   100
 73
     1
 74
     1
 75
     0
 76
     0
 77
     0
 78
     0
281
     0
 65
     1
110
0.0
120
0.0
130
0.0
111
1.0
121
0.0
131
0.0
112
0.0
122
1.0
132
0.0
 79
     0
146
0.0
  0
ENDTAB
  0
TABLE
  2
LTYPE
  5
5
330
0
100
AcDbSymbolTable
 70
     9
  0
LTYPE
  5
13
330
5
100
AcDbSymbolTableRecord
100
AcDbLinetypeTableRecord
  2
ByBlock
 70
     0
  3

 72
    65
 73
     0
 40
0.0
  0
LTYPE
  5
14
330
5
100
AcDbSymbolTableRecord
100
AcDbLinetypeTableRecord
  2
ByLayer
 70
     0
  3

 72
    65
 73
     0
 40
0.0
  0
LTYPE
  5
15
330
5
100
AcDbSymbolTableRecord
100
AcDbLinetypeTableRecord
  2
CONTINUOUS
 70
     0
  3
Solid line
 72
    65
 73
     0
 40
0.0
  0
LTYPE
  5
23
330
5
100
AcDbSymbolTableRecord
100
AcDbLinetypeTableRecord
  2
DASHED
 70
     0
  3
__ __ __ __ __ __ __ __ __ __ __ __ __ __ __
 72
    65
 73
     2
 40
0.75
 49
0.5
 74
     0
 49
-0.25
 74
     0
  0
LTYPE
  5
24
330
5
100
AcDbSymbolTableRecord
100
AcDbLinetypeTableRecord
  2
HIDDEN
 70
     0
  3
_ _ _ _ _ _ _ _ _ _ _ _ _ _ _ _ _ _ _ _ _ _ _
 72
    65
 73
     2
 40
0.375
 49
0.25
 74
     0
 49
-0.125
 74
     0
  0
LTYPE
  5
25
330
5
100
AcDbSymbolTableRecord
100
AcDbLinetypeTableRecord
  2
DOT
 70
     0
  3
...............................................
 72
    65
 73
     2
 40
0.25
 49
0.0
 74
     0
 49
-0.25
 74
     0
  0
LTYPE
  5
26
330
5
100
AcDbSymbolTableRecord
100
AcDbLinetypeTableRecord
  2
DASHDOT
 70
     0
  3
__ . __ . __ . __ . __ . __ . __ . __ . __ . __
 72
    65
 73
     4
 40
1.0
 49
0.5
 74
     0
 49
-0.25
 74
     0
 49
0.0
 74
     0
 49
-0.25
 74
     0
  0
LTYPE
  5
27
330
5
100
AcDbSymbolTableRecord
100
AcDbLinetypeTableRecord
  2
DIVIDE
 70
     0
  3
__ . . __ . . __ . . __ . . __ . . __ . . __
 72
    65
 73
     6
 40
1.25
 49
0.5
 74
     0
 49
-0.25
 74
     0
 49
0.0
 74
     0
 49
-0.25
 74
     0
 49
0.0
 74
     0
 49
-0.25
 74
     0
  0
LTYPE
  5
28
330
5
100
AcDbSymbolTableRecord
100
AcDbLinetypeTableRecord
  2
CENTER
 70
     0
  3
____ _ ____ _ ____ _ ____ _ ____ _ ____ _ ____ 
 72
    65
 73
     4
 40
2.0
 49
1.25
 74
     0
 49
-0.25
 74
     0
 49
0.25
 74
     0
 49
-0.25
 74
     0
  0
LTYPE
  5
29
330
5
100
AcDbSymbolTableRecord
100
AcDbLinetypeTableRecord
  2
PHANTOM
 70
     0
  3
______  __  __  ______  __  __  ______  __  __ 
 72
    65
 73
     6
 40
2.5
 49
1.25
 74
     0
 49
-0.25
 74
     0
 49
0.25
 74
     0
 49
-0.25
 74
     0
 49
0.25
 74
     0
 49
-0.25
 74
     0
  0
LTYPE
  5
2A
330
5
100
AcDbSymbolTableRecord
100
AcDbLinetypeTableRecord
  2
BORDER
 70
     0
  3
__ __ . __ __ . __ __ . __ __ . __ __ . __ __ .
 72
    65
 73
     6
 40
1.75
 49
0.5
 74
     0
 49
-0.25
 74
     0
 49
0.5
 74
     0
 49
-0.25
 74
     0
 49
0.0
 74
     0
 49
-0.25
 74
     0
  0
ENDTAB
  0
TABLE
  2
LAYER
  5
2
330
0
100
AcDbSymbolTable
 70
    20
  0
LAYER
  5
10
330
2
100
AcDbSymbolTableRecord
100
AcDbLayerTableRecord
  2
0
 70
     0
 62
     7
  6
CONTINUOUS
370
    -3
390
F
  0
LAYER
  5
22
330
2
100
AcDbSymbolTableRecord
100
AcDbLayerTableRecord
  2
CSLAYER17
 70
     0
 62
     7
  6
CONTINUOUS
370
    -3
390
F
  0
LAYER
  5
2B
330
2
100
AcDbSymbolTableRecord
100
AcDbLayerTableRecord
  2
CSLAYER1
 70
     0
 62
     7
  6
CONTINUOUS
370
    -3
390
F
  0
LAYER
  5
2C
330
2
100
AcDbSymbolTableRecord
100
AcDbLayerTableRecord
  2
CSLAYER2
 70
     0
 62
     7
  6
CONTINUOUS
370
    -3
390
F
  0
LAYER
  5
2D
330
2
100
AcDbSymbolTableRecord
100
AcDbLayerTableRecord
  2
CSLAYER3
 70
     0
 62
     7
  6
CONTINUOUS
370
    -3
390
F
  0
LAYER
  5
2E
330
2
100
AcDbSymbolTableRecord
100
AcDbLayerTableRecord
  2
CSLAYER4
 70
     0
 62
     7
  6
CONTINUOUS
370
    -3
390
F
  0
LAYER
  5
2F
330
2
100
AcDbSymbolTableRecord
100
AcDbLayerTableRecord
  2
CSLAYER5
 70
     0
 62
     7
  6
CONTINUOUS
370
    -3
390
F
  0
LAYER
  5
30
330
2
100
AcDbSymbolTableRecord
100
AcDbLayerTableRecord
  2
CSLAYER6
 70
     0
 62
     7
  6
CONTINUOUS
370
    -3
390
F
  0
LAYER
  5
31
330
2
100
AcDbSymbolTableRecord
100
AcDbLayerTableRecord
  2
CSLAYER7
 70
     0
 62
     7
  6
CONTINUOUS
370
    -3
390
F
  0
LAYER
  5
32
330
2
100
AcDbSymbolTableRecord
100
AcDbLayerTableRecord
  2
CSLAYER8
 70
     0
 62
     7
  6
CONTINUOUS
370
    -3
390
F
  0
LAYER
  5
33
330
2
100
AcDbSymbolTableRecord
100
AcDbLayerTableRecord
  2
CSLAYER9
 70
     0
 62
     7
  6
CONTINUOUS
370
    -3
390
F
  0
LAYER
  5
34
330
2
100
AcDbSymbolTableRecord
100
AcDbLayerTableRecord
  2
CSLAYER10
 70
     0
 62
     7
  6
CONTINUOUS
370
    -3
390
F
  0
LAYER
  5
35
330
2
100
AcDbSymbolTableRecord
100
AcDbLayerTableRecord
  2
CSLAYER11
 70
     0
 62
     7
  6
CONTINUOUS
370
    -3
390
F
  0
LAYER
  5
36
330
2
100
AcDbSymbolTableRecord
100
AcDbLayerTableRecord
  2
CSLAYER12
 70
     0
 62
     7
  6
CONTINUOUS
370
    -3
390
F
  0
LAYER
  5
37
330
2
100
AcDbSymbolTableRecord
100
AcDbLayerTableRecord
  2
CSLAYER13
 70
     0
 62
     7
  6
CONTINUOUS
370
    -3
390
F
  0
LAYER
  5
38
330
2
100
AcDbSymbolTableRecord
100
AcDbLayerTableRecord
  2
CSLAYER14
 70
     0
 62
     7
  6
CONTINUOUS
370
    -3
390
F
  0
LAYER
  5
39
330
2
100
AcDbSymbolTableRecord
100
AcDbLayerTableRecord
  2
CSLAYER15
 70
     0
 62
     7
  6
CONTINUOUS
370
    -3
390
F
  0
LAYER
  5
3A
330
2
100
AcDbSymbolTableRecord
100
AcDbLayerTableRecord
  2
CSLAYER16
 70
     0
 62
     7
  6
CONTINUOUS
370
    -3
390
F
  0
LAYER
  5
125
330
2
100
AcDbSymbolTableRecord
100
AcDbLayerTableRecord
  2
CSLAYER34
 70
     0
 62
     7
  6
CONTINUOUS
370
    -3
390
F
  0
LAYER
  5
153
330
2
100
AcDbSymbolTableRecord
100
AcDbLayerTableRecord
  2
CSLAYER33
 70
     0
 62
     7
  6
CONTINUOUS
370
    -3
390
F
  0
ENDTAB
  0
TABLE
  2
STYLE
  5
3
330
0
100
AcDbSymbolTable
 70
     2
  0
STYLE
  5
11
330
3
100
AcDbSymbolTableRecord
100
AcDbTextStyleTableRecord
  2
Standard
 70
     0
 40
0.0
 41
1.0
 50
0.0
 71
     0
 42
0.2
  3
txt
  4

  0
STYLE
  5
3B
330
3
100
AcDbSymbolTableRecord
100
AcDbTextStyleTableRecord
  2
FX_FONT
 70
     0
 40
1.0
 41
1.0
 50
0.0
 71
     0
 42
1.0
  3
monotxt
  4
bigfont
  0
ENDTAB
  0
TABLE
  2
VIEW
  5
6
330
0
100
AcDbSymbolTable
 70
     0
  0
ENDTAB
  0
TABLE
  2
UCS
  5
7
330
0
100
AcDbSymbolTable
 70
     0
  0
ENDTAB
  0
TABLE
  2
APPID
  5
9
330
0
100
AcDbSymbolTable
 70
     1
  0
APPID
  5
12
330
9
100
AcDbSymbolTableRecord
100
AcDbRegAppTableRecord
  2
ACAD
 70
     0
  0
ENDTAB
  0
TABLE
  2
DIMSTYLE
  5
A
330
0
100
AcDbSymbolTable
 70
     1
100
AcDbDimStyleTable
 71
     0
  0
DIMSTYLE
105
415
330
A
100
AcDbSymbolTableRecord
100
AcDbDimStyleTableRecord
  2
Standard
 70
     0
340
11
  0
ENDTAB
  0
TABLE
  2
BLOCK_RECORD
  5
1
330
0
100
AcDbSymbolTable
 70
    31
  0
BLOCK_RECORD
  5
1E
330
1
100
AcDbSymbolTableRecord
100
AcDbBlockTableRecord
  2
*Model_Space
340
21
  0
BLOCK_RECORD
  5
1A
330
1
100
AcDbSymbolTableRecord
100
AcDbBlockTableRecord
  2
*Paper_Space
340
1D
  0
BLOCK_RECORD
  5
40
330
1
100
AcDbSymbolTableRecord
100
AcDbBlockTableRecord
  2
*D0
340
0
  0
BLOCK_RECORD
  5
4D
330
1
100
AcDbSymbolTableRecord
100
AcDbBlockTableRecord
  2
*D1
340
0
  0
BLOCK_RECORD
  5
58
330
1
100
AcDbSymbolTableRecord
100
AcDbBlockTableRecord
  2
*D2
340
0
  0
BLOCK_RECORD
  5
63
330
1
100
AcDbSymbolTableRecord
100
AcDbBlockTableRecord
  2
*D3
340
0
  0
BLOCK_RECORD
  5
6E
330
1
100
AcDbSymbolTableRecord
100
AcDbBlockTableRecord
  2
*D4
340
0
  0
BLOCK_RECORD
  5
79
330
1
100
AcDbSymbolTableRecord
100
AcDbBlockTableRecord
  2
*D5
340
0
  0
BLOCK_RECORD
  5
84
330
1
100
AcDbSymbolTableRecord
100
AcDbBlockTableRecord
  2
*D6
340
0
  0
BLOCK_RECORD
  5
91
330
1
100
AcDbSymbolTableRecord
100
AcDbBlockTableRecord
  2
FXDIM0000
340
0
102
{BLKREFS
331
1EE
102
}
  0
BLOCK_RECORD
  5
99
330
1
100
AcDbSymbolTableRecord
100
AcDbBlockTableRecord
  2
*D8
340
0
  0
BLOCK_RECORD
  5
A6
330
1
100
AcDbSymbolTableRecord
100
AcDbBlockTableRecord
  2
*D9
340
0
  0
BLOCK_RECORD
  5
B1
330
1
100
AcDbSymbolTableRecord
100
AcDbBlockTableRecord
  2
*D10
340
0
  0
BLOCK_RECORD
  5
BC
330
1
100
AcDbSymbolTableRecord
100
AcDbBlockTableRecord
  2
*D11
340
0
  0
BLOCK_RECORD
  5
C7
330
1
100
AcDbSymbolTableRecord
100
AcDbBlockTableRecord
  2
*D12
340
0
  0
BLOCK_RECORD
  5
D2
330
1
100
AcDbSymbolTableRecord
100
AcDbBlockTableRecord
  2
*D13
340
0
  0
BLOCK_RECORD
  5
DD
330
1
100
AcDbSymbolTableRecord
100
AcDbBlockTableRecord
  2
*D14
340
0
  0
BLOCK_RECORD
  5
E8
330
1
100
AcDbSymbolTableRecord
100
AcDbBlockTableRecord
  2
*D15
340
0
  0
BLOCK_RECORD
  5
F3
330
1
100
AcDbSymbolTableRecord
100
AcDbBlockTableRecord
  2
*D16
340
0
  0
BLOCK_RECORD
  5
FE
330
1
100
AcDbSymbolTableRecord
100
AcDbBlockTableRecord
  2
*D17
340
0
  0
BLOCK_RECORD
  5
10B
330
1
100
AcDbSymbolTableRecord
100
AcDbBlockTableRecord
  2
*D18
340
0
  0
BLOCK_RECORD
  5
118
330
1
100
AcDbSymbolTableRecord
100
AcDbBlockTableRecord
  2
*D19
340
0
  0
BLOCK_RECORD
  5
126
330
1
100
AcDbSymbolTableRecord
100
AcDbBlockTableRecord
  2
*D20
340
0
  0
BLOCK_RECORD
  5
131
330
1
100
AcDbSymbolTableRecord
100
AcDbBlockTableRecord
  2
*D21
340
0
  0
BLOCK_RECORD
  5
13D
330
1
100
AcDbSymbolTableRecord
100
AcDbBlockTableRecord
  2
*D22
340
0
  0
BLOCK_RECORD
  5
148
330
1
100
AcDbSymbolTableRecord
100
AcDbBlockTableRecord
  2
*D23
340
0
  0
BLOCK_RECORD
  5
154
330
1
100
AcDbSymbolTableRecord
100
AcDbBlockTableRecord
  2
*D24
340
0
  0
BLOCK_RECORD
  5
15F
330
1
100
AcDbSymbolTableRecord
100
AcDbBlockTableRecord
  2
*D25
340
0
  0
BLOCK_RECORD
  5
16A
330
1
100
AcDbSymbolTableRecord
100
AcDbBlockTableRecord
  2
*D26
340
0
  0
BLOCK_RECORD
  5
175
330
1
100
AcDbSymbolTableRecord
100
AcDbBlockTableRecord
  2
BLKF0000
340
0
102
{BLKREFS
331
1C8
102
}
  0
BLOCK_RECORD
  5
185
330
1
100
AcDbSymbolTableRecord
100
AcDbBlockTableRecord
  2
BLKF0001
340
0
102
{BLKREFS
331
1E3
102
}
  0
BLOCK_RECORD
  5
195
330
1
100
AcDbSymbolTableRecord
100
AcDbBlockTableRecord
  2
BLKF0002
340
0
102
{BLKREFS
331
26A
102
}
  0
BLOCK_RECORD
  5
19E
330
1
100
AcDbSymbolTableRecord
100
AcDbBlockTableRecord
  2
BLKF0003
340
0
102
{BLKREFS
331
411
102
}
  0
ENDTAB
  0
ENDSEC
  0
SECTION
  2
BLOCKS
  0
BLOCK
  5
1F
330
1E
100
AcDbEntity
  8
0
100
AcDbBlockBegin
  2
*Model_Space
 70
     0
 10
0.0
 20
0.0
 30
0.0
  3
*Model_Space
  1

  0
ENDBLK
  5
20
330
1E
100
AcDbEntity
  8
0
100
AcDbBlockEnd
  0
BLOCK
  5
1B
330
1A
100
AcDbEntity
 67
     1
  8
0
100
AcDbBlockBegin
  2
*Paper_Space
 70
     0
 10
0.0
 20
0.0
 30
0.0
  3
*Paper_Space
  1

  0
ENDBLK
  5
1C
330
1A
100
AcDbEntity
 67
     1
  8
0
100
AcDbBlockEnd
  0
BLOCK
  5
41
330
40
100
AcDbEntity
  8
CSLAYER17
100
AcDbBlockBegin
  2
*D0
 70
     1
 10
0.0
 20
0.0
 30
0.0
  3
*D0
  1

  0
TEXT
  5
42
330
40
100
AcDbEntity
  8
CSLAYER17
 62
     1
100
AcDbText
 10
30.14105
 20
135.056488
 30
0.0
 40
3.5
  1
%%c6
 50
90.0
 41
1.028571428571428
 51
15.0
  7
FX_FONT
 72
     5
 11
30.14105
 21
141.056488
 31
0.0
100
AcDbText
  0
LINE
  5
43
330
40
100
AcDbEntity
  8
CSLAYER17
  6
Continuous
 62
     1
100
AcDbLine
 10
30.641052
 20
145.144108
 30
0.0
 11
30.641052
 21
151.144108
 31
0.0
  0
LINE
  5
44
330
40
100
AcDbEntity
  8
CSLAYER17
  6
Continuous
 62
     1
100
AcDbLine
 10
40.66937199999999
 20
145.144108
 30
0.0
 11
29.141052
 21
145.144108
 31
0.0
  0
LINE
  5
45
330
40
100
AcDbEntity
  8
CSLAYER17
  6
Continuous
 62
     1
100
AcDbLine
 10
40.66937199999999
 20
151.144108
 30
0.0
 11
29.141052
 21
151.144108
 31
0.0
  0
LINE
  5
46
330
40
100
AcDbEntity
  8
CSLAYER17
  6
Continuous
 62
     1
100
AcDbLine
 10
30.641052
 20
151.144108
 30
0.0
 11
30.641052
 21
156.144108
 31
0.0
  0
LINE
  5
47
330
40
100
AcDbEntity
  8
CSLAYER17
  6
Continuous
 62
     1
100
AcDbLine
 10
30.641052
 20
151.144108
 30
0.0
 11
29.864595
 21
154.041885
 31
0.0
  0
LINE
  5
48
330
40
100
AcDbEntity
  8
CSLAYER17
  6
Continuous
 62
     1
100
AcDbLine
 10
30.641052
 20
151.144108
 30
0.0
 11
31.417509
 21
154.041885
 31
0.0
  0
LINE
  5
49
330
40
100
AcDbEntity
  8
CSLAYER17
  6
Continuous
 62
     1
100
AcDbLine
 10
30.641052
 20
133.433206
 30
0.0
 11
30.641052
 21
145.144108
 31
0.0
  0
LINE
  5
4A
330
40
100
AcDbEntity
  8
CSLAYER17
  6
Continuous
 62
     1
100
AcDbLine
 10
30.641052
 20
145.144108
 30
0.0
 11
29.864595
 21
142.2463309999999
 31
0.0
  0
LINE
  5
4B
330
40
100
AcDbEntity
  8
CSLAYER17
  6
Continuous
 62
     1
100
AcDbLine
 10
30.641052
 20
145.144108
 30
0.0
 11
31.417509
 21
142.2463309999999
 31
0.0
  0
ENDBLK
  5
4C
330
40
100
AcDbEntity
  8
0
100
AcDbBlockEnd
  0
BLOCK
  5
4E
330
4D
100
AcDbEntity
  8
CSLAYER17
100
AcDbBlockBegin
  2
*D1
 70
     1
 10
0.0
 20
0.0
 30
0.0
  3
*D1
  1

  0
TEXT
  5
4F
330
4D
100
AcDbEntity
  8
CSLAYER17
 62
     1
100
AcDbText
 10
140.046356
 20
143.644104
 30
0.0
 40
3.5
  1
%%c14
 50
90.0
 41
0.9642857142857142
 51
15.0
  7
FX_FONT
 72
     5
 11
140.046356
 21
152.6441039999999
 31
0.0
100
AcDbText
  0
LINE
  5
50
330
4D
100
AcDbEntity
  8
CSLAYER17
  6
Continuous
 62
     1
100
AcDbLine
 10
140.546355
 20
141.144108
 30
0.0
 11
140.546355
 21
155.144108
 31
0.0
  0
LINE
  5
51
330
4D
100
AcDbEntity
  8
CSLAYER17
  6
Continuous
 62
     1
100
AcDbLine
 10
140.546355
 20
141.144108
 30
0.0
 11
139.769898
 21
144.041885
 31
0.0
  0
LINE
  5
52
330
4D
100
AcDbEntity
  8
CSLAYER17
  6
Continuous
 62
     1
100
AcDbLine
 10
140.546355
 20
141.144108
 30
0.0
 11
141.322812
 21
144.041885
 31
0.0
  0
LINE
  5
53
330
4D
100
AcDbEntity
  8
CSLAYER17
  6
Continuous
 62
     1
100
AcDbLine
 10
140.546355
 20
155.144108
 30
0.0
 11
139.769898
 21
152.246331
 31
0.0
  0
LINE
  5
54
330
4D
100
AcDbEntity
  8
CSLAYER17
  6
Continuous
 62
     1
100
AcDbLine
 10
140.546355
 20
155.144108
 30
0.0
 11
141.322812
 21
152.246331
 31
0.0
  0
LINE
  5
55
330
4D
100
AcDbEntity
  8
CSLAYER17
  6
Continuous
 62
     1
100
AcDbLine
 10
129.169372
 20
141.144108
 30
0.0
 11
142.046355
 21
141.144108
 31
0.0
  0
LINE
  5
56
330
4D
100
AcDbEntity
  8
CSLAYER17
  6
Continuous
 62
     1
100
AcDbLine
 10
129.169372
 20
155.144108
 30
0.0
 11
142.046355
 21
155.144108
 31
0.0
  0
ENDBLK
  5
57
330
4D
100
AcDbEntity
  8
0
100
AcDbBlockEnd
  0
BLOCK
  5
59
330
58
100
AcDbEntity
  8
CSLAYER17
100
AcDbBlockBegin
  2
*D2
 70
     1
 10
0.0
 20
0.0
 30
0.0
  3
*D2
  1

  0
TEXT
  5
5A
330
58
100
AcDbEntity
  8
CSLAYER17
 62
     1
100
AcDbText
 10
78.91937299999999
 20
172.7333529999999
 30
0.0
 40
3.5
  1
86.5
 41
0.935064935064935
 51
15.0
  7
FX_FONT
 72
     5
 11
90.91937299999999
 21
172.7333529999999
 31
0.0
100
AcDbText
  0
LINE
  5
5B
330
58
100
AcDbEntity
  8
CSLAYER17
  6
Continuous
 62
     1
100
AcDbLine
 10
41.66937199999999
 20
172.233356
 30
0.0
 11
128.169372
 21
172.233356
 31
0.0
  0
LINE
  5
5C
330
58
100
AcDbEntity
  8
CSLAYER17
  6
Continuous
 62
     1
100
AcDbLine
 10
41.66937199999999
 20
172.233356
 30
0.0
 11
44.56714999999999
 21
173.0098129999999
 31
0.0
  0
LINE
  5
5D
330
58
100
AcDbEntity
  8
CSLAYER17
  6
Continuous
 62
     1
100
AcDbLine
 10
41.66937199999999
 20
172.233356
 30
0.0
 11
44.56714999999999
 21
171.456899
 31
0.0
  0
LINE
  5
5E
330
58
100
AcDbEntity
  8
CSLAYER17
  6
Continuous
 62
     1
100
AcDbLine
 10
128.169372
 20
172.233356
 30
0.0
 11
125.271595
 21
173.0098129999999
 31
0.0
  0
LINE
  5
5F
330
58
100
AcDbEntity
  8
CSLAYER17
  6
Continuous
 62
     1
100
AcDbLine
 10
128.169372
 20
172.233356
 30
0.0
 11
125.271595
 21
171.456899
 31
0.0
  0
LINE
  5
60
330
58
100
AcDbEntity
  8
CSLAYER17
  6
Continuous
 62
     1
100
AcDbLine
 10
41.66937199999999
 20
155.644108
 30
0.0
 11
41.66937199999999
 21
173.733356
 31
0.0
  0
LINE
  5
61
330
58
100
AcDbEntity
  8
CSLAYER17
  6
Continuous
 62
     1
100
AcDbLine
 10
128.169372
 20
155.644108
 30
0.0
 11
128.169372
 21
173.733356
 31
0.0
  0
ENDBLK
  5
62
330
58
100
AcDbEntity
  8
0
100
AcDbBlockEnd
  0
BLOCK
  5
64
330
63
100
AcDbEntity
  8
CSLAYER17
100
AcDbBlockBegin
  2
*D3
 70
     1
 10
0.0
 20
0.0
 30
0.0
  3
*D3
  1

  0
TEXT
  5
65
330
63
100
AcDbEntity
  8
CSLAYER17
 62
     1
100
AcDbText
 10
47.91937599999999
 20
163.0855409999999
 30
0.0
 40
3.5
  1
24.5
 41
0.9350649350649353
 51
15.0
  7
FX_FONT
 72
     5
 11
59.91937599999999
 21
163.0855409999999
 31
0.0
100
AcDbText
  0
LINE
  5
66
330
63
100
AcDbEntity
  8
CSLAYER17
  6
Continuous
 62
     1
100
AcDbLine
 10
41.66937199999999
 20
162.585544
 30
0.0
 11
66.16937199999999
 21
162.585544
 31
0.0
  0
LINE
  5
67
330
63
100
AcDbEntity
  8
CSLAYER17
  6
Continuous
 62
     1
100
AcDbLine
 10
41.66937199999999
 20
162.585544
 30
0.0
 11
44.56714999999999
 21
163.3620019999999
 31
0.0
  0
LINE
  5
68
330
63
100
AcDbEntity
  8
CSLAYER17
  6
Continuous
 62
     1
100
AcDbLine
 10
41.66937199999999
 20
162.585544
 30
0.0
 11
44.56714999999999
 21
161.809087
 31
0.0
  0
LINE
  5
69
330
63
100
AcDbEntity
  8
CSLAYER17
  6
Continuous
 62
     1
100
AcDbLine
 10
66.16937199999999
 20
162.585544
 30
0.0
 11
63.271595
 21
163.3620019999999
 31
0.0
  0
LINE
  5
6A
330
63
100
AcDbEntity
  8
CSLAYER17
  6
Continuous
 62
     1
100
AcDbLine
 10
66.16937199999999
 20
162.585544
 30
0.0
 11
63.271595
 21
161.809087
 31
0.0
  0
LINE
  5
6B
330
63
100
AcDbEntity
  8
CSLAYER17
  6
Continuous
 62
     1
100
AcDbLine
 10
41.66937199999999
 20
155.644108
 30
0.0
 11
41.66937199999999
 21
164.0855439999999
 31
0.0
  0
LINE
  5
6C
330
63
100
AcDbEntity
  8
CSLAYER17
  6
Continuous
 62
     1
100
AcDbLine
 10
66.16937199999999
 20
152.144108
 30
0.0
 11
66.16937199999999
 21
164.0855439999999
 31
0.0
  0
ENDBLK
  5
6D
330
63
100
AcDbEntity
  8
0
100
AcDbBlockEnd
  0
BLOCK
  5
6F
330
6E
100
AcDbEntity
  8
CSLAYER17
100
AcDbBlockBegin
  2
*D4
 70
     1
 10
0.0
 20
0.0
 30
0.0
  3
*D4
  1

  0
TEXT
  5
70
330
6E
100
AcDbEntity
  8
CSLAYER17
 62
     1
100
AcDbText
 10
140.046356
 20
79.462135
 30
0.0
 40
3.0
  1
%%c14
 50
90.0
 41
0.9375
  7
FX_FONT
 72
     5
 11
140.046356
 21
86.962135
 31
0.0
100
AcDbText
  0
LINE
  5
71
330
6E
100
AcDbEntity
  8
CSLAYER17
  6
Continuous
 62
     1
100
AcDbLine
 10
140.546355
 20
75.628518
 30
0.0
 11
140.546355
 21
89.62851800000001
 31
0.0
  0
LINE
  5
72
330
6E
100
AcDbEntity
  8
CSLAYER17
  6
Continuous
 62
     1
100
AcDbLine
 10
140.546355
 20
75.628518
 30
0.0
 11
139.769898
 21
78.52629499999999
 31
0.0
  0
LINE
  5
73
330
6E
100
AcDbEntity
  8
CSLAYER17
  6
Continuous
 62
     1
100
AcDbLine
 10
140.546355
 20
75.628518
 30
0.0
 11
141.322812
 21
78.52629499999999
 31
0.0
  0
LINE
  5
74
330
6E
100
AcDbEntity
  8
CSLAYER17
  6
Continuous
 62
     1
100
AcDbLine
 10
140.546355
 20
89.62851800000001
 30
0.0
 11
139.769898
 21
86.73073999999999
 31
0.0
  0
LINE
  5
75
330
6E
100
AcDbEntity
  8
CSLAYER17
  6
Continuous
 62
     1
100
AcDbLine
 10
140.546355
 20
89.62851800000001
 30
0.0
 11
141.322812
 21
86.73073999999999
 31
0.0
  0
LINE
  5
76
330
6E
100
AcDbEntity
  8
CSLAYER17
  6
Continuous
 62
     1
100
AcDbLine
 10
129.097265
 20
75.628518
 30
0.0
 11
142.046355
 21
75.628518
 31
0.0
  0
LINE
  5
77
330
6E
100
AcDbEntity
  8
CSLAYER17
  6
Continuous
 62
     1
100
AcDbLine
 10
129.097265
 20
89.62851800000001
 30
0.0
 11
142.046355
 21
89.62851800000001
 31
0.0
  0
ENDBLK
  5
78
330
6E
100
AcDbEntity
  8
0
100
AcDbBlockEnd
  0
BLOCK
  5
7A
330
79
100
AcDbEntity
  8
CSLAYER17
100
AcDbBlockBegin
  2
*D5
 70
     1
 10
0.0
 20
0.0
 30
0.0
  3
*D5
  1

  0
TEXT
  5
7B
330
79
100
AcDbEntity
  8
CSLAYER17
 62
     1
100
AcDbText
 10
72.89396700000001
 20
110.191353
 30
0.0
 40
3.0
  1
（78.0～86.5）
 41
0.8487654320987653
  7
FX_FONT
 72
     5
 11
100.393967
 21
110.191353
 31
0.0
100
AcDbText
  0
LINE
  5
7C
330
79
100
AcDbEntity
  8
CSLAYER17
  6
Continuous
 62
     1
100
AcDbLine
 10
41.769372
 20
109.6913479999999
 30
0.0
 11
128.269372
 21
109.6913479999999
 31
0.0
  0
LINE
  5
7D
330
79
100
AcDbEntity
  8
CSLAYER17
  6
Continuous
 62
     1
100
AcDbLine
 10
41.769372
 20
109.6913479999999
 30
0.0
 11
44.66714999999999
 21
110.4678049999999
 31
0.0
  0
LINE
  5
7E
330
79
100
AcDbEntity
  8
CSLAYER17
  6
Continuous
 62
     1
100
AcDbLine
 10
41.769372
 20
109.6913479999999
 30
0.0
 11
44.66714999999999
 21
108.914891
 31
0.0
  0
LINE
  5
7F
330
79
100
AcDbEntity
  8
CSLAYER17
  6
Continuous
 62
     1
100
AcDbLine
 10
128.269372
 20
109.6913479999999
 30
0.0
 11
125.3715949999999
 21
110.4678049999999
 31
0.0
  0
LINE
  5
80
330
79
100
AcDbEntity
  8
CSLAYER17
  6
Continuous
 62
     1
100
AcDbLine
 10
128.269372
 20
109.6913479999999
 30
0.0
 11
125.3715949999999
 21
108.914891
 31
0.0
  0
LINE
  5
81
330
79
100
AcDbEntity
  8
CSLAYER17
  6
Continuous
 62
     1
100
AcDbLine
 10
41.769372
 20
90.12851799999999
 30
0.0
 11
41.769372
 21
111.191348
 31
0.0
  0
LINE
  5
82
330
79
100
AcDbEntity
  8
CSLAYER17
  6
Continuous
 62
     1
100
AcDbLine
 10
128.269372
 20
90.12851799999999
 30
0.0
 11
128.269372
 21
111.191348
 31
0.0
  0
ENDBLK
  5
83
330
79
100
AcDbEntity
  8
0
100
AcDbBlockEnd
  0
BLOCK
  5
85
330
84
100
AcDbEntity
  8
CSLAYER17
100
AcDbBlockBegin
  2
*D6
 70
     1
 10
0.0
 20
0.0
 30
0.0
  3
*D6
  1

  0
TEXT
  5
86
330
84
100
AcDbEntity
  8
CSLAYER17
 62
     1
100
AcDbText
 10
30.141058
 20
65.432259
 30
0.0
 40
3.0
  1
φ7.5
 50
90.0
 41
0.8620689655172412
  7
FX_FONT
 72
     5
 11
30.141058
 21
75.432259
 31
0.0
100
AcDbText
  0
LINE
  5
87
330
84
100
AcDbEntity
  8
CSLAYER17
  6
Continuous
 62
     1
100
AcDbLine
 10
30.641052
 20
78.87851799999999
 30
0.0
 11
30.641052
 21
86.37851799999999
 31
0.0
  0
LINE
  5
88
330
84
100
AcDbEntity
  8
CSLAYER17
  6
Continuous
 62
     1
100
AcDbLine
 10
40.76937199999999
 20
78.87851799999999
 30
0.0
 11
29.141052
 21
78.87851799999999
 31
0.0
  0
LINE
  5
89
330
84
100
AcDbEntity
  8
CSLAYER17
  6
Continuous
 62
     1
100
AcDbLine
 10
40.76937199999999
 20
86.37851799999999
 30
0.0
 11
29.141052
 21
86.37851799999999
 31
0.0
  0
LINE
  5
8A
330
84
100
AcDbEntity
  8
CSLAYER17
  6
Continuous
 62
     1
100
AcDbLine
 10
30.641052
 20
64.338603
 30
0.0
 11
30.641052
 21
78.87851799999999
 31
0.0
  0
LINE
  5
8B
330
84
100
AcDbEntity
  8
CSLAYER17
  6
Continuous
 62
     1
100
AcDbLine
 10
30.641052
 20
78.87851799999999
 30
0.0
 11
29.864595
 21
75.98074
 31
0.0
  0
LINE
  5
8C
330
84
100
AcDbEntity
  8
CSLAYER17
  6
Continuous
 62
     1
100
AcDbLine
 10
30.641052
 20
78.87851799999999
 30
0.0
 11
31.417509
 21
75.98074
 31
0.0
  0
LINE
  5
8D
330
84
100
AcDbEntity
  8
CSLAYER17
  6
Continuous
 62
     1
100
AcDbLine
 10
30.641052
 20
86.37851799999999
 30
0.0
 11
30.641052
 21
91.37851799999999
 31
0.0
  0
LINE
  5
8E
330
84
100
AcDbEntity
  8
CSLAYER17
  6
Continuous
 62
     1
100
AcDbLine
 10
30.641052
 20
86.37851799999999
 30
0.0
 11
29.864595
 21
89.276295
 31
0.0
  0
LINE
  5
8F
330
84
100
AcDbEntity
  8
CSLAYER17
  6
Continuous
 62
     1
100
AcDbLine
 10
30.641052
 20
86.37851799999999
 30
0.0
 11
31.417509
 21
89.276295
 31
0.0
  0
ENDBLK
  5
90
330
84
100
AcDbEntity
  8
0
100
AcDbBlockEnd
  0
BLOCK
  5
92
330
91
100
AcDbEntity
  8
CSLAYER1
100
AcDbBlockBegin
  2
FXDIM0000
 70
     0
 10
0.0
 20
0.0
 30
0.0
  3
FXDIM0000
  1

  0
LINE
  5
93
330
91
100
AcDbEntity
  8
CSLAYER17
  6
Continuous
 62
     1
100
AcDbLine
 10
83.120387
 20
89.62851800000001
 30
0.0
 11
103.518443
 21
98.33536700000001
 31
0.0
  0
CIRCLE
  5
94
330
91
100
AcDbEntity
  8
CSLAYER17
  6
Continuous
 62
     1
100
AcDbCircle
 10
83.120387
 20
89.62851800000001
 30
0.0
 40
0.5
  0
CIRCLE
  5
95
330
91
100
AcDbEntity
  8
CSLAYER17
  6
Continuous
 62
     1
100
AcDbCircle
 10
83.120387
 20
89.62851800000001
 30
0.0
 40
0.25
  0
LINE
  5
96
330
91
100
AcDbEntity
  8
CSLAYER17
  6
Continuous
 62
     1
100
AcDbLine
 10
103.518443
 20
98.33536700000001
 30
0.0
 11
118.8383189999999
 21
98.33536700000001
 31
0.0
  0
TEXT
  5
97
330
91
100
AcDbEntity
  8
CSLAYER17
 62
     1
100
AcDbText
 10
107.1184539999999
 20
98.83536499999999
 30
0.0
 40
3.0
  1
調整ねじ
 41
0.7575757575757577
  7
FX_FONT
 72
     5
 11
117.118454
 21
98.83536499999999
 31
0.0
100
AcDbText
  0
ENDBLK
  5
98
330
91
100
AcDbEntity
  8
0
100
AcDbBlockEnd
  0
BLOCK
  5
9A
330
99
100
AcDbEntity
  8
CSLAYER17
100
AcDbBlockBegin
  2
*D8
 70
     1
 10
0.0
 20
0.0
 30
0.0
  3
*D8
  1

  0
TEXT
  5
9B
330
99
100
AcDbEntity
  8
CSLAYER17
 62
     1
100
AcDbText
 10
86.826035
 20
67.43604999999999
 30
0.0
 40
3.0
  1
調整範囲（０～８．５）
 41
0.7392473118279569
  7
FX_FONT
 72
     5
 11
114.326035
 21
67.43604999999999
 31
0.0
100
AcDbText
  0
LINE
  5
9C
330
99
100
AcDbEntity
  8
CSLAYER17
  6
Continuous
 62
     1
100
AcDbLine
 10
72.869372
 20
66.936047
 30
0.0
 11
81.269372
 21
66.936047
 31
0.0
  0
LINE
  5
9D
330
99
100
AcDbEntity
  8
CSLAYER17
  6
Continuous
 62
     1
100
AcDbLine
 10
72.869372
 20
74.828518
 30
0.0
 11
72.869372
 21
65.436047
 31
0.0
  0
LINE
  5
9E
330
99
100
AcDbEntity
  8
CSLAYER17
  6
Continuous
 62
     1
100
AcDbLine
 10
81.269372
 20
74.828518
 30
0.0
 11
81.269372
 21
65.436047
 31
0.0
  0
LINE
  5
9F
330
99
100
AcDbEntity
  8
CSLAYER17
  6
Continuous
 62
     1
100
AcDbLine
 10
67.869372
 20
66.936047
 30
0.0
 11
72.869372
 21
66.936047
 31
0.0
  0
LINE
  5
A0
330
99
100
AcDbEntity
  8
CSLAYER17
  6
Continuous
 62
     1
100
AcDbLine
 10
72.869372
 20
66.936047
 30
0.0
 11
69.97159499999999
 21
67.71250400000001
 31
0.0
  0
LINE
  5
A1
330
99
100
AcDbEntity
  8
CSLAYER17
  6
Continuous
 62
     1
100
AcDbLine
 10
72.869372
 20
66.936047
 30
0.0
 11
69.97159499999999
 21
66.15959000000001
 31
0.0
  0
LINE
  5
A2
330
99
100
AcDbEntity
  8
CSLAYER17
  6
Continuous
 62
     1
100
AcDbLine
 10
81.269372
 20
66.936047
 30
0.0
 11
119.882705
 21
66.936047
 31
0.0
  0
LINE
  5
A3
330
99
100
AcDbEntity
  8
CSLAYER17
  6
Continuous
 62
     1
100
AcDbLine
 10
81.269372
 20
66.936047
 30
0.0
 11
84.16715000000001
 21
67.71250400000001
 31
0.0
  0
LINE
  5
A4
330
99
100
AcDbEntity
  8
CSLAYER17
  6
Continuous
 62
     1
100
AcDbLine
 10
81.269372
 20
66.936047
 30
0.0
 11
84.16715000000001
 21
66.15959000000001
 31
0.0
  0
ENDBLK
  5
A5
330
99
100
AcDbEntity
  8
0
100
AcDbBlockEnd
  0
BLOCK
  5
A7
330
A6
100
AcDbEntity
  8
CSLAYER17
100
AcDbBlockBegin
  2
*D9
 70
     1
 10
0.0
 20
0.0
 30
0.0
  3
*D9
  1

  0
TEXT
  5
A8
330
A6
100
AcDbEntity
  8
CSLAYER17
 62
     1
100
AcDbText
 10
45.569378
 20
99.484825
 30
0.0
 40
3.5
  1
19.6
 41
0.9350649350649353
  7
FX_FONT
 72
     5
 11
57.569378
 21
99.484825
 31
0.0
100
AcDbText
  0
LINE
  5
A9
330
A6
100
AcDbEntity
  8
CSLAYER17
  6
Continuous
 62
     1
100
AcDbLine
 10
41.769372
 20
98.984819
 30
0.0
 11
61.369372
 21
98.984819
 31
0.0
  0
LINE
  5
AA
330
A6
100
AcDbEntity
  8
CSLAYER17
  6
Continuous
 62
     1
100
AcDbLine
 10
41.769372
 20
98.984819
 30
0.0
 11
44.66714999999999
 21
99.76127599999999
 31
0.0
  0
LINE
  5
AB
330
A6
100
AcDbEntity
  8
CSLAYER17
  6
Continuous
 62
     1
100
AcDbLine
 10
41.769372
 20
98.984819
 30
0.0
 11
44.66714999999999
 21
98.208362
 31
0.0
  0
LINE
  5
AC
330
A6
100
AcDbEntity
  8
CSLAYER17
  6
Continuous
 62
     1
100
AcDbLine
 10
61.369372
 20
98.984819
 30
0.0
 11
58.471595
 21
99.76127599999999
 31
0.0
  0
LINE
  5
AD
330
A6
100
AcDbEntity
  8
CSLAYER17
  6
Continuous
 62
     1
100
AcDbLine
 10
61.369372
 20
98.984819
 30
0.0
 11
58.471595
 21
98.208362
 31
0.0
  0
LINE
  5
AE
330
A6
100
AcDbEntity
  8
CSLAYER17
  6
Continuous
 62
     1
100
AcDbLine
 10
41.769372
 20
90.12851799999999
 30
0.0
 11
41.769372
 21
100.4848189999999
 31
0.0
  0
LINE
  5
AF
330
A6
100
AcDbEntity
  8
CSLAYER17
  6
Continuous
 62
     1
100
AcDbLine
 10
61.369372
 20
87.37851799999999
 30
0.0
 11
61.369372
 21
100.4848189999999
 31
0.0
  0
ENDBLK
  5
B0
330
A6
100
AcDbEntity
  8
0
100
AcDbBlockEnd
  0
BLOCK
  5
B2
330
B1
100
AcDbEntity
  8
CSLAYER17
100
AcDbBlockBegin
  2
*D10
 70
     1
 10
0.0
 20
0.0
 30
0.0
  3
*D10
  1

  0
TEXT
  5
B3
330
B1
100
AcDbEntity
  8
CSLAYER17
 62
     1
100
AcDbText
 10
274.4753719999999
 20
76.628517
 30
0.0
 40
3.5
  1
9
 50
90.0
 41
1.285714285714285
 51
15.0
  7
FX_FONT
 72
     5
 11
274.4753719999999
 21
79.628517
 31
0.0
100
AcDbText
  0
LINE
  5
B4
330
B1
100
AcDbEntity
  8
CSLAYER17
  6
Continuous
 62
     1
100
AcDbLine
 10
274.725373
 20
73.62852099999999
 30
0.0
 11
274.725373
 21
82.62852099999999
 31
0.0
  0
LINE
  5
B5
330
B1
100
AcDbEntity
  8
CSLAYER17
  6
Continuous
 62
     1
100
AcDbLine
 10
274.725373
 20
73.62852099999999
 30
0.0
 11
273.948916
 21
76.52629799999999
 31
0.0
  0
LINE
  5
B6
330
B1
100
AcDbEntity
  8
CSLAYER17
  6
Continuous
 62
     1
100
AcDbLine
 10
274.725373
 20
73.62852099999999
 30
0.0
 11
275.5018299999999
 21
76.52629799999999
 31
0.0
  0
LINE
  5
B7
330
B1
100
AcDbEntity
  8
CSLAYER17
  6
Continuous
 62
     1
100
AcDbLine
 10
274.725373
 20
82.62852099999999
 30
0.0
 11
273.948916
 21
79.730743
 31
0.0
  0
LINE
  5
B8
330
B1
100
AcDbEntity
  8
CSLAYER17
  6
Continuous
 62
     1
100
AcDbLine
 10
274.725373
 20
82.62852099999999
 30
0.0
 11
275.5018299999999
 21
79.730743
 31
0.0
  0
LINE
  5
B9
330
B1
100
AcDbEntity
  8
CSLAYER17
  6
Continuous
 62
     1
100
AcDbLine
 10
256.4338259999999
 20
73.62852099999999
 30
0.0
 11
276.2253729999999
 21
73.62852099999999
 31
0.0
  0
LINE
  5
BA
330
B1
100
AcDbEntity
  8
CSLAYER17
  6
Continuous
 62
     1
100
AcDbLine
 10
264.392444
 20
82.62852099999999
 30
0.0
 11
276.2253729999999
 21
82.62852099999999
 31
0.0
  0
ENDBLK
  5
BB
330
B1
100
AcDbEntity
  8
0
100
AcDbBlockEnd
  0
BLOCK
  5
BD
330
BC
100
AcDbEntity
  8
CSLAYER17
100
AcDbBlockBegin
  2
*D11
 70
     1
 10
0.0
 20
0.0
 30
0.0
  3
*D11
  1

  0
TEXT
  5
BE
330
BC
100
AcDbEntity
  8
CSLAYER17
 62
     1
100
AcDbText
 10
249.392441
 20
55.15369
 30
0.0
 40
3.5
  1
18
 41
1.028571428571428
 51
15.0
  7
FX_FONT
 72
     5
 11
255.392441
 21
55.15369
 31
0.0
100
AcDbText
  0
LINE
  5
BF
330
BC
100
AcDbEntity
  8
CSLAYER17
  6
Continuous
 62
     1
100
AcDbLine
 10
243.3924439999999
 20
54.90368899999999
 30
0.0
 11
261.392444
 21
54.90368899999999
 31
0.0
  0
LINE
  5
C0
330
BC
100
AcDbEntity
  8
CSLAYER17
  6
Continuous
 62
     1
100
AcDbLine
 10
243.3924439999999
 20
54.90368899999999
 30
0.0
 11
246.290222
 21
55.68014599999999
 31
0.0
  0
LINE
  5
C1
330
BC
100
AcDbEntity
  8
CSLAYER17
  6
Continuous
 62
     1
100
AcDbLine
 10
243.3924439999999
 20
54.90368899999999
 30
0.0
 11
246.290222
 21
54.12723199999999
 31
0.0
  0
LINE
  5
C2
330
BC
100
AcDbEntity
  8
CSLAYER17
  6
Continuous
 62
     1
100
AcDbLine
 10
261.392444
 20
54.90368899999999
 30
0.0
 11
258.4946669999999
 21
55.68014599999999
 31
0.0
  0
LINE
  5
C3
330
BC
100
AcDbEntity
  8
CSLAYER17
  6
Continuous
 62
     1
100
AcDbLine
 10
261.392444
 20
54.90368899999999
 30
0.0
 11
258.4946669999999
 21
54.12723199999999
 31
0.0
  0
LINE
  5
C4
330
BC
100
AcDbEntity
  8
CSLAYER17
  6
Continuous
 62
     1
100
AcDbLine
 10
243.3924439999999
 20
78.58713900000001
 30
0.0
 11
243.3924439999999
 21
53.403689
 31
0.0
  0
LINE
  5
C5
330
BC
100
AcDbEntity
  8
CSLAYER17
  6
Continuous
 62
     1
100
AcDbLine
 10
261.392444
 20
78.58713900000001
 30
0.0
 11
261.392444
 21
53.403689
 31
0.0
  0
ENDBLK
  5
C6
330
BC
100
AcDbEntity
  8
0
100
AcDbBlockEnd
  0
BLOCK
  5
C8
330
C7
100
AcDbEntity
  8
CSLAYER17
100
AcDbBlockBegin
  2
*D12
 70
     1
 10
0.0
 20
0.0
 30
0.0
  3
*D12
  1

  0
TEXT
  5
C9
330
C7
100
AcDbEntity
  8
CSLAYER17
 62
     1
100
AcDbText
 10
185.2558439999999
 20
99.58149
 30
0.0
 40
3.5
  1
20
 41
1.028571428571428
 51
15.0
  7
FX_FONT
 72
     5
 11
191.2558439999999
 21
99.58149
 31
0.0
100
AcDbText
  0
LINE
  5
CA
330
C7
100
AcDbEntity
  8
CSLAYER17
  6
Continuous
 62
     1
100
AcDbLine
 10
178.2558419999999
 20
99.33148500000001
 30
0.0
 11
198.255842
 21
99.33148500000001
 31
0.0
  0
LINE
  5
CB
330
C7
100
AcDbEntity
  8
CSLAYER17
  6
Continuous
 62
     1
100
AcDbLine
 10
178.2558419999999
 20
99.33148500000001
 30
0.0
 11
181.1536189999999
 21
100.107942
 31
0.0
  0
LINE
  5
CC
330
C7
100
AcDbEntity
  8
CSLAYER17
  6
Continuous
 62
     1
100
AcDbLine
 10
178.2558419999999
 20
99.33148500000001
 30
0.0
 11
181.1536189999999
 21
98.55502800000001
 31
0.0
  0
LINE
  5
CD
330
C7
100
AcDbEntity
  8
CSLAYER17
  6
Continuous
 62
     1
100
AcDbLine
 10
198.255842
 20
99.33148500000001
 30
0.0
 11
195.3580649999999
 21
100.107942
 31
0.0
  0
LINE
  5
CE
330
C7
100
AcDbEntity
  8
CSLAYER17
  6
Continuous
 62
     1
100
AcDbLine
 10
198.255842
 20
99.33148500000001
 30
0.0
 11
195.3580649999999
 21
98.55502800000001
 31
0.0
  0
LINE
  5
CF
330
C7
100
AcDbEntity
  8
CSLAYER17
  6
Continuous
 62
     1
100
AcDbLine
 10
178.2558419999999
 20
92.12851800000001
 30
0.0
 11
178.2558419999999
 21
100.831485
 31
0.0
  0
LINE
  5
D0
330
C7
100
AcDbEntity
  8
CSLAYER17
  6
Continuous
 62
     1
100
AcDbLine
 10
198.255842
 20
87.37851799999999
 30
0.0
 11
198.255842
 21
100.831485
 31
0.0
  0
ENDBLK
  5
D1
330
C7
100
AcDbEntity
  8
0
100
AcDbBlockEnd
  0
BLOCK
  5
D3
330
D2
100
AcDbEntity
  8
CSLAYER17
100
AcDbBlockBegin
  2
*D13
 70
     1
 10
0.0
 20
0.0
 30
0.0
  3
*D13
  1

  0
TEXT
  5
D4
330
D2
100
AcDbEntity
  8
CSLAYER17
 62
     1
100
AcDbText
 10
182.7558439999999
 20
62.197536
 30
0.0
 40
3.5
  1
15
 41
1.028571428571428
 51
15.0
  7
FX_FONT
 72
     5
 11
188.755844
 21
62.197536
 31
0.0
100
AcDbText
  0
LINE
  5
D5
330
D2
100
AcDbEntity
  8
CSLAYER17
  6
Continuous
 62
     1
100
AcDbLine
 10
178.2558419999999
 20
61.94753299999999
 30
0.0
 11
193.255842
 21
61.94753299999999
 31
0.0
  0
LINE
  5
D6
330
D2
100
AcDbEntity
  8
CSLAYER17
  6
Continuous
 62
     1
100
AcDbLine
 10
178.2558419999999
 20
61.94753299999999
 30
0.0
 11
181.1536189999999
 21
62.72399
 31
0.0
  0
LINE
  5
D7
330
D2
100
AcDbEntity
  8
CSLAYER17
  6
Continuous
 62
     1
100
AcDbLine
 10
178.2558419999999
 20
61.94753299999999
 30
0.0
 11
181.1536189999999
 21
61.171076
 31
0.0
  0
LINE
  5
D8
330
D2
100
AcDbEntity
  8
CSLAYER17
  6
Continuous
 62
     1
100
AcDbLine
 10
193.255842
 20
61.94753299999999
 30
0.0
 11
190.3580649999999
 21
62.72399
 31
0.0
  0
LINE
  5
D9
330
D2
100
AcDbEntity
  8
CSLAYER17
  6
Continuous
 62
     1
100
AcDbLine
 10
193.255842
 20
61.94753299999999
 30
0.0
 11
190.3580649999999
 21
61.171076
 31
0.0
  0
LINE
  5
DA
330
D2
100
AcDbEntity
  8
CSLAYER17
  6
Continuous
 62
     1
100
AcDbLine
 10
178.2558419999999
 20
73.128518
 30
0.0
 11
178.2558419999999
 21
60.44753299999999
 31
0.0
  0
LINE
  5
DB
330
D2
100
AcDbEntity
  8
CSLAYER17
  6
Continuous
 62
     1
100
AcDbLine
 10
193.255842
 20
72.328518
 30
0.0
 11
193.255842
 21
60.44753299999999
 31
0.0
  0
ENDBLK
  5
DC
330
D2
100
AcDbEntity
  8
0
100
AcDbBlockEnd
  0
BLOCK
  5
DE
330
DD
100
AcDbEntity
  8
CSLAYER17
100
AcDbBlockBegin
  2
*D14
 70
     1
 10
0.0
 20
0.0
 30
0.0
  3
*D14
  1

  0
TEXT
  5
DF
330
DD
100
AcDbEntity
  8
CSLAYER17
 62
     1
100
AcDbText
 10
205.9557799999999
 20
62.19751399999999
 30
0.0
 40
3.5
  1
(8.5）
 41
0.9740259740259721
 51
15.0
  7
FX_FONT
 72
     5
 11
220.9557799999999
 21
62.19751399999999
 31
0.0
100
AcDbText
  0
LINE
  5
E0
330
DD
100
AcDbEntity
  8
CSLAYER17
  6
Continuous
 62
     1
100
AcDbLine
 10
222.2558419999999
 20
61.94753299999999
 30
0.0
 11
230.7558419999999
 21
61.94753299999999
 31
0.0
  0
LINE
  5
E1
330
DD
100
AcDbEntity
  8
CSLAYER17
  6
Continuous
 62
     1
100
AcDbLine
 10
222.2558419999999
 20
61.94753299999999
 30
0.0
 11
225.1536189999999
 21
62.72399
 31
0.0
  0
LINE
  5
E2
330
DD
100
AcDbEntity
  8
CSLAYER17
  6
Continuous
 62
     1
100
AcDbLine
 10
222.2558419999999
 20
61.94753299999999
 30
0.0
 11
225.1536189999999
 21
61.171076
 31
0.0
  0
LINE
  5
E3
330
DD
100
AcDbEntity
  8
CSLAYER17
  6
Continuous
 62
     1
100
AcDbLine
 10
230.7558419999999
 20
61.94753299999999
 30
0.0
 11
227.8580649999999
 21
62.72399
 31
0.0
  0
LINE
  5
E4
330
DD
100
AcDbEntity
  8
CSLAYER17
  6
Continuous
 62
     1
100
AcDbLine
 10
230.7558419999999
 20
61.94753299999999
 30
0.0
 11
227.8580649999999
 21
61.171076
 31
0.0
  0
LINE
  5
E5
330
DD
100
AcDbEntity
  8
CSLAYER17
  6
Continuous
 62
     1
100
AcDbLine
 10
222.2558419999999
 20
69.628518
 30
0.0
 11
222.2558419999999
 21
60.44753299999999
 31
0.0
  0
LINE
  5
E6
330
DD
100
AcDbEntity
  8
CSLAYER17
  6
Continuous
 62
     1
100
AcDbLine
 10
230.7558419999999
 20
72.62851799999999
 30
0.0
 11
230.7558419999999
 21
60.44753299999999
 31
0.0
  0
ENDBLK
  5
E7
330
DD
100
AcDbEntity
  8
0
100
AcDbBlockEnd
  0
BLOCK
  5
E9
330
E8
100
AcDbEntity
  8
CSLAYER17
100
AcDbBlockBegin
  2
*D15
 70
     1
 10
0.0
 20
0.0
 30
0.0
  3
*D15
  1

  0
TEXT
  5
EA
330
E8
100
AcDbEntity
  8
CSLAYER17
 62
     1
100
AcDbText
 10
198.5058439999999
 20
55.15368299999999
 30
0.0
 40
3.5
  1
52.5
 41
0.9350649350649353
 51
15.0
  7
FX_FONT
 72
     5
 11
210.505844
 21
55.15368299999999
 31
0.0
100
AcDbText
  0
LINE
  5
EB
330
E8
100
AcDbEntity
  8
CSLAYER17
  6
Continuous
 62
     1
100
AcDbLine
 10
178.2558419999999
 20
54.90368899999999
 30
0.0
 11
230.7558419999999
 21
54.90368899999999
 31
0.0
  0
LINE
  5
EC
330
E8
100
AcDbEntity
  8
CSLAYER17
  6
Continuous
 62
     1
100
AcDbLine
 10
178.2558419999999
 20
54.90368899999999
 30
0.0
 11
181.1536189999999
 21
55.68014599999999
 31
0.0
  0
LINE
  5
ED
330
E8
100
AcDbEntity
  8
CSLAYER17
  6
Continuous
 62
     1
100
AcDbLine
 10
178.2558419999999
 20
54.90368899999999
 30
0.0
 11
181.1536189999999
 21
54.12723199999999
 31
0.0
  0
LINE
  5
EE
330
E8
100
AcDbEntity
  8
CSLAYER17
  6
Continuous
 62
     1
100
AcDbLine
 10
230.7558419999999
 20
54.90368899999999
 30
0.0
 11
227.8580649999999
 21
55.68014599999999
 31
0.0
  0
LINE
  5
EF
330
E8
100
AcDbEntity
  8
CSLAYER17
  6
Continuous
 62
     1
100
AcDbLine
 10
230.7558419999999
 20
54.90368899999999
 30
0.0
 11
227.8580649999999
 21
54.12723199999999
 31
0.0
  0
LINE
  5
F0
330
E8
100
AcDbEntity
  8
CSLAYER17
  6
Continuous
 62
     1
100
AcDbLine
 10
178.2558419999999
 20
73.128518
 30
0.0
 11
178.2558419999999
 21
53.403689
 31
0.0
  0
LINE
  5
F1
330
E8
100
AcDbEntity
  8
CSLAYER17
  6
Continuous
 62
     1
100
AcDbLine
 10
230.7558419999999
 20
72.62851799999999
 30
0.0
 11
230.7558419999999
 21
53.403689
 31
0.0
  0
ENDBLK
  5
F2
330
E8
100
AcDbEntity
  8
0
100
AcDbBlockEnd
  0
BLOCK
  5
F4
330
F3
100
AcDbEntity
  8
CSLAYER17
100
AcDbBlockBegin
  2
*D16
 70
     1
 10
0.0
 20
0.0
 30
0.0
  3
*D16
  1

  0
TEXT
  5
F5
330
F3
100
AcDbEntity
  8
CSLAYER17
 62
     1
100
AcDbText
 10
159.4951629999999
 20
78.128517
 30
0.0
 40
3.5
  1
φ19
 50
90.0
 41
0.8970099667774087
 51
15.0
  7
FX_FONT
 72
     5
 11
159.4951629999999
 21
87.12851699999999
 31
0.0
100
AcDbText
  0
LINE
  5
F6
330
F3
100
AcDbEntity
  8
CSLAYER17
  6
Continuous
 62
     1
100
AcDbLine
 10
159.745161
 20
73.128518
 30
0.0
 11
159.745161
 21
92.12851800000001
 31
0.0
  0
LINE
  5
F7
330
F3
100
AcDbEntity
  8
CSLAYER17
  6
Continuous
 62
     1
100
AcDbLine
 10
159.745161
 20
73.128518
 30
0.0
 11
158.968704
 21
76.02629499999999
 31
0.0
  0
LINE
  5
F8
330
F3
100
AcDbEntity
  8
CSLAYER17
  6
Continuous
 62
     1
100
AcDbLine
 10
159.745161
 20
73.128518
 30
0.0
 11
160.521618
 21
76.02629499999999
 31
0.0
  0
LINE
  5
F9
330
F3
100
AcDbEntity
  8
CSLAYER17
  6
Continuous
 62
     1
100
AcDbLine
 10
159.745161
 20
92.12851800000001
 30
0.0
 11
158.968704
 21
89.23073999999999
 31
0.0
  0
LINE
  5
FA
330
F3
100
AcDbEntity
  8
CSLAYER17
  6
Continuous
 62
     1
100
AcDbLine
 10
159.745161
 20
92.12851800000001
 30
0.0
 11
160.521618
 21
89.23073999999999
 31
0.0
  0
LINE
  5
FB
330
F3
100
AcDbEntity
  8
CSLAYER17
  6
Continuous
 62
     1
100
AcDbLine
 10
178.2558419999999
 20
73.128518
 30
0.0
 11
158.245161
 21
73.128518
 31
0.0
  0
LINE
  5
FC
330
F3
100
AcDbEntity
  8
CSLAYER17
  6
Continuous
 62
     1
100
AcDbLine
 10
178.2558419999999
 20
92.12851800000001
 30
0.0
 11
158.245161
 21
92.12851800000001
 31
0.0
  0
ENDBLK
  5
FD
330
F3
100
AcDbEntity
  8
0
100
AcDbBlockEnd
  0
BLOCK
  5
FF
330
FE
100
AcDbEntity
  8
CSLAYER17
100
AcDbBlockBegin
  2
*D17
 70
     1
 10
0.0
 20
0.0
 30
0.0
  3
*D17
  1

  0
TEXT
  5
100
330
FE
100
AcDbEntity
  8
CSLAYER17
 62
     1
100
AcDbText
 10
267.0951539999999
 20
87.37853199999999
 30
0.0
 40
3.5
  1
(6)
 50
90.0
 41
0.9183673469387755
 51
15.0
  7
FX_FONT
 72
     5
 11
267.0951539999999
 21
94.87853199999999
 31
0.0
100
AcDbText
  0
LINE
  5
101
330
FE
100
AcDbEntity
  8
CSLAYER17
  6
Continuous
 62
     1
100
AcDbLine
 10
267.658025
 20
79.58713900000001
 30
0.0
 11
267.658025
 21
85.66990200000001
 31
0.0
  0
LINE
  5
102
330
FE
100
AcDbEntity
  8
CSLAYER17
  6
Continuous
 62
     1
100
AcDbLine
 10
262.392444
 20
79.58713900000001
 30
0.0
 11
269.158025
 21
79.58713900000001
 31
0.0
  0
LINE
  5
103
330
FE
100
AcDbEntity
  8
CSLAYER17
  6
Continuous
 62
     1
100
AcDbLine
 10
262.392444
 20
85.66990200000001
 30
0.0
 11
269.158025
 21
85.66990200000001
 31
0.0
  0
LINE
  5
104
330
FE
100
AcDbEntity
  8
CSLAYER17
  6
Continuous
 62
     1
100
AcDbLine
 10
267.658025
 20
77.08713900000001
 30
0.0
 11
267.658025
 21
79.58713900000001
 31
0.0
  0
LINE
  5
105
330
FE
100
AcDbEntity
  8
CSLAYER17
  6
Continuous
 62
     1
100
AcDbLine
 10
267.658025
 20
79.58713900000001
 30
0.0
 11
266.881568
 21
76.689362
 31
0.0
  0
LINE
  5
106
330
FE
100
AcDbEntity
  8
CSLAYER17
  6
Continuous
 62
     1
100
AcDbLine
 10
267.658025
 20
79.58713900000001
 30
0.0
 11
268.434483
 21
76.689362
 31
0.0
  0
LINE
  5
107
330
FE
100
AcDbEntity
  8
CSLAYER17
  6
Continuous
 62
     1
100
AcDbLine
 10
267.658025
 20
85.66990200000001
 30
0.0
 11
267.658025
 21
97.01308500000001
 31
0.0
  0
LINE
  5
108
330
FE
100
AcDbEntity
  8
CSLAYER17
  6
Continuous
 62
     1
100
AcDbLine
 10
267.658025
 20
85.66990200000001
 30
0.0
 11
266.881568
 21
88.56767899999999
 31
0.0
  0
LINE
  5
109
330
FE
100
AcDbEntity
  8
CSLAYER17
  6
Continuous
 62
     1
100
AcDbLine
 10
267.658025
 20
85.66990200000001
 30
0.0
 11
268.434483
 21
88.56767899999999
 31
0.0
  0
ENDBLK
  5
10A
330
FE
100
AcDbEntity
  8
0
100
AcDbBlockEnd
  0
BLOCK
  5
10C
330
10B
100
AcDbEntity
  8
CSLAYER17
100
AcDbBlockBegin
  2
*D18
 70
     1
 10
0.0
 20
0.0
 30
0.0
  3
*D18
  1

  0
TEXT
  5
10D
330
10B
100
AcDbEntity
  8
CSLAYER17
 62
     1
100
AcDbText
 10
262.199402
 20
62.197536
 30
0.0
 40
3.5
  1
(6)
 41
0.9183673469387755
 51
15.0
  7
FX_FONT
 72
     5
 11
269.699402
 21
62.197536
 31
0.0
100
AcDbText
  0
LINE
  5
10E
330
10B
100
AcDbEntity
  8
CSLAYER17
  6
Continuous
 62
     1
100
AcDbLine
 10
249.3510629999999
 20
61.94753299999999
 30
0.0
 11
255.4338259999999
 21
61.94753299999999
 31
0.0
  0
LINE
  5
10F
330
10B
100
AcDbEntity
  8
CSLAYER17
  6
Continuous
 62
     1
100
AcDbLine
 10
249.3510629999999
 20
72.62852099999999
 30
0.0
 11
249.3510629999999
 21
60.44753299999999
 31
0.0
  0
LINE
  5
110
330
10B
100
AcDbEntity
  8
CSLAYER17
  6
Continuous
 62
     1
100
AcDbLine
 10
255.4338259999999
 20
72.62852099999999
 30
0.0
 11
255.4338259999999
 21
60.44753299999999
 31
0.0
  0
LINE
  5
111
330
10B
100
AcDbEntity
  8
CSLAYER17
  6
Continuous
 62
     1
100
AcDbLine
 10
244.662665
 20
61.94753299999999
 30
0.0
 11
249.3510629999999
 21
61.94753299999999
 31
0.0
  0
LINE
  5
112
330
10B
100
AcDbEntity
  8
CSLAYER17
  6
Continuous
 62
     1
100
AcDbLine
 10
249.3510629999999
 20
61.94753299999999
 30
0.0
 11
246.4532859999999
 21
62.72399
 31
0.0
  0
LINE
  5
113
330
10B
100
AcDbEntity
  8
CSLAYER17
  6
Continuous
 62
     1
100
AcDbLine
 10
249.3510629999999
 20
61.94753299999999
 30
0.0
 11
246.4532859999999
 21
61.171076
 31
0.0
  0
LINE
  5
114
330
10B
100
AcDbEntity
  8
CSLAYER17
  6
Continuous
 62
     1
100
AcDbLine
 10
255.4338259999999
 20
61.94753299999999
 30
0.0
 11
273.420223
 21
61.94753299999999
 31
0.0
  0
LINE
  5
115
330
10B
100
AcDbEntity
  8
CSLAYER17
  6
Continuous
 62
     1
100
AcDbLine
 10
255.4338259999999
 20
61.94753299999999
 30
0.0
 11
258.3316029999999
 21
62.72399
 31
0.0
  0
LINE
  5
116
330
10B
100
AcDbEntity
  8
CSLAYER17
  6
Continuous
 62
     1
100
AcDbLine
 10
255.4338259999999
 20
61.94753299999999
 30
0.0
 11
258.3316029999999
 21
61.171076
 31
0.0
  0
ENDBLK
  5
117
330
10B
100
AcDbEntity
  8
0
100
AcDbBlockEnd
  0
BLOCK
  5
119
330
118
100
AcDbEntity
  8
CSLAYER17
100
AcDbBlockBegin
  2
*D19
 70
     1
 10
0.0
 20
0.0
 30
0.0
  3
*D19
  1

  0
TEXT
  5
11A
330
118
100
AcDbEntity
  8
CSLAYER17
 62
     1
100
AcDbText
 10
168.4954219999999
 20
58.461967
 30
0.0
 40
3.5
  1
φ7.5
 50
90.0
 41
0.8866995073891626
  7
FX_FONT
 72
     5
 11
168.4954219999999
 21
70.461967
 31
0.0
100
AcDbText
  0
LINE
  5
11B
330
118
100
AcDbEntity
  8
CSLAYER17
  6
Continuous
 62
     1
100
AcDbLine
 10
168.9954059999999
 20
78.87851799999999
 30
0.0
 11
168.9954059999999
 21
86.37851799999999
 31
0.0
  0
LINE
  5
11C
330
118
100
AcDbEntity
  8
CSLAYER17
  6
Continuous
 62
     1
100
AcDbLine
 10
177.255842
 20
78.87851799999999
 30
0.0
 11
167.495406
 21
78.87851799999999
 31
0.0
  0
LINE
  5
11D
330
118
100
AcDbEntity
  8
CSLAYER17
  6
Continuous
 62
     1
100
AcDbLine
 10
177.255842
 20
86.37851799999999
 30
0.0
 11
167.495406
 21
86.37851799999999
 31
0.0
  0
LINE
  5
11E
330
118
100
AcDbEntity
  8
CSLAYER17
  6
Continuous
 62
     1
100
AcDbLine
 10
168.9954059999999
 20
56.660102
 30
0.0
 11
168.9954059999999
 21
78.87851799999999
 31
0.0
  0
LINE
  5
11F
330
118
100
AcDbEntity
  8
CSLAYER17
  6
Continuous
 62
     1
100
AcDbLine
 10
168.9954059999999
 20
78.87851799999999
 30
0.0
 11
168.218949
 21
75.98074
 31
0.0
  0
LINE
  5
120
330
118
100
AcDbEntity
  8
CSLAYER17
  6
Continuous
 62
     1
100
AcDbLine
 10
168.9954059999999
 20
78.87851799999999
 30
0.0
 11
169.7718629999999
 21
75.98074
 31
0.0
  0
LINE
  5
121
330
118
100
AcDbEntity
  8
CSLAYER17
  6
Continuous
 62
     1
100
AcDbLine
 10
168.9954059999999
 20
86.37851799999999
 30
0.0
 11
168.9954059999999
 21
91.37851799999999
 31
0.0
  0
LINE
  5
122
330
118
100
AcDbEntity
  8
CSLAYER17
  6
Continuous
 62
     1
100
AcDbLine
 10
168.9954059999999
 20
86.37851799999999
 30
0.0
 11
168.218949
 21
89.276295
 31
0.0
  0
LINE
  5
123
330
118
100
AcDbEntity
  8
CSLAYER17
  6
Continuous
 62
     1
100
AcDbLine
 10
168.9954059999999
 20
86.37851799999999
 30
0.0
 11
169.7718629999999
 21
89.276295
 31
0.0
  0
ENDBLK
  5
124
330
118
100
AcDbEntity
  8
0
100
AcDbBlockEnd
  0
BLOCK
  5
127
330
126
100
AcDbEntity
  8
CSLAYER34
100
AcDbBlockBegin
  2
*D20
 70
     1
 10
0.0
 20
0.0
 30
0.0
  3
*D20
  1

  0
TEXT
  5
128
330
126
100
AcDbEntity
  8
CSLAYER34
 62
     1
100
AcDbText
 10
183.585092
 20
16.875391
 30
0.0
 40
0.7
  1
24.3
 41
0.9350649350649261
 51
15.0
  7
FX_FONT
 72
     5
 11
185.9850919999999
 21
16.875391
 31
0.0
100
AcDbText
  0
LINE
  5
129
330
126
100
AcDbEntity
  8
CSLAYER34
  6
Continuous
 62
     1
100
AcDbLine
 10
171.8350929999999
 20
16.77539099999999
 30
0.0
 11
196.1350929999999
 21
16.77539099999999
 31
0.0
  0
LINE
  5
12A
330
126
100
AcDbEntity
  8
CSLAYER34
  6
Continuous
 62
     1
100
AcDbLine
 10
171.8350929999999
 20
16.77539099999999
 30
0.0
 11
172.801019
 21
17.03421
 31
0.0
  0
LINE
  5
12B
330
126
100
AcDbEntity
  8
CSLAYER34
  6
Continuous
 62
     1
100
AcDbLine
 10
171.8350929999999
 20
16.77539099999999
 30
0.0
 11
172.801019
 21
16.516572
 31
0.0
  0
LINE
  5
12C
330
126
100
AcDbEntity
  8
CSLAYER34
  6
Continuous
 62
     1
100
AcDbLine
 10
196.1350929999999
 20
16.77539099999999
 30
0.0
 11
195.1691669999999
 21
17.03421
 31
0.0
  0
LINE
  5
12D
330
126
100
AcDbEntity
  8
CSLAYER34
  6
Continuous
 62
     1
100
AcDbLine
 10
196.1350929999999
 20
16.77539099999999
 30
0.0
 11
195.1691669999999
 21
16.516572
 31
0.0
  0
LINE
  5
12E
330
126
100
AcDbEntity
  8
CSLAYER34
  6
Continuous
 62
     1
100
AcDbLine
 10
171.8350929999999
 20
20.35692999999999
 30
0.0
 11
171.8350929999999
 21
16.475391
 31
0.0
  0
LINE
  5
12F
330
126
100
AcDbEntity
  8
CSLAYER34
  6
Continuous
 62
     1
100
AcDbLine
 10
196.1350929999999
 20
20.45692999999999
 30
0.0
 11
196.1350929999999
 21
16.475391
 31
0.0
  0
ENDBLK
  5
130
330
126
100
AcDbEntity
  8
0
100
AcDbBlockEnd
  0
BLOCK
  5
132
330
131
100
AcDbEntity
  8
CSLAYER34
100
AcDbBlockBegin
  2
*D21
 70
     1
 10
0.0
 20
0.0
 30
0.0
  3
*D21
  1

  0
TEXT
  5
133
330
131
100
AcDbEntity
  8
CSLAYER34
 62
     1
100
AcDbText
 10
208.30531
 20
27.908594
 30
0.0
 40
0.7
  1
有効径%%c4.8
 41
0.8256880733944932
 51
15.0
  7
FX_FONT
 72
     5
 11
212.50531
 21
27.908594
 31
0.0
100
AcDbText
  0
LINE
  5
134
330
131
100
AcDbEntity
  8
CSLAYER34
  6
Continuous
 62
     1
100
AcDbLine
 10
205.559743
 20
25.635391
 30
0.0
 11
203.159743
 21
21.478469
 31
0.0
  0
LINE
  5
135
330
131
100
AcDbEntity
  8
CSLAYER34
  6
Continuous
 62
     1
100
AcDbLine
 10
205.559743
 20
25.635391
 30
0.0
 11
206.8144419999999
 21
27.808594
 31
0.0
  0
LINE
  5
136
330
131
100
AcDbEntity
  8
CSLAYER34
  6
Continuous
 62
     1
100
AcDbLine
 10
205.559743
 20
25.635391
 30
0.0
 11
205.818562
 21
26.60131699999999
 31
0.0
  0
LINE
  5
137
330
131
100
AcDbEntity
  8
CSLAYER34
  6
Continuous
 62
     1
100
AcDbLine
 10
205.559743
 20
25.635391
 30
0.0
 11
206.26685
 21
26.342498
 31
0.0
  0
LINE
  5
138
330
131
100
AcDbEntity
  8
CSLAYER34
  6
Continuous
 62
     1
100
AcDbLine
 10
206.8144419999999
 20
27.808594
 30
0.0
 11
211.1961759999999
 21
27.808594
 31
0.0
  0
LINE
  5
139
330
131
100
AcDbEntity
  8
CSLAYER34
  6
Continuous
 62
     1
100
AcDbLine
 10
203.159743
 20
21.478469
 30
0.0
 11
202.6597429999999
 21
20.612444
 31
0.0
  0
LINE
  5
13A
330
131
100
AcDbEntity
  8
CSLAYER34
  6
Continuous
 62
     1
100
AcDbLine
 10
203.159743
 20
21.478469
 30
0.0
 11
202.900924
 21
20.512543
 31
0.0
  0
LINE
  5
13B
330
131
100
AcDbEntity
  8
CSLAYER34
  6
Continuous
 62
     1
100
AcDbLine
 10
203.159743
 20
21.478469
 30
0.0
 11
202.452636
 21
20.77136199999999
 31
0.0
  0
ENDBLK
  5
13C
330
131
100
AcDbEntity
  8
0
100
AcDbBlockEnd
  0
BLOCK
  5
13E
330
13D
100
AcDbEntity
  8
CSLAYER34
100
AcDbBlockBegin
  2
*D22
 70
     1
 10
0.0
 20
0.0
 30
0.0
  3
*D22
  1

  0
TEXT
  5
13F
330
13D
100
AcDbEntity
  8
CSLAYER34
 62
     1
100
AcDbText
 10
198.709457
 20
23.35693099999999
 30
0.0
 40
0.7
  1
%%c6
 50
90.0
 41
1.028571428571428
 51
15.0
  7
FX_FONT
 72
     5
 11
198.709457
 21
24.55693099999999
 31
0.0
100
AcDbText
  0
LINE
  5
140
330
13D
100
AcDbEntity
  8
CSLAYER34
  6
Continuous
 62
     1
100
AcDbLine
 10
198.809458
 20
20.55692999999999
 30
0.0
 11
198.809458
 21
26.55692999999999
 31
0.0
  0
LINE
  5
141
330
13D
100
AcDbEntity
  8
CSLAYER34
  6
Continuous
 62
     1
100
AcDbLine
 10
198.809458
 20
20.55692999999999
 30
0.0
 11
198.5506389999999
 21
21.522856
 31
0.0
  0
LINE
  5
142
330
13D
100
AcDbEntity
  8
CSLAYER34
  6
Continuous
 62
     1
100
AcDbLine
 10
198.809458
 20
20.55692999999999
 30
0.0
 11
199.068277
 21
21.522856
 31
0.0
  0
LINE
  5
143
330
13D
100
AcDbEntity
  8
CSLAYER34
  6
Continuous
 62
     1
100
AcDbLine
 10
198.809458
 20
26.55692999999999
 30
0.0
 11
198.5506389999999
 21
25.591004
 31
0.0
  0
LINE
  5
144
330
13D
100
AcDbEntity
  8
CSLAYER34
  6
Continuous
 62
     1
100
AcDbLine
 10
198.809458
 20
26.55692999999999
 30
0.0
 11
199.068277
 21
25.591004
 31
0.0
  0
LINE
  5
145
330
13D
100
AcDbEntity
  8
CSLAYER34
  6
Continuous
 62
     1
100
AcDbLine
 10
196.235093
 20
20.55692999999999
 30
0.0
 11
199.109458
 21
20.55692999999999
 31
0.0
  0
LINE
  5
146
330
13D
100
AcDbEntity
  8
CSLAYER34
  6
Continuous
 62
     1
100
AcDbLine
 10
196.235093
 20
26.55692999999999
 30
0.0
 11
199.109458
 21
26.55692999999999
 31
0.0
  0
ENDBLK
  5
147
330
13D
100
AcDbEntity
  8
0
100
AcDbBlockEnd
  0
BLOCK
  5
149
330
148
100
AcDbEntity
  8
CSLAYER34
100
AcDbBlockBegin
  2
*D23
 70
     1
 10
0.0
 20
0.0
 30
0.0
  3
*D23
  1

  0
TEXT
  5
14A
330
148
100
AcDbEntity
  8
CSLAYER34
 62
     1
100
AcDbText
 10
164.5561159999999
 20
17.986067
 30
0.0
 40
0.7
  1
Ｍ５Ｐ０．５深さ４
 41
0.7417582417582385
 51
15.0
  7
FX_FONT
 72
     5
 11
169.9561159999999
 21
17.986067
 31
0.0
100
AcDbText
  0
LINE
  5
14B
330
148
100
AcDbEntity
  8
CSLAYER34
  6
Continuous
 62
     1
100
AcDbLine
 10
162.7042979999999
 20
18.119401
 30
0.0
 11
168.207933
 21
18.119401
 31
0.0
  0
LINE
  5
14C
330
148
100
AcDbEntity
  8
CSLAYER34
  6
Continuous
 62
     1
100
AcDbLine
 10
162.7042979999999
 20
18.119401
 30
0.0
 11
163.6702239999999
 21
18.37822
 31
0.0
  0
LINE
  5
14D
330
148
100
AcDbEntity
  8
CSLAYER34
  6
Continuous
 62
     1
100
AcDbLine
 10
162.7042979999999
 20
18.119401
 30
0.0
 11
163.6702239999999
 21
17.860582
 31
0.0
  0
LINE
  5
14E
330
148
100
AcDbEntity
  8
CSLAYER34
  6
Continuous
 62
     1
100
AcDbLine
 10
168.207933
 20
18.119401
 30
0.0
 11
167.242007
 21
18.37822
 31
0.0
  0
LINE
  5
14F
330
148
100
AcDbEntity
  8
CSLAYER34
  6
Continuous
 62
     1
100
AcDbLine
 10
168.207933
 20
18.119401
 30
0.0
 11
167.242007
 21
17.860582
 31
0.0
  0
LINE
  5
150
330
148
100
AcDbEntity
  8
CSLAYER34
  6
Continuous
 62
     1
100
AcDbLine
 10
162.7042979999999
 20
23.35693
 30
0.0
 11
162.7042979999999
 21
17.81940099999999
 31
0.0
  0
LINE
  5
151
330
148
100
AcDbEntity
  8
CSLAYER34
  6
Continuous
 62
     1
100
AcDbLine
 10
168.207933
 20
23.35693
 30
0.0
 11
168.207933
 21
17.81940099999999
 31
0.0
  0
ENDBLK
  5
152
330
148
100
AcDbEntity
  8
0
100
AcDbBlockEnd
  0
BLOCK
  5
155
330
154
100
AcDbEntity
  8
CSLAYER33
100
AcDbBlockBegin
  2
*D24
 70
     1
 10
0.0
 20
0.0
 30
0.0
  3
*D24
  1

  0
TEXT
  5
156
330
154
100
AcDbEntity
  8
CSLAYER33
 62
     1
100
AcDbText
 10
74.80817399999999
 20
42.939686
 30
0.0
 40
3.5
  1
24.3
 41
0.9350649350649353
  7
FX_FONT
 72
     5
 11
86.808174
 21
42.939686
 31
0.0
100
AcDbText
  0
LINE
  5
157
330
154
100
AcDbEntity
  8
CSLAYER33
  6
Continuous
 62
     1
100
AcDbLine
 10
64.658176
 20
42.773019
 30
0.0
 11
88.95817599999999
 21
42.773019
 31
0.0
  0
LINE
  5
158
330
154
100
AcDbEntity
  8
CSLAYER33
  6
Continuous
 62
     1
100
AcDbLine
 10
64.658176
 20
42.773019
 30
0.0
 11
65.62410200000001
 21
43.031838
 31
0.0
  0
LINE
  5
159
330
154
100
AcDbEntity
  8
CSLAYER33
  6
Continuous
 62
     1
100
AcDbLine
 10
64.658176
 20
42.773019
 30
0.0
 11
65.62410200000001
 21
42.5142
 31
0.0
  0
LINE
  5
15A
330
154
100
AcDbEntity
  8
CSLAYER33
  6
Continuous
 62
     1
100
AcDbLine
 10
88.95817599999999
 20
42.773019
 30
0.0
 11
87.99224999999999
 21
43.031838
 31
0.0
  0
LINE
  5
15B
330
154
100
AcDbEntity
  8
CSLAYER33
  6
Continuous
 62
     1
100
AcDbLine
 10
88.95817599999999
 20
42.773019
 30
0.0
 11
87.99224999999999
 21
42.5142
 31
0.0
  0
LINE
  5
15C
330
154
100
AcDbEntity
  8
CSLAYER33
  6
Continuous
 62
     1
100
AcDbLine
 10
64.658176
 20
46.086087
 30
0.0
 11
64.658176
 21
42.27301899999999
 31
0.0
  0
LINE
  5
15D
330
154
100
AcDbEntity
  8
CSLAYER33
  6
Continuous
 62
     1
100
AcDbLine
 10
88.95817599999999
 20
46.186087
 30
0.0
 11
88.95817599999999
 21
42.27301899999999
 31
0.0
  0
ENDBLK
  5
15E
330
154
100
AcDbEntity
  8
0
100
AcDbBlockEnd
  0
BLOCK
  5
160
330
15F
100
AcDbEntity
  8
CSLAYER33
100
AcDbBlockBegin
  2
*D25
 70
     1
 10
0.0
 20
0.0
 30
0.0
  3
*D25
  1

  0
TEXT
  5
161
330
15F
100
AcDbEntity
  8
CSLAYER33
 62
     1
100
AcDbText
 10
56.779198
 20
42.939686
 30
0.0
 40
3.5
  1
5.5
 41
0.9642857142857135
  7
FX_FONT
 72
     5
 11
65.779198
 21
42.939686
 31
0.0
100
AcDbText
  0
LINE
  5
162
330
15F
100
AcDbEntity
  8
CSLAYER33
  6
Continuous
 62
     1
100
AcDbLine
 10
55.529199
 20
42.773019
 30
0.0
 11
61.02919899999999
 21
42.773019
 31
0.0
  0
LINE
  5
163
330
15F
100
AcDbEntity
  8
CSLAYER33
  6
Continuous
 62
     1
100
AcDbLine
 10
55.529199
 20
42.773019
 30
0.0
 11
56.495125
 21
43.031838
 31
0.0
  0
LINE
  5
164
330
15F
100
AcDbEntity
  8
CSLAYER33
  6
Continuous
 62
     1
100
AcDbLine
 10
55.529199
 20
42.773019
 30
0.0
 11
56.495125
 21
42.5142
 31
0.0
  0
LINE
  5
165
330
15F
100
AcDbEntity
  8
CSLAYER33
  6
Continuous
 62
     1
100
AcDbLine
 10
61.02919899999999
 20
42.773019
 30
0.0
 11
60.06327299999999
 21
43.031838
 31
0.0
  0
LINE
  5
166
330
15F
100
AcDbEntity
  8
CSLAYER33
  6
Continuous
 62
     1
100
AcDbLine
 10
61.02919899999999
 20
42.773019
 30
0.0
 11
60.06327299999999
 21
42.5142
 31
0.0
  0
LINE
  5
167
330
15F
100
AcDbEntity
  8
CSLAYER33
  6
Continuous
 62
     1
100
AcDbLine
 10
55.529199
 20
47.88712899999999
 30
0.0
 11
55.529199
 21
42.27301899999999
 31
0.0
  0
LINE
  5
168
330
15F
100
AcDbEntity
  8
CSLAYER33
  6
Continuous
 62
     1
100
AcDbLine
 10
61.02919899999999
 20
47.88712899999999
 30
0.0
 11
61.02919899999999
 21
42.27301899999999
 31
0.0
  0
ENDBLK
  5
169
330
15F
100
AcDbEntity
  8
0
100
AcDbBlockEnd
  0
BLOCK
  5
16B
330
16A
100
AcDbEntity
  8
CSLAYER33
100
AcDbBlockBegin
  2
*D26
 70
     1
 10
0.0
 20
0.0
 30
0.0
  3
*D26
  1

  0
TEXT
  5
16C
330
16A
100
AcDbEntity
  8
CSLAYER33
 62
     1
100
AcDbText
 10
92.959106
 20
48.419418
 30
0.0
 40
3.5
  1
φ6
 50
90.0
 41
0.9183673469387766
  7
FX_FONT
 72
     5
 11
92.959106
 21
54.41941800000001
 31
0.0
100
AcDbText
  0
LINE
  5
16D
330
16A
100
AcDbEntity
  8
CSLAYER33
  6
Continuous
 62
     1
100
AcDbLine
 10
93.125774
 20
46.41942
 30
0.0
 11
93.125774
 21
52.41942
 31
0.0
  0
LINE
  5
16E
330
16A
100
AcDbEntity
  8
CSLAYER33
  6
Continuous
 62
     1
100
AcDbLine
 10
93.125774
 20
46.41942
 30
0.0
 11
92.866955
 21
47.385346
 31
0.0
  0
LINE
  5
16F
330
16A
100
AcDbEntity
  8
CSLAYER33
  6
Continuous
 62
     1
100
AcDbLine
 10
93.125774
 20
46.41942
 30
0.0
 11
93.38459300000002
 21
47.385346
 31
0.0
  0
LINE
  5
170
330
16A
100
AcDbEntity
  8
CSLAYER33
  6
Continuous
 62
     1
100
AcDbLine
 10
93.125774
 20
52.41942
 30
0.0
 11
92.866955
 21
51.453494
 31
0.0
  0
LINE
  5
171
330
16A
100
AcDbEntity
  8
CSLAYER33
  6
Continuous
 62
     1
100
AcDbLine
 10
93.125774
 20
52.41942
 30
0.0
 11
93.38459300000002
 21
51.453494
 31
0.0
  0
LINE
  5
172
330
16A
100
AcDbEntity
  8
CSLAYER33
  6
Continuous
 62
     1
100
AcDbLine
 10
89.19150999999999
 20
46.41942
 30
0.0
 11
93.62577399999999
 21
46.41942
 31
0.0
  0
LINE
  5
173
330
16A
100
AcDbEntity
  8
CSLAYER33
  6
Continuous
 62
     1
100
AcDbLine
 10
89.19150999999999
 20
52.41942
 30
0.0
 11
93.62577399999999
 21
52.41942
 31
0.0
  0
ENDBLK
  5
174
330
16A
100
AcDbEntity
  8
0
100
AcDbBlockEnd
  0
BLOCK
  5
176
330
175
100
AcDbEntity
  8
CSLAYER1
100
AcDbBlockBegin
  2
BLKF0000
 70
     0
 10
0.0
 20
0.0
 30
0.0
  3
BLKF0000
  1

  0
LINE
  5
177
330
175
100
AcDbEntity
  8
CSLAYER17
  6
Continuous
 62
     5
100
AcDbLine
 10
81.56937199999999
 20
76.128518
 30
0.0
 11
83.96937199999999
 21
76.128518
 31
0.0
  0
LINE
  5
178
330
175
100
AcDbEntity
  8
CSLAYER17
  6
Continuous
 62
     5
100
AcDbLine
 10
81.56937199999999
 20
76.628518
 30
0.0
 11
83.96937199999999
 21
76.628518
 31
0.0
  0
LINE
  5
179
330
175
100
AcDbEntity
  8
CSLAYER17
  6
Continuous
 62
     5
100
AcDbLine
 10
81.56937199999999
 20
77.128518
 30
0.0
 11
83.96937199999999
 21
77.128518
 31
0.0
  0
LINE
  5
17A
330
175
100
AcDbEntity
  8
CSLAYER17
  6
Continuous
 62
     5
100
AcDbLine
 10
81.56937199999999
 20
77.62851799999999
 30
0.0
 11
83.96937199999999
 21
77.62851799999999
 31
0.0
  0
LINE
  5
17B
330
175
100
AcDbEntity
  8
CSLAYER17
  6
Continuous
 62
     5
100
AcDbLine
 10
81.56937199999999
 20
78.128518
 30
0.0
 11
83.96937199999999
 21
78.128518
 31
0.0
  0
LINE
  5
17C
330
175
100
AcDbEntity
  8
CSLAYER17
  6
Continuous
 62
     5
100
AcDbLine
 10
81.56937199999999
 20
78.628518
 30
0.0
 11
83.96937199999999
 21
78.628518
 31
0.0
  0
LINE
  5
17D
330
175
100
AcDbEntity
  8
CSLAYER17
  6
Continuous
 62
     5
100
AcDbLine
 10
81.56937199999999
 20
79.128518
 30
0.0
 11
83.96937199999999
 21
79.128518
 31
0.0
  0
LINE
  5
17E
330
175
100
AcDbEntity
  8
CSLAYER17
  6
Continuous
 62
     5
100
AcDbLine
 10
81.56937199999999
 20
79.628518
 30
0.0
 11
83.96937199999999
 21
79.628518
 31
0.0
  0
LINE
  5
17F
330
175
100
AcDbEntity
  8
CSLAYER17
  6
Continuous
 62
     5
100
AcDbLine
 10
81.56937199999999
 20
80.12851799999999
 30
0.0
 11
83.96937199999999
 21
80.12851799999999
 31
0.0
  0
LINE
  5
180
330
175
100
AcDbEntity
  8
CSLAYER17
  6
Continuous
 62
     5
100
AcDbLine
 10
81.56937199999999
 20
80.628518
 30
0.0
 11
83.96937199999999
 21
80.628518
 31
0.0
  0
LINE
  5
181
330
175
100
AcDbEntity
  8
CSLAYER17
  6
Continuous
 62
     5
100
AcDbLine
 10
81.56937199999999
 20
81.12851799999999
 30
0.0
 11
83.96937199999999
 21
81.12851799999999
 31
0.0
  0
LINE
  5
182
330
175
100
AcDbEntity
  8
CSLAYER17
  6
Continuous
 62
     5
100
AcDbLine
 10
81.56937199999999
 20
81.628518
 30
0.0
 11
83.96937199999999
 21
81.628518
 31
0.0
  0
LINE
  5
183
330
175
100
AcDbEntity
  8
CSLAYER17
  6
Continuous
 62
     5
100
AcDbLine
 10
81.56937199999999
 20
82.12851800000001
 30
0.0
 11
83.96937199999999
 21
82.12851800000001
 31
0.0
  0
ENDBLK
  5
184
330
175
100
AcDbEntity
  8
0
100
AcDbBlockEnd
  0
BLOCK
  5
186
330
185
100
AcDbEntity
  8
CSLAYER1
100
AcDbBlockBegin
  2
BLKF0001
 70
     0
 10
0.0
 20
0.0
 30
0.0
  3
BLKF0001
  1

  0
LINE
  5
187
330
185
100
AcDbEntity
  8
CSLAYER17
  6
Continuous
 62
     5
100
AcDbLine
 10
81.56937199999999
 20
89.128518
 30
0.0
 11
83.96937199999999
 21
89.128518
 31
0.0
  0
LINE
  5
188
330
185
100
AcDbEntity
  8
CSLAYER17
  6
Continuous
 62
     5
100
AcDbLine
 10
81.56937199999999
 20
88.62851799999999
 30
0.0
 11
83.96937199999999
 21
88.62851799999999
 31
0.0
  0
LINE
  5
189
330
185
100
AcDbEntity
  8
CSLAYER17
  6
Continuous
 62
     5
100
AcDbLine
 10
81.56937199999999
 20
88.128518
 30
0.0
 11
83.96937199999999
 21
88.128518
 31
0.0
  0
LINE
  5
18A
330
185
100
AcDbEntity
  8
CSLAYER17
  6
Continuous
 62
     5
100
AcDbLine
 10
81.56937199999999
 20
87.62851799999999
 30
0.0
 11
83.96937199999999
 21
87.62851799999999
 31
0.0
  0
LINE
  5
18B
330
185
100
AcDbEntity
  8
CSLAYER17
  6
Continuous
 62
     5
100
AcDbLine
 10
81.56937199999999
 20
87.12851800000001
 30
0.0
 11
83.96937199999999
 21
87.12851800000001
 31
0.0
  0
LINE
  5
18C
330
185
100
AcDbEntity
  8
CSLAYER17
  6
Continuous
 62
     5
100
AcDbLine
 10
81.56937199999999
 20
86.628518
 30
0.0
 11
83.96937199999999
 21
86.628518
 31
0.0
  0
LINE
  5
18D
330
185
100
AcDbEntity
  8
CSLAYER17
  6
Continuous
 62
     5
100
AcDbLine
 10
81.56937199999999
 20
86.12851799999999
 30
0.0
 11
83.96937199999999
 21
86.12851799999999
 31
0.0
  0
LINE
  5
18E
330
185
100
AcDbEntity
  8
CSLAYER17
  6
Continuous
 62
     5
100
AcDbLine
 10
81.56937199999999
 20
85.628518
 30
0.0
 11
83.96937199999999
 21
85.628518
 31
0.0
  0
LINE
  5
18F
330
185
100
AcDbEntity
  8
CSLAYER17
  6
Continuous
 62
     5
100
AcDbLine
 10
81.56937199999999
 20
85.12851799999999
 30
0.0
 11
83.96937199999999
 21
85.12851799999999
 31
0.0
  0
LINE
  5
190
330
185
100
AcDbEntity
  8
CSLAYER17
  6
Continuous
 62
     5
100
AcDbLine
 10
81.56937199999999
 20
84.62851800000001
 30
0.0
 11
83.96937199999999
 21
84.62851800000001
 31
0.0
  0
LINE
  5
191
330
185
100
AcDbEntity
  8
CSLAYER17
  6
Continuous
 62
     5
100
AcDbLine
 10
81.56937199999999
 20
84.128518
 30
0.0
 11
83.96937199999999
 21
84.128518
 31
0.0
  0
LINE
  5
192
330
185
100
AcDbEntity
  8
CSLAYER17
  6
Continuous
 62
     5
100
AcDbLine
 10
81.56937199999999
 20
83.62851799999999
 30
0.0
 11
83.96937199999999
 21
83.62851799999999
 31
0.0
  0
LINE
  5
193
330
185
100
AcDbEntity
  8
CSLAYER17
  6
Continuous
 62
     5
100
AcDbLine
 10
81.56937199999999
 20
83.128518
 30
0.0
 11
83.96937199999999
 21
83.128518
 31
0.0
  0
ENDBLK
  5
194
330
185
100
AcDbEntity
  8
0
100
AcDbBlockEnd
  0
BLOCK
  5
196
330
195
100
AcDbEntity
  8
CSLAYER1
100
AcDbBlockBegin
  2
BLKF0002
 70
     0
 10
0.0
 20
0.0
 30
0.0
  3
BLKF0002
  1

  0
LINE
  5
197
330
195
100
AcDbEntity
  8
CSLAYER17
  6
Continuous
 62
     1
100
AcDbLine
 10
221.255842
 20
71.128518
 30
0.0
 11
221.476811
 21
71.349486
 31
0.0
  0
LINE
  5
198
330
195
100
AcDbEntity
  8
CSLAYER17
  6
Continuous
 62
     1
100
AcDbLine
 10
221.4173509999999
 20
70.93647299999999
 30
0.0
 11
221.944285
 21
71.46340699999999
 31
0.0
  0
LINE
  5
199
330
195
100
AcDbEntity
  8
CSLAYER17
  6
Continuous
 62
     1
100
AcDbLine
 10
221.6758509999999
 20
70.84141999999999
 30
0.0
 11
222.3147669999999
 21
71.48033599999999
 31
0.0
  0
LINE
  5
19A
330
195
100
AcDbEntity
  8
CSLAYER17
  6
Continuous
 62
     1
100
AcDbLine
 10
221.9779529999999
 20
70.789968
 30
0.0
 11
222.641648
 21
71.453663
 31
0.0
  0
LINE
  5
19B
330
195
100
AcDbEntity
  8
CSLAYER17
  6
Continuous
 62
     1
100
AcDbLine
 10
222.3183129999999
 20
70.776775
 30
0.0
 11
222.9302689999999
 21
71.38873199999999
 31
0.0
  0
LINE
  5
19C
330
195
100
AcDbEntity
  8
CSLAYER17
  6
Continuous
 62
     1
100
AcDbLine
 10
222.7095379999999
 20
70.814447
 30
0.0
 11
223.168027
 21
71.272936
 31
0.0
  0
ENDBLK
  5
19D
330
195
100
AcDbEntity
  8
0
100
AcDbBlockEnd
  0
BLOCK
  5
19F
330
19E
100
AcDbEntity
  8
CSLAYER1
100
AcDbBlockBegin
  2
BLKF0003
 70
     0
 10
0.0
 20
0.0
 30
0.0
  3
BLKF0003
  1

  0
LINE
  5
1A0
330
19E
100
AcDbEntity
  8
CSLAYER33
  6
CENTER
 62
     1
100
AcDbLine
 10
58.279199
 20
49.41942
 30
0.0
 11
58.279199
 21
52.781154
 31
0.0
  0
LINE
  5
1A1
330
19E
100
AcDbEntity
  8
CSLAYER33
  6
CENTER
 62
     1
100
AcDbLine
 10
58.279199
 20
49.41942
 30
0.0
 11
58.279199
 21
46.057686
 31
0.0
  0
ENDBLK
  5
1A2
330
19E
100
AcDbEntity
  8
0
100
AcDbBlockEnd
  0
ENDSEC
  0
SECTION
  2
ENTITIES
  0
LINE
  5
1F3
330
1E
100
AcDbEntity
  8
CSLAYER17
  6
Continuous
 62
     1
100
AcDbLine
 10
193.255842
 20
91.92851800000001
 30
0.0
 11
193.255842
 21
90.32851800000001
 31
0.0
  0
LINE
  5
1F4
330
1E
100
AcDbEntity
  8
CSLAYER17
  6
Continuous
 62
     1
100
AcDbLine
 10
252.392444
 20
93.62852099999999
 30
0.0
 11
252.392444
 21
71.62852099999999
 31
0.0
  0
LINE
  5
1F5
330
1E
100
AcDbEntity
  8
CSLAYER17
  6
Continuous
 62
     1
100
AcDbLine
 10
263.392444
 20
82.62852099999999
 30
0.0
 11
241.3924439999999
 21
82.62852099999999
 31
0.0
  0
LINE
  5
1F6
330
1E
100
AcDbEntity
  8
CSLAYER17
  6
Continuous
 62
     1
100
AcDbLine
 10
193.4558419999999
 20
92.12851800000001
 30
0.0
 11
216.7156399999999
 21
92.12851800000001
 31
0.0
  0
LINE
  5
1F7
330
1E
100
AcDbEntity
  8
CSLAYER17
  6
Continuous
 62
     1
100
AcDbLine
 10
193.4558419999999
 20
73.628518
 30
0.0
 11
218.2558419999999
 21
73.628518
 31
0.0
  0
LINE
  5
1F8
330
1E
100
AcDbEntity
  8
CSLAYER17
  6
Continuous
 62
     1
100
AcDbLine
 10
230.7558419999999
 20
78.08831600000001
 30
0.0
 11
230.7558419999999
 21
73.628518
 31
0.0
  0
LINE
  5
1F9
330
1E
100
AcDbEntity
  8
CSLAYER17
  6
Continuous
 62
     1
100
AcDbLine
 10
252.392444
 20
78.927994
 30
0.0
 11
252.392444
 21
75.60664799999999
 31
0.0
  0
ARC
  5
1FA
330
1E
100
AcDbEntity
  8
CSLAYER17
  6
Continuous
 62
     1
100
AcDbCircle
 10
252.392444
 20
82.62852099999999
 30
0.0
 40
9.5
100
AcDbArc
 50
198.6717179999999
 51
251.3282819999999
  0
LINE
  5
1FB
330
1E
100
AcDbEntity
  8
CSLAYER17
  6
Continuous
 62
     1
100
AcDbLine
 10
261.392444
 20
85.66990200000001
 30
0.0
 11
261.392444
 21
79.58713900000001
 31
0.0
  0
ARC
  5
1FC
330
1E
100
AcDbEntity
  8
CSLAYER17
  6
Continuous
 62
     1
100
AcDbCircle
 10
252.392444
 20
82.62852099999999
 30
0.0
 40
9.5
100
AcDbArc
 50
18.67171799999999
 51
161.328282
  0
LINE
  5
1FD
330
1E
100
AcDbEntity
  8
CSLAYER17
  6
Continuous
 62
     1
100
AcDbLine
 10
249.3510629999999
 20
73.62852099999999
 30
0.0
 11
255.4338259999999
 21
73.62852099999999
 31
0.0
  0
ARC
  5
1FE
330
1E
100
AcDbEntity
  8
CSLAYER17
  6
Continuous
 62
     1
100
AcDbCircle
 10
252.392444
 20
82.62852099999999
 30
0.0
 40
9.5
100
AcDbArc
 50
288.671718
 51
341.328282
  0
DIMENSION
  5
1FF
330
1E
100
AcDbEntity
  8
CSLAYER17
 62
     1
100
AcDbDimension
  2
*D10
 10
274.725373
 20
82.62852099999999
 30
0.0
 11
274.4753719999999
 21
78.128517
 31
0.0
 71
     5
 42
-1.0
100
AcDbAlignedDimension
 13
255.4338259999999
 23
73.62852099999999
 33
0.0
 14
263.392444
 24
82.62852099999999
 34
0.0
 50
90.0
100
AcDbRotatedDimension
  0
DIMENSION
  5
200
330
1E
100
AcDbEntity
  8
CSLAYER17
 62
     1
100
AcDbDimension
  2
*D11
 10
261.392444
 20
54.90368899999999
 30
0.0
 11
252.392441
 21
55.15369
 31
0.0
 70
     1
 71
     5
 42
-1.0
 52
270.0
100
AcDbAlignedDimension
 13
243.3924439999999
 23
79.58713900000001
 33
0.0
 14
261.392444
 24
79.58713900000001
 34
0.0
  0
LINE
  5
201
330
1E
100
AcDbEntity
  8
CSLAYER17
  6
Continuous
 62
     1
100
AcDbLine
 10
193.4558419999999
 20
92.12851800000001
 30
0.0
 11
193.255842
 21
91.92851800000001
 31
0.0
  0
LINE
  5
202
330
1E
100
AcDbEntity
  8
CSLAYER17
  6
Continuous
 62
     1
100
AcDbLine
 10
193.255842
 20
73.828518
 30
0.0
 11
193.4558419999999
 21
73.628518
 31
0.0
  0
LINE
  5
203
330
1E
100
AcDbEntity
  8
CSLAYER17
  6
Continuous
 62
     1
100
AcDbLine
 10
216.7156399999999
 20
92.12851800000001
 30
0.0
 11
230.7558419999999
 21
78.08831600000001
 31
0.0
  0
LINE
  5
204
330
1E
100
AcDbEntity
  8
CSLAYER17
  6
Continuous
 62
     1
100
AcDbLine
 10
244.047593
 20
78.08831600000001
 30
0.0
 11
260.737296
 21
78.08831600000001
 31
0.0
  0
LINE
  5
205
330
1E
100
AcDbEntity
  8
CSLAYER17
  6
Continuous
 62
     1
100
AcDbLine
 10
243.3924439999999
 20
85.66990200000001
 30
0.0
 11
243.3924439999999
 21
79.58713900000001
 31
0.0
  0
LINE
  5
206
330
1E
100
AcDbEntity
  8
CSLAYER17
  6
Continuous
 62
     1
100
AcDbLine
 10
193.255842
 20
74.92851800000001
 30
0.0
 11
193.255842
 21
73.828518
 31
0.0
  0
LINE
  5
207
330
1E
100
AcDbEntity
  8
CSLAYER17
  6
Continuous
 62
     1
100
AcDbLine
 10
193.255842
 20
90.32851800000001
 30
0.0
 11
193.255842
 21
74.92851800000001
 31
0.0
  0
LINE
  5
208
330
1E
100
AcDbEntity
  8
CSLAYER17
  6
Continuous
 62
     1
100
AcDbLine
 10
179.2558419999999
 20
92.12851800000001
 30
0.0
 11
193.0558419999999
 21
92.12851800000001
 31
0.0
  0
LINE
  5
209
330
1E
100
AcDbEntity
  8
CSLAYER17
  6
Continuous
 62
     1
100
AcDbLine
 10
178.2558419999999
 20
91.12851799999999
 30
0.0
 11
178.2558419999999
 21
74.128518
 31
0.0
  0
LINE
  5
20A
330
1E
100
AcDbEntity
  8
CSLAYER17
  6
Continuous
 62
     1
100
AcDbLine
 10
193.255842
 20
91.92851800000001
 30
0.0
 11
193.255842
 21
89.828518
 31
0.0
  0
LINE
  5
20B
330
1E
100
AcDbEntity
  8
CSLAYER17
  6
CENTER
 62
     1
100
AcDbLine
 10
176.6133639999999
 20
82.62851799999999
 30
0.0
 11
229.088658
 21
82.62851799999999
 31
0.0
  0
LINE
  5
20C
330
1E
100
AcDbEntity
  8
CSLAYER17
  6
Continuous
 62
     1
100
AcDbLine
 10
179.2558419999999
 20
73.128518
 30
0.0
 11
193.0558419999999
 21
73.128518
 31
0.0
  0
LINE
  5
20D
330
1E
100
AcDbEntity
  8
CSLAYER17
  6
DASHED
 62
     1
100
AcDbLine
 10
198.255842
 20
86.37851799999999
 30
0.0
 11
198.255842
 21
78.87851799999999
 31
0.0
  0
LINE
  5
20E
330
1E
100
AcDbEntity
  8
CSLAYER17
  6
Continuous
 62
     1
100
AcDbLine
 10
193.255842
 20
73.328518
 30
0.0
 11
193.255842
 21
75.42851800000001
 31
0.0
  0
LINE
  5
20F
330
1E
100
AcDbEntity
  8
CSLAYER17
  6
Continuous
 62
     1
100
AcDbLine
 10
179.2558419999999
 20
92.12851800000001
 30
0.0
 11
178.2558419999999
 21
91.12851799999999
 31
0.0
  0
LINE
  5
210
330
1E
100
AcDbEntity
  8
CSLAYER17
  6
Continuous
 62
     1
100
AcDbLine
 10
178.2558419999999
 20
74.128518
 30
0.0
 11
179.2558419999999
 21
73.128518
 31
0.0
  0
LINE
  5
211
330
1E
100
AcDbEntity
  8
CSLAYER17
  6
Continuous
 62
     1
100
AcDbLine
 10
193.0558419999999
 20
92.12851800000001
 30
0.0
 11
193.255842
 21
91.92851800000001
 31
0.0
  0
LINE
  5
212
330
1E
100
AcDbEntity
  8
CSLAYER17
  6
Continuous
 62
     1
100
AcDbLine
 10
193.255842
 20
73.328518
 30
0.0
 11
193.0558419999999
 21
73.128518
 31
0.0
  0
LINE
  5
213
330
1E
100
AcDbEntity
  8
CSLAYER17
  6
DASHED
 62
     1
100
AcDbLine
 10
198.255842
 20
86.37851799999999
 30
0.0
 11
178.2558419999999
 21
86.37851799999999
 31
0.0
  0
LINE
  5
214
330
1E
100
AcDbEntity
  8
CSLAYER17
  6
DASHED
 62
     1
100
AcDbLine
 10
198.255842
 20
78.87851799999999
 30
0.0
 11
178.2558419999999
 21
78.87851799999999
 31
0.0
  0
LINE
  5
215
330
1E
100
AcDbEntity
  8
CSLAYER17
  6
Continuous
 62
     1
100
AcDbLine
 10
179.2558419999999
 20
92.12851800000001
 30
0.0
 11
179.2558419999999
 21
73.128518
 31
0.0
  0
LINE
  5
216
330
1E
100
AcDbEntity
  8
CSLAYER17
  6
Continuous
 62
     1
100
AcDbLine
 10
193.0558419999999
 20
92.12851800000001
 30
0.0
 11
193.0558419999999
 21
73.128518
 31
0.0
  0
DIMENSION
  5
217
330
1E
100
AcDbEntity
  8
CSLAYER17
 62
     1
100
AcDbDimension
  2
*D12
 10
198.255842
 20
99.33148500000001
 30
0.0
 11
188.255844
 21
99.58149
 31
0.0
 71
     5
 42
-1.0
100
AcDbAlignedDimension
 13
178.2558419999999
 23
91.12851799999999
 33
0.0
 14
198.255842
 24
86.37851799999999
 34
0.0
100
AcDbRotatedDimension
  0
DIMENSION
  5
218
330
1E
100
AcDbEntity
  8
CSLAYER17
 62
     1
100
AcDbDimension
  2
*D13
 10
193.255842
 20
61.94753299999999
 30
0.0
 11
185.755844
 21
62.197536
 31
0.0
 71
     5
 42
-1.0
 52
270.0
100
AcDbAlignedDimension
 13
178.2558419999999
 23
74.128518
 33
0.0
 14
193.255842
 24
73.328518
 34
0.0
100
AcDbRotatedDimension
  0
LINE
  5
219
330
1E
100
AcDbEntity
  8
CSLAYER17
  6
Continuous
 62
     1
100
AcDbLine
 10
193.4558419999999
 20
92.12851800000001
 30
0.0
 11
193.4558419999999
 21
85.668518
 31
0.0
  0
DIMENSION
  5
21A
330
1E
100
AcDbEntity
  8
CSLAYER17
 62
     1
100
AcDbDimension
  2
*D14
 10
230.7558419999999
 20
61.94753299999999
 30
0.0
 11
213.4557799999999
 21
62.19751399999999
 31
0.0
 71
     5
 42
-1.0
 52
270.0
100
AcDbAlignedDimension
 13
222.2558419999999
 23
70.628518
 33
0.0
 14
230.7558419999999
 24
73.628518
 34
0.0
100
AcDbRotatedDimension
  0
DIMENSION
  5
21B
330
1E
100
AcDbEntity
  8
CSLAYER17
 62
     1
100
AcDbDimension
  2
*D15
 10
230.7558419999999
 20
54.90368899999999
 30
0.0
 11
204.505844
 21
55.15368299999999
 31
0.0
 71
     5
 42
-1.0
 52
270.0
100
AcDbAlignedDimension
 13
178.2558419999999
 23
74.128518
 33
0.0
 14
230.7558419999999
 24
73.628518
 34
0.0
100
AcDbRotatedDimension
  0
LINE
  5
21C
330
1E
100
AcDbEntity
  8
CSLAYER17
  6
Continuous
 62
     1
100
AcDbLine
 10
223.17564
 20
85.668518
 30
0.0
 11
193.255842
 21
85.668518
 31
0.0
  0
LINE
  5
21D
330
1E
100
AcDbEntity
  8
CSLAYER17
  6
Continuous
 62
     1
100
AcDbLine
 10
229.25564
 20
79.58851800000001
 30
0.0
 11
193.255842
 21
79.58851800000001
 31
0.0
  0
LINE
  5
21E
330
1E
100
AcDbEntity
  8
CSLAYER17
  6
Continuous
 62
     1
100
AcDbLine
 10
193.4558419999999
 20
79.58851800000001
 30
0.0
 11
193.4558419999999
 21
73.628518
 31
0.0
  0
LWPOLYLINE
  5
21F
330
1E
100
AcDbEntity
  8
CSLAYER17
  6
Continuous
 62
     1
100
AcDbPolyline
 90
       73
 70
     0
 43
0.0
 10
223.255842
 20
71.128518
 10
223.252037
 20
71.15923399999999
 10
223.2406499999999
 20
71.189717
 10
223.221768
 20
71.21973299999999
 10
223.195535
 20
71.24905600000001
 10
223.16215
 20
71.277461
 10
223.121867
 20
71.304733
 10
223.0749939999999
 20
71.330664
 10
223.0218859999999
 20
71.35505600000001
 10
222.962949
 20
71.377724
 10
222.8986299999999
 20
71.398495
 10
222.829418
 20
71.417212
 10
222.755842
 20
71.43373100000001
 10
222.67846
 20
71.44792800000001
 10
222.597862
 20
71.459694
 10
222.5146609999999
 20
71.46893900000001
 10
222.4294899999999
 20
71.475594
 10
222.342998
 20
71.479607
 10
222.2558419999999
 20
71.48094799999999
 10
222.1686859999999
 20
71.479607
 10
222.0821939999999
 20
71.475594
 10
221.9970229999999
 20
71.46893900000001
 10
221.913822
 20
71.459694
 10
221.833224
 20
71.44792800000001
 10
221.755842
 20
71.43373100000001
 10
221.682266
 20
71.417212
 10
221.6130539999999
 20
71.398495
 10
221.548735
 20
71.377724
 10
221.4897979999999
 20
71.35505600000001
 10
221.4366899999999
 20
71.330664
 10
221.3898169999999
 20
71.304733
 10
221.3495339999999
 20
71.277461
 10
221.316149
 20
71.24905600000001
 10
221.289916
 20
71.21973299999999
 10
221.271034
 20
71.189717
 10
221.259647
 20
71.15923399999999
 10
221.255842
 20
71.128518
 10
221.259647
 20
71.097801
 10
221.271034
 20
71.06731899999999
 10
221.289916
 20
71.037302
 10
221.316149
 20
71.007979
 10
221.3495339999999
 20
70.979574
 10
221.3898169999999
 20
70.952302
 10
221.4366899999999
 20
70.926372
 10
221.4897979999999
 20
70.90198
 10
221.548735
 20
70.87931199999999
 10
221.6130539999999
 20
70.85854000000001
 10
221.682266
 20
70.83982299999999
 10
221.755842
 20
70.823304
 10
221.833224
 20
70.809107
 10
221.913822
 20
70.797341
 10
221.9970229999999
 20
70.78809599999999
 10
222.0821939999999
 20
70.781441
 10
222.1686859999999
 20
70.777428
 10
222.2558419999999
 20
70.776087
 10
222.342998
 20
70.777428
 10
222.4294899999999
 20
70.781441
 10
222.5146609999999
 20
70.78809599999999
 10
222.597862
 20
70.797341
 10
222.67846
 20
70.809107
 10
222.755842
 20
70.823304
 10
222.829418
 20
70.83982299999999
 10
222.8986299999999
 20
70.85854000000001
 10
222.962949
 20
70.87931199999999
 10
223.0218859999999
 20
70.90198
 10
223.0749939999999
 20
70.926372
 10
223.121867
 20
70.952302
 10
223.16215
 20
70.979574
 10
223.195535
 20
71.007979
 10
223.221768
 20
71.037302
 10
223.2406499999999
 20
71.06731899999999
 10
223.252037
 20
71.097801
 10
223.255842
 20
71.128518
  0
INSERT
  5
26A
330
1E
100
AcDbEntity
  8
CSLAYER1
100
AcDbBlockReference
  2
BLKF0002
 10
0.0
 20
0.0
 30
0.0
  0
LINE
  5
26B
330
1E
100
AcDbEntity
  8
CSLAYER17
  6
Continuous
 62
     1
100
AcDbLine
 10
222.2558419999999
 20
67.62851799999999
 30
0.0
 11
222.2558419999999
 21
74.628518
 31
0.0
  0
LINE
  5
26C
330
1E
100
AcDbEntity
  8
CSLAYER17
  6
Continuous
 62
     1
100
AcDbLine
 10
225.755842
 20
71.128518
 30
0.0
 11
218.755842
 21
71.128518
 31
0.0
  0
DIMENSION
  5
26D
330
1E
100
AcDbEntity
  8
CSLAYER17
 62
     1
100
AcDbDimension
  2
*D16
 10
159.745161
 20
92.12851800000001
 30
0.0
 11
159.4951629999999
 21
82.628517
 31
0.0
 70
     1
 71
     5
 42
-1.0
100
AcDbAlignedDimension
 13
179.2558419999999
 23
73.128518
 33
0.0
 14
179.2558419999999
 24
92.12851800000001
 34
0.0
  0
CIRCLE
  5
26E
330
1E
100
AcDbEntity
  8
CSLAYER17
  6
Continuous
 62
     1
100
AcDbCircle
 10
252.392444
 20
82.62852099999999
 30
0.0
 40
9.5
  0
LWPOLYLINE
  5
26F
330
1E
100
AcDbEntity
  8
CSLAYER17
  6
Continuous
 62
     1
100
AcDbPolyline
 90
       37
 70
     0
 43
0.0
 10
260.792444
 20
84.04273399999999
 10
260.7604799999999
 20
84.720647
 10
260.6648299999999
 20
85.39340000000001
 10
260.5062209999999
 20
86.055874
 10
260.285863
 20
86.703027
 10
260.00543
 20
87.329933
 10
259.667058
 20
87.93182100000001
 10
259.2733219999999
 20
88.50411200000001
 10
258.827218
 20
89.04244799999998
 10
258.332141
 20
89.54273399999999
 10
257.7918599999999
 20
90.00116199999999
 10
257.2104869999999
 20
90.41424199999999
 10
256.5924439999999
 20
90.77883100000001
 10
255.9424379999999
 20
91.09215400000001
 10
255.265414
 20
91.35182699999999
 10
254.566524
 20
91.55587399999999
 10
253.8510889999999
 20
91.702741
 10
253.124553
 20
91.79130999999999
 10
252.392444
 20
91.820909
 10
251.6603359999999
 20
91.79130999999999
 10
250.9338
 20
91.702741
 10
250.2183649999999
 20
91.55587399999999
 10
249.519475
 20
91.35182699999999
 10
248.8424509999999
 20
91.09215400000001
 10
248.1924439999999
 20
90.77883100000001
 10
247.574402
 20
90.41424199999999
 10
246.993029
 20
90.00116199999999
 10
246.452748
 20
89.54273399999999
 10
245.9576709999999
 20
89.04244799999998
 10
245.511567
 20
88.50411200000001
 10
245.1178309999999
 20
87.93182100000001
 10
244.7794589999999
 20
87.329933
 10
244.4990259999999
 20
86.703027
 10
244.278668
 20
86.055874
 10
244.120059
 20
85.39340000000001
 10
244.0244089999999
 20
84.720647
 10
243.9924439999999
 20
84.04273399999999
  0
LINE
  5
296
330
1E
100
AcDbEntity
  8
CSLAYER17
  6
Continuous
 62
     1
100
AcDbLine
 10
243.9924439999999
 20
84.04273399999999
 30
0.0
 11
243.9924439999999
 21
79.44653999999999
 31
0.0
  0
LINE
  5
297
330
1E
100
AcDbEntity
  8
CSLAYER17
  6
Continuous
 62
     1
100
AcDbLine
 10
260.792444
 20
84.04273399999999
 30
0.0
 11
260.792444
 21
79.44653999999999
 31
0.0
  0
LINE
  5
298
330
1E
100
AcDbEntity
  8
CSLAYER17
  6
Continuous
 62
     1
100
AcDbLine
 10
243.9924439999999
 20
79.44653999999999
 30
0.0
 11
244.492444
 21
78.456591
 31
0.0
  0
LINE
  5
299
330
1E
100
AcDbEntity
  8
CSLAYER17
  6
Continuous
 62
     1
100
AcDbLine
 10
260.792444
 20
79.44653999999999
 30
0.0
 11
260.2924439999999
 21
78.456591
 31
0.0
  0
LINE
  5
29A
330
1E
100
AcDbEntity
  8
CSLAYER17
  6
Continuous
 62
     1
100
AcDbLine
 10
244.492444
 20
78.456591
 30
0.0
 11
260.2924439999999
 21
78.456591
 31
0.0
  0
LWPOLYLINE
  5
29B
330
1E
100
AcDbEntity
  8
CSLAYER17
  6
Continuous
 62
     1
100
AcDbPolyline
 90
       73
 70
     0
 43
0.0
 10
246.3924439999999
 20
83.194203
 10
246.388639
 20
83.25583100000001
 10
246.377252
 20
83.31699099999999
 10
246.35837
 20
83.377216
 10
246.332137
 20
83.43604799999999
 10
246.2987519999999
 20
83.493039
 10
246.25847
 20
83.54775600000001
 10
246.211597
 20
83.59978299999999
 10
246.158489
 20
83.648723
 10
246.099551
 20
83.69420299999999
 10
246.0352319999999
 20
83.73587800000001
 10
245.966021
 20
83.773431
 10
245.892444
 20
83.80657600000001
 10
245.815063
 20
83.83505900000001
 10
245.734465
 20
83.85866599999999
 10
245.651264
 20
83.877216
 10
245.566093
 20
83.89056700000001
 10
245.4795999999999
 20
83.89861899999999
 10
245.3924439999999
 20
83.90131
 10
245.305289
 20
83.89861899999999
 10
245.2187959999999
 20
83.89056700000001
 10
245.133625
 20
83.877216
 10
245.050424
 20
83.85866599999999
 10
244.9698259999999
 20
83.83505900000001
 10
244.8924439999999
 20
83.80657600000001
 10
244.818868
 20
83.773431
 10
244.7496569999999
 20
83.73587800000001
 10
244.6853379999999
 20
83.69420299999999
 10
244.6263999999999
 20
83.648723
 10
244.5732919999999
 20
83.59978299999999
 10
244.526419
 20
83.54775600000001
 10
244.486137
 20
83.493039
 10
244.452752
 20
83.43604799999999
 10
244.4265189999999
 20
83.377216
 10
244.407637
 20
83.31699099999999
 10
244.39625
 20
83.25583100000001
 10
244.3924439999999
 20
83.194203
 10
244.39625
 20
83.132575
 10
244.407637
 20
83.071415
 10
244.4265189999999
 20
83.01118999999999
 10
244.452752
 20
82.95235799999998
 10
244.486137
 20
82.89536700000001
 10
244.526419
 20
82.84065
 10
244.5732919999999
 20
82.788623
 10
244.6263999999999
 20
82.73968399999999
 10
244.6853379999999
 20
82.694203
 10
244.7496569999999
 20
82.652528
 10
244.818868
 20
82.614975
 10
244.8924439999999
 20
82.58183100000001
 10
244.9698259999999
 20
82.553347
 10
245.050424
 20
82.52974
 10
245.133625
 20
82.51119
 10
245.2187959999999
 20
82.497839
 10
245.305289
 20
82.489787
 10
245.3924439999999
 20
82.48709599999999
 10
245.4795999999999
 20
82.489787
 10
245.566093
 20
82.497839
 10
245.651264
 20
82.51119
 10
245.734465
 20
82.52974
 10
245.815063
 20
82.553347
 10
245.892444
 20
82.58183100000001
 10
245.966021
 20
82.614975
 10
246.0352319999999
 20
82.652528
 10
246.099551
 20
82.694203
 10
246.158489
 20
82.73968399999999
 10
246.211597
 20
82.788623
 10
246.25847
 20
82.84065
 10
246.2987519999999
 20
82.89536700000001
 10
246.332137
 20
82.95235799999998
 10
246.35837
 20
83.01118999999999
 10
246.377252
 20
83.071415
 10
246.388639
 20
83.132575
 10
246.3924439999999
 20
83.194203
  0
DIMENSION
  5
2E6
330
1E
100
AcDbEntity
  8
CSLAYER17
 62
     1
100
AcDbDimension
  2
*D17
 10
267.658025
 20
85.66990200000001
 30
0.0
 11
267.0951539999999
 21
91.12853199999999
 31
0.0
 70
     1
 71
     5
 42
-1.0
100
AcDbAlignedDimension
 13
261.392444
 23
79.58713900000001
 33
0.0
 14
261.392444
 24
85.66990200000001
 34
0.0
  0
DIMENSION
  5
2E7
330
1E
100
AcDbEntity
  8
CSLAYER17
 62
     1
100
AcDbDimension
  2
*D18
 10
255.4338259999999
 20
61.94753299999999
 30
0.0
 11
265.949402
 21
62.197536
 31
0.0
 70
     1
 71
     5
 42
-1.0
 52
270.0
100
AcDbAlignedDimension
 13
249.3510629999999
 23
73.62852099999999
 33
0.0
 14
255.4338259999999
 24
73.62852099999999
 34
0.0
  0
LINE
  5
2E8
330
1E
100
AcDbEntity
  8
CSLAYER17
  6
Continuous
 62
     1
100
AcDbLine
 10
217.023252
 20
91.820906
 30
0.0
 11
217.2353839999999
 21
92.033038
 31
0.0
  0
LINE
  5
2E9
330
1E
100
AcDbEntity
  8
CSLAYER17
  6
Continuous
 62
     1
100
AcDbLine
 10
217.2353839999999
 20
92.033038
 30
0.0
 11
226.427772
 21
82.84065
 31
0.0
  0
LINE
  5
2EA
330
1E
100
AcDbEntity
  8
CSLAYER17
  6
Continuous
 62
     1
100
AcDbLine
 10
226.427772
 20
82.84065
 30
0.0
 11
230.5997019999999
 21
78.66871999999999
 31
0.0
  0
LINE
  5
2EB
330
1E
100
AcDbEntity
  8
CSLAYER17
  6
Continuous
 62
     1
100
AcDbLine
 10
230.5997019999999
 20
78.66871999999999
 30
0.0
 11
230.38757
 21
78.45658799999999
 31
0.0
  0
LINE
  5
2EC
330
1E
100
AcDbEntity
  8
CSLAYER17
  6
Continuous
 62
     1
100
AcDbLine
 10
227.4884319999999
 20
82.48709599999999
 30
0.0
 11
226.781325
 21
83.194203
 31
0.0
  0
LINE
  5
2ED
330
1E
100
AcDbEntity
  8
CSLAYER17
  6
Continuous
 62
     1
100
AcDbLine
 10
226.074219
 20
83.90131
 30
0.0
 11
226.781325
 21
83.194203
 31
0.0
  0
LINE
  5
2EE
330
1E
100
AcDbEntity
  8
CSLAYER17
  6
Continuous
 62
     1
100
AcDbLine
 10
226.074219
 20
83.90131
 30
0.0
 11
225.720665
 21
83.54775600000001
 31
0.0
  0
LINE
  5
2EF
330
1E
100
AcDbEntity
  8
CSLAYER17
  6
Continuous
 62
     1
100
AcDbLine
 10
227.4884319999999
 20
82.48709599999999
 30
0.0
 11
227.134879
 21
82.133543
 31
0.0
  0
LWPOLYLINE
  5
2F0
330
1E
100
AcDbEntity
  8
CSLAYER17
  6
Continuous
 62
     1
100
AcDbPolyline
 90
       73
 70
     0
 43
0.0
 10
258.392444
 20
83.194203
 10
258.39625
 20
83.132575
 10
258.407637
 20
83.071415
 10
258.4265189999999
 20
83.01118999999999
 10
258.4527519999999
 20
82.95235799999998
 10
258.486137
 20
82.89536700000001
 10
258.5264189999999
 20
82.84065
 10
258.5732919999999
 20
82.788623
 10
258.6263999999999
 20
82.73968399999999
 10
258.6853379999999
 20
82.694203
 10
258.7496569999999
 20
82.652528
 10
258.818868
 20
82.614975
 10
258.8924439999999
 20
82.58183100000001
 10
258.9698259999999
 20
82.553347
 10
259.050424
 20
82.52974
 10
259.1336249999999
 20
82.51119
 10
259.2187959999999
 20
82.497839
 10
259.305289
 20
82.489787
 10
259.392444
 20
82.48709599999999
 10
259.4796
 20
82.489787
 10
259.566093
 20
82.497839
 10
259.651264
 20
82.51119
 10
259.734465
 20
82.52974
 10
259.815063
 20
82.553347
 10
259.892444
 20
82.58183100000001
 10
259.966021
 20
82.614975
 10
260.035232
 20
82.652528
 10
260.0995509999999
 20
82.694203
 10
260.158489
 20
82.73968399999999
 10
260.211597
 20
82.788623
 10
260.25847
 20
82.84065
 10
260.2987519999999
 20
82.89536700000001
 10
260.3321369999999
 20
82.95235799999998
 10
260.35837
 20
83.01118999999999
 10
260.377252
 20
83.071415
 10
260.3886389999999
 20
83.132575
 10
260.392444
 20
83.194203
 10
260.3886389999999
 20
83.25583100000001
 10
260.377252
 20
83.31699099999999
 10
260.35837
 20
83.377216
 10
260.3321369999999
 20
83.43604799999999
 10
260.2987519999999
 20
83.493039
 10
260.25847
 20
83.54775600000001
 10
260.211597
 20
83.59978299999999
 10
260.158489
 20
83.648723
 10
260.0995509999999
 20
83.69420299999999
 10
260.035232
 20
83.73587800000001
 10
259.966021
 20
83.773431
 10
259.892444
 20
83.80657600000001
 10
259.815063
 20
83.83505900000001
 10
259.734465
 20
83.85866599999999
 10
259.651264
 20
83.877216
 10
259.566093
 20
83.89056700000001
 10
259.4796
 20
83.89861899999999
 10
259.392444
 20
83.90131
 10
259.305289
 20
83.89861899999999
 10
259.2187959999999
 20
83.89056700000001
 10
259.1336249999999
 20
83.877216
 10
259.050424
 20
83.85866599999999
 10
258.9698259999999
 20
83.83505900000001
 10
258.8924439999999
 20
83.80657600000001
 10
258.818868
 20
83.773431
 10
258.7496569999999
 20
83.73587800000001
 10
258.6853379999999
 20
83.69420299999999
 10
258.6263999999999
 20
83.648723
 10
258.5732919999999
 20
83.59978299999999
 10
258.5264189999999
 20
83.54775600000001
 10
258.486137
 20
83.493039
 10
258.4527519999999
 20
83.43604799999999
 10
258.4265189999999
 20
83.377216
 10
258.407637
 20
83.31699099999999
 10
258.39625
 20
83.25583100000001
 10
258.392444
 20
83.194203
  0
LINE
  5
33B
330
1E
100
AcDbEntity
  8
CSLAYER17
  6
Continuous
 62
     1
100
AcDbLine
 10
222.2558419999999
 20
73.628518
 30
0.0
 11
222.2558419999999
 21
74.011518
 31
0.0
  0
ARC
  5
33C
330
1E
100
AcDbEntity
  8
CSLAYER17
  6
Continuous
 62
     1
100
AcDbCircle
 10
222.2558419999999
 20
52.932289
 30
0.0
 40
21.079228
100
AcDbArc
 50
79.061206
 51
90.0
  0
ARC
  5
33D
330
1E
100
AcDbEntity
  8
CSLAYER17
  6
Continuous
 62
     1
100
AcDbCircle
 10
222.2558419999999
 20
52.932289
 30
0.0
 40
21.079228
100
AcDbArc
 50
90.0
 51
100.938794
  0
LINE
  5
33E
330
1E
100
AcDbEntity
  8
CSLAYER17
  6
Continuous
 62
     1
100
AcDbLine
 10
226.2558419999999
 20
73.628518
 30
0.0
 11
230.7558419999999
 21
73.628518
 31
0.0
  0
ARC
  5
33F
330
1E
100
AcDbEntity
  8
CSLAYER17
  6
Continuous
 62
     1
100
AcDbCircle
 10
222.2558419999999
 20
80.36498399999999
 30
0.0
 40
6.599999999999999
100
AcDbArc
 50
256.279779
 51
283.720221
  0
DIMENSION
  5
340
330
1E
100
AcDbEntity
  8
CSLAYER17
 62
     1
100
AcDbDimension
  2
*D19
 10
168.9954059999999
 20
86.37851799999999
 30
0.0
 11
168.4954219999999
 21
64.461967
 31
0.0
 70
     1
 71
     5
 42
-1.0
100
AcDbAlignedDimension
 13
178.2558419999999
 23
78.87851799999999
 33
0.0
 14
178.2558419999999
 24
86.37851799999999
 34
0.0
  0
LINE
  5
341
330
1E
100
AcDbEntity
  8
CSLAYER17
  6
Continuous
 62
     1
100
AcDbLine
 10
222.2558419999999
 20
61.94753299999999
 30
0.0
 11
204.255842
 21
61.94753299999999
 31
0.0
  0
TEXT
  5
342
330
1E
100
AcDbEntity
  8
CSLAYER17
 62
     1
100
AcDbText
 10
152.4005491980223
 20
108.4234412891984
 30
0.0
 40
3.5
  1
HLL-SR
 41
0.8703718887209603
 51
15.0
  7
FX_FONT
 72
     5
 11
169.662924990988
 21
108.4234412891984
 31
0.0
100
AcDbText
  0
ENDSEC
  0
SECTION
  2
OBJECTS
  0
DICTIONARY
  5
C
330
0
100
AcDbDictionary
281
     1
  3
ACAD_GROUP
350
D
  3
ACAD_LAYOUT
350
19
  3
ACAD_MLINESTYLE
350
16
  3
ACAD_PLOTSETTINGS
350
18
  3
ACAD_PLOTSTYLENAME
350
E
  0
DICTIONARY
  5
D
102
{ACAD_REACTORS
330
C
102
}
330
C
100
AcDbDictionary
281
     1
  0
DICTIONARY
  5
19
102
{ACAD_REACTORS
330
C
102
}
330
C
100
AcDbDictionary
281
     1
  3
Model
350
21
  3
ﾚｲｱｳﾄ1
350
1D
  0
DICTIONARY
  5
16
102
{ACAD_REACTORS
330
C
102
}
330
C
100
AcDbDictionary
281
     1
  3
Standard
350
17
  0
DICTIONARY
  5
18
102
{ACAD_REACTORS
330
C
102
}
330
C
100
AcDbDictionary
281
     1
  0
ACDBDICTIONARYWDFLT
  5
E
102
{ACAD_REACTORS
330
C
102
}
330
C
100
AcDbDictionary
281
     1
  3
Normal
350
F
100
AcDbDictionaryWithDefault
340
F
  0
LAYOUT
  5
21
102
{ACAD_REACTORS
330
19
102
}
330
19
100
AcDbPlotSettings
  1

  2
\\HCTD010A\RICOH imagio MP C4500 RPCS
  4

  6

 40
0.0
 41
0.0
 42
0.0
 43
0.0
 44
0.0
 45
0.0
 46
0.0
 47
0.0
 48
0.0
 49
0.0
140
0.0
141
0.0
142
1.0
143
1.0
 70
  1712
 72
     0
 73
     0
 74
     0
  7

 75
     0
147
1.0
148
0.0
149
0.0
100
AcDbLayout
  1
Model
 70
     1
 71
     0
 10
0.0
 20
0.0
 11
12.0
 21
9.0
 12
0.0
 22
0.0
 32
0.0
 14
0.0
 24
0.0
 34
0.0
 15
0.0
 25
0.0
 35
0.0
146
0.0
 13
0.0
 23
0.0
 33
0.0
 16
1.0
 26
0.0
 36
0.0
 17
0.0
 27
1.0
 37
0.0
 76
     0
330
1E
  0
LAYOUT
  5
1D
102
{ACAD_REACTORS
330
19
102
}
330
19
100
AcDbPlotSettings
  1

  2
\\HCTD010A\RICOH imagio MP C4500 RPCS
  4

  6

 40
0.0
 41
0.0
 42
0.0
 43
0.0
 44
0.0
 45
0.0
 46
0.0
 47
0.0
 48
0.0
 49
0.0
140
0.0
141
0.0
142
1.0
143
1.0
 70
   688
 72
     0
 73
     0
 74
     5
  7

 75
    16
147
1.0
148
0.0
149
0.0
100
AcDbLayout
  1
ﾚｲｱｳﾄ1
 70
     1
 71
     1
 10
0.0
 20
0.0
 11
12.0
 21
9.0
 12
0.0
 22
0.0
 32
0.0
 14
1.000000000000000E+20
 24
1.000000000000000E+20
 34
1.000000000000000E+20
 15
-1.000000000000000E+20
 25
-1.000000000000000E+20
 35
-1.000000000000000E+20
146
0.0
 13
0.0
 23
0.0
 33
0.0
 16
1.0
 26
0.0
 36
0.0
 17
0.0
 27
1.0
 37
0.0
 76
     0
330
1A
  0
MLINESTYLE
  5
17
102
{ACAD_REACTORS
330
16
102
}
330
16
100
AcDbMlineStyle
  2
STANDARD
 70
     0
  3

 62
   256
 51
90.0
 52
90.0
 71
     2
 49
0.5
 62
   256
  6
BYLAYER
 49
-0.5
 62
   256
  6
BYLAYER
  0
ACDBPLACEHOLDER
  5
F
102
{ACAD_REACTORS
330
E
102
}
330
E
  0
ENDSEC
  0
EOF
