  0
SECTION
  2
HEADER
  9
$ACADVER
  1
AC1015
  9
$ACADMAINTVER
 70
    10
  9
$DWGCODEPAGE
  3
ANSI_932
  9
$INSBASE
 10
0.0
 20
0.0
 30
0.0
  9
$EXTMIN
 10
42.54835896944
 20
69.38339235274638
 30
0.0
  9
$EXTMAX
 10
472.11458838565
 20
362.0995606829723
 30
0.0
  9
$LIMMIN
 10
0.0
 20
0.0
  9
$LIMMAX
 10
297.0
 20
210.0
  9
$ORTHOMODE
 70
     0
  9
$REGENMODE
 70
     1
  9
$FILLMODE
 70
     1
  9
$QTEXTMODE
 70
     0
  9
$MIRRTEXT
 70
     1
  9
$LTSCALE
 40
1.0
  9
$ATTMODE
 70
     1
  9
$TEXTSIZE
 40
0.0
  9
$TRACEWID
 40
0.05
  9
$TEXTSTYLE
  7
STANDARD
  9
$CLAYER
  8
HLL-SQ53_1_2
  9
$CELTYPE
  6
CONTINUOUS
  9
$CECOLOR
 62
   256
  9
$CELTSCALE
 40
1.0
  9
$DISPSILH
 70
     0
  9
$DIMSCALE
 40
1.0
  9
$DIMASZ
 40
0.18
  9
$DIMEXO
 40
0.0625
  9
$DIMDLI
 40
0.38
  9
$DIMRND
 40
0.0
  9
$DIMDLE
 40
0.0
  9
$DIMEXE
 40
0.18
  9
$DIMTP
 40
0.0
  9
$DIMTM
 40
0.0
  9
$DIMTXT
 40
0.18
  9
$DIMCEN
 40
0.09
  9
$DIMTSZ
 40
0.0
  9
$DIMTOL
 70
     0
  9
$DIMLIM
 70
     0
  9
$DIMTIH
 70
     1
  9
$DIMTOH
 70
     1
  9
$DIMSE1
 70
     0
  9
$DIMSE2
 70
     0
  9
$DIMTAD
 70
     0
  9
$DIMZIN
 70
     0
  9
$DIMBLK
  1

  9
$DIMASO
 70
     1
  9
$DIMSHO
 70
     1
  9
$DIMPOST
  1

  9
$DIMAPOST
  1

  9
$DIMALT
 70
     0
  9
$DIMALTD
 70
     2
  9
$DIMALTF
 40
25.4
  9
$DIMLFAC
 40
1.0
  9
$DIMTOFL
 70
     0
  9
$DIMTVP
 40
0.0
  9
$DIMTIX
 70
     0
  9
$DIMSOXD
 70
     0
  9
$DIMSAH
 70
     0
  9
$DIMBLK1
  1

  9
$DIMBLK2
  1

  9
$DIMSTYLE
  2
STANDARD
  9
$DIMCLRD
 70
     0
  9
$DIMCLRE
 70
     0
  9
$DIMCLRT
 70
     0
  9
$DIMTFAC
 40
1.0
  9
$DIMGAP
 40
0.09
  9
$DIMJUST
 70
     0
  9
$DIMSD1
 70
     0
  9
$DIMSD2
 70
     0
  9
$DIMTOLJ
 70
     1
  9
$DIMTZIN
 70
     0
  9
$DIMALTZ
 70
     0
  9
$DIMALTTZ
 70
     0
  9
$DIMUPT
 70
     0
  9
$DIMDEC
 70
     4
  9
$DIMTDEC
 70
     4
  9
$DIMALTU
 70
     2
  9
$DIMALTTD
 70
     2
  9
$DIMTXSTY
  7
STANDARD
  9
$DIMAUNIT
 70
     0
  9
$DIMADEC
 70
     0
  9
$DIMALTRND
 40
0.0
  9
$DIMAZIN
 70
     0
  9
$DIMDSEP
 70
    46
  9
$DIMATFIT
 70
     3
  9
$DIMFRAC
 70
     0
  9
$DIMLDRBLK
  1

  9
$DIMLUNIT
 70
     2
  9
$DIMLWD
 70
    -2
  9
$DIMLWE
 70
    -2
  9
$DIMTMOVE
 70
     0
  9
$LUNITS
 70
     2
  9
$LUPREC
 70
     4
  9
$SKETCHINC
 40
0.1
  9
$FILLETRAD
 40
0.0
  9
$AUNITS
 70
     0
  9
$AUPREC
 70
     0
  9
$MENU
  1
acad
  9
$ELEVATION
 40
0.0
  9
$PELEVATION
 40
0.0
  9
$THICKNESS
 40
0.0
  9
$LIMCHECK
 70
     0
  9
$CHAMFERA
 40
0.0
  9
$CHAMFERB
 40
0.0
  9
$CHAMFERC
 40
0.0
  9
$CHAMFERD
 40
0.0
  9
$SKPOLY
 70
     0
  9
$TDCREATE
 40
2311945.702129432
  9
$TDUCREATE
 40
2311945.327129433
  9
$TDUPDATE
 40
2456666.486490289
  9
$TDUUPDATE
 40
2456666.111490289
  9
$TDINDWG
 40
0.0006137847
  9
$TDUSRTIMER
 40
0.0006136111
  9
$USRTIMER
 70
     1
  9
$ANGBASE
 50
0.0
  9
$ANGDIR
 70
     0
  9
$PDMODE
 70
     0
  9
$PDSIZE
 40
0.0
  9
$PLINEWID
 40
0.0
  9
$SPLFRAME
 70
     0
  9
$SPLINETYPE
 70
     6
  9
$SPLINESEGS
 70
     8
  9
$HANDSEED
  5
182
  9
$SURFTAB1
 70
     6
  9
$SURFTAB2
 70
     6
  9
$SURFTYPE
 70
     6
  9
$SURFU
 70
     6
  9
$SURFV
 70
     6
  9
$UCSBASE
  2

  9
$UCSNAME
  2

  9
$UCSORG
 10
0.0
 20
0.0
 30
0.0
  9
$UCSXDIR
 10
1.0
 20
0.0
 30
0.0
  9
$UCSYDIR
 10
0.0
 20
1.0
 30
0.0
  9
$UCSORTHOREF
  2

  9
$UCSORTHOVIEW
 70
     0
  9
$UCSORGTOP
 10
0.0
 20
0.0
 30
0.0
  9
$UCSORGBOTTOM
 10
0.0
 20
0.0
 30
0.0
  9
$UCSORGLEFT
 10
0.0
 20
0.0
 30
0.0
  9
$UCSORGRIGHT
 10
0.0
 20
0.0
 30
0.0
  9
$UCSORGFRONT
 10
0.0
 20
0.0
 30
0.0
  9
$UCSORGBACK
 10
0.0
 20
0.0
 30
0.0
  9
$PUCSBASE
  2

  9
$PUCSNAME
  2

  9
$PUCSORG
 10
0.0
 20
0.0
 30
0.0
  9
$PUCSXDIR
 10
1.0
 20
0.0
 30
0.0
  9
$PUCSYDIR
 10
0.0
 20
1.0
 30
0.0
  9
$PUCSORTHOREF
  2

  9
$PUCSORTHOVIEW
 70
     0
  9
$PUCSORGTOP
 10
0.0
 20
0.0
 30
0.0
  9
$PUCSORGBOTTOM
 10
0.0
 20
0.0
 30
0.0
  9
$PUCSORGLEFT
 10
0.0
 20
0.0
 30
0.0
  9
$PUCSORGRIGHT
 10
0.0
 20
0.0
 30
0.0
  9
$PUCSORGFRONT
 10
0.0
 20
0.0
 30
0.0
  9
$PUCSORGBACK
 10
0.0
 20
0.0
 30
0.0
  9
$USERI1
 70
     0
  9
$USERI2
 70
     0
  9
$USERI3
 70
     0
  9
$USERI4
 70
     0
  9
$USERI5
 70
     0
  9
$USERR1
 40
0.0
  9
$USERR2
 40
0.0
  9
$USERR3
 40
0.0
  9
$USERR4
 40
0.0
  9
$USERR5
 40
0.0
  9
$WORLDVIEW
 70
     1
  9
$SHADEDGE
 70
     3
  9
$SHADEDIF
 70
    70
  9
$TILEMODE
 70
     1
  9
$MAXACTVP
 70
    16
  9
$PINSBASE
 10
0.0
 20
0.0
 30
0.0
  9
$PLIMCHECK
 70
     0
  9
$PEXTMIN
 10
1.000000000000000E+20
 20
1.000000000000000E+20
 30
1.000000000000000E+20
  9
$PEXTMAX
 10
-1.000000000000000E+20
 20
-1.000000000000000E+20
 30
-1.000000000000000E+20
  9
$PLIMMIN
 10
0.0
 20
0.0
  9
$PLIMMAX
 10
12.0
 20
9.0
  9
$UNITMODE
 70
     0
  9
$VISRETAIN
 70
     0
  9
$PLINEGEN
 70
     1
  9
$PSLTSCALE
 70
     0
  9
$TREEDEPTH
 70
  3020
  9
$CMLSTYLE
  2
STANDARD
  9
$CMLJUST
 70
     0
  9
$CMLSCALE
 40
1.0
  9
$PROXYGRAPHICS
 70
     1
  9
$MEASUREMENT
 70
     0
  9
$CELWEIGHT
370
    -1
  9
$ENDCAPS
280
     0
  9
$JOINSTYLE
280
     0
  9
$LWDISPLAY
290
     0
  9
$INSUNITS
 70
     0
  9
$HYPERLINKBASE
  1

  9
$STYLESHEET
  1

  9
$XEDIT
290
     1
  9
$CEPSNTYPE
380
     0
  9
$PSTYLEMODE
290
     1
  9
$FINGERPRINTGUID
  2
{FFA2341A-C3E8-44EB-9AD1-7DFB7278C825}
  9
$VERSIONGUID
  2
{39E04DD8-F86D-448F-8131-C8CD2A32F320}
  9
$EXTNAMES
290
     1
  9
$PSVPSCALE
 40
0.0
  9
$OLESTARTUP
290
     0
  0
ENDSEC
  0
SECTION
  2
CLASSES
  0
CLASS
  1
LWPOLYLINE
  2
AcDbPolyline
  3
AutoCAD 2000
 90
    32768
280
     0
281
     1
  0
CLASS
  1
IMAGE
  2
AcDbRasterImage
  3
ISM
 90
    32895
280
     0
281
     1
  0
CLASS
  1
OLE2FRAME
  2
AcDbOle2Frame
  3
AutoCAD 2000
 90
    32768
280
     0
281
     1
  0
CLASS
  1
HATCH
  2
AcDbHatch
  3
AutoCAD 2000
 90
    32768
280
     0
281
     1
  0
CLASS
  1
DICTIONARYVAR
  2
AcDbDictionaryVar
  3
AutoCAD 2000
 90
    32768
280
     0
281
     0
  0
CLASS
  1
RASTERVARIABLES
  2
AcDbRasterVariables
  3
ISM
 90
    32768
280
     0
281
     0
  0
CLASS
  1
IMAGEDEF
  2
AcDbRasterImageDef
  3
ISM
 90
    32768
280
     0
281
     0
  0
CLASS
  1
IMAGEDEF_REACTOR
  2
AcDbRasterImageDefReactor
  3
ISM
 90
    32769
280
     0
281
     0
  0
CLASS
  1
IDBUFFER
  2
AcDbIdBuffer
  3
AutoCAD 2000
 90
    32768
280
     0
281
     0
  0
CLASS
  1
SPATIAL_FILTER
  2
AcDbSpatialFilter
  3
AutoCAD 2000
 90
    32768
280
     0
281
     0
  0
CLASS
  1
XRECORD
  2
AcDbXrecord
  3
AutoCAD 2000
 90
    32768
280
     0
281
     0
  0
CLASS
  1
SORTENTSTABLE
  2
AcDbSortentsTable
  3
AutoCAD 2000
 90
    32768
280
     0
281
     0
  0
CLASS
  1
LAYER_INDEX
  2
AcDbLayerIndex
  3
AutoCAD 2000
 90
    32768
280
     0
281
     0
  0
CLASS
  1
SPATIAL_INDEX
  2
AcDbSpatialIndex
  3
AutoCAD 2000
 90
    32768
280
     0
281
     0
  0
CLASS
  1
OBJECT_PTR
  2
CAseDLPNTableRecord
  3
"ASE-LPNTableRecord"
 90
    32769
280
     0
281
     0
  0
CLASS
  1
LAYOUT
  2
AcDbLayout
  3
AutoCAD 2000
 90
        0
280
     0
281
     0
  0
CLASS
  1
PLOTSETTINGS
  2
AcDbPlotSettings
  3
AutoCAD 2000
 90
    32768
280
     0
281
     0
  0
CLASS
  1
ACDBDICTIONARYWDFLT
  2
AcDbDictionaryWithDefault
  3
AutoCAD 2000
 90
        0
280
     0
281
     0
  0
CLASS
  1
ACDBPLACEHOLDER
  2
AcDbPlaceHolder
  3
AutoCAD 2000
 90
        0
280
     0
281
     0
  0
CLASS
  1
VBA_PROJECT
  2
AcDbVbaProject
  3
"acadvba"
 90
    32768
280
     0
281
     0
  0
CLASS
  1
WIPEOUT
  2
AcDbWipeout
  3
WipeOut|AutoCAD Express Tool|expresstools@autodesk.com
 90
    32895
280
     0
281
     1
  0
CLASS
  1
WIPEOUTVARIABLES
  2
AcDbWipeoutVariables
  3
WipeOut|AutoCAD Express Tool|expresstools@autodesk.com
 90
    32768
280
     0
281
     0
  0
CLASS
  1
RTEXT
  2
RText
  3
RText|AutoCAD Express Tool|expresstools@autodesk.com
 90
    32768
280
     0
281
     1
  0
CLASS
  1
ARCALIGNEDTEXT
  2
AcDbArcAlignedText
  3
ATEXT|AutoCAD Express Tool|expresstools@autodesk.com
 90
    32768
280
     0
281
     1
  0
ENDSEC
  0
SECTION
  2
TABLES
  0
TABLE
  2
VPORT
  5
7
330
0
100
AcDbSymbolTable
 70
     2
  0
VPORT
  5
181
330
7
100
AcDbSymbolTableRecord
100
AcDbViewportTableRecord
  2
*Active
 70
     0
 10
0.0
 20
0.0
 11
1.0
 21
1.0
 12
425.6033593703415
 22
99.01538518165725
 13
0.0
 23
0.0
 14
1.0
 24
1.0
 15
0.0
 25
0.0
 16
0.0
 26
0.0
 36
1.0
 17
0.0
 27
0.0
 37
0.0
 40
574.9988451134421
 41
2.119005328596802
 42
50.0
 43
0.0
 44
0.0
 50
0.0
 51
0.0
 71
     0
 72
   100
 73
     1
 74
     1
 75
     0
 76
     0
 77
     0
 78
     0
281
     0
 65
     1
110
0.0
120
0.0
130
0.0
111
1.0
121
0.0
131
0.0
112
0.0
122
1.0
132
0.0
 79
     0
146
0.0
  0
ENDTAB
  0
TABLE
  2
LTYPE
  5
4
330
0
100
AcDbSymbolTable
 70
     6
  0
LTYPE
  5
11
330
4
100
AcDbSymbolTableRecord
100
AcDbLinetypeTableRecord
  2
BYBLOCK
 70
     0
  3

 72
    65
 73
     0
 40
0.0
  0
LTYPE
  5
12
330
4
100
AcDbSymbolTableRecord
100
AcDbLinetypeTableRecord
  2
BYLAYER
 70
     0
  3

 72
    65
 73
     0
 40
0.0
  0
LTYPE
  5
13
330
4
100
AcDbSymbolTableRecord
100
AcDbLinetypeTableRecord
  2
CONTINUOUS
 70
     0
  3
Solid line
 72
    65
 73
     0
 40
0.0
  0
LTYPE
  5
1D
330
4
100
AcDbSymbolTableRecord
100
AcDbLinetypeTableRecord
  2
DASHED
 70
     0
  3
__ __ __ __ __ __ __ __ __ __ __ __ __ __ __
 72
    65
 73
     2
 40
4.0
 49
3.0
 74
     0
 49
-1.0
 74
     0
  0
LTYPE
  5
1E
330
4
100
AcDbSymbolTableRecord
100
AcDbLinetypeTableRecord
  2
HIDDEN
 70
     0
  3
_ _ _ _ _ _ _ _ _ _ _ _ _ _ _ _ _ _ _ _ _ _ _
 72
    65
 73
     2
 40
2.25
 49
0.25
 74
     0
 49
-2.0
 74
     0
  0
LTYPE
  5
1F
330
4
100
AcDbSymbolTableRecord
100
AcDbLinetypeTableRecord
  2
DOT
 70
     0
  3
...............................................
 72
    65
 73
     2
 40
4.0
 49
1.0
 74
     0
 49
-3.0
 74
     0
  0
LTYPE
  5
20
330
4
100
AcDbSymbolTableRecord
100
AcDbLinetypeTableRecord
  2
DASHDOT
 70
     0
  3
__ . __ . __ . __ . __ . __ . __ . __ . __ . __
 72
    65
 73
     4
 40
7.5
 49
6.0
 74
     0
 49
-0.5
 74
     0
 49
0.5
 74
     0
 49
-0.5
 74
     0
  0
LTYPE
  5
21
330
4
100
AcDbSymbolTableRecord
100
AcDbLinetypeTableRecord
  2
DIVIDE
 70
     0
  3
__ . . __ . . __ . . __ . . __ . . __ . . __
 72
    65
 73
     6
 40
8.5
 49
6.0
 74
     0
 49
-0.5
 74
     0
 49
0.5
 74
     0
 49
-0.5
 74
     0
 49
0.5
 74
     0
 49
-0.5
 74
     0
  0
ENDTAB
  0
TABLE
  2
LAYER
  5
2
330
0
100
AcDbSymbolTable
 70
     3
  0
LAYER
  5
14
330
2
100
AcDbSymbolTableRecord
100
AcDbLayerTableRecord
  2
0
 70
     0
 62
     7
  6
CONTINUOUS
370
    -3
390
178
  0
LAYER
  5
22
330
2
100
AcDbSymbolTableRecord
100
AcDbLayerTableRecord
  2
HLL-SQ53_1_2
 70
     0
 62
     7
  6
CONTINUOUS
370
    -3
390
178
  0
LAYER
  5
23
330
2
100
AcDbSymbolTableRecord
100
AcDbLayerTableRecord
  2
未使用
 70
     0
 62
     7
  6
CONTINUOUS
370
    -3
390
178
  0
ENDTAB
  0
TABLE
  2
STYLE
  5
3
330
0
100
AcDbSymbolTable
 70
     3
  0
STYLE
  5
17
330
3
100
AcDbSymbolTableRecord
100
AcDbTextStyleTableRecord
  2
STANDARD
 70
     0
 40
0.0
 41
1.0
 50
0.0
 71
     0
 42
0.0
  3
txt
  4

  0
STYLE
  5
24
330
3
100
AcDbSymbolTableRecord
100
AcDbTextStyleTableRecord
  2
BIGFONT
 70
     0
 40
1.0
 41
1.0
 50
0.0
 71
     0
 42
0.0
  3
monotxt.shx
  4
bigfont
  0
STYLE
  5
25
330
3
100
AcDbSymbolTableRecord
100
AcDbTextStyleTableRecord
  2
ＭＳ_ゴシック
 70
     0
 40
0.0
 41
1.0
 50
0.0
 71
     0
 42
0.0
  3
MS Gothic.ttf
  4

1001
ACAD
1000
MS Gothic
1071
    32817
  0
ENDTAB
  0
TABLE
  2
VIEW
  5
5
330
0
100
AcDbSymbolTable
 70
     0
  0
ENDTAB
  0
TABLE
  2
UCS
  5
6
330
0
100
AcDbSymbolTable
 70
     0
  0
ENDTAB
  0
TABLE
  2
APPID
  5
8
330
0
100
AcDbSymbolTable
 70
     1
  0
APPID
  5
16
330
8
100
AcDbSymbolTableRecord
100
AcDbRegAppTableRecord
  2
ACAD
 70
     0
  0
ENDTAB
  0
TABLE
  2
DIMSTYLE
  5
9
330
0
100
AcDbSymbolTable
 70
     2
100
AcDbDimStyleTable
 71
     0
  0
DIMSTYLE
105
18
330
9
100
AcDbSymbolTableRecord
100
AcDbDimStyleTableRecord
  2
STANDARD
 70
     0
340
17
  0
DIMSTYLE
105
26
102
{ACAD_REACTORS
330
147
330
148
330
149
330
16F
330
170
330
171
102
}
330
9
100
AcDbSymbolTableRecord
100
AcDbDimStyleTableRecord
  2
MARK2_DIMSTYLE
 70
     0
 41
2.0
 42
1.0
 43
10.0
 44
1.0
 73
     0
 77
     1
140
6.0
146
0.5
147
1.0
271
     2
340
25
341
27
342
27
  0
ENDTAB
  0
TABLE
  2
BLOCK_RECORD
  5
1
330
0
100
AcDbSymbolTable
 70
     8
  0
BLOCK_RECORD
  5
A
330
1
100
AcDbSymbolTableRecord
100
AcDbBlockTableRecord
  2
*MODEL_SPACE
340
17B
  0
BLOCK_RECORD
  5
B
330
1
100
AcDbSymbolTableRecord
100
AcDbBlockTableRecord
  2
*PAPER_SPACE
340
17C
  0
BLOCK_RECORD
  5
27
330
1
100
AcDbSymbolTableRecord
100
AcDbBlockTableRecord
  2
_OPEN
340
0
102
{BLKREFS
331
34
331
35
331
36
331
37
331
3F
331
40
331
41
331
42
331
49
331
4A
331
4B
331
4C
331
54
331
55
331
56
331
57
331
5F
331
60
331
61
331
62
331
6A
331
6B
331
6C
331
6D
102
}
  0
BLOCK_RECORD
  5
2D
330
1
100
AcDbSymbolTableRecord
100
AcDbBlockTableRecord
  2
_NONE
340
0
  0
BLOCK_RECORD
  5
30
330
1
100
AcDbSymbolTableRecord
100
AcDbBlockTableRecord
  2
*D2
340
0
  0
BLOCK_RECORD
  5
3B
330
1
100
AcDbSymbolTableRecord
100
AcDbBlockTableRecord
  2
*D3
340
0
  0
BLOCK_RECORD
  5
46
330
1
100
AcDbSymbolTableRecord
100
AcDbBlockTableRecord
  2
*D4
340
0
  0
BLOCK_RECORD
  5
50
330
1
100
AcDbSymbolTableRecord
100
AcDbBlockTableRecord
  2
*D5
340
0
  0
BLOCK_RECORD
  5
5B
330
1
100
AcDbSymbolTableRecord
100
AcDbBlockTableRecord
  2
*D6
340
0
  0
BLOCK_RECORD
  5
66
330
1
100
AcDbSymbolTableRecord
100
AcDbBlockTableRecord
  2
*D7
340
0
  0
ENDTAB
  0
ENDSEC
  0
SECTION
  2
BLOCKS
  0
BLOCK
  5
D
330
A
100
AcDbEntity
  8
0
100
AcDbBlockBegin
  2
*MODEL_SPACE
 70
     0
 10
0.0
 20
0.0
 30
0.0
  3
*MODEL_SPACE
  1

  0
ENDBLK
  5
E
330
A
100
AcDbEntity
  8
0
100
AcDbBlockEnd
  0
BLOCK
  5
F
330
B
100
AcDbEntity
 67
     1
  8
0
100
AcDbBlockBegin
  2
*PAPER_SPACE
 70
     0
 10
0.0
 20
0.0
 30
0.0
  3
*PAPER_SPACE
  1

  0
ENDBLK
  5
10
330
B
100
AcDbEntity
 67
     1
  8
0
100
AcDbBlockEnd
  0
BLOCK
  5
28
330
27
100
AcDbEntity
  8
0
 62
     0
100
AcDbBlockBegin
  2
_OPEN
 70
     0
 10
0.0
 20
0.0
 30
0.0
  3
_OPEN
  1

  0
LINE
  5
29
330
27
100
AcDbEntity
  8
0
 62
     0
100
AcDbLine
 10
-1.0
 20
0.166666666667
 30
0.0
 11
0.0
 21
0.0
 31
0.0
  0
LINE
  5
2A
330
27
100
AcDbEntity
  8
0
 62
     0
100
AcDbLine
 10
-1.0
 20
-0.166666666667
 30
0.0
 11
0.0
 21
0.0
 31
0.0
  0
LINE
  5
2B
330
27
100
AcDbEntity
  8
0
 62
     0
100
AcDbLine
 10
0.0
 20
0.0
 30
0.0
 11
-1.0
 21
0.0
 31
0.0
  0
ENDBLK
  5
2C
330
27
100
AcDbEntity
  8
0
100
AcDbBlockEnd
  0
BLOCK
  5
2E
330
2D
100
AcDbEntity
  8
0
 62
     0
100
AcDbBlockBegin
  2
_NONE
 70
     0
 10
0.0
 20
0.0
 30
0.0
  3
_NONE
  1

  0
ENDBLK
  5
2F
330
2D
100
AcDbEntity
  8
0
100
AcDbBlockEnd
  0
BLOCK
  5
31
330
30
100
AcDbEntity
  8
0
 62
     7
100
AcDbBlockBegin
  2
*D2
 70
     1
 10
0.0
 20
0.0
 30
0.0
  3
*D2
  1

  0
LINE
  5
32
330
30
100
AcDbEntity
  8
HLL-SQ53_1_2
  6
Continuous
 62
     7
100
AcDbLine
 10
143.21458838565
 20
228.468039847534
 30
0.0
 11
143.21458838565
 21
293.468039847534
 31
0.0
  0
LINE
  5
33
330
30
100
AcDbEntity
  8
HLL-SQ53_1_2
  6
Continuous
 62
     7
100
AcDbLine
 10
445.11458838565
 20
243.268039847534
 30
0.0
 11
445.11458838565
 21
293.468039847534
 31
0.0
  0
INSERT
  5
34
330
30
100
AcDbEntity
  8
HLL-SQ53_1_2
  6
Continuous
 62
     7
100
AcDbBlockReference
  2
_OPEN
 10
143.21458838565
 20
291.468039847534
 30
0.0
 41
4.0
 42
4.0
 50
180.0
  0
INSERT
  5
35
330
30
100
AcDbEntity
  8
HLL-SQ53_1_2
  6
Continuous
 62
     7
100
AcDbBlockReference
  2
_OPEN
 10
445.11458838565
 20
291.468039847534
 30
0.0
 41
4.0
 42
4.0
  0
INSERT
  5
36
330
30
100
AcDbEntity
  8
HLL-SQ53_1_2
  6
Continuous
 62
     7
100
AcDbBlockReference
  2
_OPEN
 10
143.21458838565
 20
291.468039847534
 30
0.0
 41
4.0
 42
4.0
 50
180.0
  0
INSERT
  5
37
330
30
100
AcDbEntity
  8
HLL-SQ53_1_2
  6
Continuous
 62
     7
100
AcDbBlockReference
  2
_OPEN
 10
445.11458838565
 20
291.468039847534
 30
0.0
 41
4.0
 42
4.0
  0
LINE
  5
38
330
30
100
AcDbEntity
  8
HLL-SQ53_1_2
  6
Continuous
 62
     7
100
AcDbLine
 10
143.21458838565
 20
291.468039847534
 30
0.0
 11
445.11458838565
 21
291.468039847534
 31
0.0
  0
TEXT
  5
39
330
30
100
AcDbEntity
  8
HLL-SQ53_1_2
 62
     7
100
AcDbText
 10
292.150375187681
 20
293.468039847534
 30
0.0
 40
6.0
  1
A
 41
1.033333333332999
  7
ＭＳ_ゴシック
 72
     1
 11
294.16458838565
 21
293.468039847534
 31
0.0
100
AcDbText
  0
ENDBLK
  5
3A
330
30
100
AcDbEntity
  8
0
100
AcDbBlockEnd
  0
BLOCK
  5
3C
330
3B
100
AcDbEntity
  8
0
 62
     7
100
AcDbBlockBegin
  2
*D3
 70
     1
 10
0.0
 20
0.0
 30
0.0
  3
*D3
  1

  0
LINE
  5
3D
330
3B
100
AcDbEntity
  8
HLL-SQ53_1_2
  6
Continuous
 62
     7
100
AcDbLine
 10
169.01458838565
 20
239.218039847534
 30
0.0
 11
169.01458838565
 21
278.468039847534
 31
0.0
  0
LINE
  5
3E
330
3B
100
AcDbEntity
  8
HLL-SQ53_1_2
  6
Continuous
 62
     7
100
AcDbLine
 10
445.11458838565
 20
243.268039847534
 30
0.0
 11
445.11458838565
 21
278.468039847534
 31
0.0
  0
INSERT
  5
3F
330
3B
100
AcDbEntity
  8
HLL-SQ53_1_2
  6
Continuous
 62
     7
100
AcDbBlockReference
  2
_OPEN
 10
169.01458838565
 20
276.468039847534
 30
0.0
 41
4.0
 42
4.0
 50
180.0
  0
INSERT
  5
40
330
3B
100
AcDbEntity
  8
HLL-SQ53_1_2
  6
Continuous
 62
     7
100
AcDbBlockReference
  2
_OPEN
 10
445.11458838565
 20
276.468039847534
 30
0.0
 41
4.0
 42
4.0
  0
INSERT
  5
41
330
3B
100
AcDbEntity
  8
HLL-SQ53_1_2
  6
Continuous
 62
     7
100
AcDbBlockReference
  2
_OPEN
 10
169.01458838565
 20
276.468039847534
 30
0.0
 41
4.0
 42
4.0
 50
180.0
  0
INSERT
  5
42
330
3B
100
AcDbEntity
  8
HLL-SQ53_1_2
  6
Continuous
 62
     7
100
AcDbBlockReference
  2
_OPEN
 10
445.11458838565
 20
276.468039847534
 30
0.0
 41
4.0
 42
4.0
  0
LINE
  5
43
330
3B
100
AcDbEntity
  8
HLL-SQ53_1_2
  6
Continuous
 62
     7
100
AcDbLine
 10
169.01458838565
 20
276.468039847534
 30
0.0
 11
445.11458838565
 21
276.468039847534
 31
0.0
  0
TEXT
  5
44
330
3B
100
AcDbEntity
  8
HLL-SQ53_1_2
 62
     7
100
AcDbText
 10
305.050375187681
 20
278.468039847534
 30
0.0
 40
6.0
  1
B
 41
1.033333333332999
  7
ＭＳ_ゴシック
 72
     1
 11
307.0645883856499
 21
278.468039847534
 31
0.0
100
AcDbText
  0
ENDBLK
  5
45
330
3B
100
AcDbEntity
  8
0
100
AcDbBlockEnd
  0
BLOCK
  5
47
330
46
100
AcDbEntity
  8
0
 62
     7
100
AcDbBlockBegin
  2
*D4
 70
     1
 10
0.0
 20
0.0
 30
0.0
  3
*D4
  1

  0
LINE
  5
48
330
46
100
AcDbEntity
  8
HLL-SQ53_1_2
  6
Continuous
 62
     7
100
AcDbLine
 10
241.0145883856499
 20
236.5180358475339
 30
0.0
 11
241.0145883856499
 21
263.4680398475339
 31
0.0
  0
INSERT
  5
49
330
46
100
AcDbEntity
  8
HLL-SQ53_1_2
  6
Continuous
 62
     7
100
AcDbBlockReference
  2
_OPEN
 10
169.01458838565
 20
261.4680398475339
 30
0.0
 41
4.0
 42
4.0
 50
180.0
  0
INSERT
  5
4A
330
46
100
AcDbEntity
  8
HLL-SQ53_1_2
  6
Continuous
 62
     7
100
AcDbBlockReference
  2
_OPEN
 10
241.0145883856499
 20
261.4680398475339
 30
0.0
 41
4.0
 42
4.0
  0
INSERT
  5
4B
330
46
100
AcDbEntity
  8
HLL-SQ53_1_2
  6
Continuous
 62
     7
100
AcDbBlockReference
  2
_OPEN
 10
169.01458838565
 20
261.4680398475339
 30
0.0
 41
4.0
 42
4.0
 50
180.0
  0
INSERT
  5
4C
330
46
100
AcDbEntity
  8
HLL-SQ53_1_2
  6
Continuous
 62
     7
100
AcDbBlockReference
  2
_OPEN
 10
241.0145883856499
 20
261.4680398475339
 30
0.0
 41
4.0
 42
4.0
  0
LINE
  5
4D
330
46
100
AcDbEntity
  8
HLL-SQ53_1_2
  6
Continuous
 62
     7
100
AcDbLine
 10
169.01458838565
 20
261.4680398475339
 30
0.0
 11
241.0145883856499
 21
261.4680398475339
 31
0.0
  0
TEXT
  5
4E
330
46
100
AcDbEntity
  8
HLL-SQ53_1_2
 62
     7
100
AcDbText
 10
196.9577355937744
 20
263.4680398475339
 30
0.0
 40
6.0
  1
(72)
 41
1.033333333332999
  7
ＭＳ_ゴシック
 72
     1
 11
205.0145883856499
 21
263.4680398475339
 31
0.0
100
AcDbText
  0
ENDBLK
  5
4F
330
46
100
AcDbEntity
  8
0
100
AcDbBlockEnd
  0
BLOCK
  5
51
330
50
100
AcDbEntity
  8
0
 62
     7
100
AcDbBlockBegin
  2
*D5
 70
     1
 10
0.0
 20
0.0
 30
0.0
  3
*D5
  1

  0
LINE
  5
52
330
50
100
AcDbEntity
  8
HLL-SQ53_1_2
  6
Continuous
 62
     7
100
AcDbLine
 10
446.91458838565
 20
169.468039847534
 30
0.0
 11
472.11458838565
 21
169.468039847534
 31
0.0
  0
LINE
  5
53
330
50
100
AcDbEntity
  8
HLL-SQ53_1_2
  6
Continuous
 62
     7
100
AcDbLine
 10
446.91458838565
 20
241.4680398475339
 30
0.0
 11
472.11458838565
 21
241.4680398475339
 31
0.0
  0
INSERT
  5
54
330
50
100
AcDbEntity
  8
HLL-SQ53_1_2
  6
Continuous
 62
     7
100
AcDbBlockReference
  2
_OPEN
 10
470.11458838565
 20
169.468039847534
 30
0.0
 41
4.0
 42
4.0
 50
270.0
  0
INSERT
  5
55
330
50
100
AcDbEntity
  8
HLL-SQ53_1_2
  6
Continuous
 62
     7
100
AcDbBlockReference
  2
_OPEN
 10
470.11458838565
 20
241.4680398475339
 30
0.0
 41
4.0
 42
4.0
 50
90.0
  0
INSERT
  5
56
330
50
100
AcDbEntity
  8
HLL-SQ53_1_2
  6
Continuous
 62
     7
100
AcDbBlockReference
  2
_OPEN
 10
470.11458838565
 20
169.468039847534
 30
0.0
 41
4.0
 42
4.0
 50
270.0
  0
INSERT
  5
57
330
50
100
AcDbEntity
  8
HLL-SQ53_1_2
  6
Continuous
 62
     7
100
AcDbBlockReference
  2
_OPEN
 10
470.11458838565
 20
241.4680398475339
 30
0.0
 41
4.0
 42
4.0
 50
90.0
  0
LINE
  5
58
330
50
100
AcDbEntity
  8
HLL-SQ53_1_2
  6
Continuous
 62
     7
100
AcDbLine
 10
470.11458838565
 20
169.468039847534
 30
0.0
 11
470.11458838565
 21
241.4680398475339
 31
0.0
  0
TEXT
  5
59
330
50
100
AcDbEntity
  8
HLL-SQ53_1_2
 62
     7
100
AcDbText
 10
468.11458838565
 20
197.4111870556584
 30
0.0
 40
6.0
  1
φ72
 50
90.0
 41
1.033333333332999
  7
ＭＳ_ゴシック
 72
     1
 11
468.11458838565
 21
205.468039847534
 31
0.0
100
AcDbText
  0
ENDBLK
  5
5A
330
50
100
AcDbEntity
  8
0
100
AcDbBlockEnd
  0
BLOCK
  5
5C
330
5B
100
AcDbEntity
  8
0
 62
     7
100
AcDbBlockBegin
  2
*D6
 70
     1
 10
0.0
 20
0.0
 30
0.0
  3
*D6
  1

  0
LINE
  5
5D
330
5B
100
AcDbEntity
  8
HLL-SQ53_1_2
  6
Continuous
 62
     7
100
AcDbLine
 10
194.0145883856499
 20
169.468039847534
 30
0.0
 11
210.0145883856499
 21
169.468039847534
 31
0.0
  0
LINE
  5
5E
330
5B
100
AcDbEntity
  8
HLL-SQ53_1_2
  6
Continuous
 62
     7
100
AcDbLine
 10
194.0145883856499
 20
241.4680398475339
 30
0.0
 11
210.0145883856499
 21
241.4680398475339
 31
0.0
  0
INSERT
  5
5F
330
5B
100
AcDbEntity
  8
HLL-SQ53_1_2
  6
Continuous
 62
     7
100
AcDbBlockReference
  2
_OPEN
 10
208.0145883856499
 20
169.468039847534
 30
0.0
 41
4.0
 42
4.0
 50
270.0
  0
INSERT
  5
60
330
5B
100
AcDbEntity
  8
HLL-SQ53_1_2
  6
Continuous
 62
     7
100
AcDbBlockReference
  2
_OPEN
 10
208.0145883856499
 20
241.4680398475339
 30
0.0
 41
4.0
 42
4.0
 50
90.0
  0
INSERT
  5
61
330
5B
100
AcDbEntity
  8
HLL-SQ53_1_2
  6
Continuous
 62
     7
100
AcDbBlockReference
  2
_OPEN
 10
208.0145883856499
 20
169.468039847534
 30
0.0
 41
4.0
 42
4.0
 50
270.0
  0
INSERT
  5
62
330
5B
100
AcDbEntity
  8
HLL-SQ53_1_2
  6
Continuous
 62
     7
100
AcDbBlockReference
  2
_OPEN
 10
208.0145883856499
 20
241.4680398475339
 30
0.0
 41
4.0
 42
4.0
 50
90.0
  0
LINE
  5
63
330
5B
100
AcDbEntity
  8
HLL-SQ53_1_2
  6
Continuous
 62
     7
100
AcDbLine
 10
208.0145883856499
 20
169.468039847534
 30
0.0
 11
208.0145883856499
 21
241.4680398475339
 31
0.0
  0
TEXT
  5
64
330
5B
100
AcDbEntity
  8
HLL-SQ53_1_2
 62
     7
100
AcDbText
 10
206.0145883856499
 20
197.4111870556584
 30
0.0
 40
6.0
  1
φ72
 50
90.0
 41
1.033333333332999
  7
ＭＳ_ゴシック
 72
     1
 11
206.0145883856499
 21
205.468039847534
 31
0.0
100
AcDbText
  0
ENDBLK
  5
65
330
5B
100
AcDbEntity
  8
0
100
AcDbBlockEnd
  0
BLOCK
  5
67
330
66
100
AcDbEntity
  8
0
 62
     7
100
AcDbBlockBegin
  2
*D7
 70
     1
 10
0.0
 20
0.0
 30
0.0
  3
*D7
  1

  0
LINE
  5
68
330
66
100
AcDbEntity
  8
HLL-SQ53_1_2
  6
Continuous
 62
     7
100
AcDbLine
 10
333.91458838565
 20
181.4680398475339
 30
0.0
 11
314.1145883856499
 21
181.4680398475339
 31
0.0
  0
LINE
  5
69
330
66
100
AcDbEntity
  8
HLL-SQ53_1_2
  6
Continuous
 62
     7
100
AcDbLine
 10
333.91458838565
 20
229.4680398475339
 30
0.0
 11
314.1145883856499
 21
229.4680398475339
 31
0.0
  0
INSERT
  5
6A
330
66
100
AcDbEntity
  8
HLL-SQ53_1_2
  6
Continuous
 62
     7
100
AcDbBlockReference
  2
_OPEN
 10
316.1145883856499
 20
181.4680398475339
 30
0.0
 41
4.0
 42
4.0
 50
270.0
  0
INSERT
  5
6B
330
66
100
AcDbEntity
  8
HLL-SQ53_1_2
  6
Continuous
 62
     7
100
AcDbBlockReference
  2
_OPEN
 10
316.1145883856499
 20
229.4680398475339
 30
0.0
 41
4.0
 42
4.0
 50
90.0
  0
INSERT
  5
6C
330
66
100
AcDbEntity
  8
HLL-SQ53_1_2
  6
Continuous
 62
     7
100
AcDbBlockReference
  2
_OPEN
 10
316.1145883856499
 20
181.4680398475339
 30
0.0
 41
4.0
 42
4.0
 50
270.0
  0
INSERT
  5
6D
330
66
100
AcDbEntity
  8
HLL-SQ53_1_2
  6
Continuous
 62
     7
100
AcDbBlockReference
  2
_OPEN
 10
316.1145883856499
 20
229.4680398475339
 30
0.0
 41
4.0
 42
4.0
 50
90.0
  0
LINE
  5
6E
330
66
100
AcDbEntity
  8
HLL-SQ53_1_2
  6
Continuous
 62
     7
100
AcDbLine
 10
316.1145883856499
 20
181.4680398475339
 30
0.0
 11
316.1145883856499
 21
229.4680398475339
 31
0.0
  0
TEXT
  5
6F
330
66
100
AcDbEntity
  8
HLL-SQ53_1_2
 62
     7
100
AcDbText
 10
314.1145883856499
 20
197.4111870556584
 30
0.0
 40
6.0
  1
φ48
 50
90.0
 41
1.033333333332999
  7
ＭＳ_ゴシック
 72
     1
 11
314.1145883856499
 21
205.468039847534
 31
0.0
100
AcDbText
  0
ENDBLK
  5
70
330
66
100
AcDbEntity
  8
0
100
AcDbBlockEnd
  0
ENDSEC
  0
SECTION
  2
ENTITIES
  0
TEXT
  5
71
330
A
100
AcDbEntity
  8
HLL-SQ53_1_2
 62
     7
100
AcDbText
 10
42.54835896944
 20
348.6985454545459
 30
0.0
 40
12.0
  1
HLL-SQ5S
 41
1.033333333332999
  7
ＭＳ_ゴシック
100
AcDbText
  0
LINE
  5
72
330
A
100
AcDbEntity
  8
HLL-SQ53_1_2
  6
Continuous
 62
     7
100
AcDbLine
 10
190.0145883856499
 20
239.062039847534
 30
0.0
 11
191.0145883856499
 21
239.062039847534
 31
0.0
  0
LINE
  5
73
330
A
100
AcDbEntity
  8
HLL-SQ53_1_2
  6
Continuous
 62
     7
100
AcDbLine
 10
191.0145883856499
 20
239.062039847534
 30
0.0
 11
191.5145883856499
 21
239.062039847534
 31
0.0
  0
LINE
  5
74
330
A
100
AcDbEntity
  8
HLL-SQ53_1_2
  6
Continuous
 62
     7
100
AcDbLine
 10
336.11458838565
 20
183.7385398475339
 30
0.0
 11
336.11458838565
 21
181.6680398475339
 31
0.0
  0
LINE
  5
75
330
A
100
AcDbEntity
  8
HLL-SQ53_1_2
  6
Continuous
 62
     7
100
AcDbLine
 10
335.91458838565
 20
181.4680398475339
 30
0.0
 11
336.11458838565
 21
181.6680398475339
 31
0.0
  0
LINE
  5
76
330
A
100
AcDbEntity
  8
HLL-SQ53_1_2
  6
Continuous
 62
     7
100
AcDbLine
 10
231.0145883856499
 20
178.9680398475339
 30
0.0
 11
231.0145883856499
 21
181.4680398475339
 31
0.0
  0
LINE
  5
77
330
A
100
AcDbEntity
  8
HLL-SQ53_1_2
  6
Continuous
 62
     7
100
AcDbLine
 10
231.5145883856499
 20
175.918043847534
 30
0.0
 11
240.5145883856499
 21
175.918043847534
 31
0.0
  0
LINE
  5
78
330
A
100
AcDbEntity
  8
HLL-SQ53_1_2
  6
Continuous
 62
     7
100
AcDbLine
 10
231.0145883856499
 20
176.4180438475339
 30
0.0
 11
231.0145883856499
 21
234.5180358475339
 31
0.0
  0
LINE
  5
79
330
A
100
AcDbEntity
  8
HLL-SQ53_1_2
  6
Continuous
 62
     7
100
AcDbLine
 10
161.01458838565
 20
226.9680398475339
 30
0.0
 11
161.01458838565
 21
183.9680398475339
 31
0.0
  0
LINE
  5
7A
330
A
100
AcDbEntity
  8
HLL-SQ53_1_2
  6
Continuous
 62
     7
100
AcDbLine
 10
231.5145883856499
 20
235.018035847534
 30
0.0
 11
240.5145883856499
 21
235.018035847534
 31
0.0
  0
LINE
  5
7B
330
A
100
AcDbEntity
  8
HLL-SQ53_1_2
  6
Continuous
 62
     7
100
AcDbLine
 10
231.5145883856499
 20
235.018035847534
 30
0.0
 11
231.0145883856499
 21
234.5180358475339
 31
0.0
  0
LINE
  5
7C
330
A
100
AcDbEntity
  8
HLL-SQ53_1_2
  6
Continuous
 62
     7
100
AcDbLine
 10
240.5145883856499
 20
235.018035847534
 30
0.0
 11
241.0145883856499
 21
234.5180358475339
 31
0.0
  0
LINE
  5
7D
330
A
100
AcDbEntity
  8
HLL-SQ53_1_2
  6
Continuous
 62
     7
100
AcDbLine
 10
240.5145883856499
 20
229.9600398475339
 30
0.0
 11
231.5145883856499
 21
229.9600398475339
 31
0.0
  0
LINE
  5
7E
330
A
100
AcDbEntity
  8
HLL-SQ53_1_2
  6
Continuous
 62
     7
100
AcDbLine
 10
240.5145883856499
 20
230.9020398475339
 30
0.0
 11
231.5145883856499
 21
230.9020398475339
 31
0.0
  0
LINE
  5
7F
330
A
100
AcDbEntity
  8
HLL-SQ53_1_2
  6
Continuous
 62
     7
100
AcDbLine
 10
240.5145883856499
 20
231.844039847534
 30
0.0
 11
231.5145883856499
 21
231.844039847534
 31
0.0
  0
LINE
  5
80
330
A
100
AcDbEntity
  8
HLL-SQ53_1_2
  6
Continuous
 62
     7
100
AcDbLine
 10
143.71458838565
 20
226.9680398475339
 30
0.0
 11
161.01458838565
 21
226.9680398475339
 31
0.0
  0
LINE
  5
81
330
A
100
AcDbEntity
  8
HLL-SQ53_1_2
  6
Continuous
 62
     7
100
AcDbLine
 10
170.01458838565
 20
239.4680398475339
 30
0.0
 11
190.0145883856499
 21
239.4680398475339
 31
0.0
  0
LINE
  5
82
330
A
100
AcDbEntity
  8
HLL-SQ53_1_2
  6
Continuous
 62
     7
100
AcDbLine
 10
161.01458838565
 20
236.718039847534
 30
0.0
 11
161.01458838565
 21
226.9680398475339
 31
0.0
  0
LINE
  5
83
330
A
100
AcDbEntity
  8
HLL-SQ53_1_2
  6
Continuous
 62
     7
100
AcDbLine
 10
143.71458838565
 20
183.9680398475339
 30
0.0
 11
161.01458838565
 21
183.9680398475339
 31
0.0
  0
LINE
  5
84
330
A
100
AcDbEntity
  8
HLL-SQ53_1_2
  6
Continuous
 62
     7
100
AcDbLine
 10
143.21458838565
 20
184.4680398475339
 30
0.0
 11
143.21458838565
 21
226.468039847534
 31
0.0
  0
LINE
  5
85
330
A
100
AcDbEntity
  8
HLL-SQ53_1_2
  6
Continuous
 62
     7
100
AcDbLine
 10
161.01458838565
 20
174.2180398475339
 30
0.0
 11
161.01458838565
 21
183.9680398475339
 31
0.0
  0
LINE
  5
86
330
A
100
AcDbEntity
  8
HLL-SQ53_1_2
  6
Continuous
 62
     7
100
AcDbLine
 10
143.21458838565
 20
226.468039847534
 30
0.0
 11
143.71458838565
 21
226.9680398475339
 31
0.0
  0
LINE
  5
87
330
A
100
AcDbEntity
  8
HLL-SQ53_1_2
  6
Continuous
 62
     7
100
AcDbLine
 10
143.21458838565
 20
184.4680398475339
 30
0.0
 11
143.71458838565
 21
183.9680398475339
 31
0.0
  0
LINE
  5
88
330
A
100
AcDbEntity
  8
HLL-SQ53_1_2
  6
Continuous
 62
     7
100
AcDbLine
 10
190.0145883856499
 20
239.062039847534
 30
0.0
 11
191.0145883856499
 21
239.062039847534
 31
0.0
  0
LINE
  5
89
330
A
100
AcDbEntity
  8
HLL-SQ53_1_2
  6
Continuous
 62
     7
100
AcDbLine
 10
190.0145883856499
 20
239.062039847534
 30
0.0
 11
190.0145883856499
 21
239.4680398475339
 31
0.0
  0
LINE
  5
8A
330
A
100
AcDbEntity
  8
HLL-SQ53_1_2
  6
Continuous
 62
     7
100
AcDbLine
 10
162.0145883856499
 20
237.7180398475339
 30
0.0
 11
161.01458838565
 21
236.718039847534
 31
0.0
  0
LINE
  5
8B
330
A
100
AcDbEntity
  8
HLL-SQ53_1_2
  6
Continuous
 62
     7
100
AcDbLine
 10
170.01458838565
 20
171.468039847534
 30
0.0
 11
190.0145883856499
 21
171.468039847534
 31
0.0
  0
LINE
  5
8C
330
A
100
AcDbEntity
  8
HLL-SQ53_1_2
  6
Continuous
 62
     7
100
AcDbLine
 10
190.0145883856499
 20
171.874039847534
 30
0.0
 11
191.0145883856499
 21
171.874039847534
 31
0.0
  0
LINE
  5
8D
330
A
100
AcDbEntity
  8
HLL-SQ53_1_2
  6
Continuous
 62
     7
100
AcDbLine
 10
190.0145883856499
 20
171.874039847534
 30
0.0
 11
190.0145883856499
 21
171.468039847534
 31
0.0
  0
LINE
  5
8E
330
A
100
AcDbEntity
  8
HLL-SQ53_1_2
  6
Continuous
 62
     7
100
AcDbLine
 10
191.0145883856499
 20
239.062039847534
 30
0.0
 11
191.5145883856499
 21
239.062039847534
 31
0.0
  0
LINE
  5
8F
330
A
100
AcDbEntity
  8
HLL-SQ53_1_2
  6
Continuous
 62
     7
100
AcDbLine
 10
191.0145883856499
 20
171.874039847534
 30
0.0
 11
191.5145883856499
 21
171.874039847534
 31
0.0
  0
LINE
  5
90
330
A
100
AcDbEntity
  8
HLL-SQ53_1_2
  6
Continuous
 62
     7
100
AcDbLine
 10
335.91458838565
 20
229.4680398475339
 30
0.0
 11
241.0145883856499
 21
229.4680398475339
 31
0.0
  0
LINE
  5
91
330
A
100
AcDbEntity
  8
HLL-SQ53_1_2
  6
Continuous
 62
     7
100
AcDbLine
 10
336.11458838565
 20
227.197539847534
 30
0.0
 11
336.11458838565
 21
229.268039847534
 31
0.0
  0
LINE
  5
92
330
A
100
AcDbEntity
  8
HLL-SQ53_1_2
  6
Continuous
 62
     7
100
AcDbLine
 10
337.1145883856499
 20
227.197539847534
 30
0.0
 11
336.11458838565
 21
227.197539847534
 31
0.0
  0
LINE
  5
93
330
A
100
AcDbEntity
  8
HLL-SQ53_1_2
  6
Continuous
 62
     7
100
AcDbLine
 10
335.91458838565
 20
229.4680398475339
 30
0.0
 11
336.11458838565
 21
229.268039847534
 31
0.0
  0
LINE
  5
94
330
A
100
AcDbEntity
  8
HLL-SQ53_1_2
  6
Continuous
 62
     7
100
AcDbLine
 10
335.91458838565
 20
181.4680398475339
 30
0.0
 11
241.0145883856499
 21
181.4680398475339
 31
0.0
  0
LINE
  5
95
330
A
100
AcDbEntity
  8
HLL-SQ53_1_2
  6
Continuous
 62
     7
100
AcDbLine
 10
336.11458838565
 20
183.7385398475339
 30
0.0
 11
336.11458838565
 21
181.6680398475339
 31
0.0
  0
LINE
  5
96
330
A
100
AcDbEntity
  8
HLL-SQ53_1_2
  6
Continuous
 62
     7
100
AcDbLine
 10
337.1145883856499
 20
183.7385398475339
 30
0.0
 11
336.11458838565
 21
183.7385398475339
 31
0.0
  0
LINE
  5
97
330
A
100
AcDbEntity
  8
HLL-SQ53_1_2
  6
Continuous
 62
     7
100
AcDbLine
 10
335.91458838565
 20
181.4680398475339
 30
0.0
 11
336.11458838565
 21
181.6680398475339
 31
0.0
  0
LINE
  5
98
330
A
100
AcDbEntity
  8
HLL-SQ53_1_2
  6
Continuous
 62
     7
100
AcDbLine
 10
231.0145883856499
 20
178.9680398475339
 30
0.0
 11
231.0145883856499
 21
181.4680398475339
 31
0.0
  0
LINE
  5
99
330
A
100
AcDbEntity
  8
HLL-SQ53_1_2
  6
Continuous
 62
     7
100
AcDbLine
 10
212.5145883856499
 20
241.4680398475339
 30
0.0
 11
192.0145883856499
 21
241.4680398475339
 31
0.0
  0
LINE
  5
9A
330
A
100
AcDbEntity
  8
HLL-SQ53_1_2
  6
Continuous
 62
     7
100
AcDbLine
 10
191.5145883856499
 20
240.968039847534
 30
0.0
 11
191.5145883856499
 21
169.968039847534
 31
0.0
  0
LINE
  5
9B
330
A
100
AcDbEntity
  8
HLL-SQ53_1_2
  6
Continuous
 62
     7
100
AcDbLine
 10
213.0145883856499
 20
240.968039847534
 30
0.0
 11
213.0145883856499
 21
234.5180358475339
 31
0.0
  0
LINE
  5
9C
330
A
100
AcDbEntity
  8
HLL-SQ53_1_2
  6
Continuous
 62
     7
100
AcDbLine
 10
231.0145883856499
 20
234.5180358475339
 30
0.0
 11
213.0145883856499
 21
234.5180358475339
 31
0.0
  0
LINE
  5
9D
330
A
100
AcDbEntity
  8
HLL-SQ53_1_2
  6
Continuous
 62
     7
100
AcDbLine
 10
241.0145883856499
 20
229.9680398475339
 30
0.0
 11
241.0145883856499
 21
234.5180358475339
 31
0.0
  0
LINE
  5
9E
330
A
100
AcDbEntity
  8
HLL-SQ53_1_2
  6
Continuous
 62
     7
100
AcDbLine
 10
231.5145883856499
 20
235.018035847534
 30
0.0
 11
240.5145883856499
 21
235.018035847534
 31
0.0
  0
LINE
  5
9F
330
A
100
AcDbEntity
  8
HLL-SQ53_1_2
  6
Continuous
 62
     7
100
AcDbLine
 10
231.5145883856499
 20
235.018035847534
 30
0.0
 11
231.0145883856499
 21
234.5180358475339
 31
0.0
  0
LINE
  5
A0
330
A
100
AcDbEntity
  8
HLL-SQ53_1_2
  6
Continuous
 62
     7
100
AcDbLine
 10
240.5145883856499
 20
235.018035847534
 30
0.0
 11
241.0145883856499
 21
234.5180358475339
 31
0.0
  0
LINE
  5
A1
330
A
100
AcDbEntity
  8
HLL-SQ53_1_2
  6
Continuous
 62
     7
100
AcDbLine
 10
192.0145883856499
 20
241.4680398475339
 30
0.0
 11
191.5145883856499
 21
240.968039847534
 31
0.0
  0
LINE
  5
A2
330
A
100
AcDbEntity
  8
HLL-SQ53_1_2
  6
Continuous
 62
     7
100
AcDbLine
 10
212.5145883856499
 20
241.4680398475339
 30
0.0
 11
213.0145883856499
 21
240.968039847534
 31
0.0
  0
LINE
  5
A3
330
A
100
AcDbEntity
  8
HLL-SQ53_1_2
  6
Continuous
 62
     7
100
AcDbLine
 10
212.5145883856499
 20
169.468039847534
 30
0.0
 11
192.0145883856499
 21
169.468039847534
 31
0.0
  0
LINE
  5
A4
330
A
100
AcDbEntity
  8
HLL-SQ53_1_2
  6
Continuous
 62
     7
100
AcDbLine
 10
213.0145883856499
 20
169.968039847534
 30
0.0
 11
213.0145883856499
 21
176.4180438475339
 31
0.0
  0
LINE
  5
A5
330
A
100
AcDbEntity
  8
HLL-SQ53_1_2
  6
Continuous
 62
     7
100
AcDbLine
 10
231.0145883856499
 20
176.4180438475339
 30
0.0
 11
213.0145883856499
 21
176.4180438475339
 31
0.0
  0
LINE
  5
A6
330
A
100
AcDbEntity
  8
HLL-SQ53_1_2
  6
Continuous
 62
     7
100
AcDbLine
 10
241.0145883856499
 20
176.4180438475339
 30
0.0
 11
241.0145883856499
 21
205.468039847534
 31
0.0
  0
LINE
  5
A7
330
A
100
AcDbEntity
  8
HLL-SQ53_1_2
  6
Continuous
 62
     7
100
AcDbLine
 10
231.5145883856499
 20
175.918043847534
 30
0.0
 11
240.5145883856499
 21
175.918043847534
 31
0.0
  0
LINE
  5
A8
330
A
100
AcDbEntity
  8
HLL-SQ53_1_2
  6
Continuous
 62
     7
100
AcDbLine
 10
231.5145883856499
 20
175.918043847534
 30
0.0
 11
231.0145883856499
 21
176.4180438475339
 31
0.0
  0
LINE
  5
A9
330
A
100
AcDbEntity
  8
HLL-SQ53_1_2
  6
Continuous
 62
     7
100
AcDbLine
 10
240.5145883856499
 20
175.918043847534
 30
0.0
 11
241.0145883856499
 21
176.4180438475339
 31
0.0
  0
LINE
  5
AA
330
A
100
AcDbEntity
  8
HLL-SQ53_1_2
  6
Continuous
 62
     7
100
AcDbLine
 10
192.0145883856499
 20
169.468039847534
 30
0.0
 11
191.5145883856499
 21
169.968039847534
 31
0.0
  0
LINE
  5
AB
330
A
100
AcDbEntity
  8
HLL-SQ53_1_2
  6
Continuous
 62
     7
100
AcDbLine
 10
212.5145883856499
 20
169.468039847534
 30
0.0
 11
213.0145883856499
 21
169.968039847534
 31
0.0
  0
LINE
  5
AC
330
A
100
AcDbEntity
  8
HLL-SQ53_1_2
  6
Continuous
 62
     7
100
AcDbLine
 10
241.0145883856499
 20
229.9680398475339
 30
0.0
 11
241.0145883856499
 21
205.468039847534
 31
0.0
  0
LINE
  5
AD
330
A
100
AcDbEntity
  8
HLL-SQ53_1_2
  6
Continuous
 62
     7
100
AcDbLine
 10
240.5145883856499
 20
175.918043847534
 30
0.0
 11
240.5145883856499
 21
235.018035847534
 31
0.0
  0
LINE
  5
AE
330
A
100
AcDbEntity
  8
HLL-SQ53_1_2
  6
Continuous
 62
     7
100
AcDbLine
 10
231.5145883856499
 20
175.918043847534
 30
0.0
 11
231.5145883856499
 21
235.018035847534
 31
0.0
  0
LINE
  5
AF
330
A
100
AcDbEntity
  8
HLL-SQ53_1_2
  6
Continuous
 62
     7
100
AcDbLine
 10
231.0145883856499
 20
176.4180438475339
 30
0.0
 11
231.0145883856499
 21
234.5180358475339
 31
0.0
  0
LINE
  5
B0
330
A
100
AcDbEntity
  8
HLL-SQ53_1_2
  6
Continuous
 62
     7
100
AcDbLine
 10
240.5145883856499
 20
205.468039847534
 30
0.0
 11
231.5145883856499
 21
205.468039847534
 31
0.0
  0
LINE
  5
B1
330
A
100
AcDbEntity
  8
HLL-SQ53_1_2
  6
Continuous
 62
     7
100
AcDbLine
 10
240.5145883856499
 20
204.5260398475339
 30
0.0
 11
231.5145883856499
 21
204.5260398475339
 31
0.0
  0
LINE
  5
B2
330
A
100
AcDbEntity
  8
HLL-SQ53_1_2
  6
Continuous
 62
     7
100
AcDbLine
 10
240.5145883856499
 20
203.584039847534
 30
0.0
 11
231.5145883856499
 21
203.584039847534
 31
0.0
  0
LINE
  5
B3
330
A
100
AcDbEntity
  8
HLL-SQ53_1_2
  6
Continuous
 62
     7
100
AcDbLine
 10
240.5145883856499
 20
202.642039847534
 30
0.0
 11
231.5145883856499
 21
202.642039847534
 31
0.0
  0
LINE
  5
B4
330
A
100
AcDbEntity
  8
HLL-SQ53_1_2
  6
Continuous
 62
     7
100
AcDbLine
 10
240.5145883856499
 20
201.7000398475339
 30
0.0
 11
231.5145883856499
 21
201.7000398475339
 31
0.0
  0
LINE
  5
B5
330
A
100
AcDbEntity
  8
HLL-SQ53_1_2
  6
Continuous
 62
     7
100
AcDbLine
 10
240.5145883856499
 20
200.7580398475339
 30
0.0
 11
231.5145883856499
 21
200.7580398475339
 31
0.0
  0
LINE
  5
B6
330
A
100
AcDbEntity
  8
HLL-SQ53_1_2
  6
Continuous
 62
     7
100
AcDbLine
 10
240.5145883856499
 20
199.816039847534
 30
0.0
 11
231.5145883856499
 21
199.816039847534
 31
0.0
  0
LINE
  5
B7
330
A
100
AcDbEntity
  8
HLL-SQ53_1_2
  6
Continuous
 62
     7
100
AcDbLine
 10
240.5145883856499
 20
198.8740398475339
 30
0.0
 11
231.5145883856499
 21
198.8740398475339
 31
0.0
  0
LINE
  5
B8
330
A
100
AcDbEntity
  8
HLL-SQ53_1_2
  6
Continuous
 62
     7
100
AcDbLine
 10
240.5145883856499
 20
197.9320398475339
 30
0.0
 11
231.5145883856499
 21
197.9320398475339
 31
0.0
  0
LINE
  5
B9
330
A
100
AcDbEntity
  8
HLL-SQ53_1_2
  6
Continuous
 62
     7
100
AcDbLine
 10
240.5145883856499
 20
196.9900398475339
 30
0.0
 11
231.5145883856499
 21
196.9900398475339
 31
0.0
  0
LINE
  5
BA
330
A
100
AcDbEntity
  8
HLL-SQ53_1_2
  6
Continuous
 62
     7
100
AcDbLine
 10
240.5145883856499
 20
196.048039847534
 30
0.0
 11
231.5145883856499
 21
196.048039847534
 31
0.0
  0
LINE
  5
BB
330
A
100
AcDbEntity
  8
HLL-SQ53_1_2
  6
Continuous
 62
     7
100
AcDbLine
 10
240.5145883856499
 20
195.106039847534
 30
0.0
 11
231.5145883856499
 21
195.106039847534
 31
0.0
  0
LINE
  5
BC
330
A
100
AcDbEntity
  8
HLL-SQ53_1_2
  6
Continuous
 62
     7
100
AcDbLine
 10
240.5145883856499
 20
194.1640398475339
 30
0.0
 11
231.5145883856499
 21
194.1640398475339
 31
0.0
  0
LINE
  5
BD
330
A
100
AcDbEntity
  8
HLL-SQ53_1_2
  6
Continuous
 62
     7
100
AcDbLine
 10
240.5145883856499
 20
193.2220398475339
 30
0.0
 11
231.5145883856499
 21
193.2220398475339
 31
0.0
  0
LINE
  5
BE
330
A
100
AcDbEntity
  8
HLL-SQ53_1_2
  6
Continuous
 62
     7
100
AcDbLine
 10
240.5145883856499
 20
192.280039847534
 30
0.0
 11
231.5145883856499
 21
192.280039847534
 31
0.0
  0
LINE
  5
BF
330
A
100
AcDbEntity
  8
HLL-SQ53_1_2
  6
Continuous
 62
     7
100
AcDbLine
 10
240.5145883856499
 20
191.3380398475339
 30
0.0
 11
231.5145883856499
 21
191.3380398475339
 31
0.0
  0
LINE
  5
C0
330
A
100
AcDbEntity
  8
HLL-SQ53_1_2
  6
Continuous
 62
     7
100
AcDbLine
 10
240.5145883856499
 20
190.3960398475339
 30
0.0
 11
231.5145883856499
 21
190.3960398475339
 31
0.0
  0
LINE
  5
C1
330
A
100
AcDbEntity
  8
HLL-SQ53_1_2
  6
Continuous
 62
     7
100
AcDbLine
 10
240.5145883856499
 20
189.4540398475339
 30
0.0
 11
231.5145883856499
 21
189.4540398475339
 31
0.0
  0
LINE
  5
C2
330
A
100
AcDbEntity
  8
HLL-SQ53_1_2
  6
Continuous
 62
     7
100
AcDbLine
 10
240.5145883856499
 20
188.512039847534
 30
0.0
 11
231.5145883856499
 21
188.512039847534
 31
0.0
  0
LINE
  5
C3
330
A
100
AcDbEntity
  8
HLL-SQ53_1_2
  6
Continuous
 62
     7
100
AcDbLine
 10
240.5145883856499
 20
187.5700398475339
 30
0.0
 11
231.5145883856499
 21
187.5700398475339
 31
0.0
  0
LINE
  5
C4
330
A
100
AcDbEntity
  8
HLL-SQ53_1_2
  6
Continuous
 62
     7
100
AcDbLine
 10
240.5145883856499
 20
186.6280398475339
 30
0.0
 11
231.5145883856499
 21
186.6280398475339
 31
0.0
  0
LINE
  5
C5
330
A
100
AcDbEntity
  8
HLL-SQ53_1_2
  6
Continuous
 62
     7
100
AcDbLine
 10
240.5145883856499
 20
185.6860398475339
 30
0.0
 11
231.5145883856499
 21
185.6860398475339
 31
0.0
  0
LINE
  5
C6
330
A
100
AcDbEntity
  8
HLL-SQ53_1_2
  6
Continuous
 62
     7
100
AcDbLine
 10
240.5145883856499
 20
184.744039847534
 30
0.0
 11
231.5145883856499
 21
184.744039847534
 31
0.0
  0
LINE
  5
C7
330
A
100
AcDbEntity
  8
HLL-SQ53_1_2
  6
Continuous
 62
     7
100
AcDbLine
 10
240.5145883856499
 20
183.802039847534
 30
0.0
 11
231.5145883856499
 21
183.802039847534
 31
0.0
  0
LINE
  5
C8
330
A
100
AcDbEntity
  8
HLL-SQ53_1_2
  6
Continuous
 62
     7
100
AcDbLine
 10
240.5145883856499
 20
182.8600398475339
 30
0.0
 11
231.5145883856499
 21
182.8600398475339
 31
0.0
  0
LINE
  5
C9
330
A
100
AcDbEntity
  8
HLL-SQ53_1_2
  6
Continuous
 62
     7
100
AcDbLine
 10
240.5145883856499
 20
181.9180398475339
 30
0.0
 11
231.5145883856499
 21
181.9180398475339
 31
0.0
  0
LINE
  5
CA
330
A
100
AcDbEntity
  8
HLL-SQ53_1_2
  6
Continuous
 62
     7
100
AcDbLine
 10
240.5145883856499
 20
180.976039847534
 30
0.0
 11
231.5145883856499
 21
180.976039847534
 31
0.0
  0
LINE
  5
CB
330
A
100
AcDbEntity
  8
HLL-SQ53_1_2
  6
Continuous
 62
     7
100
AcDbLine
 10
240.5145883856499
 20
180.0340398475339
 30
0.0
 11
231.5145883856499
 21
180.0340398475339
 31
0.0
  0
LINE
  5
CC
330
A
100
AcDbEntity
  8
HLL-SQ53_1_2
  6
Continuous
 62
     7
100
AcDbLine
 10
240.5145883856499
 20
179.0920398475339
 30
0.0
 11
231.5145883856499
 21
179.0920398475339
 31
0.0
  0
LINE
  5
CD
330
A
100
AcDbEntity
  8
HLL-SQ53_1_2
  6
Continuous
 62
     7
100
AcDbLine
 10
240.5145883856499
 20
178.1500398475339
 30
0.0
 11
231.5145883856499
 21
178.1500398475339
 31
0.0
  0
LINE
  5
CE
330
A
100
AcDbEntity
  8
HLL-SQ53_1_2
  6
Continuous
 62
     7
100
AcDbLine
 10
240.5145883856499
 20
177.2080398475339
 30
0.0
 11
231.5145883856499
 21
177.2080398475339
 31
0.0
  0
LINE
  5
CF
330
A
100
AcDbEntity
  8
HLL-SQ53_1_2
  6
Continuous
 62
     7
100
AcDbLine
 10
240.5145883856499
 20
176.2660398475339
 30
0.0
 11
231.5145883856499
 21
176.2660398475339
 31
0.0
  0
LINE
  5
D0
330
A
100
AcDbEntity
  8
HLL-SQ53_1_2
  6
Continuous
 62
     7
100
AcDbLine
 10
161.01458838565
 20
226.9680398475339
 30
0.0
 11
161.01458838565
 21
183.9680398475339
 31
0.0
  0
LINE
  5
D1
330
A
100
AcDbEntity
  8
HLL-SQ53_1_2
  6
Continuous
 62
     7
100
AcDbLine
 10
190.0145883856499
 20
239.062039847534
 30
0.0
 11
190.0145883856499
 21
171.874039847534
 31
0.0
  0
LINE
  5
D2
330
A
100
AcDbEntity
  8
HLL-SQ53_1_2
  6
Continuous
 62
     7
100
AcDbLine
 10
213.0145883856499
 20
234.5180358475339
 30
0.0
 11
213.0145883856499
 21
176.4180438475339
 31
0.0
  0
LINE
  5
D3
330
A
100
AcDbEntity
  8
HLL-SQ53_1_2
  6
Continuous
 62
     7
100
AcDbLine
 10
231.5145883856499
 20
235.018035847534
 30
0.0
 11
240.5145883856499
 21
235.018035847534
 31
0.0
  0
LINE
  5
D4
330
A
100
AcDbEntity
  8
HLL-SQ53_1_2
  6
Continuous
 62
     7
100
AcDbLine
 10
231.5145883856499
 20
235.018035847534
 30
0.0
 11
231.0145883856499
 21
234.5180358475339
 31
0.0
  0
LINE
  5
D5
330
A
100
AcDbEntity
  8
HLL-SQ53_1_2
  6
Continuous
 62
     7
100
AcDbLine
 10
240.5145883856499
 20
235.018035847534
 30
0.0
 11
241.0145883856499
 21
234.5180358475339
 31
0.0
  0
LINE
  5
D6
330
A
100
AcDbEntity
  8
HLL-SQ53_1_2
  6
Continuous
 62
     7
100
AcDbLine
 10
240.5145883856499
 20
206.410039847534
 30
0.0
 11
231.5145883856499
 21
206.410039847534
 31
0.0
  0
LINE
  5
D7
330
A
100
AcDbEntity
  8
HLL-SQ53_1_2
  6
Continuous
 62
     7
100
AcDbLine
 10
240.5145883856499
 20
207.352039847534
 30
0.0
 11
231.5145883856499
 21
207.352039847534
 31
0.0
  0
LINE
  5
D8
330
A
100
AcDbEntity
  8
HLL-SQ53_1_2
  6
Continuous
 62
     7
100
AcDbLine
 10
240.5145883856499
 20
208.2940398475339
 30
0.0
 11
231.5145883856499
 21
208.2940398475339
 31
0.0
  0
LINE
  5
D9
330
A
100
AcDbEntity
  8
HLL-SQ53_1_2
  6
Continuous
 62
     7
100
AcDbLine
 10
240.5145883856499
 20
209.236039847534
 30
0.0
 11
231.5145883856499
 21
209.236039847534
 31
0.0
  0
LINE
  5
DA
330
A
100
AcDbEntity
  8
HLL-SQ53_1_2
  6
Continuous
 62
     7
100
AcDbLine
 10
240.5145883856499
 20
210.178039847534
 30
0.0
 11
231.5145883856499
 21
210.178039847534
 31
0.0
  0
LINE
  5
DB
330
A
100
AcDbEntity
  8
HLL-SQ53_1_2
  6
Continuous
 62
     7
100
AcDbLine
 10
240.5145883856499
 20
211.120039847534
 30
0.0
 11
231.5145883856499
 21
211.120039847534
 31
0.0
  0
LINE
  5
DC
330
A
100
AcDbEntity
  8
HLL-SQ53_1_2
  6
Continuous
 62
     7
100
AcDbLine
 10
240.5145883856499
 20
212.062039847534
 30
0.0
 11
231.5145883856499
 21
212.062039847534
 31
0.0
  0
LINE
  5
DD
330
A
100
AcDbEntity
  8
HLL-SQ53_1_2
  6
Continuous
 62
     7
100
AcDbLine
 10
240.5145883856499
 20
213.0040398475339
 30
0.0
 11
231.5145883856499
 21
213.0040398475339
 31
0.0
  0
LINE
  5
DE
330
A
100
AcDbEntity
  8
HLL-SQ53_1_2
  6
Continuous
 62
     7
100
AcDbLine
 10
240.5145883856499
 20
213.9460398475339
 30
0.0
 11
231.5145883856499
 21
213.9460398475339
 31
0.0
  0
LINE
  5
DF
330
A
100
AcDbEntity
  8
HLL-SQ53_1_2
  6
Continuous
 62
     7
100
AcDbLine
 10
240.5145883856499
 20
214.8880398475339
 30
0.0
 11
231.5145883856499
 21
214.8880398475339
 31
0.0
  0
LINE
  5
E0
330
A
100
AcDbEntity
  8
HLL-SQ53_1_2
  6
Continuous
 62
     7
100
AcDbLine
 10
240.5145883856499
 20
215.8300398475339
 30
0.0
 11
231.5145883856499
 21
215.8300398475339
 31
0.0
  0
LINE
  5
E1
330
A
100
AcDbEntity
  8
HLL-SQ53_1_2
  6
Continuous
 62
     7
100
AcDbLine
 10
240.5145883856499
 20
216.7720398475339
 30
0.0
 11
231.5145883856499
 21
216.7720398475339
 31
0.0
  0
LINE
  5
E2
330
A
100
AcDbEntity
  8
HLL-SQ53_1_2
  6
Continuous
 62
     7
100
AcDbLine
 10
240.5145883856499
 20
217.7140398475339
 30
0.0
 11
231.5145883856499
 21
217.7140398475339
 31
0.0
  0
LINE
  5
E3
330
A
100
AcDbEntity
  8
HLL-SQ53_1_2
  6
Continuous
 62
     7
100
AcDbLine
 10
240.5145883856499
 20
218.6560398475339
 30
0.0
 11
231.5145883856499
 21
218.6560398475339
 31
0.0
  0
LINE
  5
E4
330
A
100
AcDbEntity
  8
HLL-SQ53_1_2
  6
Continuous
 62
     7
100
AcDbLine
 10
240.5145883856499
 20
219.5980398475339
 30
0.0
 11
231.5145883856499
 21
219.5980398475339
 31
0.0
  0
LINE
  5
E5
330
A
100
AcDbEntity
  8
HLL-SQ53_1_2
  6
Continuous
 62
     7
100
AcDbLine
 10
240.5145883856499
 20
220.5400398475339
 30
0.0
 11
231.5145883856499
 21
220.5400398475339
 31
0.0
  0
LINE
  5
E6
330
A
100
AcDbEntity
  8
HLL-SQ53_1_2
  6
Continuous
 62
     7
100
AcDbLine
 10
240.5145883856499
 20
221.4820398475339
 30
0.0
 11
231.5145883856499
 21
221.4820398475339
 31
0.0
  0
LINE
  5
E7
330
A
100
AcDbEntity
  8
HLL-SQ53_1_2
  6
Continuous
 62
     7
100
AcDbLine
 10
240.5145883856499
 20
222.4240398475339
 30
0.0
 11
231.5145883856499
 21
222.4240398475339
 31
0.0
  0
LINE
  5
E8
330
A
100
AcDbEntity
  8
HLL-SQ53_1_2
  6
Continuous
 62
     7
100
AcDbLine
 10
240.5145883856499
 20
223.3660398475339
 30
0.0
 11
231.5145883856499
 21
223.3660398475339
 31
0.0
  0
LINE
  5
E9
330
A
100
AcDbEntity
  8
HLL-SQ53_1_2
  6
Continuous
 62
     7
100
AcDbLine
 10
240.5145883856499
 20
224.3080398475339
 30
0.0
 11
231.5145883856499
 21
224.3080398475339
 31
0.0
  0
LINE
  5
EA
330
A
100
AcDbEntity
  8
HLL-SQ53_1_2
  6
Continuous
 62
     7
100
AcDbLine
 10
240.5145883856499
 20
225.250039847534
 30
0.0
 11
231.5145883856499
 21
225.250039847534
 31
0.0
  0
LINE
  5
EB
330
A
100
AcDbEntity
  8
HLL-SQ53_1_2
  6
Continuous
 62
     7
100
AcDbLine
 10
240.5145883856499
 20
226.1920398475339
 30
0.0
 11
231.5145883856499
 21
226.1920398475339
 31
0.0
  0
LINE
  5
EC
330
A
100
AcDbEntity
  8
HLL-SQ53_1_2
  6
Continuous
 62
     7
100
AcDbLine
 10
240.5145883856499
 20
227.1340398475339
 30
0.0
 11
231.5145883856499
 21
227.1340398475339
 31
0.0
  0
LINE
  5
ED
330
A
100
AcDbEntity
  8
HLL-SQ53_1_2
  6
Continuous
 62
     7
100
AcDbLine
 10
240.5145883856499
 20
228.076039847534
 30
0.0
 11
231.5145883856499
 21
228.076039847534
 31
0.0
  0
LINE
  5
EE
330
A
100
AcDbEntity
  8
HLL-SQ53_1_2
  6
Continuous
 62
     7
100
AcDbLine
 10
240.5145883856499
 20
229.018039847534
 30
0.0
 11
231.5145883856499
 21
229.018039847534
 31
0.0
  0
LINE
  5
EF
330
A
100
AcDbEntity
  8
HLL-SQ53_1_2
  6
Continuous
 62
     7
100
AcDbLine
 10
240.5145883856499
 20
229.9600398475339
 30
0.0
 11
231.5145883856499
 21
229.9600398475339
 31
0.0
  0
LINE
  5
F0
330
A
100
AcDbEntity
  8
HLL-SQ53_1_2
  6
Continuous
 62
     7
100
AcDbLine
 10
240.5145883856499
 20
230.9020398475339
 30
0.0
 11
231.5145883856499
 21
230.9020398475339
 31
0.0
  0
LINE
  5
F1
330
A
100
AcDbEntity
  8
HLL-SQ53_1_2
  6
Continuous
 62
     7
100
AcDbLine
 10
240.5145883856499
 20
231.844039847534
 30
0.0
 11
231.5145883856499
 21
231.844039847534
 31
0.0
  0
LINE
  5
F2
330
A
100
AcDbEntity
  8
HLL-SQ53_1_2
  6
Continuous
 62
     7
100
AcDbLine
 10
240.5145883856499
 20
232.786039847534
 30
0.0
 11
231.5145883856499
 21
232.786039847534
 31
0.0
  0
LINE
  5
F3
330
A
100
AcDbEntity
  8
HLL-SQ53_1_2
  6
Continuous
 62
     7
100
AcDbLine
 10
240.5145883856499
 20
233.7280398475339
 30
0.0
 11
231.5145883856499
 21
233.7280398475339
 31
0.0
  0
LINE
  5
F4
330
A
100
AcDbEntity
  8
HLL-SQ53_1_2
  6
Continuous
 62
     7
100
AcDbLine
 10
240.5145883856499
 20
234.670039847534
 30
0.0
 11
231.5145883856499
 21
234.670039847534
 31
0.0
  0
LINE
  5
F5
330
A
100
AcDbEntity
  8
HLL-SQ53_1_2
  6
Continuous
 62
     7
100
AcDbLine
 10
336.11458838565
 20
227.197539847534
 30
0.0
 11
336.11458838565
 21
183.7385398475339
 31
0.0
  0
LINE
  5
F6
330
A
100
AcDbEntity
  8
HLL-SQ53_1_2
  6
Continuous
 62
     7
100
AcDbLine
 10
341.61458838565
 20
181.4680398475339
 30
0.0
 11
350.61458838565
 21
181.4680398475339
 31
0.0
  0
LINE
  5
F7
330
A
100
AcDbEntity
  8
HLL-SQ53_1_2
  6
Continuous
 62
     7
100
AcDbLine
 10
341.1145883856499
 20
181.9680398475339
 30
0.0
 11
341.61458838565
 21
181.4680398475339
 31
0.0
  0
LINE
  5
F8
330
A
100
AcDbEntity
  8
HLL-SQ53_1_2
  6
Continuous
 62
     7
100
AcDbLine
 10
351.11458838565
 20
181.9680398475339
 30
0.0
 11
350.61458838565
 21
181.4680398475339
 31
0.0
  0
LINE
  5
F9
330
A
100
AcDbEntity
  8
HLL-SQ53_1_2
  6
Continuous
 62
     7
100
AcDbLine
 10
341.61458838565
 20
204.5260398475339
 30
0.0
 11
350.61458838565
 21
204.5260398475339
 31
0.0
  0
LINE
  5
FA
330
A
100
AcDbEntity
  8
HLL-SQ53_1_2
  6
Continuous
 62
     7
100
AcDbLine
 10
341.61458838565
 20
203.584039847534
 30
0.0
 11
350.61458838565
 21
203.584039847534
 31
0.0
  0
LINE
  5
FB
330
A
100
AcDbEntity
  8
HLL-SQ53_1_2
  6
Continuous
 62
     7
100
AcDbLine
 10
341.61458838565
 20
202.642039847534
 30
0.0
 11
350.61458838565
 21
202.642039847534
 31
0.0
  0
LINE
  5
FC
330
A
100
AcDbEntity
  8
HLL-SQ53_1_2
  6
Continuous
 62
     7
100
AcDbLine
 10
341.61458838565
 20
201.7000398475339
 30
0.0
 11
350.61458838565
 21
201.7000398475339
 31
0.0
  0
LINE
  5
FD
330
A
100
AcDbEntity
  8
HLL-SQ53_1_2
  6
Continuous
 62
     7
100
AcDbLine
 10
341.61458838565
 20
200.7580398475339
 30
0.0
 11
350.61458838565
 21
200.7580398475339
 31
0.0
  0
LINE
  5
FE
330
A
100
AcDbEntity
  8
HLL-SQ53_1_2
  6
Continuous
 62
     7
100
AcDbLine
 10
341.61458838565
 20
199.816039847534
 30
0.0
 11
350.61458838565
 21
199.816039847534
 31
0.0
  0
LINE
  5
FF
330
A
100
AcDbEntity
  8
HLL-SQ53_1_2
  6
Continuous
 62
     7
100
AcDbLine
 10
341.61458838565
 20
198.8740398475339
 30
0.0
 11
350.61458838565
 21
198.8740398475339
 31
0.0
  0
LINE
  5
100
330
A
100
AcDbEntity
  8
HLL-SQ53_1_2
  6
Continuous
 62
     7
100
AcDbLine
 10
341.61458838565
 20
197.9320398475339
 30
0.0
 11
350.61458838565
 21
197.9320398475339
 31
0.0
  0
LINE
  5
101
330
A
100
AcDbEntity
  8
HLL-SQ53_1_2
  6
Continuous
 62
     7
100
AcDbLine
 10
341.61458838565
 20
196.9900398475339
 30
0.0
 11
350.61458838565
 21
196.9900398475339
 31
0.0
  0
LINE
  5
102
330
A
100
AcDbEntity
  8
HLL-SQ53_1_2
  6
Continuous
 62
     7
100
AcDbLine
 10
341.61458838565
 20
196.048039847534
 30
0.0
 11
350.61458838565
 21
196.048039847534
 31
0.0
  0
LINE
  5
103
330
A
100
AcDbEntity
  8
HLL-SQ53_1_2
  6
Continuous
 62
     7
100
AcDbLine
 10
341.61458838565
 20
195.106039847534
 30
0.0
 11
350.61458838565
 21
195.106039847534
 31
0.0
  0
LINE
  5
104
330
A
100
AcDbEntity
  8
HLL-SQ53_1_2
  6
Continuous
 62
     7
100
AcDbLine
 10
341.61458838565
 20
194.1640398475339
 30
0.0
 11
350.61458838565
 21
194.1640398475339
 31
0.0
  0
LINE
  5
105
330
A
100
AcDbEntity
  8
HLL-SQ53_1_2
  6
Continuous
 62
     7
100
AcDbLine
 10
341.61458838565
 20
193.2220398475339
 30
0.0
 11
350.61458838565
 21
193.2220398475339
 31
0.0
  0
LINE
  5
106
330
A
100
AcDbEntity
  8
HLL-SQ53_1_2
  6
Continuous
 62
     7
100
AcDbLine
 10
341.61458838565
 20
192.280039847534
 30
0.0
 11
350.61458838565
 21
192.280039847534
 31
0.0
  0
LINE
  5
107
330
A
100
AcDbEntity
  8
HLL-SQ53_1_2
  6
Continuous
 62
     7
100
AcDbLine
 10
341.61458838565
 20
191.3380398475339
 30
0.0
 11
350.61458838565
 21
191.3380398475339
 31
0.0
  0
LINE
  5
108
330
A
100
AcDbEntity
  8
HLL-SQ53_1_2
  6
Continuous
 62
     7
100
AcDbLine
 10
341.61458838565
 20
190.3960398475339
 30
0.0
 11
350.61458838565
 21
190.3960398475339
 31
0.0
  0
LINE
  5
109
330
A
100
AcDbEntity
  8
HLL-SQ53_1_2
  6
Continuous
 62
     7
100
AcDbLine
 10
341.61458838565
 20
189.4540398475339
 30
0.0
 11
350.61458838565
 21
189.4540398475339
 31
0.0
  0
LINE
  5
10A
330
A
100
AcDbEntity
  8
HLL-SQ53_1_2
  6
Continuous
 62
     7
100
AcDbLine
 10
341.61458838565
 20
188.512039847534
 30
0.0
 11
350.61458838565
 21
188.512039847534
 31
0.0
  0
LINE
  5
10B
330
A
100
AcDbEntity
  8
HLL-SQ53_1_2
  6
Continuous
 62
     7
100
AcDbLine
 10
341.61458838565
 20
187.5700398475339
 30
0.0
 11
350.61458838565
 21
187.5700398475339
 31
0.0
  0
LINE
  5
10C
330
A
100
AcDbEntity
  8
HLL-SQ53_1_2
  6
Continuous
 62
     7
100
AcDbLine
 10
341.61458838565
 20
186.6280398475339
 30
0.0
 11
350.61458838565
 21
186.6280398475339
 31
0.0
  0
LINE
  5
10D
330
A
100
AcDbEntity
  8
HLL-SQ53_1_2
  6
Continuous
 62
     7
100
AcDbLine
 10
341.61458838565
 20
185.6860398475339
 30
0.0
 11
350.61458838565
 21
185.6860398475339
 31
0.0
  0
LINE
  5
10E
330
A
100
AcDbEntity
  8
HLL-SQ53_1_2
  6
Continuous
 62
     7
100
AcDbLine
 10
341.61458838565
 20
184.744039847534
 30
0.0
 11
350.61458838565
 21
184.744039847534
 31
0.0
  0
LINE
  5
10F
330
A
100
AcDbEntity
  8
HLL-SQ53_1_2
  6
Continuous
 62
     7
100
AcDbLine
 10
341.61458838565
 20
183.802039847534
 30
0.0
 11
350.61458838565
 21
183.802039847534
 31
0.0
  0
LINE
  5
110
330
A
100
AcDbEntity
  8
HLL-SQ53_1_2
  6
Continuous
 62
     7
100
AcDbLine
 10
341.61458838565
 20
182.8600398475339
 30
0.0
 11
350.61458838565
 21
182.8600398475339
 31
0.0
  0
LINE
  5
111
330
A
100
AcDbEntity
  8
HLL-SQ53_1_2
  6
Continuous
 62
     7
100
AcDbLine
 10
341.61458838565
 20
181.9180398475339
 30
0.0
 11
350.61458838565
 21
181.9180398475339
 31
0.0
  0
LINE
  5
112
330
A
100
AcDbEntity
  8
HLL-SQ53_1_2
  6
Continuous
 62
     7
100
AcDbLine
 10
341.61458838565
 20
181.4680398475339
 30
0.0
 11
341.61458838565
 21
229.4680398475339
 31
0.0
  0
LINE
  5
113
330
A
100
AcDbEntity
  8
HLL-SQ53_1_2
  6
Continuous
 62
     7
100
AcDbLine
 10
350.61458838565
 20
181.4680398475339
 30
0.0
 11
350.61458838565
 21
229.4680398475339
 31
0.0
  0
LINE
  5
114
330
A
100
AcDbEntity
  8
HLL-SQ53_1_2
  6
Continuous
 62
     7
100
AcDbLine
 10
341.61458838565
 20
205.468039847534
 30
0.0
 11
350.61458838565
 21
205.468039847534
 31
0.0
  0
LINE
  5
115
330
A
100
AcDbEntity
  8
HLL-SQ53_1_2
  6
Continuous
 62
     7
100
AcDbLine
 10
341.1145883856499
 20
228.9680398475339
 30
0.0
 11
341.1145883856499
 21
181.9680398475339
 31
0.0
  0
LINE
  5
116
330
A
100
AcDbEntity
  8
HLL-SQ53_1_2
  6
Continuous
 62
     7
100
AcDbLine
 10
341.61458838565
 20
229.4680398475339
 30
0.0
 11
350.61458838565
 21
229.4680398475339
 31
0.0
  0
LINE
  5
117
330
A
100
AcDbEntity
  8
HLL-SQ53_1_2
  6
Continuous
 62
     7
100
AcDbLine
 10
341.1145883856499
 20
228.9680398475339
 30
0.0
 11
341.61458838565
 21
229.4680398475339
 31
0.0
  0
LINE
  5
118
330
A
100
AcDbEntity
  8
HLL-SQ53_1_2
  6
Continuous
 62
     7
100
AcDbLine
 10
351.11458838565
 20
228.9680398475339
 30
0.0
 11
350.61458838565
 21
229.4680398475339
 31
0.0
  0
LINE
  5
119
330
A
100
AcDbEntity
  8
HLL-SQ53_1_2
  6
Continuous
 62
     7
100
AcDbLine
 10
341.61458838565
 20
206.410039847534
 30
0.0
 11
350.61458838565
 21
206.410039847534
 31
0.0
  0
LINE
  5
11A
330
A
100
AcDbEntity
  8
HLL-SQ53_1_2
  6
Continuous
 62
     7
100
AcDbLine
 10
341.61458838565
 20
207.352039847534
 30
0.0
 11
350.61458838565
 21
207.352039847534
 31
0.0
  0
LINE
  5
11B
330
A
100
AcDbEntity
  8
HLL-SQ53_1_2
  6
Continuous
 62
     7
100
AcDbLine
 10
341.61458838565
 20
208.2940398475339
 30
0.0
 11
350.61458838565
 21
208.2940398475339
 31
0.0
  0
LINE
  5
11C
330
A
100
AcDbEntity
  8
HLL-SQ53_1_2
  6
Continuous
 62
     7
100
AcDbLine
 10
341.61458838565
 20
209.236039847534
 30
0.0
 11
350.61458838565
 21
209.236039847534
 31
0.0
  0
LINE
  5
11D
330
A
100
AcDbEntity
  8
HLL-SQ53_1_2
  6
Continuous
 62
     7
100
AcDbLine
 10
341.61458838565
 20
210.178039847534
 30
0.0
 11
350.61458838565
 21
210.178039847534
 31
0.0
  0
LINE
  5
11E
330
A
100
AcDbEntity
  8
HLL-SQ53_1_2
  6
Continuous
 62
     7
100
AcDbLine
 10
341.61458838565
 20
211.120039847534
 30
0.0
 11
350.61458838565
 21
211.120039847534
 31
0.0
  0
LINE
  5
11F
330
A
100
AcDbEntity
  8
HLL-SQ53_1_2
  6
Continuous
 62
     7
100
AcDbLine
 10
341.61458838565
 20
212.062039847534
 30
0.0
 11
350.61458838565
 21
212.062039847534
 31
0.0
  0
LINE
  5
120
330
A
100
AcDbEntity
  8
HLL-SQ53_1_2
  6
Continuous
 62
     7
100
AcDbLine
 10
341.61458838565
 20
213.0040398475339
 30
0.0
 11
350.61458838565
 21
213.0040398475339
 31
0.0
  0
LINE
  5
121
330
A
100
AcDbEntity
  8
HLL-SQ53_1_2
  6
Continuous
 62
     7
100
AcDbLine
 10
341.61458838565
 20
213.9460398475339
 30
0.0
 11
350.61458838565
 21
213.9460398475339
 31
0.0
  0
LINE
  5
122
330
A
100
AcDbEntity
  8
HLL-SQ53_1_2
  6
Continuous
 62
     7
100
AcDbLine
 10
341.61458838565
 20
214.8880398475339
 30
0.0
 11
350.61458838565
 21
214.8880398475339
 31
0.0
  0
LINE
  5
123
330
A
100
AcDbEntity
  8
HLL-SQ53_1_2
  6
Continuous
 62
     7
100
AcDbLine
 10
341.61458838565
 20
215.8300398475339
 30
0.0
 11
350.61458838565
 21
215.8300398475339
 31
0.0
  0
LINE
  5
124
330
A
100
AcDbEntity
  8
HLL-SQ53_1_2
  6
Continuous
 62
     7
100
AcDbLine
 10
341.61458838565
 20
216.7720398475339
 30
0.0
 11
350.61458838565
 21
216.7720398475339
 31
0.0
  0
LINE
  5
125
330
A
100
AcDbEntity
  8
HLL-SQ53_1_2
  6
Continuous
 62
     7
100
AcDbLine
 10
341.61458838565
 20
217.7140398475339
 30
0.0
 11
350.61458838565
 21
217.7140398475339
 31
0.0
  0
LINE
  5
126
330
A
100
AcDbEntity
  8
HLL-SQ53_1_2
  6
Continuous
 62
     7
100
AcDbLine
 10
341.61458838565
 20
218.6560398475339
 30
0.0
 11
350.61458838565
 21
218.6560398475339
 31
0.0
  0
LINE
  5
127
330
A
100
AcDbEntity
  8
HLL-SQ53_1_2
  6
Continuous
 62
     7
100
AcDbLine
 10
341.61458838565
 20
219.5980398475339
 30
0.0
 11
350.61458838565
 21
219.5980398475339
 31
0.0
  0
LINE
  5
128
330
A
100
AcDbEntity
  8
HLL-SQ53_1_2
  6
Continuous
 62
     7
100
AcDbLine
 10
341.61458838565
 20
220.5400398475339
 30
0.0
 11
350.61458838565
 21
220.5400398475339
 31
0.0
  0
LINE
  5
129
330
A
100
AcDbEntity
  8
HLL-SQ53_1_2
  6
Continuous
 62
     7
100
AcDbLine
 10
341.61458838565
 20
221.4820398475339
 30
0.0
 11
350.61458838565
 21
221.4820398475339
 31
0.0
  0
LINE
  5
12A
330
A
100
AcDbEntity
  8
HLL-SQ53_1_2
  6
Continuous
 62
     7
100
AcDbLine
 10
341.61458838565
 20
222.4240398475339
 30
0.0
 11
350.61458838565
 21
222.4240398475339
 31
0.0
  0
LINE
  5
12B
330
A
100
AcDbEntity
  8
HLL-SQ53_1_2
  6
Continuous
 62
     7
100
AcDbLine
 10
341.61458838565
 20
223.3660398475339
 30
0.0
 11
350.61458838565
 21
223.3660398475339
 31
0.0
  0
LINE
  5
12C
330
A
100
AcDbEntity
  8
HLL-SQ53_1_2
  6
Continuous
 62
     7
100
AcDbLine
 10
341.61458838565
 20
224.3080398475339
 30
0.0
 11
350.61458838565
 21
224.3080398475339
 31
0.0
  0
LINE
  5
12D
330
A
100
AcDbEntity
  8
HLL-SQ53_1_2
  6
Continuous
 62
     7
100
AcDbLine
 10
341.61458838565
 20
225.250039847534
 30
0.0
 11
350.61458838565
 21
225.250039847534
 31
0.0
  0
LINE
  5
12E
330
A
100
AcDbEntity
  8
HLL-SQ53_1_2
  6
Continuous
 62
     7
100
AcDbLine
 10
341.61458838565
 20
226.1920398475339
 30
0.0
 11
350.61458838565
 21
226.1920398475339
 31
0.0
  0
LINE
  5
12F
330
A
100
AcDbEntity
  8
HLL-SQ53_1_2
  6
Continuous
 62
     7
100
AcDbLine
 10
341.61458838565
 20
227.1340398475339
 30
0.0
 11
350.61458838565
 21
227.1340398475339
 31
0.0
  0
LINE
  5
130
330
A
100
AcDbEntity
  8
HLL-SQ53_1_2
  6
Continuous
 62
     7
100
AcDbLine
 10
341.61458838565
 20
228.076039847534
 30
0.0
 11
350.61458838565
 21
228.076039847534
 31
0.0
  0
LINE
  5
131
330
A
100
AcDbEntity
  8
HLL-SQ53_1_2
  6
Continuous
 62
     7
100
AcDbLine
 10
341.61458838565
 20
229.018039847534
 30
0.0
 11
350.61458838565
 21
229.018039847534
 31
0.0
  0
LINE
  5
132
330
A
100
AcDbEntity
  8
HLL-SQ53_1_2
  6
Continuous
 62
     7
100
AcDbLine
 10
341.1145883856499
 20
227.197539847534
 30
0.0
 11
337.1145883856499
 21
227.197539847534
 31
0.0
  0
LINE
  5
133
330
A
100
AcDbEntity
  8
HLL-SQ53_1_2
  6
Continuous
 62
     7
100
AcDbLine
 10
341.1145883856499
 20
183.7385398475339
 30
0.0
 11
337.1145883856499
 21
183.7385398475339
 31
0.0
  0
LINE
  5
134
330
A
100
AcDbEntity
  8
HLL-SQ53_1_2
  6
Continuous
 62
     7
100
AcDbLine
 10
162.0145883856499
 20
237.7180398475339
 30
0.0
 11
170.01458838565
 21
237.7180398475339
 31
0.0
  0
LINE
  5
135
330
A
100
AcDbEntity
  8
HLL-SQ53_1_2
  6
Continuous
 62
     7
100
AcDbLine
 10
170.01458838565
 20
173.2180398475339
 30
0.0
 11
170.01458838565
 21
239.4680398475339
 31
0.0
  0
LINE
  5
136
330
A
100
AcDbEntity
  8
HLL-SQ53_1_2
  6
Continuous
 62
     7
100
AcDbLine
 10
162.0145883856499
 20
173.2180398475339
 30
0.0
 11
161.01458838565
 21
174.2180398475339
 31
0.0
  0
LINE
  5
137
330
A
100
AcDbEntity
  8
HLL-SQ53_1_2
  6
Continuous
 62
     7
100
AcDbLine
 10
162.0145883856499
 20
173.2180398475339
 30
0.0
 11
170.01458838565
 21
173.2180398475339
 31
0.0
  0
LINE
  5
138
330
A
100
AcDbEntity
  8
HLL-SQ53_1_2
  6
Continuous
 62
     7
100
AcDbLine
 10
170.01458838565
 20
173.2180398475339
 30
0.0
 11
170.01458838565
 21
171.468039847534
 31
0.0
  0
LINE
  5
139
330
A
100
AcDbEntity
  8
HLL-SQ53_1_2
  6
Continuous
 62
     7
100
AcDbLine
 10
444.91458838565
 20
169.468039847534
 30
0.0
 11
419.79919338565
 21
169.468039847534
 31
0.0
  0
LINE
  5
13A
330
A
100
AcDbEntity
  8
HLL-SQ53_1_2
  6
Continuous
 62
     7
100
AcDbLine
 10
399.01458338565
 20
181.4680398475339
 30
0.0
 11
351.31458838565
 21
181.4680398475339
 31
0.0
  0
LINE
  5
13B
330
A
100
AcDbEntity
  8
HLL-SQ53_1_2
  6
Continuous
 62
     7
100
AcDbLine
 10
351.11458838565
 20
229.268039847534
 30
0.0
 11
351.11458838565
 21
181.6680398475339
 31
0.0
  0
LINE
  5
13C
330
A
100
AcDbEntity
  8
HLL-SQ53_1_2
  6
Continuous
 62
     7
100
AcDbLine
 10
444.91458838565
 20
241.4680398475339
 30
0.0
 11
419.79919338565
 21
241.4680398475339
 31
0.0
  0
LINE
  5
13D
330
A
100
AcDbEntity
  8
HLL-SQ53_1_2
  6
Continuous
 62
     7
100
AcDbLine
 10
399.01458338565
 20
229.4680398475339
 30
0.0
 11
351.31458838565
 21
229.4680398475339
 31
0.0
  0
LINE
  5
13E
330
A
100
AcDbEntity
  8
HLL-SQ53_1_2
  6
Continuous
 62
     7
100
AcDbLine
 10
351.31458838565
 20
229.4680398475339
 30
0.0
 11
351.11458838565
 21
229.268039847534
 31
0.0
  0
LINE
  5
13F
330
A
100
AcDbEntity
  8
HLL-SQ53_1_2
  6
Continuous
 62
     7
100
AcDbLine
 10
351.11458838565
 20
181.6680398475339
 30
0.0
 11
351.31458838565
 21
181.4680398475339
 31
0.0
  0
LINE
  5
140
330
A
100
AcDbEntity
  8
HLL-SQ53_1_2
  6
Continuous
 62
     7
100
AcDbLine
 10
444.91458838565
 20
241.4680398475339
 30
0.0
 11
445.11458838565
 21
241.268039847534
 31
0.0
  0
LINE
  5
141
330
A
100
AcDbEntity
  8
HLL-SQ53_1_2
  6
Continuous
 62
     7
100
AcDbLine
 10
445.11458838565
 20
169.668039847534
 30
0.0
 11
444.91458838565
 21
169.468039847534
 31
0.0
  0
LINE
  5
142
330
A
100
AcDbEntity
  8
HLL-SQ53_1_2
  6
Continuous
 62
     7
100
AcDbLine
 10
445.11458838565
 20
241.268039847534
 30
0.0
 11
445.11458838565
 21
169.668039847534
 31
0.0
  0
LINE
  5
143
330
A
100
AcDbEntity
  8
HLL-SQ53_1_2
  6
Continuous
 62
     7
100
AcDbLine
 10
419.79919338565
 20
241.4680398475339
 30
0.0
 11
399.01458338565
 21
229.4680398475339
 31
0.0
  0
LINE
  5
144
330
A
100
AcDbEntity
  8
HLL-SQ53_1_2
  6
Continuous
 62
     7
100
AcDbLine
 10
419.79919338565
 20
169.468039847534
 30
0.0
 11
399.01458338565
 21
181.4680398475339
 31
0.0
  0
LINE
  5
145
330
A
100
AcDbEntity
  8
HLL-SQ53_1_2
  6
Continuous
 62
     7
100
AcDbLine
 10
399.01458338565
 20
229.4680398475339
 30
0.0
 11
399.01458338565
 21
181.4680398475339
 31
0.0
  0
LINE
  5
146
330
A
100
AcDbEntity
  8
HLL-SQ53_1_2
  6
Continuous
 62
     7
100
AcDbLine
 10
419.79919338565
 20
241.4680398475339
 30
0.0
 11
419.79919338565
 21
169.468039847534
 31
0.0
  0
DIMENSION
  5
147
330
A
100
AcDbEntity
  8
HLL-SQ53_1_2
  6
Continuous
 62
     7
100
AcDbDimension
  2
*D2
 10
445.11458838565
 20
291.468039847534
 30
0.0
 11
294.16458838565
 21
293.468039847534
 31
0.0
 71
     5
 42
-1.0
  3
MARK2_DIMSTYLE
100
AcDbAlignedDimension
 13
143.21458838565
 23
226.468039847534
 33
0.0
 14
445.11458838565
 24
241.268039847534
 34
0.0
100
AcDbRotatedDimension
1001
ACAD
1000
DSTYLE
1002
{
1070
    41
1040
4.0
1002
}
  0
DIMENSION
  5
148
330
A
100
AcDbEntity
  8
HLL-SQ53_1_2
  6
Continuous
 62
     7
100
AcDbDimension
  2
*D3
 10
445.11458838565
 20
276.468039847534
 30
0.0
 11
307.0645883856499
 21
278.468039847534
 31
0.0
 71
     5
 42
-1.0
  3
MARK2_DIMSTYLE
100
AcDbAlignedDimension
 13
169.01458838565
 23
237.218039847534
 33
0.0
 14
445.11458838565
 24
241.268039847534
 34
0.0
100
AcDbRotatedDimension
1001
ACAD
1000
DSTYLE
1002
{
1070
    41
1040
4.0
1002
}
  0
DIMENSION
  5
149
330
A
100
AcDbEntity
  8
HLL-SQ53_1_2
  6
Continuous
 62
     7
100
AcDbDimension
  2
*D4
 10
241.0145883856499
 20
261.4680398475339
 30
0.0
 11
205.0145883856499
 21
263.4680398475339
 31
0.0
 71
     5
 42
-1.0
  3
MARK2_DIMSTYLE
100
AcDbAlignedDimension
 13
169.01458838565
 23
239.218039847534
 33
0.0
 14
241.0145883856499
 24
234.5180358475339
 34
0.0
100
AcDbRotatedDimension
1001
ACAD
1000
DSTYLE
1002
{
1070
    41
1040
4.0
1002
}
  0
TEXT
  5
14A
330
A
100
AcDbEntity
  8
HLL-SQ53_1_2
 62
     7
100
AcDbText
 10
322.016837869822
 20
100.4798390532539
 30
0.0
 40
6.0
  1
HLL-SQ5S
 41
1.033333333332999
  7
ＭＳ_ゴシック
100
AcDbText
  0
TEXT
  5
14B
330
A
100
AcDbEntity
  8
HLL-SQ53_1_2
 62
     7
100
AcDbText
 10
322.016837869822
 20
90.479839053254
 30
0.0
 40
6.0
  1
HLL-SQ5S-35
 41
1.033333333332999
  7
ＭＳ_ゴシック
100
AcDbText
  0
TEXT
  5
14C
330
A
100
AcDbEntity
  8
HLL-SQ53_1_2
 62
     7
100
AcDbText
 10
322.016837869822
 20
80.479839053254
 30
0.0
 40
6.0
  1
HLL-SQ5S-120
 41
1.033333333332999
  7
ＭＳ_ゴシック
100
AcDbText
  0
TEXT
  5
14D
330
A
100
AcDbEntity
  8
HLL-SQ53_1_2
 62
     7
100
AcDbText
 10
322.016837869822
 20
70.47983905325399
 30
0.0
 40
6.0
  1
HLL-SQ5S-250
 41
1.033333333332999
  7
ＭＳ_ゴシック
100
AcDbText
  0
TEXT
  5
14E
330
A
100
AcDbEntity
  8
HLL-SQ53_1_2
 62
     7
100
AcDbText
 10
382.016837869822
 20
100.4798390532539
 30
0.0
 40
6.0
  1
(301.9)
 41
1.033333333332999
  7
ＭＳ_ゴシック
100
AcDbText
  0
TEXT
  5
14F
330
A
100
AcDbEntity
  8
HLL-SQ53_1_2
 62
     7
100
AcDbText
 10
382.016837869822
 20
90.479839053254
 30
0.0
 40
6.0
  1
(322.3)
 41
1.033333333332999
  7
ＭＳ_ゴシック
100
AcDbText
  0
TEXT
  5
150
330
A
100
AcDbEntity
  8
HLL-SQ53_1_2
 62
     7
100
AcDbText
 10
382.016837869822
 20
80.479839053254
 30
0.0
 40
6.0
  1
(305.1)
 41
1.033333333332999
  7
ＭＳ_ゴシック
100
AcDbText
  0
TEXT
  5
151
330
A
100
AcDbEntity
  8
HLL-SQ53_1_2
 62
     7
100
AcDbText
 10
382.016837869822
 20
70.47983905325399
 30
0.0
 40
6.0
  1
(302.4)
 41
1.033333333332999
  7
ＭＳ_ゴシック
100
AcDbText
  0
TEXT
  5
152
330
A
100
AcDbEntity
  8
HLL-SQ53_1_2
 62
     7
100
AcDbText
 10
417.0168378698219
 20
100.4798390532539
 30
0.0
 40
6.0
  1
(276.1)
 41
1.033333333332999
  7
ＭＳ_ゴシック
100
AcDbText
  0
TEXT
  5
153
330
A
100
AcDbEntity
  8
HLL-SQ53_1_2
 62
     7
100
AcDbText
 10
417.0168378698219
 20
90.479839053254
 30
0.0
 40
6.0
  1
(296.5)
 41
1.033333333332999
  7
ＭＳ_ゴシック
100
AcDbText
  0
TEXT
  5
154
330
A
100
AcDbEntity
  8
HLL-SQ53_1_2
 62
     7
100
AcDbText
 10
417.0168378698219
 20
80.479839053254
 30
0.0
 40
6.0
  1
(279.3)
 41
1.033333333332999
  7
ＭＳ_ゴシック
100
AcDbText
  0
TEXT
  5
155
330
A
100
AcDbEntity
  8
HLL-SQ53_1_2
 62
     7
100
AcDbText
 10
417.0168378698219
 20
70.47983905325399
 30
0.0
 40
6.0
  1
(276.6)
 41
1.033333333332999
  7
ＭＳ_ゴシック
100
AcDbText
  0
TEXT
  5
156
330
A
100
AcDbEntity
  8
HLL-SQ53_1_2
 62
     7
100
AcDbText
 10
392.0168378698219
 20
110.479839053254
 30
0.0
 40
6.0
  1
A
 41
1.033333333332999
  7
ＭＳ_ゴシック
100
AcDbText
  0
TEXT
  5
157
330
A
100
AcDbEntity
  8
HLL-SQ53_1_2
 62
     7
100
AcDbText
 10
427.016837869822
 20
110.479839053254
 30
0.0
 40
6.0
  1
B
 41
1.033333333332999
  7
ＭＳ_ゴシック
100
AcDbText
  0
LEADER
  5
158
330
A
100
AcDbEntity
  8
HLL-SQ53_1_2
  6
Continuous
 62
     7
100
AcDbLeader
  3
MARK2_DIMSTYLE
 73
     0
 74
     0
 40
8.0
 41
36.0
 76
     3
 10
375.16458588565
 20
229.4680398475339
 30
0.0
 10
345.7197221569789
 20
246.4680398475339
 30
0.0
 10
337.106312316796
 20
246.4680398475339
 30
0.0
340
159
211
-1.0
221
0.0000000000000001
231
0.0
  0
MTEXT
  5
159
330
A
100
AcDbEntity
  8
HLL-SQ53_1_2
 62
     7
100
AcDbMText
 10
306.519482356749
 20
248.4680398475339
 30
0.0
 40
6.0
 41
37.79999999999999
 71
     7
 72
     5
  1
\W1.034;Lens Unit
  7
ＭＳ_ゴシック
 73
     1
 44
1.0
  0
LEADER
  5
15A
330
A
100
AcDbEntity
  8
HLL-SQ53_1_2
  6
Continuous
 62
     7
100
AcDbLeader
  3
MARK2_DIMSTYLE
 73
     0
 74
     0
 40
8.0
 41
64.0
 76
     3
 10
346.11458838565
 20
181.4680398475339
 30
0.0
 10
373.11458838565
 20
154.468039847534
 30
0.0
 10
382.843220108228
 20
154.468039847534
 30
0.0
340
15B
  0
MTEXT
  5
15B
330
A
100
AcDbEntity
  8
HLL-SQ53_1_2
 62
     7
100
AcDbMText
 10
441.157315490821
 20
156.468039847534
 30
0.0
 40
6.0
 41
67.2
 71
     9
 72
     5
  1
\W1.034;Adjustment Screw
  7
ＭＳ_ゴシック
 73
     1
 44
1.0
  0
LEADER
  5
15C
330
A
100
AcDbEntity
  8
HLL-SQ53_1_2
  6
Continuous
 62
     7
100
AcDbLeader
  3
MARK2_DIMSTYLE
 73
     0
 74
     0
 40
8.0
 41
84.0
 76
     3
 10
222.0145883856499
 20
176.4180438475339
 30
0.0
 10
243.9645923856499
 20
154.468039847534
 30
0.0
 10
250.8308991452989
 20
154.468039847534
 30
0.0
340
15D
  0
MTEXT
  5
15D
330
A
100
AcDbEntity
  8
HLL-SQ53_1_2
 62
     7
100
AcDbMText
 10
331.419356374855
 20
156.468039847534
 30
0.0
 40
6.0
 41
88.2
 71
     9
 72
     5
  1
\W1.034;Body Attachment Screw
  7
ＭＳ_ゴシック
 73
     1
 44
1.0
  0
LEADER
  5
15E
330
A
100
AcDbEntity
  8
HLL-SQ53_1_2
  6
Continuous
 62
     7
100
AcDbLeader
  3
MARK2_DIMSTYLE
 73
     0
 74
     0
 40
8.0
 41
48.0
 76
     3
 10
180.0145883856499
 20
171.468039847534
 30
0.0
 10
212.0145883856499
 20
139.468039847534
 30
0.0
 10
222.0115865068529
 20
139.468039847534
 30
0.0
340
15F
  0
MTEXT
  5
15F
330
A
100
AcDbEntity
  8
HLL-SQ53_1_2
 62
     7
100
AcDbMText
 10
263.757091427704
 20
141.468039847534
 30
0.0
 40
6.0
 41
50.4
 71
     9
 72
     5
  1
\W1.034;Lens Adapter
  7
ＭＳ_ゴシック
 73
     1
 44
1.0
  0
LWPOLYLINE
  5
160
330
A
100
AcDbEntity
  8
HLL-SQ53_1_2
  6
Continuous
 62
     7
100
AcDbPolyline
 90
        2
 70
     0
 43
0.0
 10
169.01458838565
 20
237.7180398475339
 10
169.01458838565
 20
109.4680398475339
  0
LWPOLYLINE
  5
164
330
A
100
AcDbEntity
  8
HLL-SQ53_1_2
  6
Continuous
 62
     7
100
AcDbPolyline
 90
        2
 70
     0
 43
0.0
 10
169.01458838565
 20
114.4680398475339
 10
261.204578751727
 20
114.4680398475339
  0
LWPOLYLINE
  5
168
330
A
100
AcDbEntity
  8
HLL-SQ53_1_2
  6
Continuous
 62
     7
100
AcDbPolyline
 90
        3
 70
     0
 43
0.0
 10
173.0145883856499
 20
115.4680398475339
 10
169.01458838565
 20
114.4680398475339
 10
173.0145883856499
 20
113.4680398475339
  0
TEXT
  5
16D
330
A
100
AcDbEntity
  8
HLL-SQ53_1_2
 62
     7
100
AcDbText
 10
174.3322701894222
 20
116.775515821795
 30
0.0
 40
6.0
  1
External Light Source
 41
1.033333333332999
  7
ＭＳ_ゴシック
 72
     1
 11
216.630747346769
 21
116.775515821795
 31
0.0
100
AcDbText
  0
TEXT
  5
16E
330
A
100
AcDbEntity
  8
HLL-SQ53_1_2
 62
     7
100
AcDbText
 10
174.2271996079588
 20
126.775515821795
 30
0.0
 40
6.0
  1
光源外部
 41
1.033333333332999
  7
ＭＳ_ゴシック
 72
     1
 11
190.34090519171
 21
126.775515821795
 31
0.0
100
AcDbText
  0
DIMENSION
  5
16F
330
A
100
AcDbEntity
  8
HLL-SQ53_1_2
  6
Continuous
 62
     7
100
AcDbDimension
  2
*D5
 10
470.11458838565
 20
241.4680398475339
 30
0.0
 11
468.11458838565
 21
205.468039847534
 31
0.0
 71
     5
 42
-1.0
  3
MARK2_DIMSTYLE
100
AcDbAlignedDimension
 13
444.91458838565
 23
169.468039847534
 33
0.0
 14
444.91458838565
 24
241.4680398475339
 34
0.0
 50
90.0
100
AcDbRotatedDimension
1001
ACAD
1000
DSTYLE
1002
{
1070
    41
1040
4.0
1002
}
  0
DIMENSION
  5
170
330
A
100
AcDbEntity
  8
HLL-SQ53_1_2
  6
Continuous
 62
     7
100
AcDbDimension
  2
*D6
 10
208.0145883856499
 20
241.4680398475339
 30
0.0
 11
206.0145883856499
 21
205.468039847534
 31
0.0
 71
     5
 42
-1.0
  3
MARK2_DIMSTYLE
100
AcDbAlignedDimension
 13
192.0145883856499
 23
169.468039847534
 33
0.0
 14
192.0145883856499
 24
241.4680398475339
 34
0.0
 50
90.0
100
AcDbRotatedDimension
1001
ACAD
1000
DSTYLE
1002
{
1070
    41
1040
4.0
1002
}
  0
DIMENSION
  5
171
330
A
100
AcDbEntity
  8
HLL-SQ53_1_2
  6
Continuous
 62
     7
100
AcDbDimension
  2
*D7
 10
316.1145883856499
 20
229.4680398475339
 30
0.0
 11
314.1145883856499
 21
205.468039847534
 31
0.0
 71
     5
 42
-1.0
  3
MARK2_DIMSTYLE
100
AcDbAlignedDimension
 13
335.91458838565
 23
181.4680398475339
 33
0.0
 14
335.91458838565
 24
229.4680398475339
 34
0.0
 50
90.0
100
AcDbRotatedDimension
1001
ACAD
1000
DSTYLE
1002
{
1070
    41
1040
4.0
1002
}
  0
ENDSEC
  0
SECTION
  2
OBJECTS
  0
DICTIONARY
  5
19
330
0
100
AcDbDictionary
281
     1
  3
ACAD_GROUP
350
1A
  3
ACAD_LAYOUT
350
179
  3
ACAD_MLINESTYLE
350
1B
  3
ACAD_PLOTSETTINGS
350
17A
  3
ACAD_PLOTSTYLENAME
350
177
  0
DICTIONARY
  5
1A
102
{ACAD_REACTORS
330
19
102
}
330
19
100
AcDbDictionary
281
     1
  0
DICTIONARY
  5
179
102
{ACAD_REACTORS
330
19
102
}
330
19
100
AcDbDictionary
281
     1
  3
Model
350
17B
  3
ﾚｲｱｳﾄ1
350
17C
  0
DICTIONARY
  5
1B
102
{ACAD_REACTORS
330
19
102
}
330
19
100
AcDbDictionary
281
     1
  3
STANDARD
350
1C
  0
DICTIONARY
  5
17A
102
{ACAD_REACTORS
330
19
102
}
330
19
100
AcDbDictionary
281
     1
  0
ACDBDICTIONARYWDFLT
  5
177
102
{ACAD_REACTORS
330
19
102
}
330
19
100
AcDbDictionary
281
     1
  3
Normal
350
178
100
AcDbDictionaryWithDefault
340
178
  0
LAYOUT
  5
17B
102
{ACAD_REACTORS
330
179
102
}
330
179
100
AcDbPlotSettings
  1

  2
\\HCTD010A\RICOH imagio MP C4500 RPCS
  4

  6

 40
0.0
 41
0.0
 42
0.0
 43
0.0
 44
0.0
 45
0.0
 46
0.0
 47
0.0
 48
0.0
 49
0.0
140
0.0
141
0.0
142
1.0
143
1.0
 70
  1712
 72
     0
 73
     0
 74
     0
  7

 75
     0
147
1.0
148
0.0
149
0.0
100
AcDbLayout
  1
Model
 70
     1
 71
     0
 10
0.0
 20
0.0
 11
12.0
 21
9.0
 12
0.0
 22
0.0
 32
0.0
 14
0.0
 24
0.0
 34
0.0
 15
0.0
 25
0.0
 35
0.0
146
0.0
 13
0.0
 23
0.0
 33
0.0
 16
1.0
 26
0.0
 36
0.0
 17
0.0
 27
1.0
 37
0.0
 76
     0
330
A
  0
LAYOUT
  5
17C
102
{ACAD_REACTORS
330
179
102
}
330
179
100
AcDbPlotSettings
  1

  2
\\HCTD010A\RICOH imagio MP C4500 RPCS
  4

  6

 40
0.0
 41
0.0
 42
0.0
 43
0.0
 44
0.0
 45
0.0
 46
0.0
 47
0.0
 48
0.0
 49
0.0
140
0.0
141
0.0
142
1.0
143
1.0
 70
   688
 72
     0
 73
     0
 74
     5
  7

 75
    16
147
1.0
148
0.0
149
0.0
100
AcDbLayout
  1
ﾚｲｱｳﾄ1
 70
     0
 71
     1
 10
0.0
 20
0.0
 11
12.0
 21
9.0
 12
0.0
 22
0.0
 32
0.0
 14
1.000000000000000E+20
 24
1.000000000000000E+20
 34
1.000000000000000E+20
 15
-1.000000000000000E+20
 25
-1.000000000000000E+20
 35
-1.000000000000000E+20
146
0.0
 13
0.0
 23
0.0
 33
0.0
 16
1.0
 26
0.0
 36
0.0
 17
0.0
 27
1.0
 37
0.0
 76
     0
330
B
  0
MLINESTYLE
  5
1C
102
{ACAD_REACTORS
330
1B
102
}
330
1B
100
AcDbMlineStyle
  2
STANDARD
 70
     0
  3

 62
     0
 51
90.0
 52
90.0
 71
     2
 49
0.5
 62
   256
  6
BYLAYER
 49
-0.5
 62
   256
  6
BYLAYER
  0
ACDBPLACEHOLDER
  5
178
102
{ACAD_REACTORS
330
177
102
}
330
177
  0
ENDSEC
  0
EOF
