  0
SECTION
  2
HEADER
  9
$ACADVER
  1
AC1015
  9
$ACADMAINTVER
 70
    10
  9
$DWGCODEPAGE
  3
ANSI_932
  9
$INSBASE
 10
0.0
 20
0.0
 30
0.0
  9
$EXTMIN
 10
42.54835896944
 20
173.723137342811
 30
0.0
  9
$EXTMAX
 10
437.919313177944
 20
362.0995606829723
 30
0.0
  9
$LIMMIN
 10
0.0
 20
0.0
  9
$LIMMAX
 10
297.0
 20
210.0
  9
$ORTHOMODE
 70
     0
  9
$REGENMODE
 70
     1
  9
$FILLMODE
 70
     1
  9
$QTEXTMODE
 70
     0
  9
$MIRRTEXT
 70
     1
  9
$LTSCALE
 40
1.0
  9
$ATTMODE
 70
     1
  9
$TEXTSIZE
 40
0.0
  9
$TRACEWID
 40
0.05
  9
$TEXTSTYLE
  7
STANDARD
  9
$CLAYER
  8
HLL-SQ53_1_2
  9
$CELTYPE
  6
CONTINUOUS
  9
$CECOLOR
 62
   256
  9
$CELTSCALE
 40
1.0
  9
$DISPSILH
 70
     0
  9
$DIMSCALE
 40
1.0
  9
$DIMASZ
 40
0.18
  9
$DIMEXO
 40
0.0625
  9
$DIMDLI
 40
0.38
  9
$DIMRND
 40
0.0
  9
$DIMDLE
 40
0.0
  9
$DIMEXE
 40
0.18
  9
$DIMTP
 40
0.0
  9
$DIMTM
 40
0.0
  9
$DIMTXT
 40
0.18
  9
$DIMCEN
 40
0.09
  9
$DIMTSZ
 40
0.0
  9
$DIMTOL
 70
     0
  9
$DIMLIM
 70
     0
  9
$DIMTIH
 70
     1
  9
$DIMTOH
 70
     1
  9
$DIMSE1
 70
     0
  9
$DIMSE2
 70
     0
  9
$DIMTAD
 70
     0
  9
$DIMZIN
 70
     0
  9
$DIMBLK
  1

  9
$DIMASO
 70
     1
  9
$DIMSHO
 70
     1
  9
$DIMPOST
  1

  9
$DIMAPOST
  1

  9
$DIMALT
 70
     0
  9
$DIMALTD
 70
     2
  9
$DIMALTF
 40
25.4
  9
$DIMLFAC
 40
1.0
  9
$DIMTOFL
 70
     0
  9
$DIMTVP
 40
0.0
  9
$DIMTIX
 70
     0
  9
$DIMSOXD
 70
     0
  9
$DIMSAH
 70
     0
  9
$DIMBLK1
  1

  9
$DIMBLK2
  1

  9
$DIMSTYLE
  2
STANDARD
  9
$DIMCLRD
 70
     0
  9
$DIMCLRE
 70
     0
  9
$DIMCLRT
 70
     0
  9
$DIMTFAC
 40
1.0
  9
$DIMGAP
 40
0.09
  9
$DIMJUST
 70
     0
  9
$DIMSD1
 70
     0
  9
$DIMSD2
 70
     0
  9
$DIMTOLJ
 70
     1
  9
$DIMTZIN
 70
     0
  9
$DIMALTZ
 70
     0
  9
$DIMALTTZ
 70
     0
  9
$DIMUPT
 70
     0
  9
$DIMDEC
 70
     4
  9
$DIMTDEC
 70
     4
  9
$DIMALTU
 70
     2
  9
$DIMALTTD
 70
     2
  9
$DIMTXSTY
  7
STANDARD
  9
$DIMAUNIT
 70
     0
  9
$DIMADEC
 70
     0
  9
$DIMALTRND
 40
0.0
  9
$DIMAZIN
 70
     0
  9
$DIMDSEP
 70
    46
  9
$DIMATFIT
 70
     3
  9
$DIMFRAC
 70
     0
  9
$DIMLDRBLK
  1

  9
$DIMLUNIT
 70
     2
  9
$DIMLWD
 70
    -2
  9
$DIMLWE
 70
    -2
  9
$DIMTMOVE
 70
     0
  9
$LUNITS
 70
     2
  9
$LUPREC
 70
     4
  9
$SKETCHINC
 40
0.1
  9
$FILLETRAD
 40
0.0
  9
$AUNITS
 70
     0
  9
$AUPREC
 70
     0
  9
$MENU
  1
acad
  9
$ELEVATION
 40
0.0
  9
$PELEVATION
 40
0.0
  9
$THICKNESS
 40
0.0
  9
$LIMCHECK
 70
     0
  9
$CHAMFERA
 40
0.0
  9
$CHAMFERB
 40
0.0
  9
$CHAMFERC
 40
0.0
  9
$CHAMFERD
 40
0.0
  9
$SKPOLY
 70
     0
  9
$TDCREATE
 40
2311945.702129432
  9
$TDUCREATE
 40
2311945.327129433
  9
$TDUPDATE
 40
2456666.485801088
  9
$TDUUPDATE
 40
2456666.110801088
  9
$TDINDWG
 40
0.0002387153
  9
$TDUSRTIMER
 40
0.0002387153
  9
$USRTIMER
 70
     1
  9
$ANGBASE
 50
0.0
  9
$ANGDIR
 70
     0
  9
$PDMODE
 70
     0
  9
$PDSIZE
 40
0.0
  9
$PLINEWID
 40
0.0
  9
$SPLFRAME
 70
     0
  9
$SPLINETYPE
 70
     6
  9
$SPLINESEGS
 70
     8
  9
$HANDSEED
  5
143
  9
$SURFTAB1
 70
     6
  9
$SURFTAB2
 70
     6
  9
$SURFTYPE
 70
     6
  9
$SURFU
 70
     6
  9
$SURFV
 70
     6
  9
$UCSBASE
  2

  9
$UCSNAME
  2

  9
$UCSORG
 10
0.0
 20
0.0
 30
0.0
  9
$UCSXDIR
 10
1.0
 20
0.0
 30
0.0
  9
$UCSYDIR
 10
0.0
 20
1.0
 30
0.0
  9
$UCSORTHOREF
  2

  9
$UCSORTHOVIEW
 70
     0
  9
$UCSORGTOP
 10
0.0
 20
0.0
 30
0.0
  9
$UCSORGBOTTOM
 10
0.0
 20
0.0
 30
0.0
  9
$UCSORGLEFT
 10
0.0
 20
0.0
 30
0.0
  9
$UCSORGRIGHT
 10
0.0
 20
0.0
 30
0.0
  9
$UCSORGFRONT
 10
0.0
 20
0.0
 30
0.0
  9
$UCSORGBACK
 10
0.0
 20
0.0
 30
0.0
  9
$PUCSBASE
  2

  9
$PUCSNAME
  2

  9
$PUCSORG
 10
0.0
 20
0.0
 30
0.0
  9
$PUCSXDIR
 10
1.0
 20
0.0
 30
0.0
  9
$PUCSYDIR
 10
0.0
 20
1.0
 30
0.0
  9
$PUCSORTHOREF
  2

  9
$PUCSORTHOVIEW
 70
     0
  9
$PUCSORGTOP
 10
0.0
 20
0.0
 30
0.0
  9
$PUCSORGBOTTOM
 10
0.0
 20
0.0
 30
0.0
  9
$PUCSORGLEFT
 10
0.0
 20
0.0
 30
0.0
  9
$PUCSORGRIGHT
 10
0.0
 20
0.0
 30
0.0
  9
$PUCSORGFRONT
 10
0.0
 20
0.0
 30
0.0
  9
$PUCSORGBACK
 10
0.0
 20
0.0
 30
0.0
  9
$USERI1
 70
     0
  9
$USERI2
 70
     0
  9
$USERI3
 70
     0
  9
$USERI4
 70
     0
  9
$USERI5
 70
     0
  9
$USERR1
 40
0.0
  9
$USERR2
 40
0.0
  9
$USERR3
 40
0.0
  9
$USERR4
 40
0.0
  9
$USERR5
 40
0.0
  9
$WORLDVIEW
 70
     1
  9
$SHADEDGE
 70
     3
  9
$SHADEDIF
 70
    70
  9
$TILEMODE
 70
     1
  9
$MAXACTVP
 70
    16
  9
$PINSBASE
 10
0.0
 20
0.0
 30
0.0
  9
$PLIMCHECK
 70
     0
  9
$PEXTMIN
 10
1.000000000000000E+20
 20
1.000000000000000E+20
 30
1.000000000000000E+20
  9
$PEXTMAX
 10
-1.000000000000000E+20
 20
-1.000000000000000E+20
 30
-1.000000000000000E+20
  9
$PLIMMIN
 10
0.0
 20
0.0
  9
$PLIMMAX
 10
12.0
 20
9.0
  9
$UNITMODE
 70
     0
  9
$VISRETAIN
 70
     0
  9
$PLINEGEN
 70
     1
  9
$PSLTSCALE
 70
     0
  9
$TREEDEPTH
 70
  3020
  9
$CMLSTYLE
  2
STANDARD
  9
$CMLJUST
 70
     0
  9
$CMLSCALE
 40
1.0
  9
$PROXYGRAPHICS
 70
     1
  9
$MEASUREMENT
 70
     0
  9
$CELWEIGHT
370
    -1
  9
$ENDCAPS
280
     0
  9
$JOINSTYLE
280
     0
  9
$LWDISPLAY
290
     0
  9
$INSUNITS
 70
     0
  9
$HYPERLINKBASE
  1

  9
$STYLESHEET
  1

  9
$XEDIT
290
     1
  9
$CEPSNTYPE
380
     0
  9
$PSTYLEMODE
290
     1
  9
$FINGERPRINTGUID
  2
{335DF2FD-F2CC-4752-9939-18B2B8D4F222}
  9
$VERSIONGUID
  2
{1110122B-01A6-40E9-8E40-1E93B09C9566}
  9
$EXTNAMES
290
     1
  9
$PSVPSCALE
 40
0.0
  9
$OLESTARTUP
290
     0
  0
ENDSEC
  0
SECTION
  2
CLASSES
  0
CLASS
  1
LWPOLYLINE
  2
AcDbPolyline
  3
AutoCAD 2000
 90
    32768
280
     0
281
     1
  0
CLASS
  1
IMAGE
  2
AcDbRasterImage
  3
ISM
 90
    32895
280
     0
281
     1
  0
CLASS
  1
OLE2FRAME
  2
AcDbOle2Frame
  3
AutoCAD 2000
 90
    32768
280
     0
281
     1
  0
CLASS
  1
HATCH
  2
AcDbHatch
  3
AutoCAD 2000
 90
    32768
280
     0
281
     1
  0
CLASS
  1
DICTIONARYVAR
  2
AcDbDictionaryVar
  3
AutoCAD 2000
 90
    32768
280
     0
281
     0
  0
CLASS
  1
RASTERVARIABLES
  2
AcDbRasterVariables
  3
ISM
 90
    32768
280
     0
281
     0
  0
CLASS
  1
IMAGEDEF
  2
AcDbRasterImageDef
  3
ISM
 90
    32768
280
     0
281
     0
  0
CLASS
  1
IMAGEDEF_REACTOR
  2
AcDbRasterImageDefReactor
  3
ISM
 90
    32769
280
     0
281
     0
  0
CLASS
  1
IDBUFFER
  2
AcDbIdBuffer
  3
AutoCAD 2000
 90
    32768
280
     0
281
     0
  0
CLASS
  1
SPATIAL_FILTER
  2
AcDbSpatialFilter
  3
AutoCAD 2000
 90
    32768
280
     0
281
     0
  0
CLASS
  1
XRECORD
  2
AcDbXrecord
  3
AutoCAD 2000
 90
    32768
280
     0
281
     0
  0
CLASS
  1
SORTENTSTABLE
  2
AcDbSortentsTable
  3
AutoCAD 2000
 90
    32768
280
     0
281
     0
  0
CLASS
  1
LAYER_INDEX
  2
AcDbLayerIndex
  3
AutoCAD 2000
 90
    32768
280
     0
281
     0
  0
CLASS
  1
SPATIAL_INDEX
  2
AcDbSpatialIndex
  3
AutoCAD 2000
 90
    32768
280
     0
281
     0
  0
CLASS
  1
OBJECT_PTR
  2
CAseDLPNTableRecord
  3
"ASE-LPNTableRecord"
 90
    32769
280
     0
281
     0
  0
CLASS
  1
LAYOUT
  2
AcDbLayout
  3
AutoCAD 2000
 90
        0
280
     0
281
     0
  0
CLASS
  1
PLOTSETTINGS
  2
AcDbPlotSettings
  3
AutoCAD 2000
 90
    32768
280
     0
281
     0
  0
CLASS
  1
ACDBDICTIONARYWDFLT
  2
AcDbDictionaryWithDefault
  3
AutoCAD 2000
 90
        0
280
     0
281
     0
  0
CLASS
  1
ACDBPLACEHOLDER
  2
AcDbPlaceHolder
  3
AutoCAD 2000
 90
        0
280
     0
281
     0
  0
CLASS
  1
VBA_PROJECT
  2
AcDbVbaProject
  3
"acadvba"
 90
    32768
280
     0
281
     0
  0
CLASS
  1
WIPEOUT
  2
AcDbWipeout
  3
WipeOut|AutoCAD Express Tool|expresstools@autodesk.com
 90
    32895
280
     0
281
     1
  0
CLASS
  1
WIPEOUTVARIABLES
  2
AcDbWipeoutVariables
  3
WipeOut|AutoCAD Express Tool|expresstools@autodesk.com
 90
    32768
280
     0
281
     0
  0
CLASS
  1
RTEXT
  2
RText
  3
RText|AutoCAD Express Tool|expresstools@autodesk.com
 90
    32768
280
     0
281
     1
  0
CLASS
  1
ARCALIGNEDTEXT
  2
AcDbArcAlignedText
  3
ATEXT|AutoCAD Express Tool|expresstools@autodesk.com
 90
    32768
280
     0
281
     1
  0
ENDSEC
  0
SECTION
  2
TABLES
  0
TABLE
  2
VPORT
  5
7
330
0
100
AcDbSymbolTable
 70
     2
  0
VPORT
  5
142
330
7
100
AcDbSymbolTableRecord
100
AcDbViewportTableRecord
  2
*Active
 70
     0
 10
0.0
 20
0.0
 11
1.0
 21
1.0
 12
142.5531918634927
 22
209.4254414429197
 13
0.0
 23
0.0
 14
1.0
 24
1.0
 15
0.0
 25
0.0
 16
0.0
 26
0.0
 36
1.0
 17
0.0
 27
0.0
 37
0.0
 40
652.2640851813057
 41
2.119005328596802
 42
50.0
 43
0.0
 44
0.0
 50
0.0
 51
0.0
 71
     0
 72
   100
 73
     1
 74
     1
 75
     0
 76
     0
 77
     0
 78
     0
281
     0
 65
     1
110
0.0
120
0.0
130
0.0
111
1.0
121
0.0
131
0.0
112
0.0
122
1.0
132
0.0
 79
     0
146
0.0
  0
ENDTAB
  0
TABLE
  2
LTYPE
  5
4
330
0
100
AcDbSymbolTable
 70
     6
  0
LTYPE
  5
11
330
4
100
AcDbSymbolTableRecord
100
AcDbLinetypeTableRecord
  2
BYBLOCK
 70
     0
  3

 72
    65
 73
     0
 40
0.0
  0
LTYPE
  5
12
330
4
100
AcDbSymbolTableRecord
100
AcDbLinetypeTableRecord
  2
BYLAYER
 70
     0
  3

 72
    65
 73
     0
 40
0.0
  0
LTYPE
  5
13
330
4
100
AcDbSymbolTableRecord
100
AcDbLinetypeTableRecord
  2
CONTINUOUS
 70
     0
  3
Solid line
 72
    65
 73
     0
 40
0.0
  0
LTYPE
  5
1D
330
4
100
AcDbSymbolTableRecord
100
AcDbLinetypeTableRecord
  2
DASHED
 70
     0
  3
__ __ __ __ __ __ __ __ __ __ __ __ __ __ __
 72
    65
 73
     2
 40
4.0
 49
3.0
 74
     0
 49
-1.0
 74
     0
  0
LTYPE
  5
1E
330
4
100
AcDbSymbolTableRecord
100
AcDbLinetypeTableRecord
  2
HIDDEN
 70
     0
  3
_ _ _ _ _ _ _ _ _ _ _ _ _ _ _ _ _ _ _ _ _ _ _
 72
    65
 73
     2
 40
2.25
 49
0.25
 74
     0
 49
-2.0
 74
     0
  0
LTYPE
  5
1F
330
4
100
AcDbSymbolTableRecord
100
AcDbLinetypeTableRecord
  2
DOT
 70
     0
  3
...............................................
 72
    65
 73
     2
 40
4.0
 49
1.0
 74
     0
 49
-3.0
 74
     0
  0
LTYPE
  5
20
330
4
100
AcDbSymbolTableRecord
100
AcDbLinetypeTableRecord
  2
DASHDOT
 70
     0
  3
__ . __ . __ . __ . __ . __ . __ . __ . __ . __
 72
    65
 73
     4
 40
7.5
 49
6.0
 74
     0
 49
-0.5
 74
     0
 49
0.5
 74
     0
 49
-0.5
 74
     0
  0
LTYPE
  5
21
330
4
100
AcDbSymbolTableRecord
100
AcDbLinetypeTableRecord
  2
DIVIDE
 70
     0
  3
__ . . __ . . __ . . __ . . __ . . __ . . __
 72
    65
 73
     6
 40
8.5
 49
6.0
 74
     0
 49
-0.5
 74
     0
 49
0.5
 74
     0
 49
-0.5
 74
     0
 49
0.5
 74
     0
 49
-0.5
 74
     0
  0
ENDTAB
  0
TABLE
  2
LAYER
  5
2
330
0
100
AcDbSymbolTable
 70
     3
  0
LAYER
  5
14
330
2
100
AcDbSymbolTableRecord
100
AcDbLayerTableRecord
  2
0
 70
     0
 62
     7
  6
CONTINUOUS
370
    -3
390
139
  0
LAYER
  5
22
330
2
100
AcDbSymbolTableRecord
100
AcDbLayerTableRecord
  2
HLL-SQ53_1_2
 70
     0
 62
     7
  6
CONTINUOUS
370
    -3
390
139
  0
LAYER
  5
23
330
2
100
AcDbSymbolTableRecord
100
AcDbLayerTableRecord
  2
未使用
 70
     0
 62
     7
  6
CONTINUOUS
370
    -3
390
139
  0
ENDTAB
  0
TABLE
  2
STYLE
  5
3
330
0
100
AcDbSymbolTable
 70
     3
  0
STYLE
  5
17
330
3
100
AcDbSymbolTableRecord
100
AcDbTextStyleTableRecord
  2
STANDARD
 70
     0
 40
0.0
 41
1.0
 50
0.0
 71
     0
 42
0.0
  3
txt
  4

  0
STYLE
  5
24
330
3
100
AcDbSymbolTableRecord
100
AcDbTextStyleTableRecord
  2
BIGFONT
 70
     0
 40
1.0
 41
1.0
 50
0.0
 71
     0
 42
0.0
  3
monotxt.shx
  4
bigfont
  0
STYLE
  5
25
330
3
100
AcDbSymbolTableRecord
100
AcDbTextStyleTableRecord
  2
ＭＳ_ゴシック
 70
     0
 40
0.0
 41
1.0
 50
0.0
 71
     0
 42
0.0
  3
MS Gothic.ttf
  4

1001
ACAD
1000
MS Gothic
1071
    32817
  0
ENDTAB
  0
TABLE
  2
VIEW
  5
5
330
0
100
AcDbSymbolTable
 70
     0
  0
ENDTAB
  0
TABLE
  2
UCS
  5
6
330
0
100
AcDbSymbolTable
 70
     0
  0
ENDTAB
  0
TABLE
  2
APPID
  5
8
330
0
100
AcDbSymbolTable
 70
     1
  0
APPID
  5
16
330
8
100
AcDbSymbolTableRecord
100
AcDbRegAppTableRecord
  2
ACAD
 70
     0
  0
ENDTAB
  0
TABLE
  2
DIMSTYLE
  5
9
330
0
100
AcDbSymbolTable
 70
     2
100
AcDbDimStyleTable
 71
     0
  0
DIMSTYLE
105
18
330
9
100
AcDbSymbolTableRecord
100
AcDbDimStyleTableRecord
  2
STANDARD
 70
     0
340
17
  0
DIMSTYLE
105
26
102
{ACAD_REACTORS
330
115
330
116
330
118
330
119
330
11A
330
129
330
12C
102
}
330
9
100
AcDbSymbolTableRecord
100
AcDbDimStyleTableRecord
  2
MARK2_DIMSTYLE
 70
     0
 41
2.0
 42
1.0
 43
10.0
 44
1.0
 73
     0
 77
     1
140
6.0
146
0.5
147
1.0
271
     2
340
25
341
27
342
27
  0
ENDTAB
  0
TABLE
  2
BLOCK_RECORD
  5
1
330
0
100
AcDbSymbolTable
 70
    14
  0
BLOCK_RECORD
  5
A
330
1
100
AcDbSymbolTableRecord
100
AcDbBlockTableRecord
  2
*MODEL_SPACE
340
13C
  0
BLOCK_RECORD
  5
B
330
1
100
AcDbSymbolTableRecord
100
AcDbBlockTableRecord
  2
*PAPER_SPACE
340
13D
  0
BLOCK_RECORD
  5
27
330
1
100
AcDbSymbolTableRecord
100
AcDbBlockTableRecord
  2
_OPEN
340
0
102
{BLKREFS
331
34
331
35
331
36
331
37
331
3F
331
40
331
41
331
42
331
4A
331
4B
331
4C
331
4D
331
55
331
56
331
57
331
58
331
60
331
61
331
62
331
63
331
6C
331
6F
331
79
331
7C
102
}
  0
BLOCK_RECORD
  5
2D
330
1
100
AcDbSymbolTableRecord
100
AcDbBlockTableRecord
  2
_NONE
340
0
102
{BLKREFS
331
6D
331
70
331
7A
331
7D
102
}
  0
BLOCK_RECORD
  5
30
330
1
100
AcDbSymbolTableRecord
100
AcDbBlockTableRecord
  2
*D2
340
0
  0
BLOCK_RECORD
  5
3B
330
1
100
AcDbSymbolTableRecord
100
AcDbBlockTableRecord
  2
*D3
340
0
  0
BLOCK_RECORD
  5
46
330
1
100
AcDbSymbolTableRecord
100
AcDbBlockTableRecord
  2
*D4
340
0
  0
BLOCK_RECORD
  5
51
330
1
100
AcDbSymbolTableRecord
100
AcDbBlockTableRecord
  2
*D5
340
0
  0
BLOCK_RECORD
  5
5C
330
1
100
AcDbSymbolTableRecord
100
AcDbBlockTableRecord
  2
*D6
340
0
  0
BLOCK_RECORD
  5
67
330
1
100
AcDbSymbolTableRecord
100
AcDbBlockTableRecord
  2
*D7
340
0
  0
BLOCK_RECORD
  5
74
330
1
100
AcDbSymbolTableRecord
100
AcDbBlockTableRecord
  2
*D8
340
0
  0
BLOCK_RECORD
  5
81
330
1
100
AcDbSymbolTableRecord
100
AcDbBlockTableRecord
  2
HATCHING__PATTERN_$8$
340
0
102
{BLKREFS
331
12E
102
}
  0
BLOCK_RECORD
  5
87
330
1
100
AcDbSymbolTableRecord
100
AcDbBlockTableRecord
  2
HATCHING__PATTERN_$9$
340
0
102
{BLKREFS
331
12F
102
}
  0
BLOCK_RECORD
  5
8E
330
1
100
AcDbSymbolTableRecord
100
AcDbBlockTableRecord
  2
HATCHING__PATTERN_$10$
340
0
102
{BLKREFS
331
130
102
}
  0
BLOCK_RECORD
  5
96
330
1
100
AcDbSymbolTableRecord
100
AcDbBlockTableRecord
  2
HATCHING__PATTERN_$11$
340
0
102
{BLKREFS
331
131
102
}
  0
BLOCK_RECORD
  5
9E
330
1
100
AcDbSymbolTableRecord
100
AcDbBlockTableRecord
  2
HATCHING__PATTERN_$12$
340
0
102
{BLKREFS
331
132
102
}
  0
ENDTAB
  0
ENDSEC
  0
SECTION
  2
BLOCKS
  0
BLOCK
  5
D
330
A
100
AcDbEntity
  8
0
100
AcDbBlockBegin
  2
*MODEL_SPACE
 70
     0
 10
0.0
 20
0.0
 30
0.0
  3
*MODEL_SPACE
  1

  0
ENDBLK
  5
E
330
A
100
AcDbEntity
  8
0
100
AcDbBlockEnd
  0
BLOCK
  5
F
330
B
100
AcDbEntity
 67
     1
  8
0
100
AcDbBlockBegin
  2
*PAPER_SPACE
 70
     0
 10
0.0
 20
0.0
 30
0.0
  3
*PAPER_SPACE
  1

  0
ENDBLK
  5
10
330
B
100
AcDbEntity
 67
     1
  8
0
100
AcDbBlockEnd
  0
BLOCK
  5
28
330
27
100
AcDbEntity
  8
0
 62
     0
100
AcDbBlockBegin
  2
_OPEN
 70
     0
 10
0.0
 20
0.0
 30
0.0
  3
_OPEN
  1

  0
LINE
  5
29
330
27
100
AcDbEntity
  8
0
 62
     0
100
AcDbLine
 10
-1.0
 20
0.166666666667
 30
0.0
 11
0.0
 21
0.0
 31
0.0
  0
LINE
  5
2A
330
27
100
AcDbEntity
  8
0
 62
     0
100
AcDbLine
 10
-1.0
 20
-0.166666666667
 30
0.0
 11
0.0
 21
0.0
 31
0.0
  0
LINE
  5
2B
330
27
100
AcDbEntity
  8
0
 62
     0
100
AcDbLine
 10
0.0
 20
0.0
 30
0.0
 11
-1.0
 21
0.0
 31
0.0
  0
ENDBLK
  5
2C
330
27
100
AcDbEntity
  8
0
100
AcDbBlockEnd
  0
BLOCK
  5
2E
330
2D
100
AcDbEntity
  8
0
 62
     0
100
AcDbBlockBegin
  2
_NONE
 70
     0
 10
0.0
 20
0.0
 30
0.0
  3
_NONE
  1

  0
ENDBLK
  5
2F
330
2D
100
AcDbEntity
  8
0
100
AcDbBlockEnd
  0
BLOCK
  5
31
330
30
100
AcDbEntity
  8
0
 62
     7
100
AcDbBlockBegin
  2
*D2
 70
     1
 10
0.0
 20
0.0
 30
0.0
  3
*D2
  1

  0
LINE
  5
32
330
30
100
AcDbEntity
  8
HLL-SQ53_1_2
  6
Continuous
 62
     7
100
AcDbLine
 10
417.919313177944
 20
215.723137342811
 30
0.0
 11
437.919313177944
 21
215.723137342811
 31
0.0
  0
LINE
  5
33
330
30
100
AcDbEntity
  8
HLL-SQ53_1_2
  6
Continuous
 62
     7
100
AcDbLine
 10
417.919313177944
 20
267.723137342811
 30
0.0
 11
437.919313177944
 21
267.723137342811
 31
0.0
  0
INSERT
  5
34
330
30
100
AcDbEntity
  8
HLL-SQ53_1_2
  6
Continuous
 62
     7
100
AcDbBlockReference
  2
_OPEN
 10
435.9193131779441
 20
215.72313734281
 30
0.0
 41
4.0
 42
4.0
 50
270.0
  0
INSERT
  5
35
330
30
100
AcDbEntity
  8
HLL-SQ53_1_2
  6
Continuous
 62
     7
100
AcDbBlockReference
  2
_OPEN
 10
435.9193131779441
 20
267.723137342811
 30
0.0
 41
4.0
 42
4.0
 50
90.0
  0
INSERT
  5
36
330
30
100
AcDbEntity
  8
HLL-SQ53_1_2
  6
Continuous
 62
     7
100
AcDbBlockReference
  2
_OPEN
 10
435.9193131779441
 20
215.72313734281
 30
0.0
 41
4.0
 42
4.0
 50
270.0
  0
INSERT
  5
37
330
30
100
AcDbEntity
  8
HLL-SQ53_1_2
  6
Continuous
 62
     7
100
AcDbBlockReference
  2
_OPEN
 10
435.9193131779441
 20
267.723137342811
 30
0.0
 41
4.0
 42
4.0
 50
90.0
  0
LINE
  5
38
330
30
100
AcDbEntity
  8
HLL-SQ53_1_2
  6
Continuous
 62
     7
100
AcDbLine
 10
435.9193131779441
 20
215.72313734281
 30
0.0
 11
435.9193131779441
 21
267.723137342811
 31
0.0
  0
TEXT
  5
39
330
30
100
AcDbEntity
  8
HLL-SQ53_1_2
 62
     7
100
AcDbText
 10
433.919313177944
 20
237.6947109468732
 30
0.0
 40
6.0
  1
52
 50
90.0
 41
1.033333333332999
  7
ＭＳ_ゴシック
 72
     1
 11
433.919313177944
 21
241.723137342811
 31
0.0
100
AcDbText
  0
ENDBLK
  5
3A
330
30
100
AcDbEntity
  8
0
100
AcDbBlockEnd
  0
BLOCK
  5
3C
330
3B
100
AcDbEntity
  8
0
 62
     7
100
AcDbBlockBegin
  2
*D3
 70
     1
 10
0.0
 20
0.0
 30
0.0
  3
*D3
  1

  0
LINE
  5
3D
330
3B
100
AcDbEntity
  8
HLL-SQ53_1_2
  6
Continuous
 62
     7
100
AcDbLine
 10
363.919313177944
 20
213.723137342811
 30
0.0
 11
363.919313177944
 21
193.723137342811
 31
0.0
  0
LINE
  5
3E
330
3B
100
AcDbEntity
  8
HLL-SQ53_1_2
  6
Continuous
 62
     7
100
AcDbLine
 10
415.919313177944
 20
213.723137342811
 30
0.0
 11
415.919313177944
 21
193.723137342811
 31
0.0
  0
INSERT
  5
3F
330
3B
100
AcDbEntity
  8
HLL-SQ53_1_2
  6
Continuous
 62
     7
100
AcDbBlockReference
  2
_OPEN
 10
363.919313177944
 20
195.723137342811
 30
0.0
 41
4.0
 42
4.0
 50
180.0
  0
INSERT
  5
40
330
3B
100
AcDbEntity
  8
HLL-SQ53_1_2
  6
Continuous
 62
     7
100
AcDbBlockReference
  2
_OPEN
 10
415.919313177944
 20
195.723137342811
 30
0.0
 41
4.0
 42
4.0
  0
INSERT
  5
41
330
3B
100
AcDbEntity
  8
HLL-SQ53_1_2
  6
Continuous
 62
     7
100
AcDbBlockReference
  2
_OPEN
 10
363.919313177944
 20
195.723137342811
 30
0.0
 41
4.0
 42
4.0
 50
180.0
  0
INSERT
  5
42
330
3B
100
AcDbEntity
  8
HLL-SQ53_1_2
  6
Continuous
 62
     7
100
AcDbBlockReference
  2
_OPEN
 10
415.919313177944
 20
195.723137342811
 30
0.0
 41
4.0
 42
4.0
  0
LINE
  5
43
330
3B
100
AcDbEntity
  8
HLL-SQ53_1_2
  6
Continuous
 62
     7
100
AcDbLine
 10
363.919313177944
 20
195.723137342811
 30
0.0
 11
415.919313177944
 21
195.723137342811
 31
0.0
  0
TEXT
  5
44
330
3B
100
AcDbEntity
  8
HLL-SQ53_1_2
 62
     7
100
AcDbText
 10
385.8908867820062
 20
197.723137342811
 30
0.0
 40
6.0
  1
52
 41
1.033333333332999
  7
ＭＳ_ゴシック
 72
     1
 11
389.919313177944
 21
197.723137342811
 31
0.0
100
AcDbText
  0
ENDBLK
  5
45
330
3B
100
AcDbEntity
  8
0
100
AcDbBlockEnd
  0
BLOCK
  5
47
330
46
100
AcDbEntity
  8
0
 62
     7
100
AcDbBlockBegin
  2
*D4
 70
     1
 10
0.0
 20
0.0
 30
0.0
  3
*D4
  1

  0
LINE
  5
48
330
46
100
AcDbEntity
  8
HLL-SQ53_1_2
  6
Continuous
 62
     7
100
AcDbLine
 10
102.491576576072
 20
217.72313734281
 30
0.0
 11
74.49157657607199
 21
217.72313734281
 31
0.0
  0
LINE
  5
49
330
46
100
AcDbEntity
  8
HLL-SQ53_1_2
  6
Continuous
 62
     7
100
AcDbLine
 10
102.491576576072
 20
267.72313734281
 30
0.0
 11
74.49157657607199
 21
267.72313734281
 31
0.0
  0
INSERT
  5
4A
330
46
100
AcDbEntity
  8
HLL-SQ53_1_2
  6
Continuous
 62
     7
100
AcDbBlockReference
  2
_OPEN
 10
76.49157657607199
 20
217.72313734281
 30
0.0
 41
4.0
 42
4.0
 50
270.0
  0
INSERT
  5
4B
330
46
100
AcDbEntity
  8
HLL-SQ53_1_2
  6
Continuous
 62
     7
100
AcDbBlockReference
  2
_OPEN
 10
76.49157657607199
 20
267.72313734281
 30
0.0
 41
4.0
 42
4.0
 50
90.0
  0
INSERT
  5
4C
330
46
100
AcDbEntity
  8
HLL-SQ53_1_2
  6
Continuous
 62
     7
100
AcDbBlockReference
  2
_OPEN
 10
76.49157657607199
 20
217.72313734281
 30
0.0
 41
4.0
 42
4.0
 50
270.0
  0
INSERT
  5
4D
330
46
100
AcDbEntity
  8
HLL-SQ53_1_2
  6
Continuous
 62
     7
100
AcDbBlockReference
  2
_OPEN
 10
76.49157657607199
 20
267.72313734281
 30
0.0
 41
4.0
 42
4.0
 50
90.0
  0
LINE
  5
4E
330
46
100
AcDbEntity
  8
HLL-SQ53_1_2
  6
Continuous
 62
     7
100
AcDbLine
 10
76.49157657607199
 20
217.72313734281
 30
0.0
 11
76.49157657607199
 21
267.72313734281
 31
0.0
  0
TEXT
  5
4F
330
46
100
AcDbEntity
  8
HLL-SQ53_1_2
 62
     7
100
AcDbText
 10
74.49157657607199
 20
234.6662845509344
 30
0.0
 40
6.0
  1
φ50
 50
90.0
 41
1.033333333332999
  7
ＭＳ_ゴシック
 72
     1
 11
74.49157657607199
 21
242.72313734281
 31
0.0
100
AcDbText
  0
ENDBLK
  5
50
330
46
100
AcDbEntity
  8
0
100
AcDbBlockEnd
  0
BLOCK
  5
52
330
51
100
AcDbEntity
  8
0
 62
     7
100
AcDbBlockBegin
  2
*D5
 70
     1
 10
0.0
 20
0.0
 30
0.0
  3
*D5
  1

  0
LINE
  5
53
330
51
100
AcDbEntity
  8
HLL-SQ53_1_2
  6
Continuous
 62
     7
100
AcDbLine
 10
96.49157657607201
 20
223.47313734281
 30
0.0
 11
96.49157657607201
 21
173.723137342811
 31
0.0
  0
LINE
  5
54
330
51
100
AcDbEntity
  8
HLL-SQ53_1_2
  6
Continuous
 62
     7
100
AcDbLine
 10
329.06157657607
 20
213.72313734281
 30
0.0
 11
329.06157657607
 21
173.723137342811
 31
0.0
  0
INSERT
  5
55
330
51
100
AcDbEntity
  8
HLL-SQ53_1_2
  6
Continuous
 62
     7
100
AcDbBlockReference
  2
_OPEN
 10
96.49157657607201
 20
175.723137342811
 30
0.0
 41
4.0
 42
4.0
 50
180.0
  0
INSERT
  5
56
330
51
100
AcDbEntity
  8
HLL-SQ53_1_2
  6
Continuous
 62
     7
100
AcDbBlockReference
  2
_OPEN
 10
329.06157657607
 20
175.723137342811
 30
0.0
 41
4.0
 42
4.0
  0
INSERT
  5
57
330
51
100
AcDbEntity
  8
HLL-SQ53_1_2
  6
Continuous
 62
     7
100
AcDbBlockReference
  2
_OPEN
 10
96.49157657607201
 20
175.723137342811
 30
0.0
 41
4.0
 42
4.0
 50
180.0
  0
INSERT
  5
58
330
51
100
AcDbEntity
  8
HLL-SQ53_1_2
  6
Continuous
 62
     7
100
AcDbBlockReference
  2
_OPEN
 10
329.06157657607
 20
175.723137342811
 30
0.0
 41
4.0
 42
4.0
  0
LINE
  5
59
330
51
100
AcDbEntity
  8
HLL-SQ53_1_2
  6
Continuous
 62
     7
100
AcDbLine
 10
96.49157657607201
 20
175.723137342811
 30
0.0
 11
329.06157657607
 21
175.723137342811
 31
0.0
  0
TEXT
  5
5A
330
51
100
AcDbEntity
  8
HLL-SQ53_1_2
 62
     7
100
AcDbText
 10
202.7055105862265
 20
177.723137342811
 30
0.0
 40
6.0
  1
(232)
 41
1.033333333332999
  7
ＭＳ_ゴシック
 72
     1
 11
212.776576576071
 21
177.723137342811
 31
0.0
100
AcDbText
  0
ENDBLK
  5
5B
330
51
100
AcDbEntity
  8
0
100
AcDbBlockEnd
  0
BLOCK
  5
5D
330
5C
100
AcDbEntity
  8
0
 62
     7
100
AcDbBlockBegin
  2
*D6
 70
     1
 10
0.0
 20
0.0
 30
0.0
  3
*D6
  1

  0
LINE
  5
5E
330
5C
100
AcDbEntity
  8
HLL-SQ53_1_2
  6
Continuous
 62
     7
100
AcDbLine
 10
104.4915765760719
 20
215.72313734281
 30
0.0
 11
104.4915765760719
 21
193.723137342811
 31
0.0
  0
LINE
  5
5F
330
5C
100
AcDbEntity
  8
HLL-SQ53_1_2
  6
Continuous
 62
     7
100
AcDbLine
 10
303.111576576071
 20
211.4546531687609
 30
0.0
 11
303.111576576071
 21
193.723137342811
 31
0.0
  0
INSERT
  5
60
330
5C
100
AcDbEntity
  8
HLL-SQ53_1_2
  6
Continuous
 62
     7
100
AcDbBlockReference
  2
_OPEN
 10
104.4915765760719
 20
195.723137342811
 30
0.0
 41
4.0
 42
4.0
 50
180.0
  0
INSERT
  5
61
330
5C
100
AcDbEntity
  8
HLL-SQ53_1_2
  6
Continuous
 62
     7
100
AcDbBlockReference
  2
_OPEN
 10
303.111576576071
 20
195.723137342811
 30
0.0
 41
4.0
 42
4.0
  0
INSERT
  5
62
330
5C
100
AcDbEntity
  8
HLL-SQ53_1_2
  6
Continuous
 62
     7
100
AcDbBlockReference
  2
_OPEN
 10
104.4915765760719
 20
195.723137342811
 30
0.0
 41
4.0
 42
4.0
 50
180.0
  0
INSERT
  5
63
330
5C
100
AcDbEntity
  8
HLL-SQ53_1_2
  6
Continuous
 62
     7
100
AcDbBlockReference
  2
_OPEN
 10
303.111576576071
 20
195.723137342811
 30
0.0
 41
4.0
 42
4.0
  0
LINE
  5
64
330
5C
100
AcDbEntity
  8
HLL-SQ53_1_2
  6
Continuous
 62
     7
100
AcDbLine
 10
104.4915765760719
 20
195.723137342811
 30
0.0
 11
303.111576576071
 21
195.723137342811
 31
0.0
  0
TEXT
  5
65
330
5C
100
AcDbEntity
  8
HLL-SQ53_1_2
 62
     7
100
AcDbText
 10
193.7305105862265
 20
197.723137342811
 30
0.0
 40
6.0
  1
(198)
 41
1.033333333332999
  7
ＭＳ_ゴシック
 72
     1
 11
203.801576576071
 21
197.723137342811
 31
0.0
100
AcDbText
  0
ENDBLK
  5
66
330
5C
100
AcDbEntity
  8
0
100
AcDbBlockEnd
  0
BLOCK
  5
68
330
67
100
AcDbEntity
  8
0
 62
     7
100
AcDbBlockBegin
  2
*D7
 70
     1
 10
0.0
 20
0.0
 30
0.0
  3
*D7
  1

  0
LINE
  5
69
330
67
100
AcDbEntity
  8
HLL-SQ53_1_2
  6
Continuous
 62
     7
100
AcDbLine
 10
158.491576576072
 20
227.72313734281
 30
0.0
 11
181.403942115822
 21
227.72313734281
 31
0.0
  0
LINE
  5
6A
330
67
100
AcDbEntity
  8
HLL-SQ53_1_2
  6
Continuous
 62
     7
100
AcDbLine
 10
158.491576576071
 20
257.72313734281
 30
0.0
 11
181.403942115822
 21
257.72313734281
 31
0.0
  0
LINE
  5
6B
330
67
100
AcDbEntity
  8
HLL-SQ53_1_2
  6
Continuous
 62
     7
100
AcDbLine
 10
179.403942115822
 20
227.72313734281
 30
0.0
 11
179.403942115822
 21
257.72313734281
 31
0.0
  0
INSERT
  5
6C
330
67
100
AcDbEntity
  8
HLL-SQ53_1_2
  6
Continuous
 62
     7
100
AcDbBlockReference
  2
_OPEN
 10
179.403942115822
 20
227.72313734281
 30
0.0
 41
4.0
 42
4.0
 50
90.0
  0
INSERT
  5
6D
330
67
100
AcDbEntity
  8
HLL-SQ53_1_2
  6
Continuous
 62
     7
100
AcDbBlockReference
  2
_NONE
 10
179.403942115822
 20
206.9538997316289
 30
0.0
 41
4.0
 42
4.0
 50
270.0
  0
LINE
  5
6E
330
67
100
AcDbEntity
  8
HLL-SQ53_1_2
  6
Continuous
 62
     7
100
AcDbLine
 10
179.403942115822
 20
227.72313734281
 30
0.0
 11
179.403942115822
 21
206.9538997316289
 31
0.0
  0
INSERT
  5
6F
330
67
100
AcDbEntity
  8
HLL-SQ53_1_2
  6
Continuous
 62
     7
100
AcDbBlockReference
  2
_OPEN
 10
179.403942115822
 20
257.72313734281
 30
0.0
 41
4.0
 42
4.0
 50
270.0
  0
INSERT
  5
70
330
67
100
AcDbEntity
  8
HLL-SQ53_1_2
  6
Continuous
 62
     7
100
AcDbBlockReference
  2
_NONE
 10
179.403942115822
 20
269.72313734281
 30
0.0
 41
4.0
 42
4.0
 50
90.0
  0
LINE
  5
71
330
67
100
AcDbEntity
  8
HLL-SQ53_1_2
  6
Continuous
 62
     7
100
AcDbLine
 10
179.403942115822
 20
257.72313734281
 30
0.0
 11
179.403942115822
 21
269.72313734281
 31
0.0
  0
TEXT
  5
72
330
67
100
AcDbEntity
  8
HLL-SQ53_1_2
 62
     7
100
AcDbText
 10
177.4039421158219
 20
206.9538997316289
 30
0.0
 40
6.0
  1
φ30
 50
90.0
 41
1.033333333332999
  7
ＭＳ_ゴシック
100
AcDbText
  0
ENDBLK
  5
73
330
67
100
AcDbEntity
  8
0
100
AcDbBlockEnd
  0
BLOCK
  5
75
330
74
100
AcDbEntity
  8
0
 62
     7
100
AcDbBlockBegin
  2
*D8
 70
     1
 10
0.0
 20
0.0
 30
0.0
  3
*D8
  1

  0
LINE
  5
76
330
74
100
AcDbEntity
  8
HLL-SQ53_1_2
  6
Continuous
 62
     7
100
AcDbLine
 10
263.5165765760699
 20
222.22313734281
 30
0.0
 11
263.5165765760699
 21
204.9538997316289
 31
0.0
  0
LINE
  5
77
330
74
100
AcDbEntity
  8
HLL-SQ53_1_2
  6
Continuous
 62
     7
100
AcDbLine
 10
275.0615765760709
 20
213.723137342811
 30
0.0
 11
275.0615765760709
 21
204.9538997316289
 31
0.0
  0
LINE
  5
78
330
74
100
AcDbEntity
  8
HLL-SQ53_1_2
  6
Continuous
 62
     7
100
AcDbLine
 10
263.5165765760699
 20
206.9538997316289
 30
0.0
 11
275.0615765760709
 21
206.9538997316289
 31
0.0
  0
INSERT
  5
79
330
74
100
AcDbEntity
  8
HLL-SQ53_1_2
  6
Continuous
 62
     7
100
AcDbBlockReference
  2
_OPEN
 10
263.5165765760699
 20
206.9538997316289
 30
0.0
 41
4.0
 42
4.0
  0
INSERT
  5
7A
330
74
100
AcDbEntity
  8
HLL-SQ53_1_2
  6
Continuous
 62
     7
100
AcDbBlockReference
  2
_NONE
 10
234.8617316378819
 20
206.9538997316289
 30
0.0
 41
4.0
 42
4.0
 50
180.0
  0
LINE
  5
7B
330
74
100
AcDbEntity
  8
HLL-SQ53_1_2
  6
Continuous
 62
     7
100
AcDbLine
 10
263.5165765760699
 20
206.9538997316289
 30
0.0
 11
234.8617316378819
 21
206.9538997316289
 31
0.0
  0
INSERT
  5
7C
330
74
100
AcDbEntity
  8
HLL-SQ53_1_2
  6
Continuous
 62
     7
100
AcDbBlockReference
  2
_OPEN
 10
275.0615765760709
 20
206.9538997316289
 30
0.0
 41
4.0
 42
4.0
 50
180.0
  0
INSERT
  5
7D
330
74
100
AcDbEntity
  8
HLL-SQ53_1_2
  6
Continuous
 62
     7
100
AcDbBlockReference
  2
_NONE
 10
287.0615765760709
 20
206.9538997316289
 30
0.0
 41
4.0
 42
4.0
  0
LINE
  5
7E
330
74
100
AcDbEntity
  8
HLL-SQ53_1_2
  6
Continuous
 62
     7
100
AcDbLine
 10
275.0615765760709
 20
206.9538997316289
 30
0.0
 11
287.0615765760709
 21
206.9538997316289
 31
0.0
  0
TEXT
  5
7F
330
74
100
AcDbEntity
  8
HLL-SQ53_1_2
 62
     7
100
AcDbText
 10
234.8617316378819
 20
208.9538997316289
 30
0.0
 40
6.0
  1
(11.5)
 41
1.033333333332999
  7
ＭＳ_ゴシック
100
AcDbText
  0
ENDBLK
  5
80
330
74
100
AcDbEntity
  8
0
100
AcDbBlockEnd
  0
BLOCK
  5
82
330
81
100
AcDbEntity
  8
0
100
AcDbBlockBegin
  2
HATCHING__PATTERN_$8$
 70
     0
 10
0.0
 20
0.0
 30
0.0
  3
HATCHING__PATTERN_$8$
  1

  0
LINE
  5
83
330
81
100
AcDbEntity
  8
HLL-SQ53_1_2
  6
Continuous
 62
     7
100
AcDbLine
 10
253.714378391258
 20
223.72313734281
 30
0.0
 11
258.8054130474499
 21
242.72313734281
 31
0.0
  0
LINE
  5
84
330
81
100
AcDbEntity
  8
HLL-SQ53_1_2
  6
Continuous
 62
     7
100
AcDbLine
 10
243.361616587158
 20
223.72313734281
 30
0.0
 11
248.452651243349
 21
242.72313734281
 31
0.0
  0
LINE
  5
85
330
81
100
AcDbEntity
  8
HLL-SQ53_1_2
  6
Continuous
 62
     7
100
AcDbLine
 10
237.51657657607
 20
240.546184100722
 30
0.0
 11
238.099889439248
 21
242.72313734281
 31
0.0
  0
ENDBLK
  5
86
330
81
100
AcDbEntity
  8
0
100
AcDbBlockEnd
  0
BLOCK
  5
88
330
87
100
AcDbEntity
  8
0
100
AcDbBlockBegin
  2
HATCHING__PATTERN_$9$
 70
     0
 10
0.0
 20
0.0
 30
0.0
  3
HATCHING__PATTERN_$9$
  1

  0
LINE
  5
89
330
87
100
AcDbEntity
  8
HLL-SQ53_1_2
  6
Continuous
 62
     7
100
AcDbLine
 10
237.51657657607
 20
233.837421042776
 30
0.0
 11
245.4986440744739
 21
231.698632502648
 31
0.0
  0
LINE
  5
8A
330
87
100
AcDbEntity
  8
HLL-SQ53_1_2
  6
Continuous
 62
     7
100
AcDbLine
 10
245.4986440744739
 20
231.698632502648
 30
0.0
 11
263.01657657607
 21
227.004716635783
 31
0.0
  0
LINE
  5
8B
330
87
100
AcDbEntity
  8
HLL-SQ53_1_2
  6
Continuous
 62
     7
100
AcDbLine
 10
242.991664934263
 20
242.72313734281
 30
0.0
 11
248.0868345255
 21
241.357890765539
 31
0.0
  0
LINE
  5
8C
330
87
100
AcDbEntity
  8
HLL-SQ53_1_2
  6
Continuous
 62
     7
100
AcDbLine
 10
248.0868345255
 20
241.357890765539
 30
0.0
 11
263.01657657607
 21
237.3574784398829
 31
0.0
  0
ENDBLK
  5
8D
330
87
100
AcDbEntity
  8
0
100
AcDbBlockEnd
  0
BLOCK
  5
8F
330
8E
100
AcDbEntity
  8
0
100
AcDbBlockBegin
  2
HATCHING__PATTERN_$10$
 70
     0
 10
0.0
 20
0.0
 30
0.0
  3
HATCHING__PATTERN_$10$
  1

  0
LINE
  5
90
330
8E
100
AcDbEntity
  8
HLL-SQ53_1_2
  6
Continuous
 62
     7
100
AcDbLine
 10
237.51657657607
 20
244.1901828468769
 30
0.0
 11
242.991664934263
 21
242.72313734281
 31
0.0
  0
LINE
  5
91
330
8E
100
AcDbEntity
  8
HLL-SQ53_1_2
  6
Continuous
 62
     7
100
AcDbLine
 10
237.51657657607
 20
254.542944650978
 30
0.0
 11
250.675024976525
 21
251.0171490284299
 31
0.0
  0
LINE
  5
92
330
8E
100
AcDbEntity
  8
HLL-SQ53_1_2
  6
Continuous
 62
     7
100
AcDbLine
 10
250.675024976525
 20
251.0171490284299
 30
0.0
 11
263.01657657607
 21
247.710240243984
 31
0.0
  0
LINE
  5
93
330
8E
100
AcDbEntity
  8
HLL-SQ53_1_2
  6
Continuous
 62
     7
100
AcDbLine
 10
249.3567656935799
 20
261.72313734281
 30
0.0
 11
253.26321542755
 21
260.67640729132
 31
0.0
  0
LINE
  5
94
330
8E
100
AcDbEntity
  8
HLL-SQ53_1_2
  6
Continuous
 62
     7
100
AcDbLine
 10
253.26321542755
 20
260.67640729132
 30
0.0
 11
263.01657657607
 21
258.0630020480849
 31
0.0
  0
ENDBLK
  5
95
330
8E
100
AcDbEntity
  8
0
100
AcDbBlockEnd
  0
BLOCK
  5
97
330
96
100
AcDbEntity
  8
0
100
AcDbBlockBegin
  2
HATCHING__PATTERN_$11$
 70
     0
 10
0.0
 20
0.0
 30
0.0
  3
HATCHING__PATTERN_$11$
  1

  0
LINE
  5
98
330
96
100
AcDbEntity
  8
HLL-SQ53_1_2
  6
Continuous
 62
     7
100
AcDbLine
 10
258.8054130474499
 20
242.72313734281
 30
0.0
 11
262.922473690441
 21
258.088216840295
 31
0.0
  0
LINE
  5
99
330
96
100
AcDbEntity
  8
HLL-SQ53_1_2
  6
Continuous
 62
     7
100
AcDbLine
 10
262.922473690441
 20
258.088216840295
 30
0.0
 11
263.01657657607
 21
258.439413590603
 31
0.0
  0
LINE
  5
9A
330
96
100
AcDbEntity
  8
HLL-SQ53_1_2
  6
Continuous
 62
     7
100
AcDbLine
 10
248.452651243349
 20
242.72313734281
 30
0.0
 11
253.26321542755
 21
260.67640729132
 31
0.0
  0
LINE
  5
9B
330
96
100
AcDbEntity
  8
HLL-SQ53_1_2
  6
Continuous
 62
     7
100
AcDbLine
 10
253.26321542755
 20
260.67640729132
 30
0.0
 11
253.5436858995399
 21
261.72313734281
 31
0.0
  0
LINE
  5
9C
330
96
100
AcDbEntity
  8
HLL-SQ53_1_2
  6
Continuous
 62
     7
100
AcDbLine
 10
238.099889439248
 20
242.72313734281
 30
0.0
 11
243.1909240954389
 21
261.72313734281
 31
0.0
  0
ENDBLK
  5
9D
330
96
100
AcDbEntity
  8
0
100
AcDbBlockEnd
  0
BLOCK
  5
9F
330
9E
100
AcDbEntity
  8
0
100
AcDbBlockBegin
  2
HATCHING__PATTERN_$12$
 70
     0
 10
0.0
 20
0.0
 30
0.0
  3
HATCHING__PATTERN_$12$
  1

  0
LINE
  5
A0
330
9E
100
AcDbEntity
  8
HLL-SQ53_1_2
  6
Continuous
 62
     7
100
AcDbLine
 10
237.51657657607
 20
244.1901828468769
 30
0.0
 11
242.991664934263
 21
242.72313734281
 31
0.0
  0
LINE
  5
A1
330
9E
100
AcDbEntity
  8
HLL-SQ53_1_2
  6
Continuous
 62
     7
100
AcDbLine
 10
237.51657657607
 20
254.542944650978
 30
0.0
 11
250.675024976525
 21
251.0171490284299
 31
0.0
  0
LINE
  5
A2
330
9E
100
AcDbEntity
  8
HLL-SQ53_1_2
  6
Continuous
 62
     7
100
AcDbLine
 10
250.675024976525
 20
251.0171490284299
 30
0.0
 11
263.01657657607
 21
247.710240243984
 31
0.0
  0
LINE
  5
A3
330
9E
100
AcDbEntity
  8
HLL-SQ53_1_2
  6
Continuous
 62
     7
100
AcDbLine
 10
249.3567656935799
 20
261.72313734281
 30
0.0
 11
253.26321542755
 21
260.67640729132
 31
0.0
  0
LINE
  5
A4
330
9E
100
AcDbEntity
  8
HLL-SQ53_1_2
  6
Continuous
 62
     7
100
AcDbLine
 10
253.26321542755
 20
260.67640729132
 30
0.0
 11
263.01657657607
 21
258.0630020480849
 31
0.0
  0
ENDBLK
  5
A5
330
9E
100
AcDbEntity
  8
0
100
AcDbBlockEnd
  0
ENDSEC
  0
SECTION
  2
ENTITIES
  0
TEXT
  5
A6
330
A
100
AcDbEntity
  8
HLL-SQ53_1_2
 62
     7
100
AcDbText
 10
42.54835896944
 20
348.6985454545459
 30
0.0
 40
12.0
  1
HLL-SQ53
 41
1.033333333332999
  7
ＭＳ_ゴシック
100
AcDbText
  0
LINE
  5
A7
330
A
100
AcDbEntity
  8
HLL-SQ53_1_2
  6
Continuous
 62
     7
100
AcDbLine
 10
125.791576576072
 20
267.52313734281
 30
0.0
 11
125.591576576072
 21
267.72313734281
 31
0.0
  0
LINE
  5
A8
330
A
100
AcDbEntity
  8
HLL-SQ53_1_2
  6
Continuous
 62
     7
100
AcDbLine
 10
125.591576576072
 20
217.72313734281
 30
0.0
 11
125.791576576072
 21
217.92313734281
 31
0.0
  0
LINE
  5
A9
330
A
100
AcDbEntity
  8
HLL-SQ53_1_2
  6
Continuous
 62
     7
100
AcDbLine
 10
96.49157657607201
 20
259.97313734281
 30
0.0
 11
96.49157657607201
 21
225.47313734281
 31
0.0
  0
LINE
  5
AA
330
A
100
AcDbEntity
  8
HLL-SQ53_1_2
  6
Continuous
 62
     7
100
AcDbLine
 10
125.791576576072
 20
267.52313734281
 30
0.0
 11
125.791576576072
 21
224.47313734281
 31
0.0
  0
LINE
  5
AB
330
A
100
AcDbEntity
  8
HLL-SQ53_1_2
  6
Continuous
 62
     7
100
AcDbLine
 10
104.4915765760719
 20
267.72313734281
 30
0.0
 11
104.4915765760719
 21
224.47313734281
 31
0.0
  0
LINE
  5
AC
330
A
100
AcDbEntity
  8
HLL-SQ53_1_2
  6
Continuous
 62
     7
100
AcDbLine
 10
125.591576576072
 20
267.72313734281
 30
0.0
 11
104.4915765760719
 21
267.72313734281
 31
0.0
  0
LINE
  5
AD
330
A
100
AcDbEntity
  8
HLL-SQ53_1_2
  6
Continuous
 62
     7
100
AcDbLine
 10
125.591576576072
 20
217.72313734281
 30
0.0
 11
104.4915765760719
 21
217.72313734281
 31
0.0
  0
LINE
  5
AE
330
A
100
AcDbEntity
  8
HLL-SQ53_1_2
  6
Continuous
 62
     7
100
AcDbLine
 10
125.791576576072
 20
224.47313734281
 30
0.0
 11
125.791576576072
 21
217.92313734281
 31
0.0
  0
LINE
  5
AF
330
A
100
AcDbEntity
  8
HLL-SQ53_1_2
  6
Continuous
 62
     7
100
AcDbLine
 10
96.99157657607202
 20
224.97313734281
 30
0.0
 11
99.49157657607202
 21
224.97313734281
 31
0.0
  0
LINE
  5
B0
330
A
100
AcDbEntity
  8
HLL-SQ53_1_2
  6
Continuous
 62
     7
100
AcDbLine
 10
96.99157657607202
 20
260.47313734281
 30
0.0
 11
99.491576576071
 21
260.47313734281
 31
0.0
  0
LINE
  5
B1
330
A
100
AcDbEntity
  8
HLL-SQ53_1_2
  6
Continuous
 62
     7
100
AcDbLine
 10
100.491576576072
 20
224.47313734281
 30
0.0
 11
104.4915765760719
 21
224.47313734281
 31
0.0
  0
LINE
  5
B2
330
A
100
AcDbEntity
  8
HLL-SQ53_1_2
  6
Continuous
 62
     7
100
AcDbLine
 10
100.491576576072
 20
260.97313734281
 30
0.0
 11
104.4915765760719
 21
260.97313734281
 31
0.0
  0
LINE
  5
B3
330
A
100
AcDbEntity
  8
HLL-SQ53_1_2
  6
Continuous
 62
     7
100
AcDbLine
 10
100.491576576072
 20
260.97313734281
 30
0.0
 11
100.491576576072
 21
225.47313734281
 31
0.0
  0
LINE
  5
B4
330
A
100
AcDbEntity
  8
HLL-SQ53_1_2
  6
Continuous
 62
     7
100
AcDbLine
 10
100.4915765760709
 20
225.47313734281
 30
0.0
 11
100.491576576072
 21
224.47313734281
 31
0.0
  0
LINE
  5
B5
330
A
100
AcDbEntity
  8
HLL-SQ53_1_2
  6
Continuous
 62
     7
100
AcDbLine
 10
96.99157657607202
 20
260.47313734281
 30
0.0
 11
96.49157657607201
 21
259.97313734281
 31
0.0
  0
LINE
  5
B6
330
A
100
AcDbEntity
  8
HLL-SQ53_1_2
  6
Continuous
 62
     7
100
AcDbLine
 10
96.99157657607202
 20
224.97313734281
 30
0.0
 11
96.49157657607201
 21
225.47313734281
 31
0.0
  0
LINE
  5
B7
330
A
100
AcDbEntity
  8
HLL-SQ53_1_2
  6
Continuous
 62
     7
100
AcDbLine
 10
104.4915765760719
 20
224.47313734281
 30
0.0
 11
104.4915765760719
 21
217.72313734281
 31
0.0
  0
LINE
  5
B8
330
A
100
AcDbEntity
  8
HLL-SQ53_1_2
  6
Continuous
 62
     7
100
AcDbLine
 10
99.491576576071
 20
260.47313734281
 30
0.0
 11
99.491576576071
 21
224.97313734281
 31
0.0
  0
LINE
  5
B9
330
A
100
AcDbEntity
  8
HLL-SQ53_1_2
  6
Continuous
 62
     7
100
AcDbLine
 10
156.491576576071
 20
260.97313734281
 30
0.0
 11
156.4915765760719
 21
224.47313734281
 31
0.0
  0
LINE
  5
BA
330
A
100
AcDbEntity
  8
HLL-SQ53_1_2
  6
Continuous
 62
     7
100
AcDbLine
 10
125.791576576072
 20
260.97313734281
 30
0.0
 11
156.491576576071
 21
260.97313734281
 31
0.0
  0
LINE
  5
BB
330
A
100
AcDbEntity
  8
HLL-SQ53_1_2
  6
Continuous
 62
     7
100
AcDbLine
 10
99.491576576071
 20
259.97313734281
 30
0.0
 11
100.491576576072
 21
259.97313734281
 31
0.0
  0
LINE
  5
BC
330
A
100
AcDbEntity
  8
HLL-SQ53_1_2
  6
Continuous
 62
     7
100
AcDbLine
 10
99.491576576071
 20
225.47313734281
 30
0.0
 11
100.491576576072
 21
225.47313734281
 31
0.0
  0
LINE
  5
BD
330
A
100
AcDbEntity
  8
HLL-SQ53_1_2
  6
Continuous
 62
     7
100
AcDbLine
 10
139.5259008463
 20
233.59813734281
 30
0.0
 11
143.5154333890749
 21
233.59813734281
 31
0.0
  0
LINE
  5
BE
330
A
100
AcDbEntity
  8
HLL-SQ53_1_2
  6
Continuous
 62
     7
100
AcDbLine
 10
141.491576576071
 20
235.3171638077539
 30
0.0
 11
141.491576576071
 21
231.784264507826
 31
0.0
  0
ELLIPSE
  5
BF
330
A
100
AcDbEntity
  8
HLL-SQ53_1_2
  6
Continuous
 62
     7
100
AcDbEllipse
 10
141.491576576071
 20
233.59813734281
 30
0.0
 11
1.199999999999989
 21
0.0
 31
0.0
210
0.0
220
0.0
230
1.0
 40
0.8824815663240002
 41
0.0
 42
6.283185307179585
  0
ELLIPSE
  5
C0
330
A
100
AcDbEntity
  8
HLL-SQ53_1_2
  6
Continuous
 62
     7
100
AcDbEllipse
 10
141.491576576071
 20
233.59813734281
 30
0.0
 11
1.5
 21
0.0
 31
0.0
210
0.0
220
0.0
230
1.0
 40
0.8454426380110001
 41
0.0
 42
6.283185307179585
  0
LINE
  5
C1
330
A
100
AcDbEntity
  8
HLL-SQ53_1_2
  6
Continuous
 62
     7
100
AcDbLine
 10
90.12243817794399
 20
242.72313734281
 30
0.0
 11
303.111576576071
 21
242.72313734281
 31
0.0
  0
LINE
  5
C2
330
A
100
AcDbEntity
  8
HLL-SQ53_1_2
  6
Continuous
 62
     7
100
AcDbLine
 10
237.01657657607
 20
226.72313734281
 30
0.0
 11
237.5165765760689
 21
226.72313734281
 31
0.0
  0
LINE
  5
C3
330
A
100
AcDbEntity
  8
HLL-SQ53_1_2
  6
Continuous
 62
     7
100
AcDbLine
 10
237.51657657607
 20
261.72313734281
 30
0.0
 11
237.5165765760689
 21
224.72313734281
 31
0.0
  0
LINE
  5
C4
330
A
100
AcDbEntity
  8
HLL-SQ53_1_2
  6
Continuous
 62
     7
100
AcDbLine
 10
209.591576576071
 20
226.9231373428099
 30
0.0
 11
209.591576576071
 21
258.52313734281
 31
0.0
  0
LINE
  5
C5
330
A
100
AcDbEntity
  8
HLL-SQ53_1_2
  6
Continuous
 62
     7
100
AcDbLine
 10
237.01657657607
 20
258.72313734281
 30
0.0
 11
209.7915765760709
 21
258.72313734281
 31
0.0
  0
LINE
  5
C6
330
A
100
AcDbEntity
  8
HLL-SQ53_1_2
  6
Continuous
 62
     7
100
AcDbLine
 10
237.01657657607
 20
226.72313734281
 30
0.0
 11
209.7915765760709
 21
226.72313734281
 31
0.0
  0
LINE
  5
C7
330
A
100
AcDbEntity
  8
HLL-SQ53_1_2
  6
Continuous
 62
     7
100
AcDbLine
 10
275.0615765760709
 20
259.723137342811
 30
0.0
 11
275.0615765760709
 21
258.723137342811
 31
0.0
  0
LINE
  5
C8
330
A
100
AcDbEntity
  8
HLL-SQ53_1_2
  6
Continuous
 62
     7
100
AcDbLine
 10
275.0615765760709
 20
242.72313734281
 30
0.0
 11
275.0615765760709
 21
225.723137342811
 31
0.0
  0
LINE
  5
C9
330
A
100
AcDbEntity
  8
HLL-SQ53_1_2
  6
Continuous
 62
     7
100
AcDbLine
 10
275.0615765760709
 20
258.723137342811
 30
0.0
 11
266.76157657607
 21
258.72313734281
 31
0.0
  0
LINE
  5
CA
330
A
100
AcDbEntity
  8
HLL-SQ53_1_2
  6
Continuous
 62
     7
100
AcDbLine
 10
275.0615765760709
 20
226.7231373428109
 30
0.0
 11
266.76157657607
 21
226.7231373428109
 31
0.0
  0
LINE
  5
CB
330
A
100
AcDbEntity
  8
HLL-SQ53_1_2
  6
Continuous
 62
     7
100
AcDbLine
 10
209.591576576071
 20
258.52313734281
 30
0.0
 11
209.7915765760709
 21
258.72313734281
 31
0.0
  0
LINE
  5
CC
330
A
100
AcDbEntity
  8
HLL-SQ53_1_2
  6
Continuous
 62
     7
100
AcDbLine
 10
209.591576576071
 20
226.9231373428099
 30
0.0
 11
209.7915765760709
 21
226.72313734281
 31
0.0
  0
LINE
  5
CD
330
A
100
AcDbEntity
  8
HLL-SQ53_1_2
  6
Continuous
 62
     7
100
AcDbLine
 10
209.7915765760709
 20
226.72313734281
 30
0.0
 11
209.7915765760709
 21
258.72313734281
 31
0.0
  0
LINE
  5
CE
330
A
100
AcDbEntity
  8
HLL-SQ53_1_2
  6
Continuous
 62
     7
100
AcDbLine
 10
263.01657657607
 20
223.72313734281
 30
0.0
 11
237.51657657607
 21
223.72313734281
 31
0.0
  0
LINE
  5
CF
330
A
100
AcDbEntity
  8
HLL-SQ53_1_2
  6
Continuous
 62
     7
100
AcDbLine
 10
237.01657657607
 20
224.22313734281
 30
0.0
 11
237.01657657607
 21
261.22313734281
 31
0.0
  0
LINE
  5
D0
330
A
100
AcDbEntity
  8
HLL-SQ53_1_2
  6
Continuous
 62
     7
100
AcDbLine
 10
263.5165765760699
 20
224.22313734281
 30
0.0
 11
263.5165765760699
 21
261.22313734281
 31
0.0
  0
LINE
  5
D1
330
A
100
AcDbEntity
  8
HLL-SQ53_1_2
  6
Continuous
 62
     7
100
AcDbLine
 10
263.01657657607
 20
261.72313734281
 30
0.0
 11
237.51657657607
 21
261.72313734281
 31
0.0
  0
LINE
  5
D2
330
A
100
AcDbEntity
  8
HLL-SQ53_1_2
  6
Continuous
 62
     7
100
AcDbLine
 10
263.01657657607
 20
223.72313734281
 30
0.0
 11
263.01657657607
 21
261.72313734281
 31
0.0
  0
LINE
  5
D3
330
A
100
AcDbEntity
  8
HLL-SQ53_1_2
  6
Continuous
 62
     7
100
AcDbLine
 10
263.5165765760699
 20
261.22313734281
 30
0.0
 11
263.01657657607
 21
261.72313734281
 31
0.0
  0
LINE
  5
D4
330
A
100
AcDbEntity
  8
HLL-SQ53_1_2
  6
Continuous
 62
     7
100
AcDbLine
 10
263.5165765760699
 20
224.22313734281
 30
0.0
 11
263.01657657607
 21
223.72313734281
 31
0.0
  0
LINE
  5
D5
330
A
100
AcDbEntity
  8
HLL-SQ53_1_2
  6
Continuous
 62
     7
100
AcDbLine
 10
237.51657657607
 20
223.72313734281
 30
0.0
 11
237.01657657607
 21
224.22313734281
 31
0.0
  0
LINE
  5
D6
330
A
100
AcDbEntity
  8
HLL-SQ53_1_2
  6
Continuous
 62
     7
100
AcDbLine
 10
237.51657657607
 20
261.72313734281
 30
0.0
 11
237.01657657607
 21
261.22313734281
 31
0.0
  0
LINE
  5
D7
330
A
100
AcDbEntity
  8
HLL-SQ53_1_2
  6
Continuous
 62
     7
100
AcDbLine
 10
237.51657657607
 20
242.72313734281
 30
0.0
 11
237.51657657607
 21
223.72313734281
 31
0.0
  0
LINE
  5
D8
330
A
100
AcDbEntity
  8
HLL-SQ53_1_2
  6
Continuous
 62
     7
100
AcDbLine
 10
329.0615765760709
 20
215.723137342811
 30
0.0
 11
275.0615765760709
 21
215.723137342811
 31
0.0
  0
LINE
  5
D9
330
A
100
AcDbEntity
  8
HLL-SQ53_1_2
  6
Continuous
 62
     7
100
AcDbLine
 10
303.111576576071
 20
213.4546531687609
 30
0.0
 11
303.111576576071
 21
242.723137342811
 31
0.0
  0
LINE
  5
DA
330
A
100
AcDbEntity
  8
HLL-SQ53_1_2
  6
Continuous
 62
     7
100
AcDbLine
 10
282.641576576071
 20
267.7186207424049
 30
0.0
 11
275.0615765760709
 21
267.7186207424049
 31
0.0
  0
LINE
  5
DB
330
A
100
AcDbEntity
  8
HLL-SQ53_1_2
  6
Continuous
 62
     7
100
AcDbLine
 10
275.0615765760709
 20
267.7186207424049
 30
0.0
 11
275.0615765760709
 21
215.723137342811
 31
0.0
  0
LINE
  5
DC
330
A
100
AcDbEntity
  8
HLL-SQ53_1_2
  6
Continuous
 62
     7
100
AcDbLine
 10
329.0615765760709
 20
221.298620742405
 30
0.0
 11
329.0615765760709
 21
215.723137342811
 31
0.0
  0
LINE
  5
DD
330
A
100
AcDbEntity
  8
HLL-SQ53_1_2
  6
Continuous
 62
     7
100
AcDbLine
 10
284.5146682308649
 20
267.259742649984
 30
0.0
 11
327.648181883244
 21
224.1262289976039
 31
0.0
  0
LINE
  5
DE
330
A
100
AcDbEntity
  8
HLL-SQ53_1_2
  6
Continuous
 62
     7
100
AcDbLine
 10
282.64157657607
 20
267.7186207424049
 30
0.0
 11
329.0615765760709
 21
221.298620742405
 31
0.0
  0
ARC
  5
DF
330
A
100
AcDbEntity
  8
HLL-SQ53_1_2
  6
Continuous
 62
     7
100
AcDbCircle
 10
283.807561449678
 20
266.5526358687969
 30
0.0
 40
1.0
100
AcDbArc
 50
45.0
 51
135.0
  0
ARC
  5
E0
330
A
100
AcDbEntity
  8
HLL-SQ53_1_2
  6
Continuous
 62
     7
100
AcDbCircle
 10
326.941075102058
 20
223.4191222164179
 30
0.0
 40
1.0
100
AcDbArc
 50
314.999999999996
 51
44.99999999999899
  0
CIRCLE
  5
E1
330
A
100
AcDbEntity
  8
HLL-SQ53_1_2
  6
Continuous
 62
     7
100
AcDbCircle
 10
279.561576576071
 20
242.72313734281
 30
0.0
 40
1.5
  0
CIRCLE
  5
E2
330
A
100
AcDbEntity
  8
HLL-SQ53_1_2
  6
Continuous
 62
     7
100
AcDbCircle
 10
279.561576576071
 20
242.72313734281
 30
0.0
 40
1.199999999999999
  0
LINE
  5
E3
330
A
100
AcDbEntity
  8
HLL-SQ53_1_2
  6
Continuous
 62
     7
100
AcDbLine
 10
156.491576576071
 20
257.72313734281
 30
0.0
 11
209.591576576071
 21
257.72313734281
 31
0.0
  0
LINE
  5
E4
330
A
100
AcDbEntity
  8
HLL-SQ53_1_2
  6
Continuous
 62
     7
100
AcDbLine
 10
156.491576576071
 20
227.72313734281
 30
0.0
 11
209.591576576071
 21
227.72313734281
 31
0.0
  0
LINE
  5
E5
330
A
100
AcDbEntity
  8
HLL-SQ53_1_2
  6
Continuous
 62
     7
100
AcDbLine
 10
266.76157657607
 20
259.72313734281
 30
0.0
 11
263.5165765760699
 21
259.72313734281
 31
0.0
  0
LINE
  5
E6
330
A
100
AcDbEntity
  8
HLL-SQ53_1_2
  6
Continuous
 62
     7
100
AcDbLine
 10
263.5165765760699
 20
259.22313734281
 30
0.0
 11
266.76157657607
 21
259.22313734281
 31
0.0
  0
LINE
  5
E7
330
A
100
AcDbEntity
  8
HLL-SQ53_1_2
  6
Continuous
 62
     7
100
AcDbLine
 10
266.761576576068
 20
226.7231373428109
 30
0.0
 11
266.76157657607
 21
258.72313734281
 31
0.0
  0
LINE
  5
E8
330
A
100
AcDbEntity
  8
HLL-SQ53_1_2
  6
Continuous
 62
     7
100
AcDbLine
 10
266.76157657607
 20
225.72313734281
 30
0.0
 11
263.5165765760699
 21
225.72313734281
 31
0.0
  0
LINE
  5
E9
330
A
100
AcDbEntity
  8
HLL-SQ53_1_2
  6
Continuous
 62
     7
100
AcDbLine
 10
263.5165765760699
 20
226.22313734281
 30
0.0
 11
266.76157657607
 21
226.22313734281
 31
0.0
  0
LINE
  5
EA
330
A
100
AcDbEntity
  8
HLL-SQ53_1_2
  6
Continuous
 62
     7
100
AcDbLine
 10
266.76157657607
 20
225.72313734281
 30
0.0
 11
266.76157657607
 21
226.7231373428109
 31
0.0
  0
LINE
  5
EB
330
A
100
AcDbEntity
  8
HLL-SQ53_1_2
  6
Continuous
 62
     7
100
AcDbLine
 10
266.76157657607
 20
259.72313734281
 30
0.0
 11
266.76157657607
 21
258.72313734281
 31
0.0
  0
LINE
  5
EC
330
A
100
AcDbEntity
  8
HLL-SQ53_1_2
  6
Continuous
 62
     7
100
AcDbLine
 10
363.919313177944
 20
215.723137342811
 30
0.0
 11
415.919313177944
 21
215.723137342811
 31
0.0
  0
LINE
  5
ED
330
A
100
AcDbEntity
  8
HLL-SQ53_1_2
  6
Continuous
 62
     7
100
AcDbLine
 10
363.919313177944
 20
223.71201543523
 30
0.0
 11
363.919313177944
 21
266.2597426499839
 31
0.0
  0
LINE
  5
EE
330
A
100
AcDbEntity
  8
HLL-SQ53_1_2
  6
Continuous
 62
     7
100
AcDbLine
 10
363.919313177944
 20
267.723137342811
 30
0.0
 11
415.919313177944
 21
267.723137342811
 31
0.0
  0
LINE
  5
EF
330
A
100
AcDbEntity
  8
HLL-SQ53_1_2
  6
Continuous
 62
     7
100
AcDbLine
 10
415.919313177944
 20
266.2597426499839
 30
0.0
 11
415.919313177944
 21
223.71201543523
 31
0.0
  0
LINE
  5
F0
330
A
100
AcDbEntity
  8
HLL-SQ53_1_2
  6
Continuous
 62
     7
100
AcDbLine
 10
364.919313177944
 20
267.259742649984
 30
0.0
 11
414.919313177944
 21
267.259742649984
 31
0.0
  0
LINE
  5
F1
330
A
100
AcDbEntity
  8
HLL-SQ53_1_2
  6
Continuous
 62
     7
100
AcDbLine
 10
364.919313177944
 20
222.71201543523
 30
0.0
 11
414.919313177944
 21
222.71201543523
 31
0.0
  0
ELLIPSE
  5
F2
330
A
100
AcDbEntity
  8
HLL-SQ53_1_2
  6
Continuous
 62
     7
100
AcDbEllipse
 10
367.919313177944
 20
265.206953213216
 30
0.0
 11
1.7202960259184
 21
0.0
 31
0.0
210
0.0
220
0.0
230
0.9999999999999998
 40
0.687737322111
 41
0.0
 42
6.283185307179585
  0
ARC
  5
F3
330
A
100
AcDbEntity
  8
HLL-SQ53_1_2
  6
Continuous
 62
     7
100
AcDbCircle
 10
369.183008915825
 20
264.784868915831
 30
0.0
 40
3.013695737881
100
AcDbArc
 50
171.948949223496
 51
180.0
  0
ARC
  5
F4
330
A
100
AcDbEntity
  8
HLL-SQ53_1_2
  6
Continuous
 62
     7
100
AcDbCircle
 10
366.6556174400629
 20
264.784868915831
 30
0.0
 40
3.013695737881
100
AcDbArc
 50
0.0
 51
8.051050776504
  0
ELLIPSE
  5
F5
330
A
100
AcDbEntity
  8
HLL-SQ53_1_2
  6
Continuous
 62
     7
100
AcDbEllipse
 10
367.919313177944
 20
264.784868915831
 30
0.0
 11
1.75
 21
0.0000000000000284
 31
0.0
210
0.0
220
0.0
230
1.0
 40
0.709168264117
 41
3.141592653589792
 42
6.283185307179585
  0
ELLIPSE
  5
F6
330
A
100
AcDbEntity
  8
HLL-SQ53_1_2
  6
Continuous
 62
     7
100
AcDbEllipse
 10
411.919313177944
 20
265.206953213216
 30
0.0
 11
1.7202960259184
 21
0.0
 31
0.0
210
0.0
220
0.0
230
0.9999999999999998
 40
0.687737322111
 41
0.0
 42
6.283185307179585
  0
ARC
  5
F7
330
A
100
AcDbEntity
  8
HLL-SQ53_1_2
  6
Continuous
 62
     7
100
AcDbCircle
 10
413.1830089158249
 20
264.784868915831
 30
0.0
 40
3.013695737881
100
AcDbArc
 50
171.948949223496
 51
180.0
  0
ARC
  5
F8
330
A
100
AcDbEntity
  8
HLL-SQ53_1_2
  6
Continuous
 62
     7
100
AcDbCircle
 10
410.655617440063
 20
264.784868915831
 30
0.0
 40
3.013695737881
100
AcDbArc
 50
0.0
 51
8.051050776504
  0
ELLIPSE
  5
F9
330
A
100
AcDbEntity
  8
HLL-SQ53_1_2
  6
Continuous
 62
     7
100
AcDbEllipse
 10
411.919313177944
 20
264.784868915831
 30
0.0
 11
1.75
 21
0.0000000000000284
 31
0.0
210
0.0
220
0.0
230
1.0
 40
0.709168264117
 41
3.141592653589792
 42
6.283185307179585
  0
ELLIPSE
  5
FA
330
A
100
AcDbEntity
  8
HLL-SQ53_1_2
  6
Continuous
 62
     7
100
AcDbEllipse
 10
411.919313177944
 20
226.6696336385499
 30
0.0
 11
1.7202960259184
 21
0.0
 31
0.0
210
0.0
220
0.0
230
0.9999999999999998
 40
0.687737322111
 41
0.0
 42
6.283185307179585
  0
ARC
  5
FB
330
A
100
AcDbEntity
  8
HLL-SQ53_1_2
  6
Continuous
 62
     7
100
AcDbCircle
 10
413.1830089158249
 20
226.247549341164
 30
0.0
 40
3.013695737881
100
AcDbArc
 50
171.948949223496
 51
180.0
  0
ARC
  5
FC
330
A
100
AcDbEntity
  8
HLL-SQ53_1_2
  6
Continuous
 62
     7
100
AcDbCircle
 10
410.655617440063
 20
226.247549341164
 30
0.0
 40
3.013695737881
100
AcDbArc
 50
0.0
 51
8.051050776504
  0
ELLIPSE
  5
FD
330
A
100
AcDbEntity
  8
HLL-SQ53_1_2
  6
Continuous
 62
     7
100
AcDbEllipse
 10
411.919313177944
 20
226.247549341164
 30
0.0
 11
1.75
 21
0.0000000000000284
 31
0.0
210
0.0
220
0.0
230
1.0
 40
0.709168264117
 41
3.141592653589792
 42
6.283185307179585
  0
ELLIPSE
  5
FE
330
A
100
AcDbEntity
  8
HLL-SQ53_1_2
  6
Continuous
 62
     7
100
AcDbEllipse
 10
367.919313177944
 20
226.6696336385499
 30
0.0
 11
1.7202960259184
 21
0.0
 31
0.0
210
0.0
220
0.0
230
0.9999999999999998
 40
0.687737322111
 41
0.0
 42
6.283185307179585
  0
ARC
  5
FF
330
A
100
AcDbEntity
  8
HLL-SQ53_1_2
  6
Continuous
 62
     7
100
AcDbCircle
 10
369.183008915825
 20
226.247549341164
 30
0.0
 40
3.013695737881
100
AcDbArc
 50
171.948949223496
 51
180.0
  0
ARC
  5
100
330
A
100
AcDbEntity
  8
HLL-SQ53_1_2
  6
Continuous
 62
     7
100
AcDbCircle
 10
366.6556174400629
 20
226.247549341164
 30
0.0
 40
3.013695737881
100
AcDbArc
 50
0.0
 51
8.051050776504
  0
ELLIPSE
  5
101
330
A
100
AcDbEntity
  8
HLL-SQ53_1_2
  6
Continuous
 62
     7
100
AcDbEllipse
 10
367.919313177944
 20
226.247549341164
 30
0.0
 11
1.75
 21
0.0000000000000284
 31
0.0
210
0.0
220
0.0
230
1.0
 40
0.709168264117
 41
3.141592653589792
 42
6.283185307179585
  0
ARC
  5
102
330
A
100
AcDbEntity
  8
HLL-SQ53_1_2
  6
Continuous
 62
     7
100
AcDbCircle
 10
364.919313177944
 20
266.2597426499839
 30
0.0
 40
1.0
100
AcDbArc
 50
90.0
 51
180.0
  0
ARC
  5
103
330
A
100
AcDbEntity
  8
HLL-SQ53_1_2
  6
Continuous
 62
     7
100
AcDbCircle
 10
414.919313177944
 20
266.2597426499839
 30
0.0
 40
1.0
100
AcDbArc
 50
0.0
 51
90.0
  0
ARC
  5
104
330
A
100
AcDbEntity
  8
HLL-SQ53_1_2
  6
Continuous
 62
     7
100
AcDbCircle
 10
414.919313177944
 20
223.71201543523
 30
0.0
 40
1.0
100
AcDbArc
 50
270.0
 51
0.0
  0
ARC
  5
105
330
A
100
AcDbEntity
  8
HLL-SQ53_1_2
  6
Continuous
 62
     7
100
AcDbCircle
 10
364.919313177944
 20
223.71201543523
 30
0.0
 40
1.0
100
AcDbArc
 50
180.0
 51
270.0
  0
LINE
  5
106
330
A
100
AcDbEntity
  8
HLL-SQ53_1_2
  6
Continuous
 62
     7
100
AcDbLine
 10
363.919313177944
 20
267.723137342811
 30
0.0
 11
363.919313177944
 21
266.2597426499839
 31
0.0
  0
LINE
  5
107
330
A
100
AcDbEntity
  8
HLL-SQ53_1_2
  6
Continuous
 62
     7
100
AcDbLine
 10
363.919313177944
 20
223.71201543523
 30
0.0
 11
363.919313177944
 21
215.723137342811
 31
0.0
  0
LINE
  5
108
330
A
100
AcDbEntity
  8
HLL-SQ53_1_2
  6
Continuous
 62
     7
100
AcDbLine
 10
415.919313177944
 20
267.723137342811
 30
0.0
 11
415.919313177944
 21
266.2597426499839
 31
0.0
  0
LINE
  5
109
330
A
100
AcDbEntity
  8
HLL-SQ53_1_2
  6
Continuous
 62
     7
100
AcDbLine
 10
415.919313177944
 20
223.71201543523
 30
0.0
 11
415.919313177944
 21
215.723137342811
 31
0.0
  0
LINE
  5
10A
330
A
100
AcDbEntity
  8
HLL-SQ53_1_2
  6
Continuous
 62
     7
100
AcDbLine
 10
363.919313177944
 20
221.2986207424029
 30
0.0
 11
415.919313177944
 21
221.2986207424029
 31
0.0
  0
LINE
  5
10B
330
A
100
AcDbEntity
  8
HLL-SQ53_1_2
  6
Continuous
 62
     7
100
AcDbLine
 10
323.935871282015
 20
227.838539598834
 30
0.0
 11
324.3576530974149
 21
228.218313651231
 31
0.0
  0
LINE
  5
10C
330
A
100
AcDbEntity
  8
HLL-SQ53_1_2
  6
Continuous
 62
     7
100
AcDbLine
 10
326.410745016168
 20
225.363665864681
 30
0.0
 11
326.790519068566
 21
225.7854476800809
 31
0.0
  0
ARC
  5
10D
330
A
100
AcDbEntity
  8
HLL-SQ53_1_2
  6
Continuous
 62
     7
100
AcDbCircle
 10
324.7591314612309
 20
227.772426755945
 30
0.0
 40
0.6
100
AcDbArc
 50
61.706323681354
 51
132.0
  0
ARC
  5
10E
330
A
100
AcDbEntity
  8
HLL-SQ53_1_2
  6
Continuous
 62
     7
100
AcDbCircle
 10
326.344632173279
 20
226.186926043896
 30
0.0
 40
0.6
100
AcDbArc
 50
318.0
 51
28.293676318646
  0
ARC
  5
10F
330
A
100
AcDbEntity
  8
HLL-SQ53_1_2
  6
Continuous
 62
     7
100
AcDbCircle
 10
322.910566449295
 20
224.33836103196
 30
0.0
 40
4.5
100
AcDbArc
 50
28.293676318646
 51
61.706323681354
  0
LINE
  5
110
330
A
100
AcDbEntity
  8
HLL-SQ53_1_2
  6
Continuous
 62
     7
100
AcDbLine
 10
285.752105097942
 20
266.0223057829069
 30
0.0
 11
286.173886913342
 21
266.4020798353049
 31
0.0
  0
LINE
  5
111
330
A
100
AcDbEntity
  8
HLL-SQ53_1_2
  6
Continuous
 62
     7
100
AcDbLine
 10
288.226978832094
 20
263.5474320487539
 30
0.0
 11
288.606752884492
 21
263.9692138641549
 31
0.0
  0
ARC
  5
112
330
A
100
AcDbEntity
  8
HLL-SQ53_1_2
  6
Continuous
 62
     7
100
AcDbCircle
 10
286.5753652771569
 20
265.9561929400179
 30
0.0
 40
0.6
100
AcDbArc
 50
61.706323681354
 51
132.0
  0
ARC
  5
113
330
A
100
AcDbEntity
  8
HLL-SQ53_1_2
  6
Continuous
 62
     7
100
AcDbCircle
 10
288.160865989206
 20
264.37069222797
 30
0.0
 40
0.6
100
AcDbArc
 50
318.0
 51
28.293676318646
  0
ARC
  5
114
330
A
100
AcDbEntity
  8
HLL-SQ53_1_2
  6
Continuous
 62
     7
100
AcDbCircle
 10
284.7268002652209
 20
262.5221272160339
 30
0.0
 40
4.5
100
AcDbArc
 50
28.293676318646
 51
61.706323681354
  0
DIMENSION
  5
115
330
A
100
AcDbEntity
  8
HLL-SQ53_1_2
  6
Continuous
 62
     7
100
AcDbDimension
  2
*D2
 10
435.9193131779441
 20
267.723137342811
 30
0.0
 11
433.919313177944
 21
241.723137342811
 31
0.0
 71
     5
 42
-1.0
  3
MARK2_DIMSTYLE
100
AcDbAlignedDimension
 13
415.919313177944
 23
215.723137342811
 33
0.0
 14
415.919313177944
 24
267.723137342811
 34
0.0
 50
90.0
100
AcDbRotatedDimension
1001
ACAD
1000
DSTYLE
1002
{
1070
    41
1040
4.0
1002
}
  0
DIMENSION
  5
116
330
A
100
AcDbEntity
  8
HLL-SQ53_1_2
  6
Continuous
 62
     7
100
AcDbDimension
  2
*D3
 10
415.919313177944
 20
195.723137342811
 30
0.0
 11
389.919313177944
 21
197.723137342811
 31
0.0
 71
     5
 42
-1.0
  3
MARK2_DIMSTYLE
100
AcDbAlignedDimension
 13
363.919313177944
 23
215.723137342811
 33
0.0
 14
415.919313177944
 24
215.723137342811
 34
0.0
100
AcDbRotatedDimension
1001
ACAD
1000
DSTYLE
1002
{
1070
    41
1040
4.0
1002
}
  0
LINE
  5
117
330
A
100
AcDbEntity
  8
HLL-SQ53_1_2
  6
Continuous
 62
     7
100
AcDbLine
 10
125.791576576072
 20
224.47313734281
 30
0.0
 11
156.491576576071
 21
224.47313734281
 31
0.0
  0
DIMENSION
  5
118
330
A
100
AcDbEntity
  8
HLL-SQ53_1_2
  6
Continuous
 62
     7
100
AcDbDimension
  2
*D4
 10
76.49157657607199
 20
267.72313734281
 30
0.0
 11
74.49157657607199
 21
242.72313734281
 31
0.0
 71
     5
 42
-1.0
  3
MARK2_DIMSTYLE
100
AcDbAlignedDimension
 13
104.4915765760719
 23
217.72313734281
 33
0.0
 14
104.4915765760719
 24
267.72313734281
 34
0.0
 50
90.0
100
AcDbRotatedDimension
1001
ACAD
1000
DSTYLE
1002
{
1070
    41
1040
4.0
1002
}
  0
DIMENSION
  5
119
330
A
100
AcDbEntity
  8
HLL-SQ53_1_2
  6
Continuous
 62
     7
100
AcDbDimension
  2
*D5
 10
329.06157657607
 20
175.723137342811
 30
0.0
 11
212.776576576071
 21
177.723137342811
 31
0.0
 71
     5
 42
-1.0
  3
MARK2_DIMSTYLE
100
AcDbAlignedDimension
 13
96.49157657607201
 23
225.47313734281
 33
0.0
 14
329.06157657607
 24
215.72313734281
 34
0.0
100
AcDbRotatedDimension
1001
ACAD
1000
DSTYLE
1002
{
1070
    41
1040
4.0
1002
}
  0
DIMENSION
  5
11A
330
A
100
AcDbEntity
  8
HLL-SQ53_1_2
  6
Continuous
 62
     7
100
AcDbDimension
  2
*D6
 10
303.111576576071
 20
195.723137342811
 30
0.0
 11
203.801576576071
 21
197.723137342811
 31
0.0
 71
     5
 42
-1.0
  3
MARK2_DIMSTYLE
100
AcDbAlignedDimension
 13
104.4915765760719
 23
217.72313734281
 33
0.0
 14
303.111576576071
 24
213.4546531687609
 34
0.0
100
AcDbRotatedDimension
1001
ACAD
1000
DSTYLE
1002
{
1070
    41
1040
4.0
1002
}
  0
LWPOLYLINE
  5
11B
330
A
100
AcDbEntity
  8
HLL-SQ53_1_2
  6
Continuous
 62
     7
100
AcDbPolyline
 90
        2
 70
     0
 43
0.0
 10
104.4915765760719
 20
282.72313734281
 10
196.681566942149
 20
282.72313734281
  0
LWPOLYLINE
  5
11F
330
A
100
AcDbEntity
  8
HLL-SQ53_1_2
  6
Continuous
 62
     7
100
AcDbPolyline
 90
        3
 70
     0
 43
0.0
 10
108.491576576072
 20
283.72313734281
 10
104.4915765760719
 20
282.72313734281
 10
108.491576576072
 20
281.72313734281
  0
TEXT
  5
124
330
A
100
AcDbEntity
  8
HLL-SQ53_1_2
 62
     7
100
AcDbText
 10
109.8092583798432
 20
285.030613317072
 30
0.0
 40
6.0
  1
External Light Source
 41
1.033333333332999
  7
ＭＳ_ゴシック
 72
     1
 11
152.1077355371899
 21
285.030613317072
 31
0.0
100
AcDbText
  0
LWPOLYLINE
  5
125
330
A
100
AcDbEntity
  8
HLL-SQ53_1_2
  6
Continuous
 62
     7
100
AcDbPolyline
 90
        2
 70
     0
 43
0.0
 10
104.4915765760719
 20
269.72313734281
 10
104.4915765760719
 20
309.72313734281
  0
DIMENSION
  5
129
330
A
100
AcDbEntity
  8
HLL-SQ53_1_2
  6
Continuous
 62
     7
100
AcDbDimension
  2
*D7
 10
179.403942115822
 20
257.72313734281
 30
0.0
 11
177.4039421158219
 21
210.9538997316289
 31
0.0
 71
     5
 42
-1.0
  3
MARK2_DIMSTYLE
100
AcDbAlignedDimension
 13
156.4915765760719
 23
227.72313734281
 33
0.0
 14
156.491576576071
 24
257.72313734281
 34
0.0
 50
90.0
100
AcDbRotatedDimension
1001
ACAD
1000
DSTYLE
1002
{
1070
    41
1040
4.0
1002
}
  0
LEADER
  5
12A
330
A
100
AcDbEntity
  8
HLL-SQ53_1_2
  6
Continuous
 62
     7
100
AcDbLeader
  3
MARK2_DIMSTYLE
 73
     0
 74
     0
 40
8.0
 41
64.0
 76
     3
 10
250.26657657607
 20
261.72313734281
 30
0.0
 10
276.26657657607
 20
287.72313734281
 30
0.0
 10
284.912972675736
 20
287.72313734281
 30
0.0
340
12B
  0
MTEXT
  5
12B
330
A
100
AcDbEntity
  8
HLL-SQ53_1_2
 62
     7
100
AcDbMText
 10
345.192784843559
 20
289.72313734281
 30
0.0
 40
6.0
 41
67.2
 71
     9
 72
     5
  1
\W1.034;Adjustment Screw
  7
ＭＳ_ゴシック
 73
     1
 44
1.0
  0
DIMENSION
  5
12C
330
A
100
AcDbEntity
  8
HLL-SQ53_1_2
  6
Continuous
 62
     7
100
AcDbDimension
  2
*D8
 10
275.0615765760709
 20
206.9538997316289
 30
0.0
 11
240.861731637882
 21
208.9538997316289
 31
0.0
 71
     5
 42
-1.0
  3
MARK2_DIMSTYLE
100
AcDbAlignedDimension
 13
263.5165765760699
 23
224.22313734281
 33
0.0
 14
275.0615765760709
 24
215.723137342811
 34
0.0
100
AcDbRotatedDimension
1001
ACAD
1000
DSTYLE
1002
{
1070
    41
1040
4.0
1002
}
  0
TEXT
  5
12D
330
A
100
AcDbEntity
  8
HLL-SQ53_1_2
 62
     7
100
AcDbText
 10
109.7041877983798
 20
295.0306133170719
 30
0.0
 40
6.0
  1
光源外部
 41
1.033333333332999
  7
ＭＳ_ゴシック
 72
     1
 11
125.817893382131
 21
295.0306133170719
 31
0.0
100
AcDbText
  0
INSERT
  5
12E
330
A
100
AcDbEntity
  8
HLL-SQ53_1_2
  6
Continuous
 62
    96
100
AcDbBlockReference
  2
HATCHING__PATTERN_$8$
 10
0.0
 20
0.0
 30
0.0
  0
INSERT
  5
12F
330
A
100
AcDbEntity
  8
HLL-SQ53_1_2
  6
Continuous
 62
    96
100
AcDbBlockReference
  2
HATCHING__PATTERN_$9$
 10
0.0
 20
0.0
 30
0.0
  0
INSERT
  5
130
330
A
100
AcDbEntity
  8
HLL-SQ53_1_2
  6
Continuous
 62
    96
100
AcDbBlockReference
  2
HATCHING__PATTERN_$10$
 10
0.0
 20
0.0
 30
0.0
  0
INSERT
  5
131
330
A
100
AcDbEntity
  8
HLL-SQ53_1_2
  6
Continuous
 62
    96
100
AcDbBlockReference
  2
HATCHING__PATTERN_$11$
 10
0.0
 20
0.0
 30
0.0
  0
INSERT
  5
132
330
A
100
AcDbEntity
  8
HLL-SQ53_1_2
  6
Continuous
 62
    96
100
AcDbBlockReference
  2
HATCHING__PATTERN_$12$
 10
0.0
 20
0.0
 30
0.0
  0
ENDSEC
  0
SECTION
  2
OBJECTS
  0
DICTIONARY
  5
19
330
0
100
AcDbDictionary
281
     1
  3
ACAD_GROUP
350
1A
  3
ACAD_LAYOUT
350
13A
  3
ACAD_MLINESTYLE
350
1B
  3
ACAD_PLOTSETTINGS
350
13B
  3
ACAD_PLOTSTYLENAME
350
138
  0
DICTIONARY
  5
1A
102
{ACAD_REACTORS
330
19
102
}
330
19
100
AcDbDictionary
281
     1
  0
DICTIONARY
  5
13A
102
{ACAD_REACTORS
330
19
102
}
330
19
100
AcDbDictionary
281
     1
  3
Model
350
13C
  3
ﾚｲｱｳﾄ1
350
13D
  0
DICTIONARY
  5
1B
102
{ACAD_REACTORS
330
19
102
}
330
19
100
AcDbDictionary
281
     1
  3
STANDARD
350
1C
  0
DICTIONARY
  5
13B
102
{ACAD_REACTORS
330
19
102
}
330
19
100
AcDbDictionary
281
     1
  0
ACDBDICTIONARYWDFLT
  5
138
102
{ACAD_REACTORS
330
19
102
}
330
19
100
AcDbDictionary
281
     1
  3
Normal
350
139
100
AcDbDictionaryWithDefault
340
139
  0
LAYOUT
  5
13C
102
{ACAD_REACTORS
330
13A
102
}
330
13A
100
AcDbPlotSettings
  1

  2
\\HCTD010A\RICOH imagio MP C4500 RPCS
  4

  6

 40
0.0
 41
0.0
 42
0.0
 43
0.0
 44
0.0
 45
0.0
 46
0.0
 47
0.0
 48
0.0
 49
0.0
140
0.0
141
0.0
142
1.0
143
1.0
 70
  1712
 72
     0
 73
     0
 74
     0
  7

 75
     0
147
1.0
148
0.0
149
0.0
100
AcDbLayout
  1
Model
 70
     1
 71
     0
 10
0.0
 20
0.0
 11
12.0
 21
9.0
 12
0.0
 22
0.0
 32
0.0
 14
0.0
 24
0.0
 34
0.0
 15
0.0
 25
0.0
 35
0.0
146
0.0
 13
0.0
 23
0.0
 33
0.0
 16
1.0
 26
0.0
 36
0.0
 17
0.0
 27
1.0
 37
0.0
 76
     0
330
A
  0
LAYOUT
  5
13D
102
{ACAD_REACTORS
330
13A
102
}
330
13A
100
AcDbPlotSettings
  1

  2
\\HCTD010A\RICOH imagio MP C4500 RPCS
  4

  6

 40
0.0
 41
0.0
 42
0.0
 43
0.0
 44
0.0
 45
0.0
 46
0.0
 47
0.0
 48
0.0
 49
0.0
140
0.0
141
0.0
142
1.0
143
1.0
 70
   688
 72
     0
 73
     0
 74
     5
  7

 75
    16
147
1.0
148
0.0
149
0.0
100
AcDbLayout
  1
ﾚｲｱｳﾄ1
 70
     0
 71
     1
 10
0.0
 20
0.0
 11
12.0
 21
9.0
 12
0.0
 22
0.0
 32
0.0
 14
1.000000000000000E+20
 24
1.000000000000000E+20
 34
1.000000000000000E+20
 15
-1.000000000000000E+20
 25
-1.000000000000000E+20
 35
-1.000000000000000E+20
146
0.0
 13
0.0
 23
0.0
 33
0.0
 16
1.0
 26
0.0
 36
0.0
 17
0.0
 27
1.0
 37
0.0
 76
     0
330
B
  0
MLINESTYLE
  5
1C
102
{ACAD_REACTORS
330
1B
102
}
330
1B
100
AcDbMlineStyle
  2
STANDARD
 70
     0
  3

 62
     0
 51
90.0
 52
90.0
 71
     2
 49
0.5
 62
   256
  6
BYLAYER
 49
-0.5
 62
   256
  6
BYLAYER
  0
ACDBPLACEHOLDER
  5
139
102
{ACAD_REACTORS
330
138
102
}
330
138
  0
ENDSEC
  0
EOF
