  0
SECTION
  2
HEADER
  9
$ACADVER
  1
AC1015
  9
$ACADMAINTVER
 70
    10
  9
$DWGCODEPAGE
  3
ANSI_932
  9
$INSBASE
 10
0.0
 20
0.0
 30
0.0
  9
$EXTMIN
 10
-21.0368950849363
 20
29.68185477154548
 30
-0.0015258207003583
  9
$EXTMAX
 10
243.9183203318602
 20
150.7099918749998
 30
0.0000000349246037
  9
$LIMMIN
 10
0.0
 20
0.0
  9
$LIMMAX
 10
297.0
 20
210.0
  9
$ORTHOMODE
 70
     0
  9
$REGENMODE
 70
     1
  9
$FILLMODE
 70
     1
  9
$QTEXTMODE
 70
     0
  9
$MIRRTEXT
 70
     1
  9
$LTSCALE
 40
1.0
  9
$ATTMODE
 70
     1
  9
$TEXTSIZE
 40
0.2
  9
$TRACEWID
 40
1.0
  9
$TEXTSTYLE
  7
STYLE004
  9
$CLAYER
  8
0
  9
$CELTYPE
  6
ByLayer
  9
$CECOLOR
 62
   256
  9
$CELTSCALE
 40
1.0
  9
$DISPSILH
 70
     0
  9
$DIMSCALE
 40
1.0
  9
$DIMASZ
 40
3.0
  9
$DIMEXO
 40
1.0
  9
$DIMDLI
 40
10.0
  9
$DIMRND
 40
0.0
  9
$DIMDLE
 40
5.0
  9
$DIMEXE
 40
1.5
  9
$DIMTP
 40
0.0
  9
$DIMTM
 40
0.0
  9
$DIMTXT
 40
3.0
  9
$DIMCEN
 40
2.5
  9
$DIMTSZ
 40
0.0
  9
$DIMTOL
 70
     0
  9
$DIMLIM
 70
     0
  9
$DIMTIH
 70
     0
  9
$DIMTOH
 70
     0
  9
$DIMSE1
 70
     0
  9
$DIMSE2
 70
     0
  9
$DIMTAD
 70
     1
  9
$DIMZIN
 70
     8
  9
$DIMBLK
  1

  9
$DIMASO
 70
     1
  9
$DIMSHO
 70
     1
  9
$DIMPOST
  1

  9
$DIMAPOST
  1

  9
$DIMALT
 70
     0
  9
$DIMALTD
 70
     3
  9
$DIMALTF
 40
0.03937
  9
$DIMLFAC
 40
1.0
  9
$DIMTOFL
 70
     1
  9
$DIMTVP
 40
0.0
  9
$DIMTIX
 70
     0
  9
$DIMSOXD
 70
     0
  9
$DIMSAH
 70
     1
  9
$DIMBLK1
  1
FXTIP_ARROW_S
  9
$DIMBLK2
  1
FXTIP_ARROW_E
  9
$DIMSTYLE
  2
FXDIMINFO
  9
$DIMCLRD
 70
     7
  9
$DIMCLRE
 70
     7
  9
$DIMCLRT
 70
     7
  9
$DIMTFAC
 40
1.0
  9
$DIMGAP
 40
0.5
  9
$DIMJUST
 70
     0
  9
$DIMSD1
 70
     0
  9
$DIMSD2
 70
     0
  9
$DIMTOLJ
 70
     1
  9
$DIMTZIN
 70
     8
  9
$DIMALTZ
 70
     0
  9
$DIMALTTZ
 70
     0
  9
$DIMUPT
 70
     0
  9
$DIMDEC
 70
     2
  9
$DIMTDEC
 70
     2
  9
$DIMALTU
 70
     2
  9
$DIMALTTD
 70
     3
  9
$DIMTXSTY
  7
STYLE004
  9
$DIMAUNIT
 70
     0
  9
$DIMADEC
 70
     2
  9
$DIMALTRND
 40
0.0
  9
$DIMAZIN
 70
     0
  9
$DIMDSEP
 70
    46
  9
$DIMATFIT
 70
     3
  9
$DIMFRAC
 70
     0
  9
$DIMLDRBLK
  1
FXTIP_ARROW_S
  9
$DIMLUNIT
 70
     2
  9
$DIMLWD
 70
    -2
  9
$DIMLWE
 70
    -2
  9
$DIMTMOVE
 70
     0
  9
$LUNITS
 70
     2
  9
$LUPREC
 70
     4
  9
$SKETCHINC
 40
1.0
  9
$FILLETRAD
 40
10.0
  9
$AUNITS
 70
     0
  9
$AUPREC
 70
     0
  9
$MENU
  1
.
  9
$ELEVATION
 40
0.0
  9
$PELEVATION
 40
0.0
  9
$THICKNESS
 40
0.0
  9
$LIMCHECK
 70
     0
  9
$CHAMFERA
 40
10.0
  9
$CHAMFERB
 40
10.0
  9
$CHAMFERC
 40
20.0
  9
$CHAMFERD
 40
0.0
  9
$SKPOLY
 70
     0
  9
$TDCREATE
 40
2456668.792104895
  9
$TDUCREATE
 40
2456668.417104896
  9
$TDUPDATE
 40
2456669.817935590
  9
$TDUUPDATE
 40
2456669.442935590
  9
$TDINDWG
 40
0.0008718750
  9
$TDUSRTIMER
 40
0.0008651736
  9
$USRTIMER
 70
     1
  9
$ANGBASE
 50
0.0
  9
$ANGDIR
 70
     0
  9
$PDMODE
 70
     0
  9
$PDSIZE
 40
0.0
  9
$PLINEWID
 40
0.0
  9
$SPLFRAME
 70
     0
  9
$SPLINETYPE
 70
     6
  9
$SPLINESEGS
 70
     8
  9
$HANDSEED
  5
3A3
  9
$SURFTAB1
 70
     6
  9
$SURFTAB2
 70
     6
  9
$SURFTYPE
 70
     6
  9
$SURFU
 70
     6
  9
$SURFV
 70
     6
  9
$UCSBASE
  2

  9
$UCSNAME
  2

  9
$UCSORG
 10
0.0
 20
0.0
 30
0.0
  9
$UCSXDIR
 10
1.0
 20
0.0
 30
0.0
  9
$UCSYDIR
 10
0.0
 20
1.0
 30
0.0
  9
$UCSORTHOREF
  2

  9
$UCSORTHOVIEW
 70
     0
  9
$UCSORGTOP
 10
0.0
 20
0.0
 30
0.0
  9
$UCSORGBOTTOM
 10
0.0
 20
0.0
 30
0.0
  9
$UCSORGLEFT
 10
0.0
 20
0.0
 30
0.0
  9
$UCSORGRIGHT
 10
0.0
 20
0.0
 30
0.0
  9
$UCSORGFRONT
 10
0.0
 20
0.0
 30
0.0
  9
$UCSORGBACK
 10
0.0
 20
0.0
 30
0.0
  9
$PUCSBASE
  2

  9
$PUCSNAME
  2

  9
$PUCSORG
 10
0.0
 20
0.0
 30
0.0
  9
$PUCSXDIR
 10
1.0
 20
0.0
 30
0.0
  9
$PUCSYDIR
 10
0.0
 20
1.0
 30
0.0
  9
$PUCSORTHOREF
  2

  9
$PUCSORTHOVIEW
 70
     0
  9
$PUCSORGTOP
 10
0.0
 20
0.0
 30
0.0
  9
$PUCSORGBOTTOM
 10
0.0
 20
0.0
 30
0.0
  9
$PUCSORGLEFT
 10
0.0
 20
0.0
 30
0.0
  9
$PUCSORGRIGHT
 10
0.0
 20
0.0
 30
0.0
  9
$PUCSORGFRONT
 10
0.0
 20
0.0
 30
0.0
  9
$PUCSORGBACK
 10
0.0
 20
0.0
 30
0.0
  9
$USERI1
 70
     0
  9
$USERI2
 70
     0
  9
$USERI3
 70
     0
  9
$USERI4
 70
     0
  9
$USERI5
 70
     0
  9
$USERR1
 40
0.0
  9
$USERR2
 40
0.0
  9
$USERR3
 40
0.0
  9
$USERR4
 40
0.0
  9
$USERR5
 40
0.0
  9
$WORLDVIEW
 70
     1
  9
$SHADEDGE
 70
     3
  9
$SHADEDIF
 70
    70
  9
$TILEMODE
 70
     1
  9
$MAXACTVP
 70
    64
  9
$PINSBASE
 10
0.0
 20
0.0
 30
0.0
  9
$PLIMCHECK
 70
     0
  9
$PEXTMIN
 10
1.000000000000000E+20
 20
1.000000000000000E+20
 30
1.000000000000000E+20
  9
$PEXTMAX
 10
-1.000000000000000E+20
 20
-1.000000000000000E+20
 30
-1.000000000000000E+20
  9
$PLIMMIN
 10
0.0
 20
0.0
  9
$PLIMMAX
 10
420.0
 20
297.0
  9
$UNITMODE
 70
     0
  9
$VISRETAIN
 70
     1
  9
$PLINEGEN
 70
     0
  9
$PSLTSCALE
 70
     1
  9
$TREEDEPTH
 70
  3020
  9
$CMLSTYLE
  2
Standard
  9
$CMLJUST
 70
     0
  9
$CMLSCALE
 40
20.0
  9
$PROXYGRAPHICS
 70
     1
  9
$MEASUREMENT
 70
     1
  9
$CELWEIGHT
370
    -1
  9
$ENDCAPS
280
     0
  9
$JOINSTYLE
280
     0
  9
$LWDISPLAY
290
     0
  9
$INSUNITS
 70
     4
  9
$HYPERLINKBASE
  1

  9
$STYLESHEET
  1

  9
$XEDIT
290
     1
  9
$CEPSNTYPE
380
     0
  9
$PSTYLEMODE
290
     1
  9
$FINGERPRINTGUID
  2
{AACEAEBD-AFD7-4C7F-A612-F6A6271F1C78}
  9
$VERSIONGUID
  2
{1235AF07-F9E6-40F9-81D2-D4565C51913A}
  9
$EXTNAMES
290
     1
  9
$PSVPSCALE
 40
0.0
  9
$OLESTARTUP
290
     0
  0
ENDSEC
  0
SECTION
  2
CLASSES
  0
CLASS
  1
ACDBDICTIONARYWDFLT
  2
AcDbDictionaryWithDefault
  3
AutoCAD 2000
 90
        0
280
     0
281
     0
  0
CLASS
  1
VISUALSTYLE
  2
AcDbVisualStyle
  3
ObjectDBX Classes
 90
     4095
280
     0
281
     0
  0
CLASS
  1
DICTIONARYVAR
  2
AcDbDictionaryVar
  3
AutoCAD 2000
 90
        0
280
     0
281
     0
  0
CLASS
  1
ACDBPLACEHOLDER
  2
AcDbPlaceHolder
  3
AutoCAD 2000
 90
        0
280
     0
281
     0
  0
CLASS
  1
LAYOUT
  2
AcDbLayout
  3
AutoCAD 2000
 90
        0
280
     0
281
     0
  0
ENDSEC
  0
SECTION
  2
TABLES
  0
TABLE
  2
VPORT
  5
8
330
0
100
AcDbSymbolTable
 70
     3
  0
VPORT
  5
3A2
330
8
100
AcDbSymbolTableRecord
100
AcDbViewportTableRecord
  2
*Active
 70
     0
 10
0.0
 20
0.0
 11
1.0
 21
1.0
 12
137.9815524575318
 22
105.0
 13
0.0
 23
0.0
 14
10.0
 24
10.0
 15
10.0
 25
10.0
 16
0.0
 26
0.0
 36
1.0
 17
0.0
 27
0.0
 37
0.0
 40
212.2340425531914
 41
2.119005328596802
 42
50.0
 43
0.0
 44
0.0
 50
0.0
 51
0.0
 71
     0
 72
   100
 73
     1
 74
     3
 75
     0
 76
     0
 77
     0
 78
     0
281
     0
 65
     1
110
0.0
120
0.0
130
0.0
111
1.0
121
0.0
131
0.0
112
0.0
122
1.0
132
0.0
 79
     0
146
0.0
  0
ENDTAB
  0
TABLE
  2
LTYPE
  5
5
330
0
100
AcDbSymbolTable
 70
     3
  0
LTYPE
  5
14
330
5
100
AcDbSymbolTableRecord
100
AcDbLinetypeTableRecord
  2
ByBlock
 70
     0
  3

 72
    65
 73
     0
 40
0.0
  0
LTYPE
  5
15
330
5
100
AcDbSymbolTableRecord
100
AcDbLinetypeTableRecord
  2
ByLayer
 70
     0
  3

 72
    65
 73
     0
 40
0.0
  0
LTYPE
  5
16
330
5
100
AcDbSymbolTableRecord
100
AcDbLinetypeTableRecord
  2
Continuous
 70
     0
  3
Continuous ___________________________________
 72
    65
 73
     0
 40
0.0
  0
LTYPE
  5
3B
330
5
100
AcDbSymbolTableRecord
100
AcDbLinetypeTableRecord
  2
DASHDOT
 70
     0
  3
Dash dot __ . __ . __ . __ . __ . __ . __ . __
 72
    65
 73
     4
 40
25.3
 49
12.7
 74
     0
 49
-6.299999999999999
 74
     0
 49
0.0
 74
     0
 49
-6.299999999999999
 74
     0
  0
LTYPE
  5
3E
330
5
100
AcDbSymbolTableRecord
100
AcDbLinetypeTableRecord
  2
DASHED
 70
     0
  3
Dashed __ __ __ __ __ __ __ __ __ __ __ __ __ _
 72
    65
 73
     2
 40
19.0
 49
12.7
 74
     0
 49
-6.299999999999999
 74
     0
  0
ENDTAB
  0
TABLE
  2
LAYER
  5
2
330
0
100
AcDbSymbolTable
 70
     5
  0
LAYER
  5
10
330
2
100
AcDbSymbolTableRecord
100
AcDbLayerTableRecord
  2
0
 70
     0
 62
     7
  6
Continuous
370
    -3
390
F
  0
LAYER
  5
AA
330
2
100
AcDbSymbolTableRecord
100
AcDbLayerTableRecord
  2
Defpoints
 70
     0
 62
     7
  6
Continuous
290
     0
370
    -3
390
F
  0
LAYER
  5
AF
330
2
100
AcDbSymbolTableRecord
100
AcDbLayerTableRecord
  2
LAYER004
 70
     0
 62
     7
  6
Continuous
370
    -3
390
F
  0
LAYER
  5
CA
330
2
100
AcDbSymbolTableRecord
100
AcDbLayerTableRecord
  2
LAYER005
 70
     0
 62
     7
  6
Continuous
370
    -3
390
F
  0
LAYER
  5
12D
330
2
100
AcDbSymbolTableRecord
100
AcDbLayerTableRecord
  2
LAYER006
 70
     0
 62
     7
  6
Continuous
370
    -3
390
F
  0
ENDTAB
  0
TABLE
  2
STYLE
  5
3
330
0
100
AcDbSymbolTable
 70
     4
  0
STYLE
  5
11
330
3
100
AcDbSymbolTableRecord
100
AcDbTextStyleTableRecord
  2
Standard
 70
     0
 40
0.0
 41
1.0
 50
0.0
 71
     0
 42
2.5
  3
txt
  4

  0
STYLE
  5
41
330
3
100
AcDbSymbolTableRecord
100
AcDbTextStyleTableRecord
  2
FX_VECTOR
 70
     0
 40
0.0
 41
1.0
 50
0.0
 71
     0
 42
0.2
  3
MONOTXT.SHX
  4
BigFont.shx
  0
STYLE
  5
A9
330
3
100
AcDbSymbolTableRecord
100
AcDbTextStyleTableRecord
  2
STYLE004
 70
     0
 40
0.0
 41
1.0
 50
0.0
 71
     0
 42
0.2
  3

  4

1001
ACAD
1000
ＭＳ ゴシック
1071
    32817
  0
STYLE
  5
B0
330
3
100
AcDbSymbolTableRecord
100
AcDbTextStyleTableRecord
  2
STYLE005
 70
     0
 40
0.0
 41
1.0
 50
0.0
 71
     0
 42
0.2
  3

  4

1001
ACAD
1000
ＭＳ 明朝
1071
    32785
  0
ENDTAB
  0
TABLE
  2
VIEW
  5
6
330
0
100
AcDbSymbolTable
 70
     0
  0
ENDTAB
  0
TABLE
  2
UCS
  5
7
330
0
100
AcDbSymbolTable
 70
     0
  0
ENDTAB
  0
TABLE
  2
APPID
  5
9
330
0
100
AcDbSymbolTable
 70
     1
  0
APPID
  5
12
330
9
100
AcDbSymbolTableRecord
100
AcDbRegAppTableRecord
  2
ACAD
 70
     0
  0
ENDTAB
  0
TABLE
  2
DIMSTYLE
  5
A
330
0
100
AcDbSymbolTable
 70
     2
100
AcDbDimStyleTable
 71
     0
  0
DIMSTYLE
105
27
330
A
100
AcDbSymbolTableRecord
100
AcDbDimStyleTableRecord
  2
ISO-25
 70
     0
 41
2.5
 42
0.625
 43
3.75
 44
1.25
 73
     0
 74
     0
 77
     1
 78
     8
140
2.5
141
2.5
143
0.03937007874016
147
0.625
171
     3
172
     1
271
     2
272
     2
274
     3
278
    44
283
     0
284
     8
340
11
  0
DIMSTYLE
105
A8
102
{ACAD_REACTORS
330
12C
330
13B
330
14D
330
15A
330
165
330
16F
330
179
330
186
330
245
330
279
102
}
330
A
100
AcDbSymbolTableRecord
100
AcDbDimStyleTableRecord
  2
FXDIMINFO
 70
     0
 41
3.0
 42
1.0
 43
10.0
 44
1.5
 46
5.0
 73
     0
 74
     0
 77
     1
 78
     8
140
3.0
141
2.5
143
0.03937
147
0.5
171
     3
172
     1
173
     1
176
     7
177
     7
178
     7
179
     2
271
     2
272
     2
274
     3
284
     8
340
A9
341
42
343
42
344
48
  0
ENDTAB
  0
TABLE
  2
BLOCK_RECORD
  5
1
330
0
100
AcDbSymbolTable
 70
    48
  0
BLOCK_RECORD
  5
1F
330
1
100
AcDbSymbolTableRecord
100
AcDbBlockTableRecord
  2
*Model_Space
340
22
  0
BLOCK_RECORD
  5
1B
330
1
100
AcDbSymbolTableRecord
100
AcDbBlockTableRecord
  2
*Paper_Space
340
1E
  0
BLOCK_RECORD
  5
23
330
1
100
AcDbSymbolTableRecord
100
AcDbBlockTableRecord
  2
*Paper_Space0
340
26
  0
BLOCK_RECORD
  5
42
330
1
100
AcDbSymbolTableRecord
100
AcDbBlockTableRecord
  2
FXTIP_ARROW_S
340
0
102
{BLKREFS
331
138
331
141
331
14A
331
153
331
160
331
16B
331
175
331
17F
331
18C
331
197
331
19F
331
1A8
331
24B
331
284
331
296
331
29F
331
2A8
331
2B1
331
2BA
331
2C3
331
2CC
331
2D5
331
2DE
331
2E7
331
2F0
331
2F9
331
302
331
30B
331
314
331
31D
331
326
331
32F
331
338
331
341
331
34A
331
353
331
35C
331
365
331
36E
331
377
331
380
331
389
331
392
331
39B
102
}
  0
BLOCK_RECORD
  5
48
330
1
100
AcDbSymbolTableRecord
100
AcDbBlockTableRecord
  2
FXTIP_ARROW_E
340
0
102
{BLKREFS
331
136
331
142
331
154
331
161
331
16C
331
176
331
180
331
18D
331
24C
331
282
331
297
331
2A0
331
2A9
331
2B2
331
2BB
331
2C4
331
2CD
331
2D6
331
2DF
331
2E8
331
2F1
331
2FA
331
303
331
30C
331
315
331
31E
331
327
331
330
331
339
331
342
331
34B
331
354
331
35D
331
366
331
36F
331
378
331
381
331
38A
331
393
331
39C
102
}
  0
BLOCK_RECORD
  5
4E
330
1
100
AcDbSymbolTableRecord
100
AcDbBlockTableRecord
  2
FXTIP_BLACKDOT_S
340
0
  0
BLOCK_RECORD
  5
54
330
1
100
AcDbSymbolTableRecord
100
AcDbBlockTableRecord
  2
FXTIP_BLACKDOT_E
340
0
  0
BLOCK_RECORD
  5
5A
330
1
100
AcDbSymbolTableRecord
100
AcDbBlockTableRecord
  2
FXTIP_TRIANGLE_S
340
0
  0
BLOCK_RECORD
  5
61
330
1
100
AcDbSymbolTableRecord
100
AcDbBlockTableRecord
  2
FXTIP_TRIANGLE_E
340
0
  0
BLOCK_RECORD
  5
68
330
1
100
AcDbSymbolTableRecord
100
AcDbBlockTableRecord
  2
FXTIP_ARCHITECT_S
340
0
  0
BLOCK_RECORD
  5
6E
330
1
100
AcDbSymbolTableRecord
100
AcDbBlockTableRecord
  2
FXTIP_ARCHITECT_E
340
0
  0
BLOCK_RECORD
  5
74
330
1
100
AcDbSymbolTableRecord
100
AcDbBlockTableRecord
  2
FXTIP_CIVIL_S
340
0
  0
BLOCK_RECORD
  5
7A
330
1
100
AcDbSymbolTableRecord
100
AcDbBlockTableRecord
  2
FXTIP_CIVIL_E
340
0
  0
BLOCK_RECORD
  5
80
330
1
100
AcDbSymbolTableRecord
100
AcDbBlockTableRecord
  2
FXTIP_WHITEDOT_S
340
0
  0
BLOCK_RECORD
  5
85
330
1
100
AcDbSymbolTableRecord
100
AcDbBlockTableRecord
  2
FXTIP_WHITEDOT_E
340
0
  0
BLOCK_RECORD
  5
8A
330
1
100
AcDbSymbolTableRecord
100
AcDbBlockTableRecord
  2
FXTIP_UPARROW_S
340
0
  0
BLOCK_RECORD
  5
8F
330
1
100
AcDbSymbolTableRecord
100
AcDbBlockTableRecord
  2
FXTIP_UPARROW_E
340
0
  0
BLOCK_RECORD
  5
94
330
1
100
AcDbSymbolTableRecord
100
AcDbBlockTableRecord
  2
FXTIP_DOWNARROW_S
340
0
  0
BLOCK_RECORD
  5
99
330
1
100
AcDbSymbolTableRecord
100
AcDbBlockTableRecord
  2
FXTIP_DOWNARROW_E
340
0
  0
BLOCK_RECORD
  5
9E
330
1
100
AcDbSymbolTableRecord
100
AcDbBlockTableRecord
  2
FXTIP_BLACKTRIANGLE_S
340
0
  0
BLOCK_RECORD
  5
A3
330
1
100
AcDbSymbolTableRecord
100
AcDbBlockTableRecord
  2
FXTIP_BLACKTRIANGLE_E
340
0
  0
BLOCK_RECORD
  5
AB
330
1
100
AcDbSymbolTableRecord
100
AcDbBlockTableRecord
  2
BLKF021
340
0
102
{BLKREFS
331
AE
102
}
  0
BLOCK_RECORD
  5
C6
330
1
100
AcDbSymbolTableRecord
100
AcDbBlockTableRecord
  2
BLKF022
340
0
102
{BLKREFS
331
C9
102
}
  0
BLOCK_RECORD
  5
10E
330
1
100
AcDbSymbolTableRecord
100
AcDbBlockTableRecord
  2
BLKF023
340
0
102
{BLKREFS
331
111
102
}
  0
BLOCK_RECORD
  5
119
330
1
100
AcDbSymbolTableRecord
100
AcDbBlockTableRecord
  2
BLKF024
340
0
102
{BLKREFS
331
11C
102
}
  0
BLOCK_RECORD
  5
12E
330
1
100
AcDbSymbolTableRecord
100
AcDbBlockTableRecord
  2
*D23
340
0
  0
BLOCK_RECORD
  5
13C
330
1
100
AcDbSymbolTableRecord
100
AcDbBlockTableRecord
  2
*D24
340
0
  0
BLOCK_RECORD
  5
145
330
1
100
AcDbSymbolTableRecord
100
AcDbBlockTableRecord
  2
FXDIM027
340
0
102
{BLKREFS
331
148
102
}
  0
BLOCK_RECORD
  5
14E
330
1
100
AcDbSymbolTableRecord
100
AcDbBlockTableRecord
  2
*D26
340
0
  0
BLOCK_RECORD
  5
15B
330
1
100
AcDbSymbolTableRecord
100
AcDbBlockTableRecord
  2
*D27
340
0
  0
BLOCK_RECORD
  5
166
330
1
100
AcDbSymbolTableRecord
100
AcDbBlockTableRecord
  2
*D28
340
0
  0
BLOCK_RECORD
  5
170
330
1
100
AcDbSymbolTableRecord
100
AcDbBlockTableRecord
  2
*D29
340
0
  0
BLOCK_RECORD
  5
17A
330
1
100
AcDbSymbolTableRecord
100
AcDbBlockTableRecord
  2
*D30
340
0
  0
BLOCK_RECORD
  5
187
330
1
100
AcDbSymbolTableRecord
100
AcDbBlockTableRecord
  2
*D31
340
0
  0
BLOCK_RECORD
  5
192
330
1
100
AcDbSymbolTableRecord
100
AcDbBlockTableRecord
  2
FXDIM034
340
0
102
{BLKREFS
331
195
102
}
  0
BLOCK_RECORD
  5
19A
330
1
100
AcDbSymbolTableRecord
100
AcDbBlockTableRecord
  2
FXDIM035
340
0
102
{BLKREFS
331
19D
102
}
  0
BLOCK_RECORD
  5
1A3
330
1
100
AcDbSymbolTableRecord
100
AcDbBlockTableRecord
  2
FXDIM036
340
0
102
{BLKREFS
331
1A6
102
}
  0
BLOCK_RECORD
  5
1AB
330
1
100
AcDbSymbolTableRecord
100
AcDbBlockTableRecord
  2
BLKF037
340
0
102
{BLKREFS
331
1AE
102
}
  0
BLOCK_RECORD
  5
1BF
330
1
100
AcDbSymbolTableRecord
100
AcDbBlockTableRecord
  2
BLKF038
340
0
102
{BLKREFS
331
1C2
102
}
  0
BLOCK_RECORD
  5
1D6
330
1
100
AcDbSymbolTableRecord
100
AcDbBlockTableRecord
  2
BLKF039
340
0
102
{BLKREFS
331
1D9
102
}
  0
BLOCK_RECORD
  5
1DA
330
1
100
AcDbSymbolTableRecord
100
AcDbBlockTableRecord
  2
BLKF040
340
0
102
{BLKREFS
331
1DD
102
}
  0
BLOCK_RECORD
  5
1EF
330
1
100
AcDbSymbolTableRecord
100
AcDbBlockTableRecord
  2
BLKF041
340
0
102
{BLKREFS
331
1F2
102
}
  0
BLOCK_RECORD
  5
201
330
1
100
AcDbSymbolTableRecord
100
AcDbBlockTableRecord
  2
BLKF042
340
0
102
{BLKREFS
331
204
102
}
  0
BLOCK_RECORD
  5
218
330
1
100
AcDbSymbolTableRecord
100
AcDbBlockTableRecord
  2
BLKF043
340
0
102
{BLKREFS
331
21B
102
}
  0
BLOCK_RECORD
  5
21C
330
1
100
AcDbSymbolTableRecord
100
AcDbBlockTableRecord
  2
BLKF044
340
0
102
{BLKREFS
331
21F
102
}
  0
BLOCK_RECORD
  5
22D
330
1
100
AcDbSymbolTableRecord
100
AcDbBlockTableRecord
  2
BLKF045
340
0
102
{BLKREFS
331
230
102
}
  0
BLOCK_RECORD
  5
246
330
1
100
AcDbSymbolTableRecord
100
AcDbBlockTableRecord
  2
*D44
340
0
  0
BLOCK_RECORD
  5
251
330
1
100
AcDbSymbolTableRecord
100
AcDbBlockTableRecord
  2
BLKF047
340
0
102
{BLKREFS
331
254
102
}
  0
BLOCK_RECORD
  5
255
330
1
100
AcDbSymbolTableRecord
100
AcDbBlockTableRecord
  2
BLKF048
340
0
102
{BLKREFS
331
258
102
}
  0
BLOCK_RECORD
  5
27A
330
1
100
AcDbSymbolTableRecord
100
AcDbBlockTableRecord
  2
*D47
340
0
  0
ENDTAB
  0
ENDSEC
  0
SECTION
  2
BLOCKS
  0
BLOCK
  5
20
330
1F
100
AcDbEntity
  8
0
100
AcDbBlockBegin
  2
*Model_Space
 70
     0
 10
0.0
 20
0.0
 30
0.0
  3
*Model_Space
  1

  0
ENDBLK
  5
21
330
1F
100
AcDbEntity
  8
0
100
AcDbBlockEnd
  0
BLOCK
  5
1C
330
1B
100
AcDbEntity
 67
     1
  8
0
100
AcDbBlockBegin
  2
*Paper_Space
 70
     0
 10
0.0
 20
0.0
 30
0.0
  3
*Paper_Space
  1

  0
ENDBLK
  5
1D
330
1B
100
AcDbEntity
 67
     1
  8
0
100
AcDbBlockEnd
  0
BLOCK
  5
24
330
23
100
AcDbEntity
  8
0
100
AcDbBlockBegin
  2
*Paper_Space0
 70
     0
 10
0.0
 20
0.0
 30
0.0
  3
*Paper_Space0
  1

  0
ENDBLK
  5
25
330
23
100
AcDbEntity
  8
0
100
AcDbBlockEnd
  0
BLOCK
  5
43
330
42
100
AcDbEntity
  8
0
100
AcDbBlockBegin
  2
FXTIP_ARROW_S
 70
     0
 10
0.0
 20
0.0
 30
0.0
  3
FXTIP_ARROW_S
  1

  0
LINE
  5
45
330
42
100
AcDbEntity
  8
0
  6
Continuous
 62
     0
370
    -2
100
AcDbLine
 10
0.0
 20
0.0
 30
0.0
 11
-1.0
 21
0.0000000000000001
 31
0.0
  0
LINE
  5
46
330
42
100
AcDbEntity
  8
0
  6
Continuous
 62
     0
370
    -2
100
AcDbLine
 10
0.0
 20
0.0
 30
0.0
 11
-0.9659258262890684
 21
-0.2588190451025206
 31
0.0
  0
LINE
  5
47
330
42
100
AcDbEntity
  8
0
  6
Continuous
 62
     0
370
    -2
100
AcDbLine
 10
0.0
 20
0.0
 30
0.0
 11
-0.9659258262890684
 21
0.2588190451025209
 31
0.0
  0
ENDBLK
  5
44
330
42
100
AcDbEntity
  8
0
100
AcDbBlockEnd
  0
BLOCK
  5
49
330
48
100
AcDbEntity
  8
0
100
AcDbBlockBegin
  2
FXTIP_ARROW_E
 70
     0
 10
0.0
 20
0.0
 30
0.0
  3
FXTIP_ARROW_E
  1

  0
LINE
  5
4B
330
48
100
AcDbEntity
  8
0
  6
Continuous
 62
     0
370
    -2
100
AcDbLine
 10
0.0
 20
0.0
 30
0.0
 11
-1.0
 21
0.0
 31
0.0
  0
LINE
  5
4C
330
48
100
AcDbEntity
  8
0
  6
Continuous
 62
     0
370
    -2
100
AcDbLine
 10
0.0
 20
0.0
 30
0.0
 11
-0.9659258262890684
 21
0.2588190451025207
 31
0.0
  0
LINE
  5
4D
330
48
100
AcDbEntity
  8
0
  6
Continuous
 62
     0
370
    -2
100
AcDbLine
 10
0.0
 20
0.0
 30
0.0
 11
-0.9659258262890684
 21
-0.2588190451025207
 31
0.0
  0
ENDBLK
  5
4A
330
48
100
AcDbEntity
  8
0
100
AcDbBlockEnd
  0
BLOCK
  5
4F
330
4E
100
AcDbEntity
  8
0
100
AcDbBlockBegin
  2
FXTIP_BLACKDOT_S
 70
     0
 10
0.0
 20
0.0
 30
0.0
  3
FXTIP_BLACKDOT_S
  1

  0
LINE
  5
51
330
4E
100
AcDbEntity
  8
0
  6
Continuous
 62
     0
370
    -2
100
AcDbLine
 10
0.0
 20
0.0
 30
0.0
 11
-1.0
 21
0.0000000000000001
 31
0.0
  0
LWPOLYLINE
  5
52
330
4E
100
AcDbEntity
  8
0
  6
Continuous
 62
     0
370
    -2
100
AcDbPolyline
 90
        2
 70
     1
 43
0.5
 10
-0.25
 20
0.0
 42
1.0
 10
0.25
 20
0.0
 42
1.0
  0
CIRCLE
  5
53
330
4E
100
AcDbEntity
  8
0
  6
Continuous
 62
     0
370
    -2
100
AcDbCircle
 10
0.0
 20
0.0
 30
0.0
 40
0.5
  0
ENDBLK
  5
50
330
4E
100
AcDbEntity
  8
0
100
AcDbBlockEnd
  0
BLOCK
  5
55
330
54
100
AcDbEntity
  8
0
100
AcDbBlockBegin
  2
FXTIP_BLACKDOT_E
 70
     0
 10
0.0
 20
0.0
 30
0.0
  3
FXTIP_BLACKDOT_E
  1

  0
LINE
  5
57
330
54
100
AcDbEntity
  8
0
  6
Continuous
 62
     0
370
    -2
100
AcDbLine
 10
0.0
 20
0.0
 30
0.0
 11
-1.0
 21
0.0
 31
0.0
  0
LWPOLYLINE
  5
58
330
54
100
AcDbEntity
  8
0
  6
Continuous
 62
     0
370
    -2
100
AcDbPolyline
 90
        2
 70
     1
 43
0.5
 10
-0.25
 20
0.0
 42
1.0
 10
0.25
 20
0.0
 42
1.0
  0
CIRCLE
  5
59
330
54
100
AcDbEntity
  8
0
  6
Continuous
 62
     0
370
    -2
100
AcDbCircle
 10
0.0
 20
0.0
 30
0.0
 40
0.5
  0
ENDBLK
  5
56
330
54
100
AcDbEntity
  8
0
100
AcDbBlockEnd
  0
BLOCK
  5
5B
330
5A
100
AcDbEntity
  8
0
100
AcDbBlockBegin
  2
FXTIP_TRIANGLE_S
 70
     0
 10
0.0
 20
0.0
 30
0.0
  3
FXTIP_TRIANGLE_S
  1

  0
LINE
  5
5D
330
5A
100
AcDbEntity
  8
0
  6
Continuous
 62
     0
370
    -2
100
AcDbLine
 10
0.0
 20
0.0
 30
0.0
 11
-1.0
 21
0.0000000000000001
 31
0.0
  0
LINE
  5
5E
330
5A
100
AcDbEntity
  8
0
  6
Continuous
 62
     0
370
    -2
100
AcDbLine
 10
0.0
 20
0.0
 30
0.0
 11
-0.9659258262890684
 21
-0.2588190451025206
 31
0.0
  0
LINE
  5
5F
330
5A
100
AcDbEntity
  8
0
  6
Continuous
 62
     0
370
    -2
100
AcDbLine
 10
0.0
 20
0.0
 30
0.0
 11
-0.9659258262890684
 21
0.2588190451025209
 31
0.0
  0
LINE
  5
60
330
5A
100
AcDbEntity
  8
0
  6
Continuous
 62
     0
370
    -2
100
AcDbLine
 10
-0.9659258262890684
 20
-0.2588190451025206
 30
0.0
 11
-0.9659258262890684
 21
0.2588190451025209
 31
0.0
  0
ENDBLK
  5
5C
330
5A
100
AcDbEntity
  8
0
100
AcDbBlockEnd
  0
BLOCK
  5
62
330
61
100
AcDbEntity
  8
0
100
AcDbBlockBegin
  2
FXTIP_TRIANGLE_E
 70
     0
 10
0.0
 20
0.0
 30
0.0
  3
FXTIP_TRIANGLE_E
  1

  0
LINE
  5
64
330
61
100
AcDbEntity
  8
0
  6
Continuous
 62
     0
370
    -2
100
AcDbLine
 10
0.0
 20
0.0
 30
0.0
 11
-1.0
 21
0.0
 31
0.0
  0
LINE
  5
65
330
61
100
AcDbEntity
  8
0
  6
Continuous
 62
     0
370
    -2
100
AcDbLine
 10
0.0
 20
0.0
 30
0.0
 11
-0.9659258262890684
 21
0.2588190451025207
 31
0.0
  0
LINE
  5
66
330
61
100
AcDbEntity
  8
0
  6
Continuous
 62
     0
370
    -2
100
AcDbLine
 10
0.0
 20
0.0
 30
0.0
 11
-0.9659258262890684
 21
-0.2588190451025207
 31
0.0
  0
LINE
  5
67
330
61
100
AcDbEntity
  8
0
  6
Continuous
 62
     0
370
    -2
100
AcDbLine
 10
-0.9659258262890684
 20
0.2588190451025207
 30
0.0
 11
-0.9659258262890684
 21
-0.2588190451025207
 31
0.0
  0
ENDBLK
  5
63
330
61
100
AcDbEntity
  8
0
100
AcDbBlockEnd
  0
BLOCK
  5
69
330
68
100
AcDbEntity
  8
0
100
AcDbBlockBegin
  2
FXTIP_ARCHITECT_S
 70
     0
 10
0.0
 20
0.0
 30
0.0
  3
FXTIP_ARCHITECT_S
  1

  0
LINE
  5
6B
330
68
100
AcDbEntity
  8
0
  6
Continuous
 62
     0
370
    -2
100
AcDbLine
 10
0.0
 20
0.0
 30
0.0
 11
-1.0
 21
0.0000000000000001
 31
0.0
  0
LINE
  5
6C
330
68
100
AcDbEntity
  8
0
  6
Continuous
 62
     0
370
    -2
100
AcDbLine
 10
0.0
 20
0.0
 30
0.0
 11
-0.7071067811865476
 21
-0.7071067811865474
 31
0.0
  0
LINE
  5
6D
330
68
100
AcDbEntity
  8
0
  6
Continuous
 62
     0
370
    -2
100
AcDbLine
 10
0.0
 20
0.0
 30
0.0
 11
0.7071067811865476
 21
0.7071067811865474
 31
0.0
  0
ENDBLK
  5
6A
330
68
100
AcDbEntity
  8
0
100
AcDbBlockEnd
  0
BLOCK
  5
6F
330
6E
100
AcDbEntity
  8
0
100
AcDbBlockBegin
  2
FXTIP_ARCHITECT_E
 70
     0
 10
0.0
 20
0.0
 30
0.0
  3
FXTIP_ARCHITECT_E
  1

  0
LINE
  5
71
330
6E
100
AcDbEntity
  8
0
  6
Continuous
 62
     0
370
    -2
100
AcDbLine
 10
0.0
 20
0.0
 30
0.0
 11
-1.0
 21
0.0
 31
0.0
  0
LINE
  5
72
330
6E
100
AcDbEntity
  8
0
  6
Continuous
 62
     0
370
    -2
100
AcDbLine
 10
0.0
 20
0.0
 30
0.0
 11
0.7071067811865475
 21
0.7071067811865475
 31
0.0
  0
LINE
  5
73
330
6E
100
AcDbEntity
  8
0
  6
Continuous
 62
     0
370
    -2
100
AcDbLine
 10
0.0
 20
0.0
 30
0.0
 11
-0.7071067811865475
 21
-0.7071067811865475
 31
0.0
  0
ENDBLK
  5
70
330
6E
100
AcDbEntity
  8
0
100
AcDbBlockEnd
  0
BLOCK
  5
75
330
74
100
AcDbEntity
  8
0
100
AcDbBlockBegin
  2
FXTIP_CIVIL_S
 70
     0
 10
0.0
 20
0.0
 30
0.0
  3
FXTIP_CIVIL_S
  1

  0
LINE
  5
77
330
74
100
AcDbEntity
  8
0
  6
Continuous
 62
     0
370
    -2
100
AcDbLine
 10
0.0
 20
0.0
 30
0.0
 11
-1.0
 21
0.0000000000000001
 31
0.0
  0
LINE
  5
78
330
74
100
AcDbEntity
  8
0
  6
Continuous
 62
     0
370
    -2
100
AcDbLine
 10
0.0
 20
-0.0833333333333333
 30
0.0
 11
-1.0
 21
-0.0833333333333332
 31
0.0
  0
LINE
  5
79
330
74
100
AcDbEntity
  8
0
  6
Continuous
 62
     0
370
    -2
100
AcDbLine
 10
0.0
 20
-0.1666666666666667
 30
0.0
 11
-1.0
 21
-0.1666666666666666
 31
0.0
  0
ENDBLK
  5
76
330
74
100
AcDbEntity
  8
0
100
AcDbBlockEnd
  0
BLOCK
  5
7B
330
7A
100
AcDbEntity
  8
0
100
AcDbBlockBegin
  2
FXTIP_CIVIL_E
 70
     0
 10
0.0
 20
0.0
 30
0.0
  3
FXTIP_CIVIL_E
  1

  0
LINE
  5
7D
330
7A
100
AcDbEntity
  8
0
  6
Continuous
 62
     0
370
    -2
100
AcDbLine
 10
0.0
 20
0.0
 30
0.0
 11
-1.0
 21
0.0
 31
0.0
  0
LINE
  5
7E
330
7A
100
AcDbEntity
  8
0
  6
Continuous
 62
     0
370
    -2
100
AcDbLine
 10
0.0
 20
0.0833333333333333
 30
0.0
 11
-1.0
 21
0.0833333333333333
 31
0.0
  0
LINE
  5
7F
330
7A
100
AcDbEntity
  8
0
  6
Continuous
 62
     0
370
    -2
100
AcDbLine
 10
0.0
 20
0.1666666666666667
 30
0.0
 11
-1.0
 21
0.1666666666666667
 31
0.0
  0
ENDBLK
  5
7C
330
7A
100
AcDbEntity
  8
0
100
AcDbBlockEnd
  0
BLOCK
  5
81
330
80
100
AcDbEntity
  8
0
100
AcDbBlockBegin
  2
FXTIP_WHITEDOT_S
 70
     0
 10
0.0
 20
0.0
 30
0.0
  3
FXTIP_WHITEDOT_S
  1

  0
LINE
  5
83
330
80
100
AcDbEntity
  8
0
  6
Continuous
 62
     0
370
    -2
100
AcDbLine
 10
0.0
 20
0.0
 30
0.0
 11
-1.0
 21
0.0000000000000001
 31
0.0
  0
CIRCLE
  5
84
330
80
100
AcDbEntity
  8
0
  6
Continuous
 62
     0
370
    -2
100
AcDbCircle
 10
0.0
 20
0.0
 30
0.0
 40
0.5
  0
ENDBLK
  5
82
330
80
100
AcDbEntity
  8
0
100
AcDbBlockEnd
  0
BLOCK
  5
86
330
85
100
AcDbEntity
  8
0
100
AcDbBlockBegin
  2
FXTIP_WHITEDOT_E
 70
     0
 10
0.0
 20
0.0
 30
0.0
  3
FXTIP_WHITEDOT_E
  1

  0
LINE
  5
88
330
85
100
AcDbEntity
  8
0
  6
Continuous
 62
     0
370
    -2
100
AcDbLine
 10
0.0
 20
0.0
 30
0.0
 11
-1.0
 21
0.0
 31
0.0
  0
CIRCLE
  5
89
330
85
100
AcDbEntity
  8
0
  6
Continuous
 62
     0
370
    -2
100
AcDbCircle
 10
0.0
 20
0.0
 30
0.0
 40
0.5
  0
ENDBLK
  5
87
330
85
100
AcDbEntity
  8
0
100
AcDbBlockEnd
  0
BLOCK
  5
8B
330
8A
100
AcDbEntity
  8
0
100
AcDbBlockBegin
  2
FXTIP_UPARROW_S
 70
     0
 10
0.0
 20
0.0
 30
0.0
  3
FXTIP_UPARROW_S
  1

  0
LINE
  5
8D
330
8A
100
AcDbEntity
  8
0
  6
Continuous
 62
     0
370
    -2
100
AcDbLine
 10
0.0
 20
0.0
 30
0.0
 11
-1.0
 21
0.0000000000000001
 31
0.0
  0
LINE
  5
8E
330
8A
100
AcDbEntity
  8
0
  6
Continuous
 62
     0
370
    -2
100
AcDbLine
 10
0.0
 20
0.0
 30
0.0
 11
-0.9659258262890684
 21
-0.2588190451025206
 31
0.0
  0
ENDBLK
  5
8C
330
8A
100
AcDbEntity
  8
0
100
AcDbBlockEnd
  0
BLOCK
  5
90
330
8F
100
AcDbEntity
  8
0
100
AcDbBlockBegin
  2
FXTIP_UPARROW_E
 70
     0
 10
0.0
 20
0.0
 30
0.0
  3
FXTIP_UPARROW_E
  1

  0
LINE
  5
92
330
8F
100
AcDbEntity
  8
0
  6
Continuous
 62
     0
370
    -2
100
AcDbLine
 10
0.0
 20
0.0
 30
0.0
 11
-1.0
 21
0.0
 31
0.0
  0
LINE
  5
93
330
8F
100
AcDbEntity
  8
0
  6
Continuous
 62
     0
370
    -2
100
AcDbLine
 10
0.0
 20
0.0
 30
0.0
 11
-0.9659258262890684
 21
0.2588190451025207
 31
0.0
  0
ENDBLK
  5
91
330
8F
100
AcDbEntity
  8
0
100
AcDbBlockEnd
  0
BLOCK
  5
95
330
94
100
AcDbEntity
  8
0
100
AcDbBlockBegin
  2
FXTIP_DOWNARROW_S
 70
     0
 10
0.0
 20
0.0
 30
0.0
  3
FXTIP_DOWNARROW_S
  1

  0
LINE
  5
97
330
94
100
AcDbEntity
  8
0
  6
Continuous
 62
     0
370
    -2
100
AcDbLine
 10
0.0
 20
0.0
 30
0.0
 11
-1.0
 21
0.0000000000000001
 31
0.0
  0
LINE
  5
98
330
94
100
AcDbEntity
  8
0
  6
Continuous
 62
     0
370
    -2
100
AcDbLine
 10
0.0
 20
0.0
 30
0.0
 11
-0.9659258262890684
 21
0.2588190451025209
 31
0.0
  0
ENDBLK
  5
96
330
94
100
AcDbEntity
  8
0
100
AcDbBlockEnd
  0
BLOCK
  5
9A
330
99
100
AcDbEntity
  8
0
100
AcDbBlockBegin
  2
FXTIP_DOWNARROW_E
 70
     0
 10
0.0
 20
0.0
 30
0.0
  3
FXTIP_DOWNARROW_E
  1

  0
LINE
  5
9C
330
99
100
AcDbEntity
  8
0
  6
Continuous
 62
     0
370
    -2
100
AcDbLine
 10
0.0
 20
0.0
 30
0.0
 11
-1.0
 21
0.0
 31
0.0
  0
LINE
  5
9D
330
99
100
AcDbEntity
  8
0
  6
Continuous
 62
     0
370
    -2
100
AcDbLine
 10
0.0
 20
0.0
 30
0.0
 11
-0.9659258262890684
 21
-0.2588190451025207
 31
0.0
  0
ENDBLK
  5
9B
330
99
100
AcDbEntity
  8
0
100
AcDbBlockEnd
  0
BLOCK
  5
9F
330
9E
100
AcDbEntity
  8
0
100
AcDbBlockBegin
  2
FXTIP_BLACKTRIANGLE_S
 70
     0
 10
0.0
 20
0.0
 30
0.0
  3
FXTIP_BLACKTRIANGLE_S
  1

  0
LINE
  5
A1
330
9E
100
AcDbEntity
  8
0
  6
Continuous
 62
     0
370
    -2
100
AcDbLine
 10
0.0
 20
0.0
 30
0.0
 11
-1.0
 21
0.0000000000000001
 31
0.0
  0
SOLID
  5
A2
330
9E
100
AcDbEntity
  8
0
  6
Continuous
 62
     0
370
    -2
100
AcDbTrace
 10
0.0
 20
0.0
 30
0.0
 11
-0.9659258262890684
 21
-0.2588190451025206
 31
0.0
 12
-0.9659258262890684
 22
0.2588190451025209
 32
0.0
 13
-0.9659258262890684
 23
0.2588190451025209
 33
0.0
  0
ENDBLK
  5
A0
330
9E
100
AcDbEntity
  8
0
100
AcDbBlockEnd
  0
BLOCK
  5
A4
330
A3
100
AcDbEntity
  8
0
100
AcDbBlockBegin
  2
FXTIP_BLACKTRIANGLE_E
 70
     0
 10
0.0
 20
0.0
 30
0.0
  3
FXTIP_BLACKTRIANGLE_E
  1

  0
LINE
  5
A6
330
A3
100
AcDbEntity
  8
0
  6
Continuous
 62
     0
370
    -2
100
AcDbLine
 10
0.0
 20
0.0
 30
0.0
 11
-1.0
 21
0.0
 31
0.0
  0
SOLID
  5
A7
330
A3
100
AcDbEntity
  8
0
  6
Continuous
 62
     0
370
    -2
100
AcDbTrace
 10
0.0
 20
0.0
 30
0.0
 11
-0.9659258262890684
 21
0.2588190451025207
 31
0.0
 12
-0.9659258262890684
 22
-0.2588190451025207
 32
0.0
 13
-0.9659258262890684
 23
-0.2588190451025207
 33
0.0
  0
ENDBLK
  5
A5
330
A3
100
AcDbEntity
  8
0
100
AcDbBlockEnd
  0
BLOCK
  5
AC
330
AB
100
AcDbEntity
  8
0
100
AcDbBlockBegin
  2
BLKF021
 70
     0
 10
0.0
 20
0.0
 30
0.0
  3
BLKF021
  1

  0
TEXT
  5
B1
330
AB
100
AcDbEntity
  8
LAYER004
  6
Continuous
 62
     6
370
    20
100
AcDbText
 10
7.583326339721679
 20
200.2904663085938
 30
0.0
 40
2.0
  1
光学系、レンズ、ＨＬＬ-Q2
 51
15.0
  7
STYLE005
100
AcDbText
  0
TEXT
  5
B2
330
AB
100
AcDbEntity
  8
LAYER004
  6
Continuous
 62
     6
370
    20
100
AcDbText
 10
7.583326339721679
 20
194.2904663085938
 30
0.0
 40
2.0
  1
Gr,
 51
15.0
  7
STYLE005
100
AcDbText
  0
TEXT
  5
B3
330
AB
100
AcDbEntity
  8
LAYER004
  6
Continuous
 62
     6
370
    20
100
AcDbText
 10
7.583326339721679
 20
191.2904663085938
 30
0.0
 40
2.0
  1
Ly,
 51
15.0
  7
STYLE005
100
AcDbText
  0
TEXT
  5
B4
330
AB
100
AcDbEntity
  8
LAYER004
  6
Continuous
 62
     6
370
    20
100
AcDbText
 10
7.583326339721679
 20
197.2904663085938
 30
0.0
 40
2.0
  1
GD411530
 51
15.0
  7
STYLE005
100
AcDbText
  0
LINE
  5
B5
330
AB
100
AcDbEntity
  8
LAYER004
  6
Continuous
 62
     6
370
    20
100
AcDbLine
 10
206.5000007446083
 20
20.24999989954791
 30
0.0
 11
234.5000007446082
 21
28.24999989954791
 31
0.0
  0
TEXT
  5
B6
330
AB
100
AcDbEntity
  8
LAYER004
  6
Continuous
 62
     6
370
    20
100
AcDbText
 10
210.4999999999999
 20
22.96231269836426
 30
0.0
 40
3.0
  1
        
 41
0.8333333333333333
  7
STYLE005
100
AcDbText
  0
TEXT
  5
B7
330
AB
100
AcDbEntity
  8
LAYER004
  6
Continuous
 62
     6
370
    20
100
AcDbText
 10
130.0
 20
45.64999616146088
 30
0.0
 40
2.200000047683715
  1
2004/07/
 41
0.8181817787737893
  7
STYLE005
100
AcDbText
  0
TEXT
  5
B8
330
AB
100
AcDbEntity
  8
LAYER004
  6
Continuous
 62
     6
370
    20
100
AcDbText
 10
151.5
 20
45.24999618530272
 30
0.0
 40
3.0
  1
新規作成。
  7
STYLE005
100
AcDbText
  0
TEXT
  5
B9
330
AB
100
AcDbEntity
  8
LAYER004
  6
Continuous
 62
     6
370
    20
100
AcDbText
 10
276.5
 20
45.24999618530272
 30
0.0
 40
3.0
  1
小池
  7
STYLE005
100
AcDbText
  0
TEXT
  5
BA
330
AB
100
AcDbEntity
  8
LAYER004
  6
Continuous
 62
     6
370
    20
100
AcDbText
 10
123.5
 20
13.75
 30
0.0
 40
4.0
  1
 HLL-Q2;外観図
 41
0.7299999594688416
  7
STYLE005
100
AcDbText
  0
TEXT
  5
BB
330
AB
100
AcDbEntity
  8
LAYER004
  6
Continuous
 62
     6
370
    20
100
AcDbText
 10
126.3175048828125
 20
38.5
 30
0.0
 40
3.5
  1
 
 41
0.8571428571428571
  7
STYLE005
100
AcDbText
  0
TEXT
  5
BC
330
AB
100
AcDbEntity
  8
LAYER004
  6
Continuous
 62
     6
370
    20
100
AcDbText
 10
126.3175048828125
 20
30.5
 30
0.0
 40
3.5
  1
 
 41
0.8571428571428571
  7
STYLE005
100
AcDbText
  0
TEXT
  5
BD
330
AB
100
AcDbEntity
  8
LAYER004
  6
Continuous
 62
     6
370
    20
100
AcDbText
 10
213.0
 20
38.25
 30
0.0
 40
4.0
  1
1 : 1
 41
0.75
  7
STYLE005
100
AcDbText
  0
TEXT
  5
BE
330
AB
100
AcDbEntity
  8
LAYER004
  6
Continuous
 62
     6
370
    20
100
AcDbText
 10
126.3175048828125
 20
22.5
 30
0.0
 40
3.5
  1
 
 41
0.8571428571428571
  7
STYLE005
100
AcDbText
  0
TEXT
  5
BF
330
AB
100
AcDbEntity
  8
LAYER004
  6
Continuous
 62
     6
370
    20
100
AcDbText
 10
246.4360656738281
 20
13.75
 30
0.0
 40
4.0
  1
GD411530
  7
STYLE005
100
AcDbText
  0
TEXT
  5
C0
330
AB
100
AcDbEntity
  8
LAYER004
  6
Continuous
 62
     6
370
    20
100
AcDbText
 10
213.0
 20
13.75
 30
0.0
 40
4.0
  1
１ ／ １
 41
0.75
  7
STYLE005
100
AcDbText
  0
TEXT
  5
C1
330
AB
100
AcDbEntity
  8
LAYER004
  6
Continuous
 62
     6
370
    20
100
AcDbText
 10
240.5
 20
45.24999618530272
 30
0.0
 40
3.0
  1
小池
  7
STYLE005
100
AcDbText
  0
TEXT
  5
C2
330
AB
100
AcDbEntity
  8
LAYER004
  6
Continuous
 62
     6
370
    20
100
AcDbText
 10
130.0
 20
50.74999618530273
 30
0.0
 40
2.0
  1
         
  7
STYLE005
100
AcDbText
  0
TEXT
  5
C3
330
AB
100
AcDbEntity
  8
LAYER004
  6
Continuous
 62
     6
370
    20
100
AcDbText
 10
151.5
 20
50.24999618530273
 30
0.0
 40
3.0
  1
 
  7
STYLE005
100
AcDbText
  0
TEXT
  5
C4
330
AB
100
AcDbEntity
  8
LAYER004
  6
Continuous
 62
     6
370
    20
100
AcDbText
 10
58.56393432617188
 20
188.75
 30
0.0
 40
4.0
  1
GD411530
 50
180.0
  7
STYLE005
100
AcDbText
  0
TEXT
  5
C5
330
AB
100
AcDbEntity
  8
LAYER004
  6
Continuous
 62
     6
370
    20
100
AcDbText
 10
258.4999999999999
 20
45.24999618530272
 30
0.0
 40
3.0
  1
大熊
  7
STYLE005
100
AcDbText
  0
ENDBLK
  5
AD
330
AB
100
AcDbEntity
  8
0
100
AcDbBlockEnd
  0
BLOCK
  5
C7
330
C6
100
AcDbEntity
  8
0
100
AcDbBlockBegin
  2
BLKF022
 70
     0
 10
0.0
 20
0.0
 30
0.0
  3
BLKF022
  1

  0
LINE
  5
CB
330
C6
100
AcDbEntity
  8
LAYER005
  6
Continuous
 62
     3
370
    20
100
AcDbLine
 10
49.49999999999999
 20
6.249999862811133
 30
0.0
 11
49.49999999999999
 21
11.24999986281113
 31
0.0
  0
LINE
  5
CC
330
C6
100
AcDbEntity
  8
LAYER005
  6
Continuous
 62
     3
370
    20
100
AcDbLine
 10
16.50000057220462
 20
52.49999999885197
 30
0.0
 11
11.50000057220461
 21
52.49999999885197
 31
0.0
  0
LINE
  5
CD
330
C6
100
AcDbEntity
  8
LAYER005
  6
Continuous
 62
     3
370
    20
100
AcDbLine
 10
16.50000057220462
 20
104.999999998852
 30
0.0
 11
0.0
 21
104.999999998852
 31
0.0
  0
LINE
  5
CE
330
C6
100
AcDbEntity
  8
LAYER005
  6
Continuous
 62
     3
370
    20
100
AcDbLine
 10
11.50000057220461
 20
157.499999998852
 30
0.0
 11
16.50000057220462
 21
157.499999998852
 31
0.0
  0
LINE
  5
CF
330
C6
100
AcDbEntity
  8
LAYER005
  6
Continuous
 62
     3
370
    20
100
AcDbLine
 10
49.50000000000002
 20
191.2500000062356
 30
0.0
 11
49.50000000000001
 21
196.2500000062356
 31
0.0
  0
LINE
  5
D0
330
C6
100
AcDbEntity
  8
LAYER005
  6
Continuous
 62
     3
370
    20
100
AcDbLine
 10
99.0
 20
196.2500000049441
 30
0.0
 11
99.0
 21
191.2500000049441
 31
0.0
  0
LINE
  5
D1
330
C6
100
AcDbEntity
  8
LAYER005
  6
Continuous
 62
     3
370
    20
100
AcDbLine
 10
148.5
 20
191.2500000036528
 30
0.0
 11
148.5
 21
210.0
 31
0.0
  0
LINE
  5
D2
330
C6
100
AcDbEntity
  8
LAYER005
  6
Continuous
 62
     3
370
    20
100
AcDbLine
 10
99.0
 20
11.24999989122473
 30
0.0
 11
99.0
 21
6.249999891224727
 31
0.0
  0
LINE
  5
D3
330
C6
100
AcDbEntity
  8
LAYER005
  6
Continuous
 62
     3
370
    20
100
AcDbLine
 10
198.0
 20
6.249999948051915
 30
0.0
 11
198.0
 21
11.24999994805192
 31
0.0
  0
LINE
  5
D4
330
C6
100
AcDbEntity
  8
LAYER005
  6
Continuous
 62
     3
370
    20
100
AcDbLine
 10
247.4999999999999
 20
11.2499999764655
 30
0.0
 11
247.5
 21
6.24999997646551
 31
0.0
  0
LINE
  5
D5
330
C6
100
AcDbEntity
  8
LAYER005
  6
Continuous
 62
     3
370
    20
100
AcDbLine
 10
288.5000005722046
 20
52.5
 30
0.0
 11
293.5000005722047
 21
52.5
 31
0.0
  0
LINE
  5
D6
330
C6
100
AcDbEntity
  8
LAYER005
  6
Continuous
 62
     3
370
    20
100
AcDbLine
 10
288.5000005722046
 20
105.0
 30
0.0
 11
297.0
 21
105.0
 31
0.0
  0
LINE
  5
D7
330
C6
100
AcDbEntity
  8
LAYER005
  6
Continuous
 62
     3
370
    20
100
AcDbLine
 10
293.5000005722045
 20
157.5
 30
0.0
 11
288.5000005722046
 21
157.5
 31
0.0
  0
LINE
  5
D8
330
C6
100
AcDbEntity
  8
LAYER005
  6
Continuous
 62
     3
370
    20
100
AcDbLine
 10
247.4999999999999
 20
191.2500000010697
 30
0.0
 11
247.4999999999999
 21
196.2500000010697
 31
0.0
  0
LINE
  5
D9
330
C6
100
AcDbEntity
  8
LAYER005
  6
Continuous
 62
     3
370
    20
100
AcDbLine
 10
198.0
 20
196.2500000023611
 30
0.0
 11
198.0
 21
191.2500000023611
 31
0.0
  0
TEXT
  5
DA
330
C6
100
AcDbEntity
  8
LAYER005
  6
Continuous
 62
     3
370
    20
100
AcDbText
 10
197.0
 20
22.70171737670898
 30
0.0
 40
3.0
  1
元図番
  7
STYLE005
100
AcDbText
  0
TEXT
  5
DB
330
C6
100
AcDbEntity
  8
LAYER005
  6
Continuous
 62
     3
370
    20
100
AcDbText
 10
237.5
 20
39.69192123413085
 30
0.0
 40
3.0
  1
承  認
  7
STYLE005
100
AcDbText
  0
TEXT
  5
DC
330
C6
100
AcDbEntity
  8
LAYER005
  6
Continuous
 62
     3
370
    20
100
AcDbText
 10
255.5
 20
39.69192123413085
 30
0.0
 40
3.0
  1
検  図
  7
STYLE005
100
AcDbText
  0
TEXT
  5
DD
330
C6
100
AcDbEntity
  8
LAYER005
  6
Continuous
 62
     3
370
    20
100
AcDbText
 10
273.4999999999999
 20
39.69192123413085
 30
0.0
 40
3.0
  1
作  成
  7
STYLE005
100
AcDbText
  0
TEXT
  5
DE
330
C6
100
AcDbEntity
  8
LAYER005
  6
Continuous
 62
     3
370
    20
100
AcDbText
 10
197.0
 20
30.61336898803711
 30
0.0
 40
3.0
  1
投影法
  7
STYLE005
100
AcDbText
  0
TEXT
  5
DF
330
C6
100
AcDbEntity
  8
LAYER005
  6
Continuous
 62
     3
370
    20
100
AcDbText
 10
211.5
 20
30.49999618530273
 30
0.0
 40
3.5
  1
第三角法
 41
1.285714285714285
  7
STYLE005
100
AcDbText
  0
TEXT
  5
E0
330
C6
100
AcDbEntity
  8
LAYER005
  6
Continuous
 62
     3
370
    20
100
AcDbText
 10
198.5
 20
38.81803512573242
 30
0.0
 40
3.0
  1
尺度
  7
STYLE005
100
AcDbText
  0
TEXT
  5
E1
330
C6
100
AcDbEntity
  8
LAYER005
  6
Continuous
 62
     3
370
    20
100
AcDbText
 10
197.0
 20
14.32122325897217
 30
0.0
 40
3.0
  1
ページ
  7
STYLE005
100
AcDbText
  0
TEXT
  5
E2
330
C6
100
AcDbEntity
  8
LAYER005
  6
Continuous
 62
     3
370
    20
100
AcDbText
 10
115.5
 20
22.70171737670898
 30
0.0
 40
3.0
  1
公差
  7
STYLE005
100
AcDbText
  0
TEXT
  5
E3
330
C6
100
AcDbEntity
  8
LAYER005
  6
Continuous
 62
     3
370
    20
100
AcDbText
 10
115.5
 20
30.61336898803711
 30
0.0
 40
3.0
  1
処理
  7
STYLE005
100
AcDbText
  0
TEXT
  5
E4
330
C6
100
AcDbEntity
  8
LAYER005
  6
Continuous
 62
     3
370
    20
100
AcDbText
 10
115.5
 20
38.81803512573242
 30
0.0
 40
3.0
  1
材質
  7
STYLE005
100
AcDbText
  0
TEXT
  5
E5
330
C6
100
AcDbEntity
  8
LAYER005
  6
Continuous
 62
     3
370
    20
100
AcDbText
 10
115.5
 20
14.32122325897217
 30
0.0
 40
3.0
  1
図名
  7
STYLE005
100
AcDbText
  0
TEXT
  5
E6
330
C6
100
AcDbEntity
  8
LAYER005
  6
Continuous
 62
     3
370
    20
100
AcDbText
 10
236.5
 20
14.32122325897217
 30
0.0
 40
3.0
  1
図番
  7
STYLE005
100
AcDbText
  0
TEXT
  5
E7
330
C6
100
AcDbEntity
  8
LAYER005
  6
Continuous
 62
     3
370
    20
100
AcDbText
 10
68.5
 20
188.1787719726561
 30
0.0
 40
3.0
  1
図番
 50
180.0
  7
STYLE005
100
AcDbText
  0
LINE
  5
E8
330
C6
100
AcDbEntity
  8
LAYER005
  6
Continuous
 62
     4
370
    20
100
AcDbLine
 10
16.5000005722046
 20
11.24999984386873
 30
0.0
 11
288.5000005722046
 21
11.25
 31
0.0
  0
LINE
  5
E9
330
C6
100
AcDbEntity
  8
LAYER005
  6
Continuous
 62
     4
370
    20
100
AcDbLine
 10
288.5000005722046
 20
11.25
 30
0.0
 11
288.5000005722046
 21
191.2500000000001
 31
0.0
  0
LINE
  5
EA
330
C6
100
AcDbEntity
  8
LAYER005
  6
Continuous
 62
     4
370
    20
100
AcDbLine
 10
288.5000005722046
 20
191.2500000000001
 30
0.0
 11
16.50000057220462
 21
191.2500000070966
 31
0.0
  0
LINE
  5
EB
330
C6
100
AcDbEntity
  8
LAYER005
  6
Continuous
 62
     4
370
    20
100
AcDbLine
 10
16.50000057220462
 20
191.2500000070966
 30
0.0
 11
16.5000005722046
 21
11.24999984386873
 31
0.0
  0
LINE
  5
EC
330
C6
100
AcDbEntity
  8
LAYER005
  6
Continuous
 62
     4
370
    20
100
AcDbLine
 10
113.5000024795528
 20
11.2499998995479
 30
0.0
 11
113.5000024795528
 21
54.24999673025934
 31
0.0
  0
LINE
  5
ED
330
C6
100
AcDbEntity
  8
LAYER005
  6
Continuous
 62
     4
370
    20
100
AcDbLine
 10
113.5000024795528
 20
54.24999673025934
 30
0.0
 11
288.5000005722046
 21
54.24999673025934
 31
0.0
  0
LINE
  5
EE
330
C6
100
AcDbEntity
  8
LAYER005
  6
Continuous
 62
     4
370
    20
100
AcDbLine
 10
288.5000005722047
 20
44.24999673025935
 30
0.0
 11
113.5000024795528
 21
44.24999673025934
 31
0.0
  0
LINE
  5
EF
330
C6
100
AcDbEntity
  8
LAYER005
  6
Continuous
 62
     4
370
    20
100
AcDbLine
 10
113.5000024795528
 20
20.24999999999999
 30
0.0
 11
288.5000005722046
 21
20.24999999999999
 31
0.0
  0
LINE
  5
F0
330
C6
100
AcDbEntity
  8
LAYER005
  6
Continuous
 62
     4
370
    20
100
AcDbLine
 10
234.5000005722043
 20
11.24999996900335
 30
0.0
 11
234.5000005722047
 21
44.24999673025935
 31
0.0
  0
LINE
  5
F1
330
C6
100
AcDbEntity
  8
LAYER005
  6
Continuous
 62
     4
370
    20
100
AcDbLine
 10
196.5000005722046
 20
44.24999673025935
 30
0.0
 11
196.5000005722045
 21
11.2499999471909
 31
0.0
  0
LINE
  5
F2
330
C6
100
AcDbEntity
  8
LAYER005
  6
Continuous
 62
     4
370
    20
100
AcDbLine
 10
70.50000057220488
 20
182.2500000070966
 30
0.0
 11
70.50000057220498
 21
191.2500000056878
 31
0.0
  0
LINE
  5
F3
330
C6
100
AcDbEntity
  8
LAYER005
  6
Continuous
 62
     4
370
    20
100
AcDbLine
 10
70.50000057220488
 20
182.2500000070966
 30
0.0
 11
16.50000057220462
 21
182.2500000070966
 31
0.0
  0
TEXT
  5
F4
330
C6
100
AcDbEntity
  8
LAYER005
  6
Continuous
 62
     7
370
    20
100
AcDbText
 10
13.0
 20
181.75
 30
0.0
 40
4.0
  1
Ａ
 41
0.75
  7
STYLE005
100
AcDbText
  0
TEXT
  5
F5
330
C6
100
AcDbEntity
  8
LAYER005
  6
Continuous
 62
     7
370
    20
100
AcDbText
 10
13.0
 20
129.2499999999999
 30
0.0
 40
4.0
  1
Ｂ
 41
0.75
  7
STYLE005
100
AcDbText
  0
TEXT
  5
F6
330
C6
100
AcDbEntity
  8
LAYER005
  6
Continuous
 62
     7
370
    20
100
AcDbText
 10
13.0
 20
76.75
 30
0.0
 40
4.0
  1
Ｃ
 41
0.75
  7
STYLE005
100
AcDbText
  0
TEXT
  5
F7
330
C6
100
AcDbEntity
  8
LAYER005
  6
Continuous
 62
     7
370
    20
100
AcDbText
 10
13.0
 20
24.25
 30
0.0
 40
4.0
  1
Ｄ
 41
0.75
  7
STYLE005
100
AcDbText
  0
TEXT
  5
F8
330
C6
100
AcDbEntity
  8
LAYER005
  6
Continuous
 62
     7
370
    20
100
AcDbText
 10
23.25
 20
191.25
 30
0.0
 40
4.0
  1
１
 41
0.75
  7
STYLE005
100
AcDbText
  0
TEXT
  5
F9
330
C6
100
AcDbEntity
  8
LAYER005
  6
Continuous
 62
     7
370
    20
100
AcDbText
 10
72.75
 20
191.25
 30
0.0
 40
4.0
  1
２
 41
0.75
  7
STYLE005
100
AcDbText
  0
TEXT
  5
FA
330
C6
100
AcDbEntity
  8
LAYER005
  6
Continuous
 62
     7
370
    20
100
AcDbText
 10
122.2499999999999
 20
191.25
 30
0.0
 40
4.0
  1
３
 41
0.75
  7
STYLE005
100
AcDbText
  0
TEXT
  5
FB
330
C6
100
AcDbEntity
  8
LAYER005
  6
Continuous
 62
     7
370
    20
100
AcDbText
 10
171.75
 20
191.25
 30
0.0
 40
4.0
  1
４
 41
0.75
  7
STYLE005
100
AcDbText
  0
TEXT
  5
FC
330
C6
100
AcDbEntity
  8
LAYER005
  6
Continuous
 62
     7
370
    20
100
AcDbText
 10
221.2499999999999
 20
191.25
 30
0.0
 40
4.0
  1
５
 41
0.75
  7
STYLE005
100
AcDbText
  0
TEXT
  5
FD
330
C6
100
AcDbEntity
  8
LAYER005
  6
Continuous
 62
     7
370
    20
100
AcDbText
 10
270.75
 20
191.25
 30
0.0
 40
4.0
  1
６
 41
0.75
  7
STYLE005
100
AcDbText
  0
LINE
  5
FE
330
C6
100
AcDbEntity
  8
LAYER005
  6
Continuous
 62
     6
370
    20
100
AcDbLine
 10
113.5000024795528
 20
28.25
 30
0.0
 11
234.5000005722045
 21
28.25
 31
0.0
  0
LINE
  5
FF
330
C6
100
AcDbEntity
  8
LAYER005
  6
Continuous
 62
     6
370
    20
100
AcDbLine
 10
234.5000005722045
 20
36.24999999999999
 30
0.0
 11
113.5000024795528
 21
36.25
 31
0.0
  0
LINE
  5
100
330
C6
100
AcDbEntity
  8
LAYER005
  6
Continuous
 62
     6
370
    20
100
AcDbLine
 10
123.5000024795528
 20
44.24999673025934
 30
0.0
 11
123.5000024795528
 21
11.24999990528801
 31
0.0
  0
LINE
  5
101
330
C6
100
AcDbEntity
  8
LAYER005
  6
Continuous
 62
     6
370
    20
100
AcDbLine
 10
128.5000043869014
 20
44.24999673025935
 30
0.0
 11
128.5000031153364
 21
54.24999673025933
 31
0.0
  0
LINE
  5
102
330
C6
100
AcDbEntity
  8
LAYER005
  6
Continuous
 62
     6
370
    20
100
AcDbLine
 10
113.5000024795528
 20
49.24999673025935
 30
0.0
 11
288.5000005722047
 21
49.24999673025935
 31
0.0
  0
LINE
  5
103
330
C6
100
AcDbEntity
  8
LAYER005
  6
Continuous
 62
     6
370
    20
100
AcDbLine
 10
288.5000005722047
 20
38.2500005449566
 30
0.0
 11
234.5000005722045
 21
38.2500005449566
 31
0.0
  0
LINE
  5
104
330
C6
100
AcDbEntity
  8
LAYER005
  6
Continuous
 62
     6
370
    20
100
AcDbLine
 10
234.5000005722047
 20
44.24999673025935
 30
0.0
 11
234.5000005722047
 21
49.24999673025935
 31
0.0
  0
LINE
  5
105
330
C6
100
AcDbEntity
  8
LAYER005
  6
Continuous
 62
     6
370
    20
100
AcDbLine
 10
252.5000005722048
 20
49.24999673025935
 30
0.0
 11
252.5000005722045
 21
20.24999999999999
 31
0.0
  0
LINE
  5
106
330
C6
100
AcDbEntity
  8
LAYER005
  6
Continuous
 62
     6
370
    20
100
AcDbLine
 10
244.5000005722044
 20
20.24999999999999
 30
0.0
 11
244.5000005722043
 21
11.24999997474347
 31
0.0
  0
LINE
  5
107
330
C6
100
AcDbEntity
  8
LAYER005
  6
Continuous
 62
     6
370
    20
100
AcDbLine
 10
270.5000005722045
 20
20.24999999999999
 30
0.0
 11
270.5000005722046
 21
49.24999673025935
 31
0.0
  0
LINE
  5
108
330
C6
100
AcDbEntity
  8
LAYER005
  6
Continuous
 62
     6
370
    20
100
AcDbLine
 10
206.500000572205
 20
44.24999673025935
 30
0.0
 11
206.5000005722043
 21
11.24999995293102
 31
0.0
  0
LINE
  5
109
330
C6
100
AcDbEntity
  8
LAYER005
  6
Continuous
 62
     6
370
    20
100
AcDbLine
 10
149.5000057740644
 20
44.24999673025935
 30
0.0
 11
149.5000078548074
 21
54.24999673025933
 31
0.0
  0
LINE
  5
10A
330
C6
100
AcDbEntity
  8
LAYER005
  6
Continuous
 62
     6
370
    20
100
AcDbLine
 10
60.50000057220485
 20
182.2500000070966
 30
0.0
 11
60.50000057220497
 21
191.2500000059486
 31
0.0
  0
TEXT
  5
10B
330
C6
100
AcDbEntity
  8
LAYER005
  6
Continuous
 62
     6
370
    20
100
AcDbText
 10
261.5
 20
7.75
 30
0.0
 40
3.0
  1
様Ｄ１００１０－２
  7
STYLE005
100
AcDbText
  0
TEXT
  5
10C
330
C6
100
AcDbEntity
  8
LAYER005
  6
Continuous
 62
     6
370
    20
100
AcDbText
 10
115.5
 20
45.24999618530272
 30
0.0
 40
3.0
  1
制定
  7
STYLE005
100
AcDbText
  0
TEXT
  5
10D
330
C6
100
AcDbEntity
  8
LAYER005
  6
Continuous
 62
     6
370
    20
100
AcDbText
 10
115.5
 20
50.24999618530273
 30
0.0
 40
3.0
  1
改訂
  7
STYLE005
100
AcDbText
  0
INSERT
  5
111
330
C6
100
AcDbEntity
  8
0
100
AcDbBlockReference
  2
BLKF023
 10
0.0
 20
0.0
 30
0.0
  0
LINE
  5
116
330
C6
100
AcDbEntity
  8
LAYER005
  6
Continuous
 62
     4
370
    20
100
AcDbLine
 10
16.5000005722046
 20
191.2500000070966
 30
0.0
 11
288.5000005722046
 21
191.2500001632279
 31
0.0
  0
TEXT
  5
117
330
C6
100
AcDbEntity
  8
LAYER005
  6
Continuous
 62
     7
370
    20
100
AcDbText
 10
179.9626159667969
 20
5.601097106933593
 30
0.0
 40
4.5
  1
株式会社
 41
0.8888888888888889
  7
STYLE005
100
AcDbText
  0
TEXT
  5
118
330
C6
100
AcDbEntity
  8
LAYER005
  6
Continuous
 62
     4
370
    20
100
AcDbText
 10
101.4967951774597
 20
5.107139587402343
 30
0.0
 40
5.5
  1
HOYA CANDEO OPTRONICS
 41
0.6528703516179865
  7
STYLE005
100
AcDbText
  0
ENDBLK
  5
C8
330
C6
100
AcDbEntity
  8
0
100
AcDbBlockEnd
  0
BLOCK
  5
10F
330
10E
100
AcDbEntity
  8
0
100
AcDbBlockBegin
  2
BLKF023
 70
     0
 10
0.0
 20
0.0
 30
0.0
  3
BLKF023
  1

  0
TEXT
  5
112
330
10E
100
AcDbEntity
  8
LAYER005
  6
Continuous
 62
     6
370
    20
100
AcDbText
 10
124.7764999868623
 20
50.32660138588699
 30
0.0
 40
2.450000047683715
  1
 
 50
0.0000000099999999
 41
0.8571428015350262
  7
STYLE005
100
AcDbText
  0
LINE
  5
113
330
10E
100
AcDbEntity
  8
LAYER005
  6
Continuous
 62
     6
370
    20
100
AcDbLine
 10
125.826506437295
 20
53.38911101705225
 30
0.0
 11
123.9890064378506
 21
50.20646765782374
 31
0.0
  0
LINE
  5
114
330
10E
100
AcDbEntity
  8
LAYER005
  6
Continuous
 62
     6
370
    20
100
AcDbLine
 10
123.9890064378506
 20
50.20646765782374
 30
0.0
 11
127.6640064378505
 21
50.2064676584651
 31
0.0
  0
LINE
  5
115
330
10E
100
AcDbEntity
  8
LAYER005
  6
Continuous
 62
     6
370
    20
100
AcDbLine
 10
127.6640064378505
 20
50.2064676584651
 30
0.0
 11
125.826506437295
 21
53.38911101705225
 31
0.0
  0
ENDBLK
  5
110
330
10E
100
AcDbEntity
  8
0
100
AcDbBlockEnd
  0
BLOCK
  5
11A
330
119
100
AcDbEntity
  8
0
100
AcDbBlockBegin
  2
BLKF024
 70
     0
 10
0.0
 20
0.0
 30
0.0
  3
BLKF024
  1

  0
LINE
  5
11D
330
119
100
AcDbEntity
  8
LAYER005
  6
Continuous
 62
   133
370
    20
100
AcDbLine
 10
86.0000005722046
 20
29.74999984673883
 30
0.0
 11
86.0000005722046
 21
16.74999984673882
 31
0.0
  0
TEXT
  5
11E
330
119
100
AcDbEntity
  8
LAYER005
  6
Continuous
 62
   133
370
    20
100
AcDbText
 10
23.30215454101562
 20
17.32824516296387
 30
0.0
 40
2.5
  1
内容の全部又は一部を複写する事をご遠慮下さい。
 41
0.8
  7
STYLE004
100
AcDbText
  0
LINE
  5
11F
330
119
100
AcDbEntity
  8
LAYER005
  6
Continuous
 62
   133
370
    20
100
AcDbLine
 10
86.50000057220461
 20
16.2499998467388
 30
0.0
 11
21.50000057220462
 21
16.24999984673879
 31
0.0
  0
LINE
  5
120
330
119
100
AcDbEntity
  8
LAYER005
  6
Continuous
 62
   133
370
    20
100
AcDbLine
 10
86.0000005722046
 20
16.74999984673882
 30
0.0
 11
22.0000005722046
 21
16.74999984673882
 31
0.0
  0
TEXT
  5
121
330
119
100
AcDbEntity
  8
LAYER005
  6
Continuous
 62
   133
370
    20
100
AcDbText
 10
23.30215454101562
 20
26.32824516296387
 30
0.0
 40
2.5
  1
御注意
 41
0.8
  7
STYLE004
100
AcDbText
  0
TEXT
  5
122
330
119
100
AcDbEntity
  8
LAYER005
  6
Continuous
 62
   133
370
    20
100
AcDbText
 10
23.30215454101562
 20
23.32824516296386
 30
0.0
 40
2.5
  1
本図面は、ＨＯＹＡ ＣＡＮＤＥＯ ＯＰＴＲＯＮＩＣＳ株式会社の
 41
0.8
  7
STYLE004
100
AcDbText
  0
TEXT
  5
123
330
119
100
AcDbEntity
  8
LAYER005
  6
Continuous
 62
   133
370
    20
100
AcDbText
 10
23.30215454101562
 20
20.32824516296387
 30
0.0
 40
2.5
  1
財産的情報を含んでおりますので、許可なく第三者に開示したり
 41
0.8
  7
STYLE004
100
AcDbText
  0
LINE
  5
124
330
119
100
AcDbEntity
  8
LAYER005
  6
Continuous
 62
   133
370
    20
100
AcDbLine
 10
86.0000005722046
 20
29.74999984673882
 30
0.0
 11
22.00000057220462
 21
29.7499998467388
 31
0.0
  0
LINE
  5
125
330
119
100
AcDbEntity
  8
LAYER005
  6
Continuous
 62
   133
370
    20
100
AcDbLine
 10
22.00000057220462
 20
29.7499998467388
 30
0.0
 11
22.00000057220462
 21
16.7499998467388
 31
0.0
  0
LINE
  5
126
330
119
100
AcDbEntity
  8
LAYER005
  6
Continuous
 62
   133
370
    20
100
AcDbLine
 10
86.50000057220463
 20
30.2499998467388
 30
0.0
 11
21.50000057220462
 21
30.24999984673879
 31
0.0
  0
LINE
  5
127
330
119
100
AcDbEntity
  8
LAYER005
  6
Continuous
 62
   133
370
    20
100
AcDbLine
 10
21.50000057220462
 20
30.24999984673879
 30
0.0
 11
21.50000057220461
 21
16.2499998467388
 31
0.0
  0
LINE
  5
128
330
119
100
AcDbEntity
  8
LAYER005
  6
Continuous
 62
   133
370
    20
100
AcDbLine
 10
86.50000057220461
 20
16.24999984673876
 30
0.0
 11
86.50000057220463
 21
30.24999984673875
 31
0.0
  0
ENDBLK
  5
11B
330
119
100
AcDbEntity
  8
0
100
AcDbBlockEnd
  0
BLOCK
  5
12F
330
12E
100
AcDbEntity
  8
0
100
AcDbBlockBegin
  2
*D23
 70
     1
 10
0.0
 20
0.0
 30
0.0
  3
*D23
  1

  0
LINE
  5
398
330
12E
100
AcDbEntity
  8
LAYER006
 62
     7
370
    -2
100
AcDbLine
 10
43.5644677833683
 20
72.58465878512412
 30
0.0
 11
43.5644677833683
 21
92.36086581845052
 31
0.0
  0
LINE
  5
399
330
12E
100
AcDbEntity
  8
LAYER006
 62
     7
370
    -2
100
AcDbLine
 10
224.6646980000423
 20
72.88465878512403
 30
0.0
 11
224.6646980000423
 21
92.36086581845052
 31
0.0
  0
LINE
  5
39A
330
12E
100
AcDbEntity
  8
LAYER006
 62
     7
370
    -2
100
AcDbLine
 10
46.5644677833683
 20
90.86086581845052
 30
0.0
 11
221.6646980000423
 21
90.86086581845052
 31
0.0
  0
INSERT
  5
39B
330
12E
100
AcDbEntity
  8
LAYER006
 62
     7
370
    -2
100
AcDbBlockReference
  2
FXTIP_ARROW_S
 10
43.5644677833683
 20
90.86086581845052
 30
0.0
 41
3.0
 42
3.0
 43
3.0
 50
180.0
  0
INSERT
  5
39C
330
12E
100
AcDbEntity
  8
LAYER006
 62
     7
370
    -2
100
AcDbBlockReference
  2
FXTIP_ARROW_E
 10
224.6646980000423
 20
90.86086581845052
 30
0.0
 41
3.0
 42
3.0
 43
3.0
  0
MTEXT
  5
39D
330
12E
100
AcDbEntity
  8
LAYER006
 62
     7
100
AcDbMText
 10
134.1145828917053
 20
92.86086581845053
 30
0.0
 40
3.0
 41
0.0
 71
     5
 72
     1
  1
\A1;181.1
  7
STYLE004
 73
     1
 44
1.0
  0
POINT
  5
39E
330
12E
100
AcDbEntity
  8
Defpoints
 62
     0
100
AcDbPoint
 10
43.5644677833683
 20
71.58465878512412
 30
0.0
  0
POINT
  5
39F
330
12E
100
AcDbEntity
  8
Defpoints
 62
     0
100
AcDbPoint
 10
224.6646980000423
 20
71.88465878512403
 30
0.0
  0
POINT
  5
3A0
330
12E
100
AcDbEntity
  8
Defpoints
 62
     0
100
AcDbPoint
 10
224.6646980000423
 20
90.86086581845052
 30
0.0
  0
ENDBLK
  5
130
330
12E
100
AcDbEntity
  8
0
100
AcDbBlockEnd
  0
BLOCK
  5
13D
330
13C
100
AcDbEntity
  8
0
100
AcDbBlockBegin
  2
*D24
 70
     1
 10
0.0
 20
0.0
 30
0.0
  3
*D24
  1

  0
LINE
  5
38F
330
13C
100
AcDbEntity
  8
LAYER006
 62
     7
370
    -2
100
AcDbLine
 10
43.5644677833683
 20
72.58465878512412
 30
0.0
 11
43.5644677833683
 21
80.34430873675631
 31
0.0
  0
LINE
  5
390
330
13C
100
AcDbEntity
  8
LAYER006
 62
     7
370
    -2
100
AcDbLine
 10
53.56446778336833
 20
74.08465878512403
 30
0.0
 11
53.56446778336833
 21
80.34430873675631
 31
0.0
  0
LINE
  5
391
330
13C
100
AcDbEntity
  8
LAYER006
 62
     7
370
    -2
100
AcDbLine
 10
46.5644677833683
 20
78.84430873675632
 30
0.0
 11
50.56446778336833
 21
78.84430873675632
 31
0.0
  0
INSERT
  5
392
330
13C
100
AcDbEntity
  8
LAYER006
 62
     7
370
    -2
100
AcDbBlockReference
  2
FXTIP_ARROW_S
 10
43.5644677833683
 20
78.84430873675632
 30
0.0
 41
3.0
 42
3.0
 43
3.0
 50
180.0
  0
INSERT
  5
393
330
13C
100
AcDbEntity
  8
LAYER006
 62
     7
370
    -2
100
AcDbBlockReference
  2
FXTIP_ARROW_E
 10
53.56446778336833
 20
78.84430873675632
 30
0.0
 41
3.0
 42
3.0
 43
3.0
  0
MTEXT
  5
394
330
13C
100
AcDbEntity
  8
LAYER006
 62
     7
100
AcDbMText
 10
48.56446778336831
 20
80.84430873675632
 30
0.0
 40
3.0
 41
0.0
 71
     5
 72
     1
  1
\A1;10
  7
STYLE004
 73
     1
 44
1.0
  0
POINT
  5
395
330
13C
100
AcDbEntity
  8
Defpoints
 62
     0
100
AcDbPoint
 10
43.5644677833683
 20
71.58465878512412
 30
0.0
  0
POINT
  5
396
330
13C
100
AcDbEntity
  8
Defpoints
 62
     0
100
AcDbPoint
 10
53.56446778336833
 20
73.08465878512404
 30
0.0
  0
POINT
  5
397
330
13C
100
AcDbEntity
  8
Defpoints
 62
     0
100
AcDbPoint
 10
53.56446778336833
 20
78.84430873675632
 30
0.0
  0
ENDBLK
  5
13E
330
13C
100
AcDbEntity
  8
0
100
AcDbBlockEnd
  0
BLOCK
  5
146
330
145
100
AcDbEntity
  8
0
100
AcDbBlockBegin
  2
FXDIM027
 70
     0
 10
0.0
 20
0.0
 30
0.0
  3
FXDIM027
  1

  0
LINE
  5
149
330
145
100
AcDbEntity
  8
LAYER006
  6
Continuous
 62
     6
370
    20
100
AcDbLine
 10
95.45832082704277
 20
107.9620742166735
 30
0.0
 11
101.090225957829
 21
113.5939793474598
 31
0.0
  0
INSERT
  5
14A
330
145
100
AcDbEntity
  8
LAYER006
  6
Continuous
 62
     6
370
    20
100
AcDbBlockReference
  2
FXTIP_ARROW_S
 10
95.45832082704277
 20
107.9620742166735
 30
0.0
 41
3.0
 42
3.0
 50
225.0000000000001
  0
LINE
  5
14B
330
145
100
AcDbEntity
  8
LAYER006
  6
Continuous
 62
     6
370
    20
100
AcDbLine
 10
101.090225957829
 20
113.5939793474598
 30
0.0
 11
130.7060158417755
 21
113.5939793474598
 31
0.0
  0
TEXT
  5
14C
330
145
100
AcDbEntity
  8
LAYER006
  6
Continuous
 62
     6
370
    20
100
AcDbText
 10
102.9107131958008
 20
114.0939865112305
 30
0.0
 40
3.0
  1
M3六角穴付止めねじ
 41
0.8333333333333333
  7
STYLE004
100
AcDbText
  0
ENDBLK
  5
147
330
145
100
AcDbEntity
  8
0
100
AcDbBlockEnd
  0
BLOCK
  5
14F
330
14E
100
AcDbEntity
  8
0
100
AcDbBlockBegin
  2
*D26
 70
     1
 10
0.0
 20
0.0
 30
0.0
  3
*D26
  1

  0
LINE
  5
386
330
14E
100
AcDbEntity
  8
LAYER006
 62
     7
370
    -2
100
AcDbLine
 10
43.06446778336836
 20
42.08465878512401
 30
0.0
 11
29.9302812995459
 21
42.08465878512401
 31
0.0
  0
LINE
  5
387
330
14E
100
AcDbEntity
  8
LAYER006
 62
     7
370
    -2
100
AcDbLine
 10
43.06446778336824
 20
72.08465878512403
 30
0.0
 11
29.93028129954591
 21
72.08465878512405
 31
0.0
  0
LINE
  5
388
330
14E
100
AcDbEntity
  8
LAYER006
 62
     7
370
    -2
100
AcDbLine
 10
31.4302812995459
 20
45.08465878512402
 30
0.0
 11
31.4302812995459
 21
69.08465878512405
 31
0.0
  0
INSERT
  5
389
330
14E
100
AcDbEntity
  8
LAYER006
 62
     7
370
    -2
100
AcDbBlockReference
  2
FXTIP_ARROW_S
 10
31.4302812995459
 20
42.08465878512401
 30
0.0
 41
3.0
 42
3.0
 43
3.0
 50
270.0
  0
INSERT
  5
38A
330
14E
100
AcDbEntity
  8
LAYER006
 62
     7
370
    -2
100
AcDbBlockReference
  2
FXTIP_ARROW_E
 10
31.43028129954591
 20
72.08465878512405
 30
0.0
 41
3.0
 42
3.0
 43
3.0
 50
90.0
  0
MTEXT
  5
38B
330
14E
100
AcDbEntity
  8
LAYER006
 62
     7
100
AcDbMText
 10
29.43028129954589
 20
57.08465878512403
 30
0.0
 40
3.0
 41
0.0
 71
     5
 72
     1
  1
\A1;30
  7
STYLE004
 11
0.0000000000000001
 21
1.0
 31
0.0
 73
     1
 44
1.0
  0
POINT
  5
38C
330
14E
100
AcDbEntity
  8
Defpoints
 62
     0
100
AcDbPoint
 10
44.06446778336835
 20
42.08465878512401
 30
0.0
  0
POINT
  5
38D
330
14E
100
AcDbEntity
  8
Defpoints
 62
     0
100
AcDbPoint
 10
44.06446778336824
 20
72.08465878512403
 30
0.0
  0
POINT
  5
38E
330
14E
100
AcDbEntity
  8
Defpoints
 62
     0
100
AcDbPoint
 10
31.43028129954591
 20
72.08465878512405
 30
0.0
  0
ENDBLK
  5
150
330
14E
100
AcDbEntity
  8
0
100
AcDbBlockEnd
  0
BLOCK
  5
15C
330
15B
100
AcDbEntity
  8
0
100
AcDbBlockBegin
  2
*D27
 70
     1
 10
0.0
 20
0.0
 30
0.0
  3
*D27
  1

  0
LINE
  5
37D
330
15B
100
AcDbEntity
  8
LAYER006
 62
     7
370
    -2
100
AcDbLine
 10
43.06446778336833
 20
51.08465878512385
 30
0.0
 11
35.60752508541694
 21
51.08465878512385
 31
0.0
  0
LINE
  5
37E
330
15B
100
AcDbEntity
  8
LAYER006
 62
     7
370
    -2
100
AcDbLine
 10
43.06446778336836
 20
63.08465878512418
 30
0.0
 11
35.60752508541694
 21
63.08465878512418
 31
0.0
  0
LINE
  5
37F
330
15B
100
AcDbEntity
  8
LAYER006
 62
     7
370
    -2
100
AcDbLine
 10
37.10752508541693
 20
54.08465878512385
 30
0.0
 11
37.10752508541693
 21
60.08465878512417
 31
0.0
  0
INSERT
  5
380
330
15B
100
AcDbEntity
  8
LAYER006
 62
     7
370
    -2
100
AcDbBlockReference
  2
FXTIP_ARROW_S
 10
37.10752508541693
 20
51.08465878512385
 30
0.0
 41
3.0
 42
3.0
 43
3.0
 50
270.0
  0
INSERT
  5
381
330
15B
100
AcDbEntity
  8
LAYER006
 62
     7
370
    -2
100
AcDbBlockReference
  2
FXTIP_ARROW_E
 10
37.10752508541693
 20
63.08465878512418
 30
0.0
 41
3.0
 42
3.0
 43
3.0
 50
90.0
  0
MTEXT
  5
382
330
15B
100
AcDbEntity
  8
LAYER006
 62
     7
100
AcDbMText
 10
35.10752508541692
 20
57.08465878512402
 30
0.0
 40
3.0
 41
0.0
 71
     5
 72
     1
  1
\A1;12
  7
STYLE004
 11
0.0000000000000001
 21
1.0
 31
0.0
 73
     1
 44
1.0
  0
POINT
  5
383
330
15B
100
AcDbEntity
  8
Defpoints
 62
     0
100
AcDbPoint
 10
44.06446778336833
 20
51.08465878512385
 30
0.0
  0
POINT
  5
384
330
15B
100
AcDbEntity
  8
Defpoints
 62
     0
100
AcDbPoint
 10
44.06446778336835
 20
63.08465878512418
 30
0.0
  0
POINT
  5
385
330
15B
100
AcDbEntity
  8
Defpoints
 62
     0
100
AcDbPoint
 10
37.10752508541693
 20
63.08465878512418
 30
0.0
  0
ENDBLK
  5
15D
330
15B
100
AcDbEntity
  8
0
100
AcDbBlockEnd
  0
BLOCK
  5
167
330
166
100
AcDbEntity
  8
0
100
AcDbBlockBegin
  2
*D28
 70
     1
 10
0.0
 20
0.0
 30
0.0
  3
*D28
  1

  0
LINE
  5
374
330
166
100
AcDbEntity
  8
LAYER006
 62
     7
370
    -2
100
AcDbLine
 10
124.7644677833683
 20
49.54631036981311
 30
0.0
 11
124.7644677833683
 21
31.9974686201014
 31
0.0
  0
LINE
  5
375
330
166
100
AcDbEntity
  8
LAYER006
 62
     7
370
    -2
100
AcDbLine
 10
139.7644677833683
 20
41.28465878512407
 30
0.0
 11
139.7644677833683
 21
31.9974686201014
 31
0.0
  0
LINE
  5
376
330
166
100
AcDbEntity
  8
LAYER006
 62
     7
370
    -2
100
AcDbLine
 10
127.7644677833683
 20
33.4974686201014
 30
0.0
 11
136.7644677833683
 21
33.4974686201014
 31
0.0
  0
INSERT
  5
377
330
166
100
AcDbEntity
  8
LAYER006
 62
     7
370
    -2
100
AcDbBlockReference
  2
FXTIP_ARROW_S
 10
124.7644677833683
 20
33.4974686201014
 30
0.0
 41
3.0
 42
3.0
 43
3.0
 50
180.0
  0
INSERT
  5
378
330
166
100
AcDbEntity
  8
LAYER006
 62
     7
370
    -2
100
AcDbBlockReference
  2
FXTIP_ARROW_E
 10
139.7644677833683
 20
33.4974686201014
 30
0.0
 41
3.0
 42
3.0
 43
3.0
  0
MTEXT
  5
379
330
166
100
AcDbEntity
  8
LAYER006
 62
     7
100
AcDbMText
 10
132.2644677833684
 20
35.4974686201014
 30
0.0
 40
3.0
 41
0.0
 71
     5
 72
     1
  1
\A1;15
  7
STYLE004
 73
     1
 44
1.0
  0
POINT
  5
37A
330
166
100
AcDbEntity
  8
Defpoints
 62
     0
100
AcDbPoint
 10
124.7644677833683
 20
50.54631036981311
 30
0.0
  0
POINT
  5
37B
330
166
100
AcDbEntity
  8
Defpoints
 62
     0
100
AcDbPoint
 10
139.7644677833683
 20
42.28465878512406
 30
0.0
  0
POINT
  5
37C
330
166
100
AcDbEntity
  8
Defpoints
 62
     0
100
AcDbPoint
 10
139.7644677833683
 20
33.4974686201014
 30
0.0
  0
ENDBLK
  5
168
330
166
100
AcDbEntity
  8
0
100
AcDbBlockEnd
  0
BLOCK
  5
171
330
170
100
AcDbEntity
  8
0
100
AcDbBlockBegin
  2
*D29
 70
     1
 10
0.0
 20
0.0
 30
0.0
  3
*D29
  1

  0
LINE
  5
36B
330
170
100
AcDbEntity
  8
LAYER006
 62
     7
370
    -2
100
AcDbLine
 10
148.5644677833683
 20
73.48465878512413
 30
0.0
 11
148.5644677833683
 21
80.34430873675631
 31
0.0
  0
LINE
  5
36C
330
170
100
AcDbEntity
  8
LAYER006
 62
     7
370
    -2
100
AcDbLine
 10
158.5644677833683
 20
73.48465878512413
 30
0.0
 11
158.5644677833683
 21
80.34430873675631
 31
0.0
  0
LINE
  5
36D
330
170
100
AcDbEntity
  8
LAYER006
 62
     7
370
    -2
100
AcDbLine
 10
151.5644677833683
 20
78.84430873675632
 30
0.0
 11
155.5644677833683
 21
78.84430873675632
 31
0.0
  0
INSERT
  5
36E
330
170
100
AcDbEntity
  8
LAYER006
 62
     7
370
    -2
100
AcDbBlockReference
  2
FXTIP_ARROW_S
 10
148.5644677833683
 20
78.84430873675632
 30
0.0
 41
3.0
 42
3.0
 43
3.0
 50
180.0
  0
INSERT
  5
36F
330
170
100
AcDbEntity
  8
LAYER006
 62
     7
370
    -2
100
AcDbBlockReference
  2
FXTIP_ARROW_E
 10
158.5644677833683
 20
78.84430873675632
 30
0.0
 41
3.0
 42
3.0
 43
3.0
  0
MTEXT
  5
370
330
170
100
AcDbEntity
  8
LAYER006
 62
     7
100
AcDbMText
 10
153.5644677833683
 20
80.84430873675632
 30
0.0
 40
3.0
 41
0.0
 71
     5
 72
     1
  1
\A1;10
  7
STYLE004
 73
     1
 44
1.0
  0
POINT
  5
371
330
170
100
AcDbEntity
  8
Defpoints
 62
     0
100
AcDbPoint
 10
148.5644677833683
 20
72.48465878512412
 30
0.0
  0
POINT
  5
372
330
170
100
AcDbEntity
  8
Defpoints
 62
     0
100
AcDbPoint
 10
158.5644677833683
 20
72.48465878512412
 30
0.0
  0
POINT
  5
373
330
170
100
AcDbEntity
  8
Defpoints
 62
     0
100
AcDbPoint
 10
158.5644677833683
 20
78.84430873675632
 30
0.0
  0
ENDBLK
  5
172
330
170
100
AcDbEntity
  8
0
100
AcDbBlockEnd
  0
BLOCK
  5
17B
330
17A
100
AcDbEntity
  8
0
100
AcDbBlockBegin
  2
*D30
 70
     1
 10
0.0
 20
0.0
 30
0.0
  3
*D30
  1

  0
LINE
  5
362
330
17A
100
AcDbEntity
  8
LAYER006
 62
     7
370
    -2
100
AcDbLine
 10
158.5644677833683
 20
73.48465878512413
 30
0.0
 11
158.5644677833683
 21
80.34430873675631
 31
0.0
  0
LINE
  5
363
330
17A
100
AcDbEntity
  8
LAYER006
 62
     7
370
    -2
100
AcDbLine
 10
224.6646980000423
 20
72.88465878512403
 30
0.0
 11
224.6646980000423
 21
80.34430873675631
 31
0.0
  0
LINE
  5
364
330
17A
100
AcDbEntity
  8
LAYER006
 62
     7
370
    -2
100
AcDbLine
 10
161.5644677833683
 20
78.84430873675632
 30
0.0
 11
221.6646980000423
 21
78.84430873675632
 31
0.0
  0
INSERT
  5
365
330
17A
100
AcDbEntity
  8
LAYER006
 62
     7
370
    -2
100
AcDbBlockReference
  2
FXTIP_ARROW_S
 10
158.5644677833683
 20
78.84430873675632
 30
0.0
 41
3.0
 42
3.0
 43
3.0
 50
180.0
  0
INSERT
  5
366
330
17A
100
AcDbEntity
  8
LAYER006
 62
     7
370
    -2
100
AcDbBlockReference
  2
FXTIP_ARROW_E
 10
224.6646980000423
 20
78.84430873675632
 30
0.0
 41
3.0
 42
3.0
 43
3.0
  0
MTEXT
  5
367
330
17A
100
AcDbEntity
  8
LAYER006
 62
     7
100
AcDbMText
 10
191.6145828917053
 20
80.84430873675632
 30
0.0
 40
3.0
 41
0.0
 71
     5
 72
     1
  1
\A1;66.1
  7
STYLE004
 73
     1
 44
1.0
  0
POINT
  5
368
330
17A
100
AcDbEntity
  8
Defpoints
 62
     0
100
AcDbPoint
 10
158.5644677833683
 20
72.48465878512412
 30
0.0
  0
POINT
  5
369
330
17A
100
AcDbEntity
  8
Defpoints
 62
     0
100
AcDbPoint
 10
224.6646980000423
 20
71.88465878512403
 30
0.0
  0
POINT
  5
36A
330
17A
100
AcDbEntity
  8
Defpoints
 62
     0
100
AcDbPoint
 10
224.6646980000423
 20
78.84430873675632
 30
0.0
  0
ENDBLK
  5
17C
330
17A
100
AcDbEntity
  8
0
100
AcDbBlockEnd
  0
BLOCK
  5
188
330
187
100
AcDbEntity
  8
0
100
AcDbBlockBegin
  2
*D31
 70
     1
 10
0.0
 20
0.0
 30
0.0
  3
*D31
  1

  0
LINE
  5
359
330
187
100
AcDbEntity
  8
LAYER006
 62
     7
370
    -2
100
AcDbLine
 10
-14.52054072183023
 20
49.546310369813
 30
0.0
 11
-14.52054072183023
 21
29.68385432843531
 31
0.0
  0
LINE
  5
35A
330
187
100
AcDbEntity
  8
LAYER006
 62
     7
370
    -2
100
AcDbLine
 10
12.47945927816976
 20
49.546310369813
 30
0.0
 11
12.47945927816976
 21
29.68385432843531
 31
0.0
  0
LINE
  5
35B
330
187
100
AcDbEntity
  8
LAYER006
 62
     7
370
    -2
100
AcDbLine
 10
-11.52054072183023
 20
31.18385432843531
 30
0.0
 11
9.479459278169761
 21
31.18385432843531
 31
0.0
  0
INSERT
  5
35C
330
187
100
AcDbEntity
  8
LAYER006
 62
     7
370
    -2
100
AcDbBlockReference
  2
FXTIP_ARROW_S
 10
-14.52054072183023
 20
31.18385432843531
 30
0.0
 41
3.0
 42
3.0
 43
3.0
 50
180.0
  0
INSERT
  5
35D
330
187
100
AcDbEntity
  8
LAYER006
 62
     7
370
    -2
100
AcDbBlockReference
  2
FXTIP_ARROW_E
 10
12.47945927816976
 20
31.18385432843531
 30
0.0
 41
3.0
 42
3.0
 43
3.0
  0
MTEXT
  5
35E
330
187
100
AcDbEntity
  8
LAYER006
 62
     7
100
AcDbMText
 10
-1.020540721830238
 20
33.18385432843531
 30
0.0
 40
3.0
 41
0.0
 71
     5
 72
     1
  1
\A1;27
  7
STYLE004
 73
     1
 44
1.0
  0
POINT
  5
35F
330
187
100
AcDbEntity
  8
Defpoints
 62
     0
100
AcDbPoint
 10
-14.52054072183023
 20
50.546310369813
 30
0.0
  0
POINT
  5
360
330
187
100
AcDbEntity
  8
Defpoints
 62
     0
100
AcDbPoint
 10
12.47945927816976
 20
50.546310369813
 30
0.0
  0
POINT
  5
361
330
187
100
AcDbEntity
  8
Defpoints
 62
     0
100
AcDbPoint
 10
12.47945927816976
 20
31.18385432843531
 30
0.0
  0
ENDBLK
  5
189
330
187
100
AcDbEntity
  8
0
100
AcDbBlockEnd
  0
BLOCK
  5
193
330
192
100
AcDbEntity
  8
0
100
AcDbBlockBegin
  2
FXDIM034
 70
     0
 10
0.0
 20
0.0
 30
0.0
  3
FXDIM034
  1

  0
LINE
  5
196
330
192
100
AcDbEntity
  8
LAYER006
  6
Continuous
 62
     6
370
    20
100
AcDbLine
 10
249.9085064939898
 20
77.96207421667354
 30
0.0
 11
256.3440909046881
 21
68.41601304350168
 31
0.0
  0
INSERT
  5
197
330
192
100
AcDbEntity
  8
LAYER006
  6
Continuous
 62
     6
370
    20
100
AcDbBlockReference
  2
FXTIP_ARROW_S
 10
249.9085064939898
 20
77.96207421667354
 30
0.0
 41
3.0
 42
3.0
 50
123.9863220715486
  0
LINE
  5
198
330
192
100
AcDbEntity
  8
LAYER006
  6
Continuous
 62
     6
370
    20
100
AcDbLine
 10
256.3440909046881
 20
68.41601304350168
 30
0.0
 11
265.344090904688
 21
68.41601304350168
 31
0.0
  0
TEXT
  5
199
330
192
100
AcDbEntity
  8
LAYER006
  6
Continuous
 62
     6
370
    20
100
AcDbText
 10
258.6921081542969
 20
68.91600799560547
 30
0.0
 40
3.0
  1
鏡筒
 41
0.8333333333333333
  7
STYLE004
100
AcDbText
  0
ENDBLK
  5
194
330
192
100
AcDbEntity
  8
0
100
AcDbBlockEnd
  0
BLOCK
  5
19B
330
19A
100
AcDbEntity
  8
0
100
AcDbBlockBegin
  2
FXDIM035
 70
     0
 10
0.0
 20
0.0
 30
0.0
  3
FXDIM035
  1

  0
LINE
  5
19E
330
19A
100
AcDbEntity
  8
LAYER006
  6
Continuous
 62
     6
370
    20
100
AcDbLine
 10
205.2802068343581
 20
77.06207421667352
 30
0.0
 11
210.9115912988384
 21
69.62093893131821
 31
0.0
  0
INSERT
  5
19F
330
19A
100
AcDbEntity
  8
LAYER006
  6
Continuous
 62
     6
370
    20
100
AcDbBlockReference
  2
FXTIP_ARROW_S
 10
205.2802068343581
 20
77.06207421667352
 30
0.0
 41
3.0
 42
3.0
 50
127.1181094373785
  0
LINE
  5
1A0
330
19A
100
AcDbEntity
  8
LAYER006
  6
Continuous
 62
     6
370
    20
100
AcDbLine
 10
210.9115912988384
 20
69.62093893131821
 30
0.0
 11
239.6162841259326
 21
69.62093893131821
 31
0.0
  0
TEXT
  5
1A1
330
19A
100
AcDbEntity
  8
LAYER006
  6
Continuous
 62
     6
370
    20
100
AcDbText
 10
212.1920623779296
 20
70.12092590332031
 30
0.0
 40
3.0
  1
ロッドホルダ－
 50
0.0000000099999999
 41
0.8333333333333333
  7
STYLE004
100
AcDbText
  0
TEXT
  5
1A2
330
19A
100
AcDbEntity
  8
LAYER006
  6
Continuous
 62
     6
370
    20
100
AcDbText
 10
212.1920623786277
 20
66.12092590332031
 30
0.0
 40
3.0
  1
（ピント調整固定用）
 50
0.0000000099999999
 41
0.8333333333333333
  7
STYLE004
100
AcDbText
  0
ENDBLK
  5
19C
330
19A
100
AcDbEntity
  8
0
100
AcDbBlockEnd
  0
BLOCK
  5
1A4
330
1A3
100
AcDbEntity
  8
0
100
AcDbBlockBegin
  2
FXDIM036
 70
     0
 10
0.0
 20
0.0
 30
0.0
  3
FXDIM036
  1

  0
LINE
  5
1A7
330
1A3
100
AcDbEntity
  8
LAYER006
  6
Continuous
 62
     6
370
    20
100
AcDbLine
 10
107.1288355511851
 20
77.9620742166735
 30
0.0
 11
99.96668042940964
 21
68.39360407405914
 31
0.0
  0
INSERT
  5
1A8
330
1A3
100
AcDbEntity
  8
LAYER006
  6
Continuous
 62
     6
370
    20
100
AcDbBlockReference
  2
FXTIP_ARROW_S
 10
107.1288355511851
 20
77.9620742166735
 30
0.0
 41
3.0
 42
3.0
 50
53.18455021406745
  0
LINE
  5
1A9
330
1A3
100
AcDbEntity
  8
LAYER006
  6
Continuous
 62
     6
370
    20
100
AcDbLine
 10
99.96668042940964
 20
68.39360407405914
 30
0.0
 11
80.57504977750316
 21
68.39360407405914
 31
0.0
  0
TEXT
  5
1AA
330
1A3
100
AcDbEntity
  8
LAYER006
  6
Continuous
 62
     6
370
    20
100
AcDbText
 10
80.99373626708985
 20
68.89360046386719
 30
0.0
 40
3.0
  1
LGホルタ゛-
 50
0.0000000100000079
 41
0.8333333333333333
  7
STYLE004
100
AcDbText
  0
ENDBLK
  5
1A5
330
1A3
100
AcDbEntity
  8
0
100
AcDbBlockEnd
  0
BLOCK
  5
1AC
330
1AB
100
AcDbEntity
  8
0
100
AcDbBlockBegin
  2
BLKF037
 70
     0
 10
0.0
 20
0.0
 30
0.0
  3
BLKF037
  1

  0
LINE
  5
1AF
330
1AB
100
AcDbEntity
  8
LAYER006
  6
Continuous
 62
     6
370
    20
100
AcDbLine
 10
114.6583208270429
 20
107.9620742166736
 30
0.0
 11
85.95832082704287
 21
107.9620742166736
 31
0.0
  0
LINE
  5
1B0
330
1AB
100
AcDbEntity
  8
LAYER006
  6
Continuous
 62
     6
370
    20
100
AcDbLine
 10
85.45832082704285
 20
107.4620742166735
 30
0.0
 11
85.45832082704285
 21
78.46207421667357
 31
0.0
  0
LINE
  5
1B1
330
1AB
100
AcDbEntity
  8
LAYER006
  6
Continuous
 62
     6
370
    20
100
AcDbLine
 10
85.95832082704284
 20
77.96207421667357
 30
0.0
 11
114.6583208270429
 21
77.96207421667357
 31
0.0
  0
LINE
  5
1B2
330
1AB
100
AcDbEntity
  8
LAYER006
  6
DASHED
 62
     6
370
    20
100
AcDbLine
 10
126.4583208270428
 20
98.96207421667355
 30
0.0
 11
85.95832082704284
 21
98.96207421667364
 31
0.0
  0
LINE
  5
1B3
330
1AB
100
AcDbEntity
  8
LAYER006
  6
DASHED
 62
     6
370
    20
100
AcDbLine
 10
85.95832082704284
 20
86.96207421667358
 30
0.0
 11
126.458320827043
 21
86.96207421667358
 31
0.0
  0
LINE
  5
1B4
330
1AB
100
AcDbEntity
  8
LAYER006
  6
Continuous
 62
     6
370
    20
100
AcDbLine
 10
85.95832082704284
 20
107.9620742166736
 30
0.0
 11
85.45832082704285
 21
107.4620742166735
 31
0.0
  0
LINE
  5
1B5
330
1AB
100
AcDbEntity
  8
LAYER006
  6
Continuous
 62
     6
370
    20
100
AcDbLine
 10
85.45832082704285
 20
78.46207421667357
 30
0.0
 11
85.95832082704284
 21
77.96207421667357
 31
0.0
  0
LINE
  5
1B6
330
1AB
100
AcDbEntity
  8
LAYER006
  6
DASHDOT
 62
     5
370
    20
100
AcDbLine
 10
95.45832082704285
 20
108.9228529848864
 30
0.0
 11
95.45832082704285
 21
98.09221739487611
 31
0.0
  0
LINE
  5
1B7
330
1AB
100
AcDbEntity
  8
LAYER006
  6
DASHDOT
 62
     5
370
    20
100
AcDbLine
 10
82.15776852890835
 20
92.96207421667357
 30
0.0
 11
127.5825732164082
 21
92.96207421667357
 31
0.0
  0
LINE
  5
1B8
330
1AB
100
AcDbEntity
  8
LAYER006
  6
Continuous
 62
     5
370
    20
100
AcDbLine
 10
114.8583208270429
 20
107.7620742166735
 30
0.0
 11
114.8583208270429
 21
78.16207421667356
 31
0.0
  0
LINE
  5
1B9
330
1AB
100
AcDbEntity
  8
LAYER006
  6
Continuous
 62
     6
370
    20
100
AcDbLine
 10
114.6583208270429
 20
77.96207421667357
 30
0.0
 11
114.8583208270429
 21
78.16207421667356
 31
0.0
  0
LINE
  5
1BA
330
1AB
100
AcDbEntity
  8
LAYER006
  6
Continuous
 62
     6
370
    20
100
AcDbLine
 10
114.8583208270429
 20
107.7620742166735
 30
0.0
 11
114.6583208270429
 21
107.9620742166736
 31
0.0
  0
LINE
  5
1BB
330
1AB
100
AcDbEntity
  8
LAYER006
  6
Continuous
 62
     5
370
    20
100
AcDbLine
 10
114.6583208270429
 20
107.9620742166736
 30
0.0
 11
114.6583208270429
 21
77.96207421667357
 31
0.0
  0
LINE
  5
1BC
330
1AB
100
AcDbEntity
  8
LAYER006
  6
Continuous
 62
     6
370
    20
100
AcDbLine
 10
85.95832082704289
 20
107.9620742166736
 30
0.0
 11
85.95832082704284
 21
77.96207421667357
 31
0.0
  0
ENDBLK
  5
1AD
330
1AB
100
AcDbEntity
  8
0
100
AcDbBlockEnd
  0
BLOCK
  5
1C0
330
1BF
100
AcDbEntity
  8
0
100
AcDbBlockBegin
  2
BLKF038
 70
     0
 10
0.0
 20
0.0
 30
0.0
  3
BLKF038
  1

  0
LINE
  5
1C3
330
1BF
100
AcDbEntity
  8
LAYER006
  6
Continuous
 62
     6
370
    20
100
AcDbLine
 10
199.9583208270429
 20
77.06207421667361
 30
0.0
 11
190.9583208270429
 21
77.06207421667355
 31
0.0
  0
LINE
  5
1C4
330
1BF
100
AcDbEntity
  8
LAYER006
  6
Continuous
 62
     6
370
    20
100
AcDbLine
 10
187.3180130948655
 20
92.96207421667359
 30
0.0
 11
202.9254189684545
 21
92.96207421667359
 31
0.0
  0
LINE
  5
1C5
330
1BF
100
AcDbEntity
  8
LAYER006
  6
Continuous
 62
     6
370
    20
100
AcDbLine
 10
190.9583208270429
 20
77.06207421667355
 30
0.0
 11
190.9583208270429
 21
92.96207421667359
 31
0.0
  0
LINE
  5
1C6
330
1BF
100
AcDbEntity
  8
LAYER006
  6
Continuous
 62
     6
370
    20
100
AcDbLine
 10
199.9583208270429
 20
77.06207421667355
 30
0.0
 11
199.9583208270429
 21
92.96207421667359
 31
0.0
  0
LINE
  5
1C7
330
1BF
100
AcDbEntity
  8
LAYER006
  6
Continuous
 62
     6
370
    20
100
AcDbLine
 10
190.4583208270429
 20
92.96207421667359
 30
0.0
 11
200.4583208270429
 21
92.96207421667359
 31
0.0
  0
LINE
  5
1C8
330
1BF
100
AcDbEntity
  8
LAYER006
  6
Continuous
 62
     6
370
    20
100
AcDbLine
 10
200.4583208270429
 20
92.96207421667359
 30
0.0
 11
200.4583208270429
 21
77.56207421667361
 31
0.0
  0
LINE
  5
1C9
330
1BF
100
AcDbEntity
  8
LAYER006
  6
Continuous
 62
     6
370
    20
100
AcDbLine
 10
190.4583208270429
 20
77.56207421667355
 30
0.0
 11
190.9583208270429
 21
77.06207421667355
 31
0.0
  0
LINE
  5
1CA
330
1BF
100
AcDbEntity
  8
LAYER006
  6
Continuous
 62
     6
370
    20
100
AcDbLine
 10
200.4583208270429
 20
77.56207421667361
 30
0.0
 11
199.9583208270429
 21
77.06207421667361
 31
0.0
  0
HATCH
  5
1CB
330
1BF
100
AcDbEntity
  8
LAYER006
  6
Continuous
 62
     7
370
    20
100
AcDbHatch
 10
0.0
 20
0.0
 30
0.0
210
0.0
220
0.0
230
1.0
  2

 70
     0
 71
     1
 91
        1
 92
        0
 93
        4
 72
     1
 10
190.9583208270429
 20
92.96207421667359
 11
199.9583208270429
 21
92.96207421667359
 72
     1
 10
199.9583208270429
 20
92.96207421667359
 11
199.9583208270429
 21
76.96207421667359
 72
     1
 10
199.9583208270429
 20
76.96207421667359
 11
190.9583208270429
 21
76.96207421667359
 72
     1
 10
190.9583208270429
 20
76.96207421667359
 11
190.9583208270429
 21
92.96207421667359
 97
        0
 75
     0
 76
     0
 52
180.0
 41
1.0
 77
     0
 78
     1
 53
180.0
 43
0.0
 44
0.0
 45
-0.0000000000000001
 46
-1.0
 79
     0
 98
        0
  0
LINE
  5
1CC
330
1BF
100
AcDbEntity
  8
LAYER006
  6
Continuous
 62
     6
370
    20
100
AcDbLine
 10
190.4583208270429
 20
92.96207421667359
 30
0.0
 11
190.4583208270429
 21
77.56207421667361
 31
0.0
  0
LINE
  5
1CD
330
1BF
100
AcDbEntity
  8
LAYER006
  6
Continuous
 62
     6
370
    20
100
AcDbLine
 10
199.9583208270429
 20
108.8620742166735
 30
0.0
 11
190.9583208270429
 21
108.8620742166735
 31
0.0
  0
LINE
  5
1CE
330
1BF
100
AcDbEntity
  8
LAYER006
  6
Continuous
 62
     6
370
    20
100
AcDbLine
 10
190.9583208270429
 20
108.8620742166735
 30
0.0
 11
190.9583208270429
 21
92.96207421667359
 31
0.0
  0
LINE
  5
1CF
330
1BF
100
AcDbEntity
  8
LAYER006
  6
Continuous
 62
     6
370
    20
100
AcDbLine
 10
199.9583208270429
 20
108.8620742166735
 30
0.0
 11
199.9583208270429
 21
92.96207421667359
 31
0.0
  0
LINE
  5
1D0
330
1BF
100
AcDbEntity
  8
LAYER006
  6
Continuous
 62
     6
370
    20
100
AcDbLine
 10
190.4583208270429
 20
92.96207421667359
 30
0.0
 11
200.4583208270429
 21
92.96207421667359
 31
0.0
  0
LINE
  5
1D1
330
1BF
100
AcDbEntity
  8
LAYER006
  6
Continuous
 62
     6
370
    20
100
AcDbLine
 10
200.4583208270429
 20
92.96207421667359
 30
0.0
 11
200.4583208270429
 21
108.3620742166736
 31
0.0
  0
LINE
  5
1D2
330
1BF
100
AcDbEntity
  8
LAYER006
  6
Continuous
 62
     6
370
    20
100
AcDbLine
 10
190.4583208270429
 20
108.3620742166736
 30
0.0
 11
190.9583208270429
 21
108.8620742166735
 31
0.0
  0
LINE
  5
1D3
330
1BF
100
AcDbEntity
  8
LAYER006
  6
Continuous
 62
     6
370
    20
100
AcDbLine
 10
200.4583208270429
 20
108.3620742166736
 30
0.0
 11
199.9583208270429
 21
108.8620742166735
 31
0.0
  0
HATCH
  5
1D4
330
1BF
100
AcDbEntity
  8
LAYER006
  6
Continuous
 62
     7
370
    20
100
AcDbHatch
 10
0.0
 20
0.0
 30
0.0
210
0.0
220
0.0
230
1.0
  2

 70
     0
 71
     1
 91
        1
 92
        0
 93
        4
 72
     1
 10
190.9583208270429
 20
92.96207421667359
 11
199.9583208270429
 21
92.96207421667359
 72
     1
 10
199.9583208270429
 20
92.96207421667359
 11
199.9583208270429
 21
108.9620742166736
 72
     1
 10
199.9583208270429
 20
108.9620742166736
 11
190.9583208270429
 21
108.9620742166736
 72
     1
 10
190.9583208270429
 20
108.9620742166736
 11
190.9583208270429
 21
92.96207421667359
 97
        0
 75
     0
 76
     0
 52
180.0
 41
1.0
 77
     0
 78
     1
 53
180.0
 43
0.0
 44
0.0
 45
-0.0000000000000001
 46
-1.0
 79
     0
 98
        0
  0
LINE
  5
1D5
330
1BF
100
AcDbEntity
  8
LAYER006
  6
Continuous
 62
     6
370
    20
100
AcDbLine
 10
190.4583208270429
 20
92.96207421667359
 30
0.0
 11
190.4583208270429
 21
108.3620742166736
 31
0.0
  0
ENDBLK
  5
1C1
330
1BF
100
AcDbEntity
  8
0
100
AcDbBlockEnd
  0
BLOCK
  5
1D7
330
1D6
100
AcDbEntity
  8
0
100
AcDbBlockBegin
  2
BLKF039
 70
     0
 10
0.0
 20
0.0
 30
0.0
  3
BLKF039
  1

  0
INSERT
  5
1DD
330
1D6
100
AcDbEntity
  8
0
100
AcDbBlockReference
  2
BLKF040
 10
0.0
 20
0.0
 30
0.0
  0
LINE
  5
1EB
330
1D6
100
AcDbEntity
  8
LAYER006
  6
Continuous
 62
     5
370
    20
100
AcDbLine
 10
200.6583208270428
 20
107.9620742166735
 30
0.0
 11
200.6583208270428
 21
77.9620742166736
 31
0.0
  0
LINE
  5
1EC
330
1D6
100
AcDbEntity
  8
LAYER006
  6
Continuous
 62
     5
370
    20
100
AcDbLine
 10
266.358551043717
 20
107.9620742166735
 30
0.0
 11
266.3585510437168
 21
77.9620742166736
 31
0.0
  0
ENDBLK
  5
1D8
330
1D6
100
AcDbEntity
  8
0
100
AcDbBlockEnd
  0
BLOCK
  5
1DB
330
1DA
100
AcDbEntity
  8
0
100
AcDbBlockBegin
  2
BLKF040
 70
     0
 10
0.0
 20
0.0
 30
0.0
  3
BLKF040
  1

  0
LINE
  5
1DE
330
1DA
100
AcDbEntity
  8
LAYER006
  6
DASHDOT
 62
     5
370
    20
100
AcDbLine
 10
272.578655464557
 20
92.96207421667359
 30
0.0
 11
195.3274284859394
 21
92.96207421667359
 31
0.0
  0
LINE
  5
1DF
330
1DA
100
AcDbEntity
  8
LAYER006
  6
Continuous
 62
     6
370
    20
100
AcDbLine
 10
266.3585510437168
 20
107.9620742166736
 30
0.0
 11
200.6583208270428
 21
107.9620742166736
 31
0.0
  0
LINE
  5
1E0
330
1DA
100
AcDbEntity
  8
LAYER006
  6
Continuous
 62
     6
370
    20
100
AcDbLine
 10
200.4583208270429
 20
107.1915742166736
 30
0.0
 11
200.4583208270429
 21
107.7620742166736
 31
0.0
  0
LINE
  5
1E1
330
1DA
100
AcDbEntity
  8
LAYER006
  6
Continuous
 62
     6
370
    20
100
AcDbLine
 10
200.4583208270429
 20
107.1915742166736
 30
0.0
 11
200.4583208270429
 21
78.73257421667367
 31
0.0
  0
LINE
  5
1E2
330
1DA
100
AcDbEntity
  8
LAYER006
  6
Continuous
 62
     6
370
    20
100
AcDbLine
 10
200.6583208270428
 20
107.9620742166736
 30
0.0
 11
200.4583208270429
 21
107.7620742166736
 31
0.0
  0
LINE
  5
1E3
330
1DA
100
AcDbEntity
  8
LAYER006
  6
Continuous
 62
     6
370
    20
100
AcDbLine
 10
266.5585510437168
 20
107.7620742166736
 30
0.0
 11
266.5585510437168
 21
107.1915742166736
 31
0.0
  0
LINE
  5
1E4
330
1DA
100
AcDbEntity
  8
LAYER006
  6
Continuous
 62
     6
370
    20
100
AcDbLine
 10
266.3585510437168
 20
107.9620742166736
 30
0.0
 11
266.5585510437168
 21
107.7620742166736
 31
0.0
  0
LINE
  5
1E5
330
1DA
100
AcDbEntity
  8
LAYER006
  6
Continuous
 62
     6
370
    20
100
AcDbLine
 10
266.5585510437168
 20
107.1915742166736
 30
0.0
 11
266.5585510437168
 21
78.73257421667361
 31
0.0
  0
LINE
  5
1E6
330
1DA
100
AcDbEntity
  8
LAYER006
  6
Continuous
 62
     6
370
    20
100
AcDbLine
 10
266.3585510437168
 20
77.9620742166736
 30
0.0
 11
200.6583208270428
 21
77.9620742166736
 31
0.0
  0
LINE
  5
1E7
330
1DA
100
AcDbEntity
  8
LAYER006
  6
Continuous
 62
     6
370
    20
100
AcDbLine
 10
200.4583208270429
 20
78.73257421667357
 30
0.0
 11
200.4583208270429
 21
78.16207421667361
 31
0.0
  0
LINE
  5
1E8
330
1DA
100
AcDbEntity
  8
LAYER006
  6
Continuous
 62
     6
370
    20
100
AcDbLine
 10
200.6583208270428
 20
77.9620742166736
 30
0.0
 11
200.4583208270429
 21
78.16207421667361
 31
0.0
  0
LINE
  5
1E9
330
1DA
100
AcDbEntity
  8
LAYER006
  6
Continuous
 62
     6
370
    20
100
AcDbLine
 10
266.5585510437168
 20
78.16207421667361
 30
0.0
 11
266.5585510437168
 21
78.73257421667357
 31
0.0
  0
LINE
  5
1EA
330
1DA
100
AcDbEntity
  8
LAYER006
  6
Continuous
 62
     6
370
    20
100
AcDbLine
 10
266.3585510437168
 20
77.9620742166736
 30
0.0
 11
266.5585510437168
 21
78.16207421667361
 31
0.0
  0
ENDBLK
  5
1DC
330
1DA
100
AcDbEntity
  8
0
100
AcDbBlockEnd
  0
BLOCK
  5
1F0
330
1EF
100
AcDbEntity
  8
0
100
AcDbBlockBegin
  2
BLKF041
 70
     0
 10
0.0
 20
0.0
 30
0.0
  3
BLKF041
  1

  0
LINE
  5
1F3
330
1EF
100
AcDbEntity
  8
LAYER006
  6
Continuous
 62
     6
370
    20
100
AcDbLine
 10
114.6583208270429
 20
175.295381570819
 30
0.0
 11
85.95832082704287
 21
175.2953815708192
 31
0.0
  0
LINE
  5
1F4
330
1EF
100
AcDbEntity
  8
LAYER006
  6
Continuous
 62
     6
370
    20
100
AcDbLine
 10
85.45832082704285
 20
174.7953815708191
 30
0.0
 11
85.45832082704285
 21
145.7953815708191
 31
0.0
  0
LINE
  5
1F5
330
1EF
100
AcDbEntity
  8
LAYER006
  6
Continuous
 62
     6
370
    20
100
AcDbLine
 10
85.95832082704284
 20
145.2953815708191
 30
0.0
 11
114.6583208270429
 21
145.2953815708191
 31
0.0
  0
LINE
  5
1F6
330
1EF
100
AcDbEntity
  8
LAYER006
  6
DASHED
 62
     6
370
    20
100
AcDbLine
 10
126.4583208270428
 20
166.2953815708191
 30
0.0
 11
85.95832082704284
 21
166.2953815708191
 31
0.0
  0
LINE
  5
1F7
330
1EF
100
AcDbEntity
  8
LAYER006
  6
DASHED
 62
     6
370
    20
100
AcDbLine
 10
85.95832082704284
 20
154.2953815708191
 30
0.0
 11
126.4583208270428
 21
154.2953815708191
 31
0.0
  0
LINE
  5
1F8
330
1EF
100
AcDbEntity
  8
LAYER006
  6
Continuous
 62
     6
370
    20
100
AcDbLine
 10
85.95832082704284
 20
175.295381570819
 30
0.0
 11
85.45832082704285
 21
174.7953815708191
 31
0.0
  0
LINE
  5
1F9
330
1EF
100
AcDbEntity
  8
LAYER006
  6
Continuous
 62
     6
370
    20
100
AcDbLine
 10
85.45832082704285
 20
145.7953815708191
 30
0.0
 11
85.95832082704284
 21
145.2953815708191
 31
0.0
  0
LINE
  5
1FA
330
1EF
100
AcDbEntity
  8
LAYER006
  6
DASHDOT
 62
     5
370
    20
100
AcDbLine
 10
95.45832082704285
 20
176.2561603390319
 30
0.0
 11
95.45832082704285
 21
165.4255247490215
 31
0.0
  0
LINE
  5
1FB
330
1EF
100
AcDbEntity
  8
LAYER006
  6
DASHDOT
 62
     5
370
    20
100
AcDbLine
 10
82.15776852890835
 20
160.2953815708191
 30
0.0
 11
127.5825732164082
 21
160.2953815708191
 31
0.0
  0
LINE
  5
1FC
330
1EF
100
AcDbEntity
  8
LAYER006
  6
Continuous
 62
     5
370
    20
100
AcDbLine
 10
114.8583208270429
 20
175.095381570819
 30
0.0
 11
114.8583208270429
 21
145.495381570819
 31
0.0
  0
LINE
  5
1FD
330
1EF
100
AcDbEntity
  8
LAYER006
  6
Continuous
 62
     6
370
    20
100
AcDbLine
 10
114.6583208270429
 20
145.2953815708191
 30
0.0
 11
114.8583208270429
 21
145.495381570819
 31
0.0
  0
LINE
  5
1FE
330
1EF
100
AcDbEntity
  8
LAYER006
  6
Continuous
 62
     6
370
    20
100
AcDbLine
 10
114.8583208270429
 20
175.095381570819
 30
0.0
 11
114.6583208270429
 21
175.295381570819
 31
0.0
  0
LINE
  5
1FF
330
1EF
100
AcDbEntity
  8
LAYER006
  6
Continuous
 62
     5
370
    20
100
AcDbLine
 10
114.6583208270429
 20
175.295381570819
 30
0.0
 11
114.6583208270429
 21
145.2953815708191
 31
0.0
  0
LINE
  5
200
330
1EF
100
AcDbEntity
  8
LAYER006
  6
Continuous
 62
     6
370
    20
100
AcDbLine
 10
85.95832082704289
 20
175.2953815708192
 30
0.0
 11
85.95832082704284
 21
145.2953815708191
 31
0.0
  0
ENDBLK
  5
1F1
330
1EF
100
AcDbEntity
  8
0
100
AcDbBlockEnd
  0
BLOCK
  5
202
330
201
100
AcDbEntity
  8
0
100
AcDbBlockBegin
  2
BLKF042
 70
     0
 10
0.0
 20
0.0
 30
0.0
  3
BLKF042
  1

  0
LINE
  5
205
330
201
100
AcDbEntity
  8
LAYER006
  6
Continuous
 62
     6
370
    20
100
AcDbLine
 10
191.1583208270429
 20
144.3953815708191
 30
0.0
 11
182.1583208270429
 21
144.3953815708189
 31
0.0
  0
LINE
  5
206
330
201
100
AcDbEntity
  8
LAYER006
  6
DASHDOT
 62
     5
370
    20
100
AcDbLine
 10
178.5180130948654
 20
160.2953815708191
 30
0.0
 11
194.1254189684545
 21
160.2953815708191
 31
0.0
  0
LINE
  5
207
330
201
100
AcDbEntity
  8
LAYER006
  6
Continuous
 62
     6
370
    20
100
AcDbLine
 10
182.1583208270429
 20
144.3953815708189
 30
0.0
 11
182.1583208270429
 21
160.2953815708191
 31
0.0
  0
LINE
  5
208
330
201
100
AcDbEntity
  8
LAYER006
  6
Continuous
 62
     6
370
    20
100
AcDbLine
 10
191.1583208270429
 20
144.3953815708189
 30
0.0
 11
191.1583208270429
 21
160.2953815708191
 31
0.0
  0
LINE
  5
209
330
201
100
AcDbEntity
  8
LAYER006
  6
Continuous
 62
     5
370
    20
100
AcDbLine
 10
181.6583208270429
 20
160.2953815708191
 30
0.0
 11
191.6583208270429
 21
160.2953815708191
 31
0.0
  0
LINE
  5
20A
330
201
100
AcDbEntity
  8
LAYER006
  6
Continuous
 62
     6
370
    20
100
AcDbLine
 10
191.6583208270429
 20
160.2953815708191
 30
0.0
 11
191.6583208270429
 21
144.895381570819
 31
0.0
  0
LINE
  5
20B
330
201
100
AcDbEntity
  8
LAYER006
  6
Continuous
 62
     6
370
    20
100
AcDbLine
 10
181.6583208270429
 20
144.8953815708189
 30
0.0
 11
182.1583208270429
 21
144.3953815708189
 31
0.0
  0
LINE
  5
20C
330
201
100
AcDbEntity
  8
LAYER006
  6
Continuous
 62
     6
370
    20
100
AcDbLine
 10
191.6583208270429
 20
144.895381570819
 30
0.0
 11
191.1583208270429
 21
144.3953815708191
 31
0.0
  0
HATCH
  5
20D
330
201
100
AcDbEntity
  8
LAYER006
  6
Continuous
 62
     7
370
    20
100
AcDbHatch
 10
0.0
 20
0.0
 30
0.0
210
0.0
220
0.0
230
1.0
  2

 70
     0
 71
     1
 91
        1
 92
        0
 93
        4
 72
     1
 10
182.1583208270429
 20
160.2953815708191
 11
191.1583208270429
 21
160.2953815708191
 72
     1
 10
191.1583208270429
 20
160.2953815708191
 11
191.1583208270429
 21
144.2953815708191
 72
     1
 10
191.1583208270429
 20
144.2953815708191
 11
182.1583208270429
 21
144.2953815708191
 72
     1
 10
182.1583208270429
 20
144.2953815708191
 11
182.1583208270429
 21
160.2953815708191
 97
        0
 75
     0
 76
     0
 52
180.0
 41
1.0
 77
     0
 78
     1
 53
180.0
 43
0.0
 44
0.0
 45
-0.0000000000000001
 46
-1.0
 79
     0
 98
        0
  0
LINE
  5
20E
330
201
100
AcDbEntity
  8
LAYER006
  6
Continuous
 62
     6
370
    20
100
AcDbLine
 10
181.6583208270429
 20
160.2953815708191
 30
0.0
 11
181.6583208270429
 21
144.895381570819
 31
0.0
  0
LINE
  5
20F
330
201
100
AcDbEntity
  8
LAYER006
  6
Continuous
 62
     6
370
    20
100
AcDbLine
 10
191.1583208270429
 20
176.195381570819
 30
0.0
 11
182.1583208270429
 21
176.195381570819
 31
0.0
  0
LINE
  5
210
330
201
100
AcDbEntity
  8
LAYER006
  6
Continuous
 62
     6
370
    20
100
AcDbLine
 10
182.1583208270429
 20
176.195381570819
 30
0.0
 11
182.1583208270429
 21
160.2953815708191
 31
0.0
  0
LINE
  5
211
330
201
100
AcDbEntity
  8
LAYER006
  6
Continuous
 62
     6
370
    20
100
AcDbLine
 10
191.1583208270429
 20
176.195381570819
 30
0.0
 11
191.1583208270429
 21
160.2953815708191
 31
0.0
  0
LINE
  5
212
330
201
100
AcDbEntity
  8
LAYER006
  6
Continuous
 62
     5
370
    20
100
AcDbLine
 10
181.6583208270429
 20
160.2953815708191
 30
0.0
 11
191.6583208270429
 21
160.2953815708191
 31
0.0
  0
LINE
  5
213
330
201
100
AcDbEntity
  8
LAYER006
  6
Continuous
 62
     6
370
    20
100
AcDbLine
 10
191.6583208270429
 20
160.2953815708191
 30
0.0
 11
191.6583208270429
 21
175.695381570819
 31
0.0
  0
LINE
  5
214
330
201
100
AcDbEntity
  8
LAYER006
  6
Continuous
 62
     6
370
    20
100
AcDbLine
 10
181.6583208270429
 20
175.695381570819
 30
0.0
 11
182.1583208270429
 21
176.195381570819
 31
0.0
  0
LINE
  5
215
330
201
100
AcDbEntity
  8
LAYER006
  6
Continuous
 62
     6
370
    20
100
AcDbLine
 10
191.6583208270429
 20
175.695381570819
 30
0.0
 11
191.1583208270429
 21
176.195381570819
 31
0.0
  0
HATCH
  5
216
330
201
100
AcDbEntity
  8
LAYER006
  6
Continuous
 62
     7
370
    20
100
AcDbHatch
 10
0.0
 20
0.0
 30
0.0
210
0.0
220
0.0
230
1.0
  2

 70
     0
 71
     1
 91
        1
 92
        0
 93
        4
 72
     1
 10
182.1583208270429
 20
160.2953815708191
 11
191.1583208270429
 21
160.2953815708191
 72
     1
 10
191.1583208270429
 20
160.2953815708191
 11
191.1583208270429
 21
176.2953815708191
 72
     1
 10
191.1583208270429
 20
176.2953815708191
 11
182.1583208270429
 21
176.2953815708191
 72
     1
 10
182.1583208270429
 20
176.2953815708191
 11
182.1583208270429
 21
160.2953815708191
 97
        0
 75
     0
 76
     0
 52
180.0
 41
1.0
 77
     0
 78
     1
 53
180.0
 43
0.0
 44
0.0
 45
-0.0000000000000001
 46
-1.0
 79
     0
 98
        0
  0
LINE
  5
217
330
201
100
AcDbEntity
  8
LAYER006
  6
Continuous
 62
     6
370
    20
100
AcDbLine
 10
181.6583208270429
 20
160.2953815708191
 30
0.0
 11
181.6583208270429
 21
175.695381570819
 31
0.0
  0
ENDBLK
  5
203
330
201
100
AcDbEntity
  8
0
100
AcDbBlockEnd
  0
BLOCK
  5
219
330
218
100
AcDbEntity
  8
0
100
AcDbBlockBegin
  2
BLKF043
 70
     0
 10
0.0
 20
0.0
 30
0.0
  3
BLKF043
  1

  0
INSERT
  5
21F
330
218
100
AcDbEntity
  8
0
100
AcDbBlockReference
  2
BLKF044
 10
0.0
 20
0.0
 30
0.0
  0
LINE
  5
22B
330
218
100
AcDbEntity
  8
LAYER006
  6
Continuous
 62
     5
370
    20
100
AcDbLine
 10
191.8583208270426
 20
175.295381570819
 30
0.0
 11
191.8583208270426
 21
145.2953815708191
 31
0.0
  0
LINE
  5
22C
330
218
100
AcDbEntity
  8
LAYER006
  6
Continuous
 62
     5
370
    20
100
AcDbLine
 10
257.558551043717
 20
175.295381570819
 30
0.0
 11
257.5585510437168
 21
145.2953815708191
 31
0.0
  0
ENDBLK
  5
21A
330
218
100
AcDbEntity
  8
0
100
AcDbBlockEnd
  0
BLOCK
  5
21D
330
21C
100
AcDbEntity
  8
0
100
AcDbBlockBegin
  2
BLKF044
 70
     0
 10
0.0
 20
0.0
 30
0.0
  3
BLKF044
  1

  0
LINE
  5
220
330
21C
100
AcDbEntity
  8
LAYER006
  6
DASHDOT
 62
     5
370
    20
100
AcDbLine
 10
263.778655464557
 20
160.2953815708191
 30
0.0
 11
186.5274284859393
 21
160.2953815708191
 31
0.0
  0
LINE
  5
221
330
21C
100
AcDbEntity
  8
LAYER006
  6
Continuous
 62
     6
370
    20
100
AcDbLine
 10
257.5585510437168
 20
175.295381570819
 30
0.0
 11
191.8583208270426
 21
175.295381570819
 31
0.0
  0
LINE
  5
222
330
21C
100
AcDbEntity
  8
LAYER006
  6
Continuous
 62
     6
370
    20
100
AcDbLine
 10
191.6583208270428
 20
174.5248815708191
 30
0.0
 11
191.6583208270428
 21
175.095381570819
 31
0.0
  0
LINE
  5
223
330
21C
100
AcDbEntity
  8
LAYER006
  6
Continuous
 62
     6
370
    20
100
AcDbLine
 10
191.6583208270428
 20
174.5248815708191
 30
0.0
 11
191.6583208270428
 21
146.0658815708191
 31
0.0
  0
LINE
  5
224
330
21C
100
AcDbEntity
  8
LAYER006
  6
Continuous
 62
     6
370
    20
100
AcDbLine
 10
191.8583208270426
 20
175.295381570819
 30
0.0
 11
191.6583208270428
 21
175.095381570819
 31
0.0
  0
LINE
  5
225
330
21C
100
AcDbEntity
  8
LAYER006
  6
Continuous
 62
     5
370
    20
100
AcDbLine
 10
257.5585510437168
 20
175.295381570819
 30
0.0
 11
257.7585510437168
 21
175.095381570819
 31
0.0
  0
LINE
  5
226
330
21C
100
AcDbEntity
  8
LAYER006
  6
Continuous
 62
     5
370
    20
100
AcDbLine
 10
257.7585510437168
 20
175.095381570819
 30
0.0
 11
257.7585510437168
 21
145.495381570819
 31
0.0
  0
LINE
  5
227
330
21C
100
AcDbEntity
  8
LAYER006
  6
Continuous
 62
     6
370
    20
100
AcDbLine
 10
257.5585510437168
 20
145.2953815708191
 30
0.0
 11
191.8583208270426
 21
145.2953815708191
 31
0.0
  0
LINE
  5
228
330
21C
100
AcDbEntity
  8
LAYER006
  6
Continuous
 62
     6
370
    20
100
AcDbLine
 10
191.6583208270428
 20
146.0658815708189
 30
0.0
 11
191.6583208270428
 21
145.495381570819
 31
0.0
  0
LINE
  5
229
330
21C
100
AcDbEntity
  8
LAYER006
  6
Continuous
 62
     6
370
    20
100
AcDbLine
 10
191.8583208270426
 20
145.2953815708191
 30
0.0
 11
191.6583208270428
 21
145.495381570819
 31
0.0
  0
LINE
  5
22A
330
21C
100
AcDbEntity
  8
LAYER006
  6
Continuous
 62
     5
370
    20
100
AcDbLine
 10
257.5585510437168
 20
145.2953815708191
 30
0.0
 11
257.7585510437168
 21
145.495381570819
 31
0.0
  0
ENDBLK
  5
21E
330
21C
100
AcDbEntity
  8
0
100
AcDbBlockEnd
  0
BLOCK
  5
22E
330
22D
100
AcDbEntity
  8
0
100
AcDbBlockBegin
  2
BLKF045
 70
     0
 10
0.0
 20
0.0
 30
0.0
  3
BLKF045
  1

  0
LINE
  5
231
330
22D
100
AcDbEntity
  8
LAYER006
  6
Continuous
 62
     5
370
    20
100
AcDbLine
 10
115.0583208270427
 20
175.295381570819
 30
0.0
 11
115.0583208270429
 21
145.2953815708191
 31
0.0
  0
LINE
  5
232
330
22D
100
AcDbEntity
  8
LAYER006
  6
Continuous
 62
     6
370
    20
100
AcDbLine
 10
181.4583208270429
 20
145.2953815708191
 30
0.0
 11
115.0583208270429
 21
145.2953815708191
 31
0.0
  0
LINE
  5
233
330
22D
100
AcDbEntity
  8
LAYER006
  6
Continuous
 62
     6
370
    20
100
AcDbLine
 10
181.6583208270429
 20
145.495381570819
 30
0.0
 11
181.4583208270429
 21
145.2953815708191
 31
0.0
  0
LINE
  5
234
330
22D
100
AcDbEntity
  8
LAYER006
  6
Continuous
 62
     5
370
    20
100
AcDbLine
 10
181.4583208270429
 20
145.2953815708191
 30
0.0
 11
181.4583208270429
 21
153.7570331555081
 31
0.0
  0
LINE
  5
235
330
22D
100
AcDbEntity
  8
LAYER006
  6
Continuous
 62
     6
370
    20
100
AcDbLine
 10
181.6583208270429
 20
145.495381570819
 30
0.0
 11
181.6583208270429
 21
160.2953815708191
 31
0.0
  0
LINE
  5
236
330
22D
100
AcDbEntity
  8
LAYER006
  6
Continuous
 62
     6
370
    20
100
AcDbLine
 10
114.8583208270429
 20
160.2953815708191
 30
0.0
 11
114.8583208270429
 21
145.495381570819
 31
0.0
  0
LINE
  5
237
330
22D
100
AcDbEntity
  8
LAYER006
  6
Continuous
 62
     6
370
    20
100
AcDbLine
 10
115.0583208270429
 20
145.2953815708191
 30
0.0
 11
114.8583208270429
 21
145.495381570819
 31
0.0
  0
LINE
  5
238
330
22D
100
AcDbEntity
  8
LAYER006
  6
Continuous
 62
     6
370
    20
100
AcDbLine
 10
166.6583208270429
 20
153.7570331555081
 30
0.0
 11
166.6583208270429
 21
160.2953815708191
 31
0.0
  0
LINE
  5
239
330
22D
100
AcDbEntity
  8
LAYER006
  6
Continuous
 62
     6
370
    20
100
AcDbLine
 10
181.658320827043
 20
153.7570331555081
 30
0.0
 11
166.6583208270429
 21
153.7570331555081
 31
0.0
  0
LINE
  5
23A
330
22D
100
AcDbEntity
  8
LAYER006
  6
DASHDOT
 62
     5
370
    20
100
AcDbLine
 10
113.2636100478528
 20
160.2953815708191
 30
0.0
 11
185.5900628498289
 21
160.2953815708191
 31
0.0
  0
LINE
  5
23B
330
22D
100
AcDbEntity
  8
LAYER006
  6
Continuous
 62
     6
370
    20
100
AcDbLine
 10
181.4583208270429
 20
175.295381570819
 30
0.0
 11
115.0583208270429
 21
175.295381570819
 31
0.0
  0
LINE
  5
23C
330
22D
100
AcDbEntity
  8
LAYER006
  6
Continuous
 62
     6
370
    20
100
AcDbLine
 10
181.6583208270429
 20
175.095381570819
 30
0.0
 11
181.4583208270429
 21
175.295381570819
 31
0.0
  0
LINE
  5
23D
330
22D
100
AcDbEntity
  8
LAYER006
  6
Continuous
 62
     5
370
    20
100
AcDbLine
 10
181.4583208270429
 20
175.295381570819
 30
0.0
 11
181.4583208270429
 21
166.83372998613
 31
0.0
  0
LINE
  5
23E
330
22D
100
AcDbEntity
  8
LAYER006
  6
Continuous
 62
     6
370
    20
100
AcDbLine
 10
181.6583208270429
 20
175.095381570819
 30
0.0
 11
181.6583208270429
 21
160.2953815708191
 31
0.0
  0
LINE
  5
23F
330
22D
100
AcDbEntity
  8
LAYER006
  6
Continuous
 62
     5
370
    20
100
AcDbLine
 10
114.8583208270429
 20
160.2953815708191
 30
0.0
 11
114.8583208270429
 21
175.095381570819
 31
0.0
  0
LINE
  5
240
330
22D
100
AcDbEntity
  8
LAYER006
  6
Continuous
 62
     6
370
    20
100
AcDbLine
 10
115.0583208270429
 20
175.295381570819
 30
0.0
 11
114.8583208270429
 21
175.095381570819
 31
0.0
  0
LINE
  5
241
330
22D
100
AcDbEntity
  8
LAYER006
  6
Continuous
 62
     6
370
    20
100
AcDbLine
 10
166.6583208270429
 20
166.83372998613
 30
0.0
 11
166.6583208270429
 21
160.2953815708191
 31
0.0
  0
LINE
  5
242
330
22D
100
AcDbEntity
  8
LAYER006
  6
Continuous
 62
     6
370
    20
100
AcDbLine
 10
181.658320827043
 20
166.8337299861301
 30
0.0
 11
166.6583208270429
 21
166.83372998613
 31
0.0
  0
LINE
  5
243
330
22D
100
AcDbEntity
  8
LAYER006
  6
Continuous
 62
     6
370
    20
100
AcDbLine
 10
181.658320827043
 20
166.8337299861301
 30
0.0
 11
166.658320827043
 21
153.7570331555081
 31
0.0
  0
LINE
  5
244
330
22D
100
AcDbEntity
  8
LAYER006
  6
Continuous
 62
     6
370
    20
100
AcDbLine
 10
166.6583208270429
 20
166.83372998613
 30
0.0
 11
181.658320827043
 21
153.7570331555081
 31
0.0
  0
ENDBLK
  5
22F
330
22D
100
AcDbEntity
  8
0
100
AcDbBlockEnd
  0
BLOCK
  5
247
330
246
100
AcDbEntity
  8
0
100
AcDbBlockBegin
  2
*D44
 70
     1
 10
0.0
 20
0.0
 30
0.0
  3
*D44
  1

  0
LINE
  5
350
330
246
100
AcDbEntity
  8
LAYER006
 62
     7
370
    -2
100
AcDbLine
 10
43.5644677833683
 20
139.9179661392696
 30
0.0
 11
43.5644677833683
 21
148.3471939434504
 31
0.0
  0
LINE
  5
351
330
246
100
AcDbEntity
  8
LAYER006
 62
     7
370
    -2
100
AcDbLine
 10
215.8646980000422
 20
140.2179661392696
 30
0.0
 11
215.8646980000422
 21
148.3471939434504
 31
0.0
  0
LINE
  5
352
330
246
100
AcDbEntity
  8
LAYER006
 62
     7
370
    -2
100
AcDbLine
 10
46.5644677833683
 20
146.8471939434504
 30
0.0
 11
212.8646980000422
 21
146.8471939434504
 31
0.0
  0
INSERT
  5
353
330
246
100
AcDbEntity
  8
LAYER006
 62
     7
370
    -2
100
AcDbBlockReference
  2
FXTIP_ARROW_S
 10
43.5644677833683
 20
146.8471939434504
 30
0.0
 41
3.0
 42
3.0
 43
3.0
 50
180.0
  0
INSERT
  5
354
330
246
100
AcDbEntity
  8
LAYER006
 62
     7
370
    -2
100
AcDbBlockReference
  2
FXTIP_ARROW_E
 10
215.8646980000422
 20
146.8471939434504
 30
0.0
 41
3.0
 42
3.0
 43
3.0
  0
MTEXT
  5
355
330
246
100
AcDbEntity
  8
LAYER006
 62
     7
100
AcDbMText
 10
129.7145828917052
 20
148.8471939434504
 30
0.0
 40
3.0
 41
0.0
 71
     5
 72
     1
  1
\A1;172.3
  7
STYLE004
 73
     1
 44
1.0
  0
POINT
  5
356
330
246
100
AcDbEntity
  8
Defpoints
 62
     0
100
AcDbPoint
 10
43.5644677833683
 20
138.9179661392696
 30
0.0
  0
POINT
  5
357
330
246
100
AcDbEntity
  8
Defpoints
 62
     0
100
AcDbPoint
 10
215.8646980000422
 20
139.2179661392695
 30
0.0
  0
POINT
  5
358
330
246
100
AcDbEntity
  8
Defpoints
 62
     0
100
AcDbPoint
 10
215.8646980000422
 20
146.8471939434504
 30
0.0
  0
ENDBLK
  5
248
330
246
100
AcDbEntity
  8
0
100
AcDbBlockEnd
  0
BLOCK
  5
252
330
251
100
AcDbEntity
  8
0
100
AcDbBlockBegin
  2
BLKF047
 70
     0
 10
0.0
 20
0.0
 30
0.0
  3
BLKF047
  1

  0
INSERT
  5
258
330
251
100
AcDbEntity
  8
0
100
AcDbBlockReference
  2
BLKF048
 10
0.0
 20
0.0
 30
0.0
  0
LINE
  5
274
330
251
100
AcDbEntity
  8
LAYER006
  6
Continuous
 62
     5
370
    20
100
AcDbLine
 10
115.0583208270427
 20
107.9620742166736
 30
0.0
 11
115.0583208270429
 21
77.96207421667357
 31
0.0
  0
ENDBLK
  5
253
330
251
100
AcDbEntity
  8
0
100
AcDbBlockEnd
  0
BLOCK
  5
256
330
255
100
AcDbEntity
  8
0
100
AcDbBlockBegin
  2
BLKF048
 70
     0
 10
0.0
 20
0.0
 30
0.0
  3
BLKF048
  1

  0
LINE
  5
259
330
255
100
AcDbEntity
  8
LAYER006
  6
Continuous
 62
     5
370
    20
100
AcDbLine
 10
182.6583208270429
 20
79.23257421667357
 30
0.0
 11
190.4583208270429
 21
79.23257421667357
 31
0.0
  0
LINE
  5
25A
330
255
100
AcDbEntity
  8
LAYER006
  6
Continuous
 62
     6
370
    20
100
AcDbLine
 10
181.6583208270429
 20
79.23257421667357
 30
0.0
 11
182.6583208270429
 21
79.23257421667357
 31
0.0
  0
LINE
  5
25B
330
255
100
AcDbEntity
  8
LAYER006
  6
Continuous
 62
     6
370
    20
100
AcDbLine
 10
182.6583208270429
 20
78.96207421667357
 30
0.0
 11
190.4583208270429
 21
78.96207421667357
 31
0.0
  0
LINE
  5
25C
330
255
100
AcDbEntity
  8
LAYER006
  6
Continuous
 62
     6
370
    20
100
AcDbLine
 10
181.4583208270428
 20
77.96207421667357
 30
0.0
 11
115.0583208270427
 21
77.96207421667357
 31
0.0
  0
LINE
  5
25D
330
255
100
AcDbEntity
  8
LAYER006
  6
Continuous
 62
     6
370
    20
100
AcDbLine
 10
181.6583208270429
 20
78.16207421667354
 30
0.0
 11
181.4583208270428
 21
77.96207421667357
 31
0.0
  0
LINE
  5
25E
330
255
100
AcDbEntity
  8
LAYER006
  6
Continuous
 62
     5
370
    20
100
AcDbLine
 10
181.4583208270428
 20
77.96207421667357
 30
0.0
 11
181.4583208270429
 21
86.42372580136258
 31
0.0
  0
LINE
  5
25F
330
255
100
AcDbEntity
  8
LAYER006
  6
Continuous
 62
     6
370
    20
100
AcDbLine
 10
181.6583208270429
 20
78.16207421667354
 30
0.0
 11
181.6583208270429
 21
92.96207421667357
 31
0.0
  0
LINE
  5
260
330
255
100
AcDbEntity
  8
LAYER006
  6
Continuous
 62
     6
370
    20
100
AcDbLine
 10
182.6583208270429
 20
78.96207421667357
 30
0.0
 11
182.6583208270429
 21
92.96207421667357
 31
0.0
  0
LINE
  5
261
330
255
100
AcDbEntity
  8
LAYER006
  6
Continuous
 62
     6
370
    20
100
AcDbLine
 10
114.8583208270429
 20
92.96207421667359
 30
0.0
 11
114.8583208270429
 21
78.16207421667354
 31
0.0
  0
LINE
  5
262
330
255
100
AcDbEntity
  8
LAYER006
  6
Continuous
 62
     6
370
    20
100
AcDbLine
 10
115.0583208270427
 20
77.96207421667357
 30
0.0
 11
114.8583208270429
 21
78.16207421667354
 31
0.0
  0
LINE
  5
263
330
255
100
AcDbEntity
  8
LAYER006
  6
Continuous
 62
     6
370
    20
100
AcDbLine
 10
166.6583208270429
 20
86.42372580136258
 30
0.0
 11
166.6583208270429
 21
92.96207421667357
 31
0.0
  0
LINE
  5
264
330
255
100
AcDbEntity
  8
LAYER006
  6
Continuous
 62
     6
370
    20
100
AcDbLine
 10
181.6583208270429
 20
86.42372580136258
 30
0.0
 11
166.6583208270429
 21
86.42372580136258
 31
0.0
  0
LINE
  5
265
330
255
100
AcDbEntity
  8
LAYER006
  6
DASHDOT
 62
     5
370
    20
100
AcDbLine
 10
113.2636100478528
 20
92.96207421667357
 30
0.0
 11
190.4583208270429
 21
92.96207421667359
 31
0.0
  0
LINE
  5
266
330
255
100
AcDbEntity
  8
LAYER006
  6
Continuous
 62
     5
370
    20
100
AcDbLine
 10
182.6583208270429
 20
106.6915742166736
 30
0.0
 11
190.4583208270429
 21
106.6915742166736
 31
0.0
  0
LINE
  5
267
330
255
100
AcDbEntity
  8
LAYER006
  6
Continuous
 62
     6
370
    20
100
AcDbLine
 10
181.6583208270429
 20
106.6915742166736
 30
0.0
 11
182.6583208270429
 21
106.6915742166736
 31
0.0
  0
LINE
  5
268
330
255
100
AcDbEntity
  8
LAYER006
  6
Continuous
 62
     6
370
    20
100
AcDbLine
 10
182.6583208270429
 20
106.9620742166736
 30
0.0
 11
190.4583208270429
 21
106.9620742166736
 31
0.0
  0
LINE
  5
269
330
255
100
AcDbEntity
  8
LAYER006
  6
Continuous
 62
     6
370
    20
100
AcDbLine
 10
181.4583208270428
 20
107.9620742166736
 30
0.0
 11
115.0583208270427
 21
107.9620742166736
 31
0.0
  0
LINE
  5
26A
330
255
100
AcDbEntity
  8
LAYER006
  6
Continuous
 62
     6
370
    20
100
AcDbLine
 10
181.6583208270429
 20
107.7620742166736
 30
0.0
 11
181.4583208270428
 21
107.9620742166736
 31
0.0
  0
LINE
  5
26B
330
255
100
AcDbEntity
  8
LAYER006
  6
Continuous
 62
     5
370
    20
100
AcDbLine
 10
181.4583208270428
 20
107.9620742166736
 30
0.0
 11
181.4583208270429
 21
99.50042263198453
 31
0.0
  0
LINE
  5
26C
330
255
100
AcDbEntity
  8
LAYER006
  6
Continuous
 62
     6
370
    20
100
AcDbLine
 10
181.6583208270429
 20
107.7620742166736
 30
0.0
 11
181.6583208270429
 21
92.96207421667357
 31
0.0
  0
LINE
  5
26D
330
255
100
AcDbEntity
  8
LAYER006
  6
Continuous
 62
     6
370
    20
100
AcDbLine
 10
182.6583208270429
 20
106.9620742166736
 30
0.0
 11
182.6583208270429
 21
92.96207421667357
 31
0.0
  0
LINE
  5
26E
330
255
100
AcDbEntity
  8
LAYER006
  6
Continuous
 62
     6
370
    20
100
AcDbLine
 10
114.8583208270429
 20
92.96207421667357
 30
0.0
 11
114.8583208270429
 21
107.7620742166736
 31
0.0
  0
LINE
  5
26F
330
255
100
AcDbEntity
  8
LAYER006
  6
Continuous
 62
     6
370
    20
100
AcDbLine
 10
115.0583208270427
 20
107.9620742166736
 30
0.0
 11
114.8583208270429
 21
107.7620742166736
 31
0.0
  0
LINE
  5
270
330
255
100
AcDbEntity
  8
LAYER006
  6
Continuous
 62
     6
370
    20
100
AcDbLine
 10
166.6583208270429
 20
99.50042263198453
 30
0.0
 11
166.6583208270429
 21
92.96207421667357
 31
0.0
  0
LINE
  5
271
330
255
100
AcDbEntity
  8
LAYER006
  6
Continuous
 62
     6
370
    20
100
AcDbLine
 10
181.6583208270429
 20
99.50042263198458
 30
0.0
 11
166.6583208270429
 21
99.50042263198453
 31
0.0
  0
LINE
  5
272
330
255
100
AcDbEntity
  8
LAYER006
  6
Continuous
 62
     6
370
    20
100
AcDbLine
 10
181.6583208270429
 20
99.50042263198458
 30
0.0
 11
166.6583208270429
 21
86.42372580136258
 31
0.0
  0
LINE
  5
273
330
255
100
AcDbEntity
  8
LAYER006
  6
Continuous
 62
     6
370
    20
100
AcDbLine
 10
166.6583208270429
 20
99.50042263198453
 30
0.0
 11
181.6583208270429
 21
86.42372580136258
 31
0.0
  0
ENDBLK
  5
257
330
255
100
AcDbEntity
  8
0
100
AcDbBlockEnd
  0
BLOCK
  5
27B
330
27A
100
AcDbEntity
  8
0
100
AcDbBlockBegin
  2
*D47
 70
     1
 10
0.0
 20
0.0
 30
0.0
  3
*D47
  1

  0
LINE
  5
347
330
27A
100
AcDbEntity
  8
LAYER006
 62
     7
370
    -2
100
AcDbLine
 10
148.0644677833683
 20
41.18465878512407
 30
0.0
 11
142.2443032383424
 21
41.18465878512408
 31
0.0
  0
LINE
  5
348
330
27A
100
AcDbEntity
  8
LAYER006
 62
     7
370
    -2
100
AcDbLine
 10
148.0644677833683
 20
72.98465878512413
 30
0.0
 11
142.2443032383424
 21
72.98465878512413
 31
0.0
  0
LINE
  5
349
330
27A
100
AcDbEntity
  8
LAYER006
 62
     7
370
    -2
100
AcDbLine
 10
143.7443032383424
 20
44.18465878512408
 30
0.0
 11
143.7443032383424
 21
69.98465878512412
 31
0.0
  0
INSERT
  5
34A
330
27A
100
AcDbEntity
  8
LAYER006
 62
     7
370
    -2
100
AcDbBlockReference
  2
FXTIP_ARROW_S
 10
143.7443032383424
 20
41.18465878512408
 30
0.0
 41
3.0
 42
3.0
 43
3.0
 50
270.0
  0
INSERT
  5
34B
330
27A
100
AcDbEntity
  8
LAYER006
 62
     7
370
    -2
100
AcDbBlockReference
  2
FXTIP_ARROW_E
 10
143.7443032383424
 20
72.98465878512413
 30
0.0
 41
3.0
 42
3.0
 43
3.0
 50
90.0
  0
MTEXT
  5
34C
330
27A
100
AcDbEntity
  8
LAYER006
 62
     7
100
AcDbMText
 10
141.7443032383424
 20
57.08465878512413
 30
0.0
 40
3.0
 41
0.0
 71
     5
 72
     1
  1
\A1;31.8
  7
STYLE004
 11
0.0000000000000001
 21
1.0
 31
0.0
 73
     1
 44
1.0
  0
POINT
  5
34D
330
27A
100
AcDbEntity
  8
Defpoints
 62
     0
100
AcDbPoint
 10
149.0644677833683
 20
41.18465878512407
 30
0.0
  0
POINT
  5
34E
330
27A
100
AcDbEntity
  8
Defpoints
 62
     0
100
AcDbPoint
 10
149.0644677833683
 20
72.98465878512413
 30
0.0
  0
POINT
  5
34F
330
27A
100
AcDbEntity
  8
Defpoints
 62
     0
100
AcDbPoint
 10
143.7443032383424
 20
72.98465878512413
 30
0.0
  0
ENDBLK
  5
27C
330
27A
100
AcDbEntity
  8
0
100
AcDbBlockEnd
  0
ENDSEC
  0
SECTION
  2
ENTITIES
  0
DIMENSION
  5
12C
330
1F
100
AcDbEntity
  8
LAYER006
100
AcDbDimension
  2
*D23
 10
224.6646980000423
 20
90.86086581845052
 30
0.0
 11
134.1145828917053
 21
92.86086581845053
 31
0.0
 70
    32
 71
     5
 42
181.100230216674
  3
FXDIMINFO
100
AcDbAlignedDimension
 13
43.5644677833683
 23
71.58465878512412
 33
0.0
 14
224.6646980000423
 24
71.88465878512403
 34
0.0
 50
180.0
100
AcDbRotatedDimension
  0
DIMENSION
  5
13B
330
1F
100
AcDbEntity
  8
LAYER006
100
AcDbDimension
  2
*D24
 10
53.56446778336833
 20
78.84430873675632
 30
0.0
 11
48.56446778336831
 21
80.84430873675632
 31
0.0
 70
    32
 71
     5
 42
10.00000000000002
  3
FXDIMINFO
100
AcDbAlignedDimension
 13
43.5644677833683
 23
71.58465878512412
 33
0.0
 14
53.56446778336833
 24
73.08465878512404
 34
0.0
 50
180.0
100
AcDbRotatedDimension
1001
ACAD
1000
DSTYLE
1002
{
1070
   173
1070
     1
1070
   344
1005
48
1070
   343
1005
42
1002
}
  0
INSERT
  5
148
330
1F
100
AcDbEntity
  8
0
100
AcDbBlockReference
  2
FXDIM027
 10
-41.89385304367454
 20
-35.87741543154947
 30
0.0
  0
DIMENSION
  5
14D
330
1F
100
AcDbEntity
  8
LAYER006
100
AcDbDimension
  2
*D26
 10
31.43028129954591
 20
72.08465878512405
 30
0.0
 11
29.43028129954589
 21
57.08465878512403
 31
0.0
 70
    33
 71
     5
 42
30.00000000000002
  3
FXDIMINFO
100
AcDbAlignedDimension
 13
44.06446778336835
 23
42.08465878512401
 33
0.0
 14
44.06446778336824
 24
72.08465878512403
 34
0.0
1001
ACAD
1000
DSTYLE
1002
{
1070
   173
1070
     1
1070
   344
1005
48
1070
   343
1005
42
1002
}
  0
DIMENSION
  5
15A
330
1F
100
AcDbEntity
  8
LAYER006
100
AcDbDimension
  2
*D27
 10
37.10752508541693
 20
63.08465878512418
 30
0.0
 11
35.10752508541692
 21
57.08465878512402
 31
0.0
 70
    33
 71
     5
 42
12.00000000000032
  3
FXDIMINFO
100
AcDbAlignedDimension
 13
44.06446778336833
 23
51.08465878512385
 33
0.0
 14
44.06446778336835
 24
63.08465878512418
 34
0.0
1001
ACAD
1000
DSTYLE
1002
{
1070
   173
1070
     1
1070
   344
1005
48
1070
   343
1005
42
1002
}
  0
DIMENSION
  5
165
330
1F
100
AcDbEntity
  8
LAYER006
100
AcDbDimension
  2
*D28
 10
139.7644677833683
 20
33.4974686201014
 30
0.0
 11
132.2644677833684
 21
35.4974686201014
 31
0.0
 70
    32
 71
     5
 42
15.00000000000002
  3
FXDIMINFO
100
AcDbAlignedDimension
 13
124.7644677833683
 23
50.54631036981311
 33
0.0
 14
139.7644677833683
 24
42.28465878512406
 34
0.0
 50
180.0
100
AcDbRotatedDimension
1001
ACAD
1000
DSTYLE
1002
{
1070
   173
1070
     1
1070
   344
1005
48
1070
   343
1005
42
1002
}
  0
DIMENSION
  5
16F
330
1F
100
AcDbEntity
  8
LAYER006
100
AcDbDimension
  2
*D29
 10
158.5644677833683
 20
78.84430873675632
 30
0.0
 11
153.5644677833683
 21
80.84430873675632
 31
0.0
 70
    33
 71
     5
 42
10.0
  3
FXDIMINFO
100
AcDbAlignedDimension
 13
148.5644677833683
 23
72.48465878512412
 33
0.0
 14
158.5644677833683
 24
72.48465878512412
 34
0.0
1001
ACAD
1000
DSTYLE
1002
{
1070
   173
1070
     1
1070
   344
1005
48
1070
   343
1005
42
1002
}
  0
DIMENSION
  5
179
330
1F
100
AcDbEntity
  8
LAYER006
100
AcDbDimension
  2
*D30
 10
224.6646980000423
 20
78.84430873675632
 30
0.0
 11
191.6145828917053
 21
80.84430873675632
 31
0.0
 70
    32
 71
     5
 42
66.10023021667396
  3
FXDIMINFO
100
AcDbAlignedDimension
 13
158.5644677833683
 23
72.48465878512412
 33
0.0
 14
224.6646980000423
 24
71.88465878512403
 34
0.0
 50
180.0
100
AcDbRotatedDimension
1001
ACAD
1000
DSTYLE
1002
{
1070
   173
1070
     1
1070
   344
1005
48
1070
   343
1005
42
1002
}
  0
LINE
  5
182
330
1F
100
AcDbEntity
  8
LAYER006
  6
DASHDOT
 62
     5
370
    20
100
AcDbLine
 10
-1.020540721830229
 20
37.08465878512402
 30
0.0
 11
-1.020540721830229
 21
77.08465878512403
 31
0.0
  0
LINE
  5
183
330
1F
100
AcDbEntity
  8
LAYER006
  6
DASHDOT
 62
     5
370
    20
100
AcDbLine
 10
18.97945927816977
 20
57.08465878512403
 30
0.0
 11
-21.02054072183022
 21
57.08465878512403
 31
0.0
  0
LINE
  5
184
330
1F
100
AcDbEntity
  8
LAYER006
  6
DASHED
 62
     6
370
    20
100
AcDbLine
 10
-14.52054072183023
 20
50.546310369813
 30
0.0
 11
-14.52054072183023
 21
63.62300720043504
 31
0.0
  0
LINE
  5
185
330
1F
100
AcDbEntity
  8
LAYER006
  6
DASHED
 62
     6
370
    20
100
AcDbLine
 10
12.47945927816977
 20
50.546310369813
 30
0.0
 11
12.47945927816977
 21
63.62300720043504
 31
0.0
  0
DIMENSION
  5
186
330
1F
100
AcDbEntity
  8
LAYER006
100
AcDbDimension
  2
*D31
 10
12.47945927816976
 20
31.18385432843531
 30
0.0
 11
-1.020540721830238
 21
33.18385432843531
 31
0.0
 70
    33
 71
     5
 42
27.0
  3
FXDIMINFO
100
AcDbAlignedDimension
 13
-14.52054072183023
 23
50.546310369813
 33
0.0
 14
12.47945927816976
 24
50.546310369813
 34
0.0
1001
ACAD
1000
DSTYLE
1002
{
1070
   173
1070
     1
1070
   344
1005
48
1070
   343
1005
42
1002
}
  0
INSERT
  5
195
330
1F
100
AcDbEntity
  8
0
100
AcDbBlockReference
  2
FXDIM034
 10
-41.89385304367454
 20
-35.87741543154947
 30
0.0
  0
INSERT
  5
19D
330
1F
100
AcDbEntity
  8
0
100
AcDbBlockReference
  2
FXDIM035
 10
-41.89385304367454
 20
-35.87741543154947
 30
0.0
  0
INSERT
  5
1A6
330
1F
100
AcDbEntity
  8
0
100
AcDbBlockReference
  2
FXDIM036
 10
-41.89385304367454
 20
-35.87741543154947
 30
0.0
  0
INSERT
  5
1AE
330
1F
100
AcDbEntity
  8
0
100
AcDbBlockReference
  2
BLKF037
 10
-41.89385304367454
 20
-35.87741543154947
 30
0.0
  0
CIRCLE
  5
1BD
330
1F
100
AcDbEntity
  8
LAYER006
  6
Continuous
 62
     6
370
    20
100
AcDbCircle
 10
-1.020540721830229
 20
57.084658785124
 30
0.0
 40
15.0
  0
CIRCLE
  5
1BE
330
1F
100
AcDbEntity
  8
LAYER006
  6
Continuous
 62
     6
370
    20
100
AcDbCircle
 10
-1.020540721830229
 20
57.084658785124
 30
0.0
 40
6.0
  0
INSERT
  5
1C2
330
1F
100
AcDbEntity
  8
0
100
AcDbBlockReference
  2
BLKF038
 10
-41.89385304367454
 20
-35.87741543154947
 30
0.0
  0
INSERT
  5
1D9
330
1F
100
AcDbEntity
  8
0
100
AcDbBlockReference
  2
BLKF039
 10
-41.89385304367454
 20
-35.87741543154947
 30
0.0
  0
CIRCLE
  5
1ED
330
1F
100
AcDbEntity
  8
LAYER006
  6
Continuous
 62
     5
370
    20
100
AcDbCircle
 10
-1.020540721830229
 20
57.08465878512403
 30
0.0
 40
14.50000000000001
  0
CIRCLE
  5
1EE
330
1F
100
AcDbEntity
  8
LAYER006
  6
Continuous
 62
     6
370
    20
100
AcDbCircle
 10
-1.020540721830229
 20
57.08465878512403
 30
0.0
 40
6.5
  0
INSERT
  5
1F2
330
1F
100
AcDbEntity
  8
0
100
AcDbBlockReference
  2
BLKF041
 10
-41.89385304367454
 20
-35.87741543154947
 30
0.0
  0
INSERT
  5
204
330
1F
100
AcDbEntity
  8
0
100
AcDbBlockReference
  2
BLKF042
 10
-41.89385304367454
 20
-35.87741543154947
 30
0.0
  0
INSERT
  5
21B
330
1F
100
AcDbEntity
  8
0
100
AcDbBlockReference
  2
BLKF043
 10
-41.89385304367454
 20
-35.87741543154947
 30
0.0
  0
INSERT
  5
230
330
1F
100
AcDbEntity
  8
0
100
AcDbBlockReference
  2
BLKF045
 10
-41.89385304367454
 20
-35.87741543154947
 30
0.0
  0
DIMENSION
  5
245
330
1F
100
AcDbEntity
  8
LAYER006
100
AcDbDimension
  2
*D44
 10
215.8646980000422
 20
146.8471939434504
 30
0.0
 11
129.7145828917052
 21
148.8471939434504
 31
0.0
 70
    32
 71
     5
 42
172.3002302166739
  3
FXDIMINFO
100
AcDbAlignedDimension
 13
43.5644677833683
 23
138.9179661392696
 33
0.0
 14
215.8646980000422
 24
139.2179661392695
 34
0.0
 50
180.0
100
AcDbRotatedDimension
1001
ACAD
1000
DSTYLE
1002
{
1070
   173
1070
     1
1070
   344
1005
48
1070
   343
1005
42
1002
}
  0
INSERT
  5
254
330
1F
100
AcDbEntity
  8
0
100
AcDbBlockReference
  2
BLKF047
 10
-41.89385304367454
 20
-35.87741543154947
 30
0.0
  0
TEXT
  5
275
330
1F
100
AcDbEntity
  8
LAYER006
  6
Continuous
 62
     6
370
    20
100
AcDbText
 10
228.3200141438254
 20
34.25930331845052
 30
0.0
 40
3.5
  1
□３０時
 41
0.8571428571428571
  7
STYLE004
100
AcDbText
  0
TEXT
  5
276
330
1F
100
AcDbEntity
  8
LAYER006
  6
Continuous
 62
     6
370
    20
100
AcDbText
 10
220.9372016438254
 20
105.2163345684505
 30
0.0
 40
3.5
  1
最短時
 41
0.8571428571428571
  7
STYLE004
100
AcDbText
  0
LINE
  5
277
330
1F
100
AcDbEntity
  8
LAYER006
  6
DASHED
 62
     6
370
    20
100
AcDbLine
 10
84.56446778336834
 20
130.4179661392696
 30
0.0
 11
84.56446778336834
 21
118.4179661392696
 31
0.0
  0
LINE
  5
278
330
1F
100
AcDbEntity
  8
LAYER006
  6
DASHED
 62
     6
370
    20
100
AcDbLine
 10
84.56446778336834
 20
63.08465878512406
 30
0.0
 11
84.56446778336845
 21
51.08465878512408
 31
0.0
  0
DIMENSION
  5
279
330
1F
100
AcDbEntity
  8
LAYER006
100
AcDbDimension
  2
*D47
 10
143.7443032383424
 20
72.98465878512413
 30
0.0
 11
141.7443032383424
 21
57.08465878512413
 31
0.0
 70
    33
 71
     5
 42
31.80000000000005
  3
FXDIMINFO
100
AcDbAlignedDimension
 13
149.0644677833683
 23
41.18465878512407
 33
0.0
 14
149.0644677833683
 24
72.98465878512413
 34
0.0
  0
ENDSEC
  0
SECTION
  2
OBJECTS
  0
DICTIONARY
  5
C
330
0
100
AcDbDictionary
281
     1
  3
ACAD_GROUP
350
D
  3
ACAD_LAYOUT
350
1A
  3
ACAD_MLEADERSTYLE
350
287
  3
ACAD_MLINESTYLE
350
17
  3
ACAD_PLOTSETTINGS
350
19
  3
ACAD_PLOTSTYLENAME
350
E
  3
ACAD_TABLESTYLE
350
286
  3
ACAD_VISUALSTYLE
350
2A
  3
AcDbVariableDictionary
350
288
  0
DICTIONARY
  5
D
102
{ACAD_REACTORS
330
C
102
}
330
C
100
AcDbDictionary
281
     1
  0
DICTIONARY
  5
1A
102
{ACAD_REACTORS
330
C
102
}
330
C
100
AcDbDictionary
281
     1
  3
Layout1
350
1E
  3
Layout2
350
26
  3
Model
350
22
  0
DICTIONARY
  5
287
102
{ACAD_REACTORS
330
C
102
}
330
C
100
AcDbDictionary
281
     1
  0
DICTIONARY
  5
17
102
{ACAD_REACTORS
330
C
102
}
330
C
100
AcDbDictionary
281
     1
  3
Standard
350
18
  0
DICTIONARY
  5
19
102
{ACAD_REACTORS
330
C
102
}
330
C
100
AcDbDictionary
281
     1
  0
ACDBDICTIONARYWDFLT
  5
E
102
{ACAD_REACTORS
330
C
102
}
330
C
100
AcDbDictionary
281
     1
  3
Normal
350
F
100
AcDbDictionaryWithDefault
340
F
  0
DICTIONARY
  5
286
102
{ACAD_REACTORS
330
C
102
}
330
C
100
AcDbDictionary
281
     1
  0
DICTIONARY
  5
2A
102
{ACAD_REACTORS
330
C
102
}
330
C
100
AcDbDictionary
281
     1
  3
2dWireframe
350
2F
  3
3D Hidden
350
31
  3
3dWireframe
350
30
  3
Basic
350
32
  3
Brighten
350
36
  3
ColorChange
350
3A
  3
Conceptual
350
34
  3
Dim
350
35
  3
Facepattern
350
39
  3
Flat
350
2B
  3
FlatWithEdges
350
2C
  3
Gouraud
350
2D
  3
GouraudWithEdges
350
2E
  3
Linepattern
350
38
  3
Realistic
350
33
  3
Thicken
350
37
  0
DICTIONARY
  5
288
102
{ACAD_REACTORS
330
C
102
}
330
C
100
AcDbDictionary
281
     1
  3
PSOLHEIGHT
350
28A
  3
PSOLWIDTH
350
289
  0
LAYOUT
  5
1E
102
{ACAD_REACTORS
330
1A
102
}
330
1A
100
AcDbPlotSettings
  1

  2
none_device
  4

  6

 40
0.0
 41
0.0
 42
0.0
 43
0.0
 44
0.0
 45
0.0
 46
0.0
 47
0.0
 48
0.0
 49
0.0
140
0.0
141
0.0
142
1.0
143
1.0
 70
   688
 72
     0
 73
     0
 74
     5
  7

 75
    16
147
1.0
148
0.0
149
0.0
100
AcDbLayout
  1
Layout1
 70
     1
 71
     1
 10
0.0
 20
0.0
 11
420.0
 21
297.0
 12
0.0
 22
0.0
 32
0.0
 14
1.000000000000000E+20
 24
1.000000000000000E+20
 34
1.000000000000000E+20
 15
-1.000000000000000E+20
 25
-1.000000000000000E+20
 35
-1.000000000000000E+20
146
0.0
 13
0.0
 23
0.0
 33
0.0
 16
1.0
 26
0.0
 36
0.0
 17
0.0
 27
1.0
 37
0.0
 76
     0
330
1B
  0
LAYOUT
  5
26
102
{ACAD_REACTORS
330
1A
102
}
330
1A
100
AcDbPlotSettings
  1

  2
none_device
  4

  6

 40
0.0
 41
0.0
 42
0.0
 43
0.0
 44
0.0
 45
0.0
 46
0.0
 47
0.0
 48
0.0
 49
0.0
140
0.0
141
0.0
142
1.0
143
1.0
 70
   688
 72
     0
 73
     0
 74
     5
  7

 75
    16
147
1.0
148
0.0
149
0.0
100
AcDbLayout
  1
Layout2
 70
     1
 71
     2
 10
0.0
 20
0.0
 11
0.0
 21
0.0
 12
0.0
 22
0.0
 32
0.0
 14
0.0
 24
0.0
 34
0.0
 15
0.0
 25
0.0
 35
0.0
146
0.0
 13
0.0
 23
0.0
 33
0.0
 16
1.0
 26
0.0
 36
0.0
 17
0.0
 27
1.0
 37
0.0
 76
     0
330
23
  0
LAYOUT
  5
22
102
{ACAD_REACTORS
330
1A
102
}
330
1A
100
AcDbPlotSettings
  1

  2
none_device
  4

  6

 40
0.0
 41
0.0
 42
0.0
 43
0.0
 44
0.0
 45
0.0
 46
0.0
 47
0.0
 48
0.0
 49
0.0
140
0.0
141
0.0
142
1.0
143
1.0
 70
  1712
 72
     0
 73
     0
 74
     0
  7

 75
     0
147
1.0
148
0.0
149
0.0
100
AcDbLayout
  1
Model
 70
     1
 71
     0
 10
0.0
 20
0.0
 11
297.0
 21
210.0
 12
0.0
 22
0.0
 32
0.0
 14
0.0
 24
0.0
 34
0.0
 15
297.0
 25
210.0
 35
0.0
146
0.0
 13
0.0
 23
0.0
 33
0.0
 16
1.0
 26
0.0
 36
0.0
 17
0.0
 27
1.0
 37
0.0
 76
     0
330
1F
331
29
  0
MLINESTYLE
  5
18
102
{ACAD_REACTORS
330
17
102
}
330
17
100
AcDbMlineStyle
  2
STANDARD
 70
     0
  3

 62
   256
 51
90.0
 52
90.0
 71
     2
 49
0.5
 62
   256
  6
BYLAYER
 49
-0.5
 62
   256
  6
BYLAYER
  0
ACDBPLACEHOLDER
  5
F
102
{ACAD_REACTORS
330
E
102
}
330
E
  0
VISUALSTYLE
  5
2F
102
{ACAD_REACTORS
330
2A
102
}
330
2A
100
AcDbVisualStyle
  2
2dWireframe
 70
     4
 71
     0
 72
     2
 73
     0
 90
        0
 40
-0.6
 41
-30.0
 62
     5
 63
     7
 74
     1
 91
        4
 64
     7
 65
   257
 75
     1
175
     1
 42
1.0
 92
        0
 66
   257
 43
1.0
 76
     1
 77
     6
 78
     2
 67
     7
 79
     5
170
     0
171
     0
290
     0
174
     0
 93
        1
 44
0.0
173
     0
291
     0
 45
0.0
1001
ACAD
1000
AcDbSavedByObjectVersion
1070
     0
  0
VISUALSTYLE
  5
31
102
{ACAD_REACTORS
330
2A
102
}
330
2A
100
AcDbVisualStyle
  2
3D Hidden
 70
     6
 71
     1
 72
     2
 73
     2
 90
        0
 40
-0.6
 41
-30.0
 62
     5
 63
     7
 74
     2
 91
        2
 64
     7
 65
   257
 75
     2
175
     1
 42
40.0
 92
        0
 66
   257
 43
1.0
 76
     1
 77
     6
 78
     2
 67
     7
 79
     3
170
     0
171
     0
290
     0
174
     0
 93
        1
 44
0.0
173
     0
291
     0
 45
0.0
1001
ACAD
1000
AcDbSavedByObjectVersion
1070
     0
  0
VISUALSTYLE
  5
30
102
{ACAD_REACTORS
330
2A
102
}
330
2A
100
AcDbVisualStyle
  2
3dWireframe
 70
     5
 71
     0
 72
     2
 73
     0
 90
        0
 40
-0.6
 41
-30.0
 62
     5
 63
     7
 74
     1
 91
        4
 64
     7
 65
   257
 75
     1
175
     1
 42
1.0
 92
        0
 66
   257
 43
1.0
 76
     1
 77
     6
 78
     2
 67
     7
 79
     5
170
     0
171
     0
290
     0
174
     0
 93
        1
 44
0.0
173
     0
291
     0
 45
0.0
1001
ACAD
1000
AcDbSavedByObjectVersion
1070
     0
  0
VISUALSTYLE
  5
32
102
{ACAD_REACTORS
330
2A
102
}
330
2A
100
AcDbVisualStyle
  2
Basic
 70
     7
 71
     1
 72
     0
 73
     1
 90
        0
 40
-0.6
 41
-30.0
 62
     5
 63
     7
 74
     0
 91
        4
 64
     7
 65
   257
 75
     1
175
     1
 42
1.0
 92
        8
 66
     7
 43
1.0
 76
     1
 77
     6
 78
     2
 67
     7
 79
     5
170
     0
171
     0
290
     0
174
     0
 93
        1
 44
0.0
173
     0
291
     1
 45
0.0
1001
ACAD
1000
AcDbSavedByObjectVersion
1070
     0
  0
VISUALSTYLE
  5
36
102
{ACAD_REACTORS
330
2A
102
}
330
2A
100
AcDbVisualStyle
  2
Brighten
 70
    12
 71
     2
 72
     2
 73
     0
 90
        0
 40
-0.6
 41
-30.0
 62
     5
 63
     7
 74
     1
 91
        4
 64
     7
 65
   257
 75
     1
175
     1
 42
1.0
 92
        8
 66
     7
 43
1.0
 76
     1
 77
     6
 78
     2
 67
     7
 79
     5
170
     0
171
     0
290
     0
174
     0
 93
        1
 44
50.0
173
     0
291
     1
 45
0.0
1001
ACAD
1000
AcDbSavedByObjectVersion
1070
     0
  0
VISUALSTYLE
  5
3A
102
{ACAD_REACTORS
330
2A
102
}
330
2A
100
AcDbVisualStyle
  2
ColorChange
 70
    16
 71
     2
 72
     2
 73
     3
 90
        0
 40
-0.6
 41
-30.0
 62
     5
 63
     8
 74
     1
 91
        4
 64
     7
 65
   257
 75
     1
175
     1
 42
1.0
 92
        8
 66
     8
 43
1.0
 76
     1
 77
     6
 78
     2
 67
     7
 79
     5
170
     0
171
     0
290
     0
174
     0
 93
        1
 44
0.0
173
     0
291
     1
 45
0.0
1001
ACAD
1000
AcDbSavedByObjectVersion
1070
     0
  0
VISUALSTYLE
  5
34
102
{ACAD_REACTORS
330
2A
102
}
330
2A
100
AcDbVisualStyle
  2
Conceptual
 70
     9
 71
     3
 72
     2
 73
     0
 90
        0
 40
-0.6
 41
-30.0
 62
     5
 63
     7
 74
     2
 91
        2
 64
     7
 65
   257
 75
     1
175
     1
 42
40.0
 92
        8
 66
     7
 43
1.0
 76
     1
 77
     6
 78
     2
 67
     7
 79
     3
170
     0
171
     0
290
     0
174
     0
 93
        1
 44
0.0
173
     0
291
     0
 45
0.0
1001
ACAD
1000
AcDbSavedByObjectVersion
1070
     0
  0
VISUALSTYLE
  5
35
102
{ACAD_REACTORS
330
2A
102
}
330
2A
100
AcDbVisualStyle
  2
Dim
 70
    11
 71
     2
 72
     2
 73
     0
 90
        0
 40
-0.6
 41
-30.0
 62
     5
 63
     7
 74
     1
 91
        4
 64
     7
 65
   257
 75
     1
175
     1
 42
1.0
 92
        8
 66
     7
 43
1.0
 76
     1
 77
     6
 78
     2
 67
     7
 79
     5
170
     0
171
     0
290
     0
174
     0
 93
        1
 44
-50.0
173
     0
291
     1
 45
0.0
1001
ACAD
1000
AcDbSavedByObjectVersion
1070
     0
  0
VISUALSTYLE
  5
39
102
{ACAD_REACTORS
330
2A
102
}
330
2A
100
AcDbVisualStyle
  2
Facepattern
 70
    15
 71
     2
 72
     2
 73
     0
 90
        0
 40
-0.6
 41
-30.0
 62
     5
 63
     7
 74
     1
 91
        4
 64
     7
 65
   257
 75
     1
175
     1
 42
1.0
 92
        8
 66
     7
 43
1.0
 76
     1
 77
     6
 78
     2
 67
     7
 79
     5
170
     0
171
     0
290
     0
174
     0
 93
        1
 44
0.0
173
     0
291
     1
 45
0.0
1001
ACAD
1000
AcDbSavedByObjectVersion
1070
     0
  0
VISUALSTYLE
  5
2B
102
{ACAD_REACTORS
330
2A
102
}
330
2A
100
AcDbVisualStyle
  2
Flat
 70
     0
 71
     2
 72
     1
 73
     1
 90
        2
 40
-0.6
 41
30.0
 62
     5
 63
     7
 74
     0
 91
        4
 64
     7
 65
   257
 75
     1
175
     1
 42
1.0
 92
        8
 66
     7
 43
1.0
 76
     1
 77
     6
 78
     2
 67
     7
 79
     5
170
     0
171
     0
290
     0
174
     0
 93
       13
 44
0.0
173
     0
291
     1
 45
0.0
1001
ACAD
1000
AcDbSavedByObjectVersion
1070
     0
  0
VISUALSTYLE
  5
2C
102
{ACAD_REACTORS
330
2A
102
}
330
2A
100
AcDbVisualStyle
  2
FlatWithEdges
 70
     1
 71
     2
 72
     1
 73
     1
 90
        2
 40
-0.6
 41
30.0
 62
     5
 63
     7
 74
     1
 91
        4
 64
     7
 65
   257
 75
     1
175
     1
 42
1.0
 92
        0
 66
   257
 43
1.0
 76
     1
 77
     6
 78
     2
 67
     7
 79
     5
170
     0
171
     0
290
     0
174
     0
 93
       13
 44
0.0
173
     0
291
     1
 45
0.0
1001
ACAD
1000
AcDbSavedByObjectVersion
1070
     0
  0
VISUALSTYLE
  5
2D
102
{ACAD_REACTORS
330
2A
102
}
330
2A
100
AcDbVisualStyle
  2
Gouraud
 70
     2
 71
     2
 72
     2
 73
     1
 90
        2
 40
-0.6
 41
30.0
 62
     5
 63
     7
 74
     0
 91
        4
 64
     7
 65
   257
 75
     1
175
     1
 42
1.0
 92
        0
 66
     7
 43
1.0
 76
     1
 77
     6
 78
     2
 67
     7
 79
     5
170
     0
171
     0
290
     0
174
     0
 93
       13
 44
0.0
173
     0
291
     1
 45
0.0
1001
ACAD
1000
AcDbSavedByObjectVersion
1070
     0
  0
VISUALSTYLE
  5
2E
102
{ACAD_REACTORS
330
2A
102
}
330
2A
100
AcDbVisualStyle
  2
GouraudWithEdges
 70
     3
 71
     2
 72
     2
 73
     1
 90
        2
 40
-0.6
 41
30.0
 62
     5
 63
     7
 74
     1
 91
        4
 64
     7
 65
   257
 75
     1
175
     1
 42
1.0
 92
        0
 66
   257
 43
1.0
 76
     1
 77
     6
 78
     2
 67
     7
 79
     5
170
     0
171
     0
290
     0
174
     0
 93
       13
 44
0.0
173
     0
291
     1
 45
0.0
1001
ACAD
1000
AcDbSavedByObjectVersion
1070
     0
  0
VISUALSTYLE
  5
38
102
{ACAD_REACTORS
330
2A
102
}
330
2A
100
AcDbVisualStyle
  2
Linepattern
 70
    14
 71
     2
 72
     2
 73
     0
 90
        0
 40
-0.6
 41
-30.0
 62
     5
 63
     7
 74
     1
 91
        4
 64
     7
 65
   257
 75
     7
175
     7
 42
1.0
 92
        8
 66
     7
 43
1.0
 76
     1
 77
     6
 78
     2
 67
     7
 79
     5
170
     0
171
     0
290
     0
174
     0
 93
        1
 44
0.0
173
     0
291
     1
 45
0.0
1001
ACAD
1000
AcDbSavedByObjectVersion
1070
     0
  0
VISUALSTYLE
  5
33
102
{ACAD_REACTORS
330
2A
102
}
330
2A
100
AcDbVisualStyle
  2
Realistic
 70
     8
 71
     2
 72
     2
 73
     0
 90
        0
 40
-0.6
 41
-30.0
 62
     5
 63
     7
 74
     1
 91
        0
 64
     7
 65
   257
 75
     1
175
     1
 42
1.0
 92
        8
 66
     8
 43
1.0
 76
     1
 77
     6
 78
     2
 67
     7
 79
     5
170
     0
171
     0
290
     0
174
     0
 93
       13
 44
0.0
173
     0
291
     0
 45
0.0
1001
ACAD
1000
AcDbSavedByObjectVersion
1070
     0
  0
VISUALSTYLE
  5
37
102
{ACAD_REACTORS
330
2A
102
}
330
2A
100
AcDbVisualStyle
  2
Thicken
 70
    13
 71
     2
 72
     2
 73
     0
 90
        0
 40
-0.6
 41
-30.0
 62
     5
 63
     7
 74
     1
 91
        4
 64
     7
 65
   257
 75
     1
175
     1
 42
1.0
 92
       12
 66
     7
 43
1.0
 76
     1
 77
     6
 78
     2
 67
     7
 79
     5
170
     0
171
     0
290
     0
174
     0
 93
        1
 44
0.0
173
     0
291
     1
 45
0.0
1001
ACAD
1000
AcDbSavedByObjectVersion
1070
     0
  0
DICTIONARYVAR
  5
28A
102
{ACAD_REACTORS
330
288
102
}
330
288
100
DictionaryVariables
280
     0
  1
80.000000
  0
DICTIONARYVAR
  5
289
102
{ACAD_REACTORS
330
288
102
}
330
288
100
DictionaryVariables
280
     0
  1
5.000000
  0
ENDSEC
  0
EOF
