  0
SECTION
  2
HEADER
  9
$ACADVER
  1
AC1015
  9
$ACADMAINTVER
 70
    10
  9
$DWGCODEPAGE
  3
ANSI_932
  9
$INSBASE
 10
0.0
 20
0.0
 30
0.0
  9
$EXTMIN
 10
-32.36654597703193
 20
20.93399099183034
 30
-0.0015258207003583
  9
$EXTMAX
 10
198.0332342188726
 20
130.0900272513856
 30
0.0000000349246037
  9
$LIMMIN
 10
0.0
 20
0.0
  9
$LIMMAX
 10
297.0
 20
210.0
  9
$ORTHOMODE
 70
     0
  9
$REGENMODE
 70
     1
  9
$FILLMODE
 70
     1
  9
$QTEXTMODE
 70
     0
  9
$MIRRTEXT
 70
     1
  9
$LTSCALE
 40
1.0
  9
$ATTMODE
 70
     1
  9
$TEXTSIZE
 40
0.2
  9
$TRACEWID
 40
1.0
  9
$TEXTSTYLE
  7
STYLE003
  9
$CLAYER
  8
0
  9
$CELTYPE
  6
ByLayer
  9
$CECOLOR
 62
   256
  9
$CELTSCALE
 40
1.0
  9
$DISPSILH
 70
     0
  9
$DIMSCALE
 40
1.0
  9
$DIMASZ
 40
3.0
  9
$DIMEXO
 40
1.0
  9
$DIMDLI
 40
10.0
  9
$DIMRND
 40
0.0
  9
$DIMDLE
 40
3.0
  9
$DIMEXE
 40
1.5
  9
$DIMTP
 40
0.0
  9
$DIMTM
 40
0.0
  9
$DIMTXT
 40
3.5
  9
$DIMCEN
 40
2.5
  9
$DIMTSZ
 40
0.0
  9
$DIMTOL
 70
     0
  9
$DIMLIM
 70
     0
  9
$DIMTIH
 70
     0
  9
$DIMTOH
 70
     0
  9
$DIMSE1
 70
     0
  9
$DIMSE2
 70
     0
  9
$DIMTAD
 70
     1
  9
$DIMZIN
 70
     8
  9
$DIMBLK
  1

  9
$DIMASO
 70
     1
  9
$DIMSHO
 70
     1
  9
$DIMPOST
  1

  9
$DIMAPOST
  1

  9
$DIMALT
 70
     0
  9
$DIMALTD
 70
     3
  9
$DIMALTF
 40
0.03937
  9
$DIMLFAC
 40
1.0
  9
$DIMTOFL
 70
     1
  9
$DIMTVP
 40
0.0
  9
$DIMTIX
 70
     0
  9
$DIMSOXD
 70
     0
  9
$DIMSAH
 70
     1
  9
$DIMBLK1
  1
FXTIP_ARROW_S
  9
$DIMBLK2
  1
FXTIP_ARROW_E
  9
$DIMSTYLE
  2
FXDIMINFO
  9
$DIMCLRD
 70
     6
  9
$DIMCLRE
 70
     6
  9
$DIMCLRT
 70
     6
  9
$DIMTFAC
 40
1.0
  9
$DIMGAP
 40
0.5
  9
$DIMJUST
 70
     0
  9
$DIMSD1
 70
     0
  9
$DIMSD2
 70
     0
  9
$DIMTOLJ
 70
     1
  9
$DIMTZIN
 70
     8
  9
$DIMALTZ
 70
     0
  9
$DIMALTTZ
 70
     0
  9
$DIMUPT
 70
     0
  9
$DIMDEC
 70
     2
  9
$DIMTDEC
 70
     2
  9
$DIMALTU
 70
     2
  9
$DIMALTTD
 70
     3
  9
$DIMTXSTY
  7
STYLE003
  9
$DIMAUNIT
 70
     0
  9
$DIMADEC
 70
     2
  9
$DIMALTRND
 40
0.0
  9
$DIMAZIN
 70
     0
  9
$DIMDSEP
 70
    46
  9
$DIMATFIT
 70
     3
  9
$DIMFRAC
 70
     0
  9
$DIMLDRBLK
  1
FXTIP_ARROW_S
  9
$DIMLUNIT
 70
     2
  9
$DIMLWD
 70
    -2
  9
$DIMLWE
 70
    -2
  9
$DIMTMOVE
 70
     0
  9
$LUNITS
 70
     2
  9
$LUPREC
 70
     4
  9
$SKETCHINC
 40
1.0
  9
$FILLETRAD
 40
10.0
  9
$AUNITS
 70
     0
  9
$AUPREC
 70
     0
  9
$MENU
  1
.
  9
$ELEVATION
 40
0.0
  9
$PELEVATION
 40
0.0
  9
$THICKNESS
 40
0.0
  9
$LIMCHECK
 70
     0
  9
$CHAMFERA
 40
10.0
  9
$CHAMFERB
 40
10.0
  9
$CHAMFERC
 40
20.0
  9
$CHAMFERD
 40
0.0
  9
$SKPOLY
 70
     0
  9
$TDCREATE
 40
2456668.788540243
  9
$TDUCREATE
 40
2456668.413540243
  9
$TDUPDATE
 40
2456669.825205266
  9
$TDUUPDATE
 40
2456669.450205266
  9
$TDINDWG
 40
0.0006258102
  9
$TDUSRTIMER
 40
0.0006254514
  9
$USRTIMER
 70
     1
  9
$ANGBASE
 50
0.0
  9
$ANGDIR
 70
     0
  9
$PDMODE
 70
     0
  9
$PDSIZE
 40
0.0
  9
$PLINEWID
 40
0.0
  9
$SPLFRAME
 70
     0
  9
$SPLINETYPE
 70
     6
  9
$SPLINESEGS
 70
     8
  9
$HANDSEED
  5
443
  9
$SURFTAB1
 70
     6
  9
$SURFTAB2
 70
     6
  9
$SURFTYPE
 70
     6
  9
$SURFU
 70
     6
  9
$SURFV
 70
     6
  9
$UCSBASE
  2

  9
$UCSNAME
  2

  9
$UCSORG
 10
0.0
 20
0.0
 30
0.0
  9
$UCSXDIR
 10
1.0
 20
0.0
 30
0.0
  9
$UCSYDIR
 10
0.0
 20
1.0
 30
0.0
  9
$UCSORTHOREF
  2

  9
$UCSORTHOVIEW
 70
     0
  9
$UCSORGTOP
 10
0.0
 20
0.0
 30
0.0
  9
$UCSORGBOTTOM
 10
0.0
 20
0.0
 30
0.0
  9
$UCSORGLEFT
 10
0.0
 20
0.0
 30
0.0
  9
$UCSORGRIGHT
 10
0.0
 20
0.0
 30
0.0
  9
$UCSORGFRONT
 10
0.0
 20
0.0
 30
0.0
  9
$UCSORGBACK
 10
0.0
 20
0.0
 30
0.0
  9
$PUCSBASE
  2

  9
$PUCSNAME
  2

  9
$PUCSORG
 10
0.0
 20
0.0
 30
0.0
  9
$PUCSXDIR
 10
1.0
 20
0.0
 30
0.0
  9
$PUCSYDIR
 10
0.0
 20
1.0
 30
0.0
  9
$PUCSORTHOREF
  2

  9
$PUCSORTHOVIEW
 70
     0
  9
$PUCSORGTOP
 10
0.0
 20
0.0
 30
0.0
  9
$PUCSORGBOTTOM
 10
0.0
 20
0.0
 30
0.0
  9
$PUCSORGLEFT
 10
0.0
 20
0.0
 30
0.0
  9
$PUCSORGRIGHT
 10
0.0
 20
0.0
 30
0.0
  9
$PUCSORGFRONT
 10
0.0
 20
0.0
 30
0.0
  9
$PUCSORGBACK
 10
0.0
 20
0.0
 30
0.0
  9
$USERI1
 70
     0
  9
$USERI2
 70
     0
  9
$USERI3
 70
     0
  9
$USERI4
 70
     0
  9
$USERI5
 70
     0
  9
$USERR1
 40
0.0
  9
$USERR2
 40
0.0
  9
$USERR3
 40
0.0
  9
$USERR4
 40
0.0
  9
$USERR5
 40
0.0
  9
$WORLDVIEW
 70
     1
  9
$SHADEDGE
 70
     3
  9
$SHADEDIF
 70
    70
  9
$TILEMODE
 70
     1
  9
$MAXACTVP
 70
    64
  9
$PINSBASE
 10
0.0
 20
0.0
 30
0.0
  9
$PLIMCHECK
 70
     0
  9
$PEXTMIN
 10
1.000000000000000E+20
 20
1.000000000000000E+20
 30
1.000000000000000E+20
  9
$PEXTMAX
 10
-1.000000000000000E+20
 20
-1.000000000000000E+20
 30
-1.000000000000000E+20
  9
$PLIMMIN
 10
0.0
 20
0.0
  9
$PLIMMAX
 10
420.0
 20
297.0
  9
$UNITMODE
 70
     0
  9
$VISRETAIN
 70
     1
  9
$PLINEGEN
 70
     0
  9
$PSLTSCALE
 70
     1
  9
$TREEDEPTH
 70
  3020
  9
$CMLSTYLE
  2
Standard
  9
$CMLJUST
 70
     0
  9
$CMLSCALE
 40
20.0
  9
$PROXYGRAPHICS
 70
     1
  9
$MEASUREMENT
 70
     1
  9
$CELWEIGHT
370
    -1
  9
$ENDCAPS
280
     0
  9
$JOINSTYLE
280
     0
  9
$LWDISPLAY
290
     0
  9
$INSUNITS
 70
     4
  9
$HYPERLINKBASE
  1

  9
$STYLESHEET
  1

  9
$XEDIT
290
     1
  9
$CEPSNTYPE
380
     0
  9
$PSTYLEMODE
290
     1
  9
$FINGERPRINTGUID
  2
{43CE08C6-8636-4845-B2AC-B37CB40938F1}
  9
$VERSIONGUID
  2
{DE946D33-1AFF-45AD-A8C4-154ACCE68792}
  9
$EXTNAMES
290
     1
  9
$PSVPSCALE
 40
0.0
  9
$OLESTARTUP
290
     0
  0
ENDSEC
  0
SECTION
  2
CLASSES
  0
CLASS
  1
ACDBDICTIONARYWDFLT
  2
AcDbDictionaryWithDefault
  3
AutoCAD 2000
 90
        0
280
     0
281
     0
  0
CLASS
  1
VISUALSTYLE
  2
AcDbVisualStyle
  3
ObjectDBX Classes
 90
     4095
280
     0
281
     0
  0
CLASS
  1
DICTIONARYVAR
  2
AcDbDictionaryVar
  3
AutoCAD 2000
 90
        0
280
     0
281
     0
  0
CLASS
  1
ACDBPLACEHOLDER
  2
AcDbPlaceHolder
  3
AutoCAD 2000
 90
        0
280
     0
281
     0
  0
CLASS
  1
LAYOUT
  2
AcDbLayout
  3
AutoCAD 2000
 90
        0
280
     0
281
     0
  0
ENDSEC
  0
SECTION
  2
TABLES
  0
TABLE
  2
VPORT
  5
8
330
0
100
AcDbSymbolTable
 70
     2
  0
VPORT
  5
442
330
8
100
AcDbSymbolTableRecord
100
AcDbViewportTableRecord
  2
*Active
 70
     0
 10
0.0
 20
0.0
 11
1.0
 21
1.0
 12
132.316727011484
 22
105.0
 13
0.0
 23
0.0
 14
10.0
 24
10.0
 15
10.0
 25
10.0
 16
0.0
 26
0.0
 36
1.0
 17
0.0
 27
0.0
 37
0.0
 40
212.2340425531914
 41
2.119005328596802
 42
50.0
 43
0.0
 44
0.0
 50
0.0
 51
0.0
 71
     0
 72
   100
 73
     1
 74
     3
 75
     0
 76
     0
 77
     0
 78
     0
281
     0
 65
     1
110
0.0
120
0.0
130
0.0
111
1.0
121
0.0
131
0.0
112
0.0
122
1.0
132
0.0
 79
     0
146
0.0
  0
ENDTAB
  0
TABLE
  2
LTYPE
  5
5
330
0
100
AcDbSymbolTable
 70
     4
  0
LTYPE
  5
14
330
5
100
AcDbSymbolTableRecord
100
AcDbLinetypeTableRecord
  2
ByBlock
 70
     0
  3

 72
    65
 73
     0
 40
0.0
  0
LTYPE
  5
15
330
5
100
AcDbSymbolTableRecord
100
AcDbLinetypeTableRecord
  2
ByLayer
 70
     0
  3

 72
    65
 73
     0
 40
0.0
  0
LTYPE
  5
16
330
5
100
AcDbSymbolTableRecord
100
AcDbLinetypeTableRecord
  2
Continuous
 70
     0
  3
Continuous ___________________________________
 72
    65
 73
     0
 40
0.0
  0
LTYPE
  5
3B
330
5
100
AcDbSymbolTableRecord
100
AcDbLinetypeTableRecord
  2
DASHDOT
 70
     0
  3
Dash dot __ . __ . __ . __ . __ . __ . __ . __
 72
    65
 73
     4
 40
25.3
 49
12.7
 74
     0
 49
-6.299999999999999
 74
     0
 49
0.0
 74
     0
 49
-6.299999999999999
 74
     0
  0
LTYPE
  5
3E
330
5
100
AcDbSymbolTableRecord
100
AcDbLinetypeTableRecord
  2
DASHED
 70
     0
  3
Dashed __ __ __ __ __ __ __ __ __ __ __ __ __ _
 72
    65
 73
     2
 40
19.0
 49
12.7
 74
     0
 49
-6.299999999999999
 74
     0
  0
LTYPE
  5
1E8
330
5
100
AcDbSymbolTableRecord
100
AcDbLinetypeTableRecord
  2
DASH_DOT
 70
     0
  3

 72
    65
 73
     4
 40
0.5
 49
0.2
 74
     0
 49
-0.1
 74
     0
 49
0.1
 74
     0
 49
-0.1
 74
     0
  0
ENDTAB
  0
TABLE
  2
LAYER
  5
2
330
0
100
AcDbSymbolTable
 70
     5
  0
LAYER
  5
10
330
2
100
AcDbSymbolTableRecord
100
AcDbLayerTableRecord
  2
0
 70
     0
 62
     7
  6
Continuous
370
    -3
390
F
  0
LAYER
  5
AA
330
2
100
AcDbSymbolTableRecord
100
AcDbLayerTableRecord
  2
Defpoints
 70
     0
 62
     7
  6
Continuous
290
     0
370
    -3
390
F
  0
LAYER
  5
AB
330
2
100
AcDbSymbolTableRecord
100
AcDbLayerTableRecord
  2
LAYER004
 70
     0
 62
     7
  6
Continuous
370
    -3
390
F
  0
LAYER
  5
260
330
2
100
AcDbSymbolTableRecord
100
AcDbLayerTableRecord
  2
用紙-GR3
 70
     0
 62
     7
  6
Continuous
370
    -3
390
F
  0
LAYER
  5
36B
330
2
100
AcDbSymbolTableRecord
100
AcDbLayerTableRecord
  2
用紙-GR4
 70
     0
 62
     7
  6
Continuous
370
    -3
390
F
  0
ENDTAB
  0
TABLE
  2
STYLE
  5
3
330
0
100
AcDbSymbolTable
 70
     3
  0
STYLE
  5
11
330
3
100
AcDbSymbolTableRecord
100
AcDbTextStyleTableRecord
  2
Standard
 70
     0
 40
0.0
 41
1.0
 50
0.0
 71
     0
 42
2.5
  3
txt
  4

  0
STYLE
  5
41
330
3
100
AcDbSymbolTableRecord
100
AcDbTextStyleTableRecord
  2
FX_VECTOR
 70
     0
 40
0.0
 41
1.0
 50
0.0
 71
     0
 42
0.2
  3
MONOTXT.SHX
  4
BigFont.shx
  0
STYLE
  5
A9
330
3
100
AcDbSymbolTableRecord
100
AcDbTextStyleTableRecord
  2
STYLE003
 70
     0
 40
0.0
 41
1.0
 50
0.0
 71
     0
 42
0.2
  3

  4

1001
ACAD
1000
ＭＳ 明朝
1071
    32785
  0
ENDTAB
  0
TABLE
  2
VIEW
  5
6
330
0
100
AcDbSymbolTable
 70
     0
  0
ENDTAB
  0
TABLE
  2
UCS
  5
7
330
0
100
AcDbSymbolTable
 70
     0
  0
ENDTAB
  0
TABLE
  2
APPID
  5
9
330
0
100
AcDbSymbolTable
 70
     1
  0
APPID
  5
12
330
9
100
AcDbSymbolTableRecord
100
AcDbRegAppTableRecord
  2
ACAD
 70
     0
  0
ENDTAB
  0
TABLE
  2
DIMSTYLE
  5
A
330
0
100
AcDbSymbolTable
 70
     2
100
AcDbDimStyleTable
 71
     0
  0
DIMSTYLE
105
27
330
A
100
AcDbSymbolTableRecord
100
AcDbDimStyleTableRecord
  2
ISO-25
 70
     0
 41
2.5
 42
0.625
 43
3.75
 44
1.25
 73
     0
 74
     0
 77
     1
 78
     8
140
2.5
141
2.5
143
0.03937007874016
147
0.625
171
     3
172
     1
271
     2
272
     2
274
     3
278
    44
283
     0
284
     8
340
11
  0
DIMSTYLE
105
A8
102
{ACAD_REACTORS
330
2E5
330
2F1
330
30B
330
318
330
35D
330
36A
330
376
330
383
330
390
330
399
102
}
330
A
100
AcDbSymbolTableRecord
100
AcDbDimStyleTableRecord
  2
FXDIMINFO
 70
     0
 41
3.0
 42
1.0
 43
10.0
 44
1.5
 46
3.0
 73
     0
 74
     0
 77
     1
 78
     8
140
3.5
141
2.5
143
0.03937
147
0.5
171
     3
172
     1
173
     1
176
     6
177
     6
178
     6
179
     2
271
     2
272
     2
274
     3
284
     8
340
A9
341
42
343
42
344
48
  0
ENDTAB
  0
TABLE
  2
BLOCK_RECORD
  5
1
330
0
100
AcDbSymbolTable
 70
    42
  0
BLOCK_RECORD
  5
1F
330
1
100
AcDbSymbolTableRecord
100
AcDbBlockTableRecord
  2
*Model_Space
340
22
  0
BLOCK_RECORD
  5
1B
330
1
100
AcDbSymbolTableRecord
100
AcDbBlockTableRecord
  2
*Paper_Space
340
1E
  0
BLOCK_RECORD
  5
23
330
1
100
AcDbSymbolTableRecord
100
AcDbBlockTableRecord
  2
*Paper_Space0
340
26
  0
BLOCK_RECORD
  5
42
330
1
100
AcDbSymbolTableRecord
100
AcDbBlockTableRecord
  2
FXTIP_ARROW_S
340
0
102
{BLKREFS
331
2ED
331
2F7
331
300
331
308
331
315
331
322
331
363
331
371
331
380
331
38D
331
396
331
39F
331
3E9
331
3F2
331
3FB
331
404
331
40D
331
416
331
421
331
42A
331
433
331
43C
102
}
  0
BLOCK_RECORD
  5
48
330
1
100
AcDbSymbolTableRecord
100
AcDbBlockTableRecord
  2
FXTIP_ARROW_E
340
0
102
{BLKREFS
331
2EE
331
2F8
331
317
331
324
331
364
331
372
331
382
331
38F
331
397
331
3A0
331
3EA
331
3F3
331
3FC
331
405
331
40E
331
417
331
422
331
42B
331
434
331
43D
102
}
  0
BLOCK_RECORD
  5
4E
330
1
100
AcDbSymbolTableRecord
100
AcDbBlockTableRecord
  2
FXTIP_BLACKDOT_S
340
0
  0
BLOCK_RECORD
  5
54
330
1
100
AcDbSymbolTableRecord
100
AcDbBlockTableRecord
  2
FXTIP_BLACKDOT_E
340
0
  0
BLOCK_RECORD
  5
5A
330
1
100
AcDbSymbolTableRecord
100
AcDbBlockTableRecord
  2
FXTIP_TRIANGLE_S
340
0
  0
BLOCK_RECORD
  5
61
330
1
100
AcDbSymbolTableRecord
100
AcDbBlockTableRecord
  2
FXTIP_TRIANGLE_E
340
0
  0
BLOCK_RECORD
  5
68
330
1
100
AcDbSymbolTableRecord
100
AcDbBlockTableRecord
  2
FXTIP_ARCHITECT_S
340
0
  0
BLOCK_RECORD
  5
6E
330
1
100
AcDbSymbolTableRecord
100
AcDbBlockTableRecord
  2
FXTIP_ARCHITECT_E
340
0
  0
BLOCK_RECORD
  5
74
330
1
100
AcDbSymbolTableRecord
100
AcDbBlockTableRecord
  2
FXTIP_CIVIL_S
340
0
  0
BLOCK_RECORD
  5
7A
330
1
100
AcDbSymbolTableRecord
100
AcDbBlockTableRecord
  2
FXTIP_CIVIL_E
340
0
  0
BLOCK_RECORD
  5
80
330
1
100
AcDbSymbolTableRecord
100
AcDbBlockTableRecord
  2
FXTIP_WHITEDOT_S
340
0
  0
BLOCK_RECORD
  5
85
330
1
100
AcDbSymbolTableRecord
100
AcDbBlockTableRecord
  2
FXTIP_WHITEDOT_E
340
0
  0
BLOCK_RECORD
  5
8A
330
1
100
AcDbSymbolTableRecord
100
AcDbBlockTableRecord
  2
FXTIP_UPARROW_S
340
0
  0
BLOCK_RECORD
  5
8F
330
1
100
AcDbSymbolTableRecord
100
AcDbBlockTableRecord
  2
FXTIP_UPARROW_E
340
0
  0
BLOCK_RECORD
  5
94
330
1
100
AcDbSymbolTableRecord
100
AcDbBlockTableRecord
  2
FXTIP_DOWNARROW_S
340
0
  0
BLOCK_RECORD
  5
99
330
1
100
AcDbSymbolTableRecord
100
AcDbBlockTableRecord
  2
FXTIP_DOWNARROW_E
340
0
  0
BLOCK_RECORD
  5
9E
330
1
100
AcDbSymbolTableRecord
100
AcDbBlockTableRecord
  2
FXTIP_BLACKTRIANGLE_S
340
0
  0
BLOCK_RECORD
  5
A3
330
1
100
AcDbSymbolTableRecord
100
AcDbBlockTableRecord
  2
FXTIP_BLACKTRIANGLE_E
340
0
  0
BLOCK_RECORD
  5
1A9
330
1
100
AcDbSymbolTableRecord
100
AcDbBlockTableRecord
  2
BLKF021
340
0
102
{BLKREFS
331
1AC
102
}
  0
BLOCK_RECORD
  5
1AF
330
1
100
AcDbSymbolTableRecord
100
AcDbBlockTableRecord
  2
FXDIM022
340
0
102
{BLKREFS
331
1B2
102
}
  0
BLOCK_RECORD
  5
1B7
330
1
100
AcDbSymbolTableRecord
100
AcDbBlockTableRecord
  2
BLKF023
340
0
102
{BLKREFS
331
1BA
102
}
  0
BLOCK_RECORD
  5
1CF
330
1
100
AcDbSymbolTableRecord
100
AcDbBlockTableRecord
  2
BLKF024
340
0
102
{BLKREFS
331
1D2
102
}
  0
BLOCK_RECORD
  5
1DE
330
1
100
AcDbSymbolTableRecord
100
AcDbBlockTableRecord
  2
BLKF025
340
0
102
{BLKREFS
331
1E1
102
}
  0
BLOCK_RECORD
  5
20E
330
1
100
AcDbSymbolTableRecord
100
AcDbBlockTableRecord
  2
BLKF026
340
0
102
{BLKREFS
331
211
102
}
  0
BLOCK_RECORD
  5
250
330
1
100
AcDbSymbolTableRecord
100
AcDbBlockTableRecord
  2
BLKF027
340
0
102
{BLKREFS
331
253
102
}
  0
BLOCK_RECORD
  5
262
330
1
100
AcDbSymbolTableRecord
100
AcDbBlockTableRecord
  2
BLKF028
340
0
102
{BLKREFS
331
265
102
}
  0
BLOCK_RECORD
  5
26A
330
1
100
AcDbSymbolTableRecord
100
AcDbBlockTableRecord
  2
BLKF029
340
0
102
{BLKREFS
331
26D
102
}
  0
BLOCK_RECORD
  5
271
330
1
100
AcDbSymbolTableRecord
100
AcDbBlockTableRecord
  2
BLKF030
340
0
102
{BLKREFS
331
274
102
}
  0
BLOCK_RECORD
  5
2E6
330
1
100
AcDbSymbolTableRecord
100
AcDbBlockTableRecord
  2
*D29
340
0
  0
BLOCK_RECORD
  5
2F2
330
1
100
AcDbSymbolTableRecord
100
AcDbBlockTableRecord
  2
*D30
340
0
  0
BLOCK_RECORD
  5
2FB
330
1
100
AcDbSymbolTableRecord
100
AcDbBlockTableRecord
  2
FXDIM033
340
0
102
{BLKREFS
331
2FE
102
}
  0
BLOCK_RECORD
  5
303
330
1
100
AcDbSymbolTableRecord
100
AcDbBlockTableRecord
  2
FXDIM034
340
0
102
{BLKREFS
331
306
102
}
  0
BLOCK_RECORD
  5
30C
330
1
100
AcDbSymbolTableRecord
100
AcDbBlockTableRecord
  2
*D33
340
0
  0
BLOCK_RECORD
  5
319
330
1
100
AcDbSymbolTableRecord
100
AcDbBlockTableRecord
  2
*D34
340
0
  0
BLOCK_RECORD
  5
329
330
1
100
AcDbSymbolTableRecord
100
AcDbBlockTableRecord
  2
BLKF037
340
0
102
{BLKREFS
331
32C
102
}
  0
BLOCK_RECORD
  5
35E
330
1
100
AcDbSymbolTableRecord
100
AcDbBlockTableRecord
  2
*D36
340
0
  0
BLOCK_RECORD
  5
36C
330
1
100
AcDbSymbolTableRecord
100
AcDbBlockTableRecord
  2
*D37
340
0
  0
BLOCK_RECORD
  5
377
330
1
100
AcDbSymbolTableRecord
100
AcDbBlockTableRecord
  2
*D38
340
0
  0
BLOCK_RECORD
  5
384
330
1
100
AcDbSymbolTableRecord
100
AcDbBlockTableRecord
  2
*D39
340
0
  0
BLOCK_RECORD
  5
391
330
1
100
AcDbSymbolTableRecord
100
AcDbBlockTableRecord
  2
*D40
340
0
  0
BLOCK_RECORD
  5
39A
330
1
100
AcDbSymbolTableRecord
100
AcDbBlockTableRecord
  2
*D41
340
0
  0
ENDTAB
  0
ENDSEC
  0
SECTION
  2
BLOCKS
  0
BLOCK
  5
20
330
1F
100
AcDbEntity
  8
0
100
AcDbBlockBegin
  2
*Model_Space
 70
     0
 10
0.0
 20
0.0
 30
0.0
  3
*Model_Space
  1

  0
ENDBLK
  5
21
330
1F
100
AcDbEntity
  8
0
100
AcDbBlockEnd
  0
BLOCK
  5
1C
330
1B
100
AcDbEntity
 67
     1
  8
0
100
AcDbBlockBegin
  2
*Paper_Space
 70
     0
 10
0.0
 20
0.0
 30
0.0
  3
*Paper_Space
  1

  0
ENDBLK
  5
1D
330
1B
100
AcDbEntity
 67
     1
  8
0
100
AcDbBlockEnd
  0
BLOCK
  5
24
330
23
100
AcDbEntity
  8
0
100
AcDbBlockBegin
  2
*Paper_Space0
 70
     0
 10
0.0
 20
0.0
 30
0.0
  3
*Paper_Space0
  1

  0
ENDBLK
  5
25
330
23
100
AcDbEntity
  8
0
100
AcDbBlockEnd
  0
BLOCK
  5
43
330
42
100
AcDbEntity
  8
0
100
AcDbBlockBegin
  2
FXTIP_ARROW_S
 70
     0
 10
0.0
 20
0.0
 30
0.0
  3
FXTIP_ARROW_S
  1

  0
LINE
  5
45
330
42
100
AcDbEntity
  8
0
  6
Continuous
 62
     0
370
    -2
100
AcDbLine
 10
0.0
 20
0.0
 30
0.0
 11
-1.0
 21
0.0000000000000001
 31
0.0
  0
LINE
  5
46
330
42
100
AcDbEntity
  8
0
  6
Continuous
 62
     0
370
    -2
100
AcDbLine
 10
0.0
 20
0.0
 30
0.0
 11
-0.9659258262890684
 21
-0.2588190451025206
 31
0.0
  0
LINE
  5
47
330
42
100
AcDbEntity
  8
0
  6
Continuous
 62
     0
370
    -2
100
AcDbLine
 10
0.0
 20
0.0
 30
0.0
 11
-0.9659258262890684
 21
0.2588190451025209
 31
0.0
  0
ENDBLK
  5
44
330
42
100
AcDbEntity
  8
0
100
AcDbBlockEnd
  0
BLOCK
  5
49
330
48
100
AcDbEntity
  8
0
100
AcDbBlockBegin
  2
FXTIP_ARROW_E
 70
     0
 10
0.0
 20
0.0
 30
0.0
  3
FXTIP_ARROW_E
  1

  0
LINE
  5
4B
330
48
100
AcDbEntity
  8
0
  6
Continuous
 62
     0
370
    -2
100
AcDbLine
 10
0.0
 20
0.0
 30
0.0
 11
-1.0
 21
0.0
 31
0.0
  0
LINE
  5
4C
330
48
100
AcDbEntity
  8
0
  6
Continuous
 62
     0
370
    -2
100
AcDbLine
 10
0.0
 20
0.0
 30
0.0
 11
-0.9659258262890684
 21
0.2588190451025207
 31
0.0
  0
LINE
  5
4D
330
48
100
AcDbEntity
  8
0
  6
Continuous
 62
     0
370
    -2
100
AcDbLine
 10
0.0
 20
0.0
 30
0.0
 11
-0.9659258262890684
 21
-0.2588190451025207
 31
0.0
  0
ENDBLK
  5
4A
330
48
100
AcDbEntity
  8
0
100
AcDbBlockEnd
  0
BLOCK
  5
4F
330
4E
100
AcDbEntity
  8
0
100
AcDbBlockBegin
  2
FXTIP_BLACKDOT_S
 70
     0
 10
0.0
 20
0.0
 30
0.0
  3
FXTIP_BLACKDOT_S
  1

  0
LINE
  5
51
330
4E
100
AcDbEntity
  8
0
  6
Continuous
 62
     0
370
    -2
100
AcDbLine
 10
0.0
 20
0.0
 30
0.0
 11
-1.0
 21
0.0000000000000001
 31
0.0
  0
LWPOLYLINE
  5
52
330
4E
100
AcDbEntity
  8
0
  6
Continuous
 62
     0
370
    -2
100
AcDbPolyline
 90
        2
 70
     1
 43
0.5
 10
-0.25
 20
0.0
 42
1.0
 10
0.25
 20
0.0
 42
1.0
  0
CIRCLE
  5
53
330
4E
100
AcDbEntity
  8
0
  6
Continuous
 62
     0
370
    -2
100
AcDbCircle
 10
0.0
 20
0.0
 30
0.0
 40
0.5
  0
ENDBLK
  5
50
330
4E
100
AcDbEntity
  8
0
100
AcDbBlockEnd
  0
BLOCK
  5
55
330
54
100
AcDbEntity
  8
0
100
AcDbBlockBegin
  2
FXTIP_BLACKDOT_E
 70
     0
 10
0.0
 20
0.0
 30
0.0
  3
FXTIP_BLACKDOT_E
  1

  0
LINE
  5
57
330
54
100
AcDbEntity
  8
0
  6
Continuous
 62
     0
370
    -2
100
AcDbLine
 10
0.0
 20
0.0
 30
0.0
 11
-1.0
 21
0.0
 31
0.0
  0
LWPOLYLINE
  5
58
330
54
100
AcDbEntity
  8
0
  6
Continuous
 62
     0
370
    -2
100
AcDbPolyline
 90
        2
 70
     1
 43
0.5
 10
-0.25
 20
0.0
 42
1.0
 10
0.25
 20
0.0
 42
1.0
  0
CIRCLE
  5
59
330
54
100
AcDbEntity
  8
0
  6
Continuous
 62
     0
370
    -2
100
AcDbCircle
 10
0.0
 20
0.0
 30
0.0
 40
0.5
  0
ENDBLK
  5
56
330
54
100
AcDbEntity
  8
0
100
AcDbBlockEnd
  0
BLOCK
  5
5B
330
5A
100
AcDbEntity
  8
0
100
AcDbBlockBegin
  2
FXTIP_TRIANGLE_S
 70
     0
 10
0.0
 20
0.0
 30
0.0
  3
FXTIP_TRIANGLE_S
  1

  0
LINE
  5
5D
330
5A
100
AcDbEntity
  8
0
  6
Continuous
 62
     0
370
    -2
100
AcDbLine
 10
0.0
 20
0.0
 30
0.0
 11
-1.0
 21
0.0000000000000001
 31
0.0
  0
LINE
  5
5E
330
5A
100
AcDbEntity
  8
0
  6
Continuous
 62
     0
370
    -2
100
AcDbLine
 10
0.0
 20
0.0
 30
0.0
 11
-0.9659258262890684
 21
-0.2588190451025206
 31
0.0
  0
LINE
  5
5F
330
5A
100
AcDbEntity
  8
0
  6
Continuous
 62
     0
370
    -2
100
AcDbLine
 10
0.0
 20
0.0
 30
0.0
 11
-0.9659258262890684
 21
0.2588190451025209
 31
0.0
  0
LINE
  5
60
330
5A
100
AcDbEntity
  8
0
  6
Continuous
 62
     0
370
    -2
100
AcDbLine
 10
-0.9659258262890684
 20
-0.2588190451025206
 30
0.0
 11
-0.9659258262890684
 21
0.2588190451025209
 31
0.0
  0
ENDBLK
  5
5C
330
5A
100
AcDbEntity
  8
0
100
AcDbBlockEnd
  0
BLOCK
  5
62
330
61
100
AcDbEntity
  8
0
100
AcDbBlockBegin
  2
FXTIP_TRIANGLE_E
 70
     0
 10
0.0
 20
0.0
 30
0.0
  3
FXTIP_TRIANGLE_E
  1

  0
LINE
  5
64
330
61
100
AcDbEntity
  8
0
  6
Continuous
 62
     0
370
    -2
100
AcDbLine
 10
0.0
 20
0.0
 30
0.0
 11
-1.0
 21
0.0
 31
0.0
  0
LINE
  5
65
330
61
100
AcDbEntity
  8
0
  6
Continuous
 62
     0
370
    -2
100
AcDbLine
 10
0.0
 20
0.0
 30
0.0
 11
-0.9659258262890684
 21
0.2588190451025207
 31
0.0
  0
LINE
  5
66
330
61
100
AcDbEntity
  8
0
  6
Continuous
 62
     0
370
    -2
100
AcDbLine
 10
0.0
 20
0.0
 30
0.0
 11
-0.9659258262890684
 21
-0.2588190451025207
 31
0.0
  0
LINE
  5
67
330
61
100
AcDbEntity
  8
0
  6
Continuous
 62
     0
370
    -2
100
AcDbLine
 10
-0.9659258262890684
 20
0.2588190451025207
 30
0.0
 11
-0.9659258262890684
 21
-0.2588190451025207
 31
0.0
  0
ENDBLK
  5
63
330
61
100
AcDbEntity
  8
0
100
AcDbBlockEnd
  0
BLOCK
  5
69
330
68
100
AcDbEntity
  8
0
100
AcDbBlockBegin
  2
FXTIP_ARCHITECT_S
 70
     0
 10
0.0
 20
0.0
 30
0.0
  3
FXTIP_ARCHITECT_S
  1

  0
LINE
  5
6B
330
68
100
AcDbEntity
  8
0
  6
Continuous
 62
     0
370
    -2
100
AcDbLine
 10
0.0
 20
0.0
 30
0.0
 11
-1.0
 21
0.0000000000000001
 31
0.0
  0
LINE
  5
6C
330
68
100
AcDbEntity
  8
0
  6
Continuous
 62
     0
370
    -2
100
AcDbLine
 10
0.0
 20
0.0
 30
0.0
 11
-0.7071067811865476
 21
-0.7071067811865474
 31
0.0
  0
LINE
  5
6D
330
68
100
AcDbEntity
  8
0
  6
Continuous
 62
     0
370
    -2
100
AcDbLine
 10
0.0
 20
0.0
 30
0.0
 11
0.7071067811865476
 21
0.7071067811865474
 31
0.0
  0
ENDBLK
  5
6A
330
68
100
AcDbEntity
  8
0
100
AcDbBlockEnd
  0
BLOCK
  5
6F
330
6E
100
AcDbEntity
  8
0
100
AcDbBlockBegin
  2
FXTIP_ARCHITECT_E
 70
     0
 10
0.0
 20
0.0
 30
0.0
  3
FXTIP_ARCHITECT_E
  1

  0
LINE
  5
71
330
6E
100
AcDbEntity
  8
0
  6
Continuous
 62
     0
370
    -2
100
AcDbLine
 10
0.0
 20
0.0
 30
0.0
 11
-1.0
 21
0.0
 31
0.0
  0
LINE
  5
72
330
6E
100
AcDbEntity
  8
0
  6
Continuous
 62
     0
370
    -2
100
AcDbLine
 10
0.0
 20
0.0
 30
0.0
 11
0.7071067811865475
 21
0.7071067811865475
 31
0.0
  0
LINE
  5
73
330
6E
100
AcDbEntity
  8
0
  6
Continuous
 62
     0
370
    -2
100
AcDbLine
 10
0.0
 20
0.0
 30
0.0
 11
-0.7071067811865475
 21
-0.7071067811865475
 31
0.0
  0
ENDBLK
  5
70
330
6E
100
AcDbEntity
  8
0
100
AcDbBlockEnd
  0
BLOCK
  5
75
330
74
100
AcDbEntity
  8
0
100
AcDbBlockBegin
  2
FXTIP_CIVIL_S
 70
     0
 10
0.0
 20
0.0
 30
0.0
  3
FXTIP_CIVIL_S
  1

  0
LINE
  5
77
330
74
100
AcDbEntity
  8
0
  6
Continuous
 62
     0
370
    -2
100
AcDbLine
 10
0.0
 20
0.0
 30
0.0
 11
-1.0
 21
0.0000000000000001
 31
0.0
  0
LINE
  5
78
330
74
100
AcDbEntity
  8
0
  6
Continuous
 62
     0
370
    -2
100
AcDbLine
 10
0.0
 20
-0.0833333333333333
 30
0.0
 11
-1.0
 21
-0.0833333333333332
 31
0.0
  0
LINE
  5
79
330
74
100
AcDbEntity
  8
0
  6
Continuous
 62
     0
370
    -2
100
AcDbLine
 10
0.0
 20
-0.1666666666666667
 30
0.0
 11
-1.0
 21
-0.1666666666666666
 31
0.0
  0
ENDBLK
  5
76
330
74
100
AcDbEntity
  8
0
100
AcDbBlockEnd
  0
BLOCK
  5
7B
330
7A
100
AcDbEntity
  8
0
100
AcDbBlockBegin
  2
FXTIP_CIVIL_E
 70
     0
 10
0.0
 20
0.0
 30
0.0
  3
FXTIP_CIVIL_E
  1

  0
LINE
  5
7D
330
7A
100
AcDbEntity
  8
0
  6
Continuous
 62
     0
370
    -2
100
AcDbLine
 10
0.0
 20
0.0
 30
0.0
 11
-1.0
 21
0.0
 31
0.0
  0
LINE
  5
7E
330
7A
100
AcDbEntity
  8
0
  6
Continuous
 62
     0
370
    -2
100
AcDbLine
 10
0.0
 20
0.0833333333333333
 30
0.0
 11
-1.0
 21
0.0833333333333333
 31
0.0
  0
LINE
  5
7F
330
7A
100
AcDbEntity
  8
0
  6
Continuous
 62
     0
370
    -2
100
AcDbLine
 10
0.0
 20
0.1666666666666667
 30
0.0
 11
-1.0
 21
0.1666666666666667
 31
0.0
  0
ENDBLK
  5
7C
330
7A
100
AcDbEntity
  8
0
100
AcDbBlockEnd
  0
BLOCK
  5
81
330
80
100
AcDbEntity
  8
0
100
AcDbBlockBegin
  2
FXTIP_WHITEDOT_S
 70
     0
 10
0.0
 20
0.0
 30
0.0
  3
FXTIP_WHITEDOT_S
  1

  0
LINE
  5
83
330
80
100
AcDbEntity
  8
0
  6
Continuous
 62
     0
370
    -2
100
AcDbLine
 10
0.0
 20
0.0
 30
0.0
 11
-1.0
 21
0.0000000000000001
 31
0.0
  0
CIRCLE
  5
84
330
80
100
AcDbEntity
  8
0
  6
Continuous
 62
     0
370
    -2
100
AcDbCircle
 10
0.0
 20
0.0
 30
0.0
 40
0.5
  0
ENDBLK
  5
82
330
80
100
AcDbEntity
  8
0
100
AcDbBlockEnd
  0
BLOCK
  5
86
330
85
100
AcDbEntity
  8
0
100
AcDbBlockBegin
  2
FXTIP_WHITEDOT_E
 70
     0
 10
0.0
 20
0.0
 30
0.0
  3
FXTIP_WHITEDOT_E
  1

  0
LINE
  5
88
330
85
100
AcDbEntity
  8
0
  6
Continuous
 62
     0
370
    -2
100
AcDbLine
 10
0.0
 20
0.0
 30
0.0
 11
-1.0
 21
0.0
 31
0.0
  0
CIRCLE
  5
89
330
85
100
AcDbEntity
  8
0
  6
Continuous
 62
     0
370
    -2
100
AcDbCircle
 10
0.0
 20
0.0
 30
0.0
 40
0.5
  0
ENDBLK
  5
87
330
85
100
AcDbEntity
  8
0
100
AcDbBlockEnd
  0
BLOCK
  5
8B
330
8A
100
AcDbEntity
  8
0
100
AcDbBlockBegin
  2
FXTIP_UPARROW_S
 70
     0
 10
0.0
 20
0.0
 30
0.0
  3
FXTIP_UPARROW_S
  1

  0
LINE
  5
8D
330
8A
100
AcDbEntity
  8
0
  6
Continuous
 62
     0
370
    -2
100
AcDbLine
 10
0.0
 20
0.0
 30
0.0
 11
-1.0
 21
0.0000000000000001
 31
0.0
  0
LINE
  5
8E
330
8A
100
AcDbEntity
  8
0
  6
Continuous
 62
     0
370
    -2
100
AcDbLine
 10
0.0
 20
0.0
 30
0.0
 11
-0.9659258262890684
 21
-0.2588190451025206
 31
0.0
  0
ENDBLK
  5
8C
330
8A
100
AcDbEntity
  8
0
100
AcDbBlockEnd
  0
BLOCK
  5
90
330
8F
100
AcDbEntity
  8
0
100
AcDbBlockBegin
  2
FXTIP_UPARROW_E
 70
     0
 10
0.0
 20
0.0
 30
0.0
  3
FXTIP_UPARROW_E
  1

  0
LINE
  5
92
330
8F
100
AcDbEntity
  8
0
  6
Continuous
 62
     0
370
    -2
100
AcDbLine
 10
0.0
 20
0.0
 30
0.0
 11
-1.0
 21
0.0
 31
0.0
  0
LINE
  5
93
330
8F
100
AcDbEntity
  8
0
  6
Continuous
 62
     0
370
    -2
100
AcDbLine
 10
0.0
 20
0.0
 30
0.0
 11
-0.9659258262890684
 21
0.2588190451025207
 31
0.0
  0
ENDBLK
  5
91
330
8F
100
AcDbEntity
  8
0
100
AcDbBlockEnd
  0
BLOCK
  5
95
330
94
100
AcDbEntity
  8
0
100
AcDbBlockBegin
  2
FXTIP_DOWNARROW_S
 70
     0
 10
0.0
 20
0.0
 30
0.0
  3
FXTIP_DOWNARROW_S
  1

  0
LINE
  5
97
330
94
100
AcDbEntity
  8
0
  6
Continuous
 62
     0
370
    -2
100
AcDbLine
 10
0.0
 20
0.0
 30
0.0
 11
-1.0
 21
0.0000000000000001
 31
0.0
  0
LINE
  5
98
330
94
100
AcDbEntity
  8
0
  6
Continuous
 62
     0
370
    -2
100
AcDbLine
 10
0.0
 20
0.0
 30
0.0
 11
-0.9659258262890684
 21
0.2588190451025209
 31
0.0
  0
ENDBLK
  5
96
330
94
100
AcDbEntity
  8
0
100
AcDbBlockEnd
  0
BLOCK
  5
9A
330
99
100
AcDbEntity
  8
0
100
AcDbBlockBegin
  2
FXTIP_DOWNARROW_E
 70
     0
 10
0.0
 20
0.0
 30
0.0
  3
FXTIP_DOWNARROW_E
  1

  0
LINE
  5
9C
330
99
100
AcDbEntity
  8
0
  6
Continuous
 62
     0
370
    -2
100
AcDbLine
 10
0.0
 20
0.0
 30
0.0
 11
-1.0
 21
0.0
 31
0.0
  0
LINE
  5
9D
330
99
100
AcDbEntity
  8
0
  6
Continuous
 62
     0
370
    -2
100
AcDbLine
 10
0.0
 20
0.0
 30
0.0
 11
-0.9659258262890684
 21
-0.2588190451025207
 31
0.0
  0
ENDBLK
  5
9B
330
99
100
AcDbEntity
  8
0
100
AcDbBlockEnd
  0
BLOCK
  5
9F
330
9E
100
AcDbEntity
  8
0
100
AcDbBlockBegin
  2
FXTIP_BLACKTRIANGLE_S
 70
     0
 10
0.0
 20
0.0
 30
0.0
  3
FXTIP_BLACKTRIANGLE_S
  1

  0
LINE
  5
A1
330
9E
100
AcDbEntity
  8
0
  6
Continuous
 62
     0
370
    -2
100
AcDbLine
 10
0.0
 20
0.0
 30
0.0
 11
-1.0
 21
0.0000000000000001
 31
0.0
  0
SOLID
  5
A2
330
9E
100
AcDbEntity
  8
0
  6
Continuous
 62
     0
370
    -2
100
AcDbTrace
 10
0.0
 20
0.0
 30
0.0
 11
-0.9659258262890684
 21
-0.2588190451025206
 31
0.0
 12
-0.9659258262890684
 22
0.2588190451025209
 32
0.0
 13
-0.9659258262890684
 23
0.2588190451025209
 33
0.0
  0
ENDBLK
  5
A0
330
9E
100
AcDbEntity
  8
0
100
AcDbBlockEnd
  0
BLOCK
  5
A4
330
A3
100
AcDbEntity
  8
0
100
AcDbBlockBegin
  2
FXTIP_BLACKTRIANGLE_E
 70
     0
 10
0.0
 20
0.0
 30
0.0
  3
FXTIP_BLACKTRIANGLE_E
  1

  0
LINE
  5
A6
330
A3
100
AcDbEntity
  8
0
  6
Continuous
 62
     0
370
    -2
100
AcDbLine
 10
0.0
 20
0.0
 30
0.0
 11
-1.0
 21
0.0
 31
0.0
  0
SOLID
  5
A7
330
A3
100
AcDbEntity
  8
0
  6
Continuous
 62
     0
370
    -2
100
AcDbTrace
 10
0.0
 20
0.0
 30
0.0
 11
-0.9659258262890684
 21
0.2588190451025207
 31
0.0
 12
-0.9659258262890684
 22
-0.2588190451025207
 32
0.0
 13
-0.9659258262890684
 23
-0.2588190451025207
 33
0.0
  0
ENDBLK
  5
A5
330
A3
100
AcDbEntity
  8
0
100
AcDbBlockEnd
  0
BLOCK
  5
1AA
330
1A9
100
AcDbEntity
  8
0
100
AcDbBlockBegin
  2
BLKF021
 70
     0
 10
0.0
 20
0.0
 30
0.0
  3
BLKF021
  1

  0
TEXT
  5
1AD
330
1A9
100
AcDbEntity
  8
LAYER004
  6
Continuous
 62
     6
370
    20
100
AcDbText
 10
193.6679992675781
 20
188.8809204101561
 30
0.0
 40
2.299999952316284
  1
 
 41
0.5217391619835556
  7
FX_VECTOR
100
AcDbText
  0
TEXT
  5
1AE
330
1A9
100
AcDbEntity
  8
LAYER004
  6
Continuous
 62
     6
370
    20
100
AcDbText
 10
241.833999633789
 20
188.8809204101561
 30
0.0
 40
2.299999952316284
  1
 
 41
0.5217391619835556
  7
FX_VECTOR
100
AcDbText
  0
INSERT
  5
1B2
330
1A9
100
AcDbEntity
  8
0
100
AcDbBlockReference
  2
FXDIM022
 10
0.0
 20
0.0
 30
0.0
  0
ENDBLK
  5
1AB
330
1A9
100
AcDbEntity
  8
0
100
AcDbBlockEnd
  0
BLOCK
  5
1B0
330
1AF
100
AcDbEntity
  8
0
100
AcDbBlockBegin
  2
FXDIM022
 70
     0
 10
0.0
 20
0.0
 30
0.0
  3
FXDIM022
  1

  0
TEXT
  5
1B3
330
1AF
100
AcDbEntity
  8
LAYER004
  6
Continuous
 62
     6
370
    20
100
AcDbText
 10
184.4885314704908
 20
188.6425079106236
 30
0.0
 40
2.200000047683715
  1
 
 50
0.0000000099999999
 41
0.5454545553065527
  7
FX_VECTOR
100
AcDbText
  0
LINE
  5
1B4
330
1AF
100
AcDbEntity
  8
LAYER004
  6
Continuous
 62
     6
370
    20
100
AcDbLine
 10
185.0885254983105
 20
191.8425053757655
 30
0.0
 11
182.9885254989454
 21
188.2051986795044
 31
0.0
  0
LINE
  5
1B5
330
1AF
100
AcDbEntity
  8
LAYER004
  6
Continuous
 62
     6
370
    20
100
AcDbLine
 10
182.9885254989454
 20
188.2051986795044
 30
0.0
 11
187.1885254989453
 21
188.2051986802373
 31
0.0
  0
LINE
  5
1B6
330
1AF
100
AcDbEntity
  8
LAYER004
  6
Continuous
 62
     6
370
    20
100
AcDbLine
 10
187.1885254989453
 20
188.2051986802373
 30
0.0
 11
185.0885254983105
 21
191.8425053757655
 31
0.0
  0
ENDBLK
  5
1B1
330
1AF
100
AcDbEntity
  8
0
100
AcDbBlockEnd
  0
BLOCK
  5
1B8
330
1B7
100
AcDbEntity
  8
0
100
AcDbBlockBegin
  2
BLKF023
 70
     0
 10
0.0
 20
0.0
 30
0.0
  3
BLKF023
  1

  0
LINE
  5
1BB
330
1B7
100
AcDbEntity
  8
LAYER004
  6
Continuous
 62
     7
370
    20
100
AcDbLine
 10
18.47867977292269
 20
198.9797160754095
 30
0.0
 11
133.4665303663903
 21
198.9797160754095
 31
0.0
  0
LINE
  5
1BC
330
1B7
100
AcDbEntity
  8
LAYER004
  6
Continuous
 62
     7
370
    20
100
AcDbLine
 10
133.4665303663903
 20
198.9797160754095
 30
0.0
 11
133.4665303663903
 21
178.3368977228819
 31
0.0
  0
LINE
  5
1BD
330
1B7
100
AcDbEntity
  8
LAYER004
  6
Continuous
 62
     7
370
    20
100
AcDbLine
 10
133.4665303663903
 20
178.3368977228819
 30
0.0
 11
18.47867977292268
 21
178.3368977228819
 31
0.0
  0
LINE
  5
1BE
330
1B7
100
AcDbEntity
  8
LAYER004
  6
Continuous
 62
     7
370
    20
100
AcDbLine
 10
18.47867977292268
 20
178.3368977228819
 30
0.0
 11
18.47867977292269
 21
198.9797160754095
 31
0.0
  0
LINE
  5
1BF
330
1B7
100
AcDbEntity
  8
LAYER004
  6
Continuous
 62
     7
370
    20
100
AcDbLine
 10
17.72867977292269
 20
199.7297160754095
 30
0.0
 11
134.2165303663903
 21
199.7297160754096
 31
0.0
  0
LINE
  5
1C0
330
1B7
100
AcDbEntity
  8
LAYER004
  6
Continuous
 62
     7
370
    20
100
AcDbLine
 10
134.2165303663903
 20
199.7297160754096
 30
0.0
 11
134.2165303663903
 21
177.5868977228818
 31
0.0
  0
LINE
  5
1C1
330
1B7
100
AcDbEntity
  8
LAYER004
  6
Continuous
 62
     7
370
    20
100
AcDbLine
 10
134.2165303663903
 20
177.5868977228818
 30
0.0
 11
17.72867977292269
 21
177.5868977228818
 31
0.0
  0
LINE
  5
1C2
330
1B7
100
AcDbEntity
  8
LAYER004
  6
Continuous
 62
     7
370
    20
100
AcDbLine
 10
17.72867977292269
 20
177.5868977228818
 30
0.0
 11
17.72867977292269
 21
199.7297160754095
 31
0.0
  0
TEXT
  5
1C3
330
1B7
100
AcDbEntity
  8
LAYER004
  6
Continuous
 62
     7
370
    20
100
AcDbText
 10
19.22414588928223
 20
194.9769134521483
 30
0.0
 40
3.0
  1
　
 41
0.9000000158945718
  7
FX_VECTOR
100
AcDbText
  0
TEXT
  5
1C4
330
1B7
100
AcDbEntity
  8
LAYER004
  6
Continuous
 62
     7
370
    20
100
AcDbText
 10
21.92414665222167
 20
194.3809661865234
 30
0.0
 40
2.299999952316284
  1
Confidential
 41
0.8999999896339746
  7
FX_VECTOR
100
AcDbText
  0
TEXT
  5
1C5
330
1B7
100
AcDbEntity
  8
LAYER004
  6
Continuous
 62
     7
370
    20
100
AcDbText
 10
46.76414489746093
 20
194.9769134521483
 30
0.0
 40
2.299999952316284
  1
　
 41
0.8999999896339746
  7
FX_VECTOR
100
AcDbText
  0
TEXT
  5
1C6
330
1B7
100
AcDbEntity
  8
LAYER004
  6
Continuous
 62
     7
370
    20
100
AcDbText
 10
48.83414840698242
 20
194.3809661865234
 30
0.0
 40
2.299999952316284
  1
Information
 41
0.8999999896339746
  7
FX_VECTOR
100
AcDbText
  0
TEXT
  5
1C7
330
1B7
100
AcDbEntity
  8
LAYER004
  6
Continuous
 62
     7
370
    20
100
AcDbText
 10
71.60414886474609
 20
194.3809661865234
 30
0.0
 40
2.5
  1
　　機密情報
 41
0.9
  7
FX_VECTOR
100
AcDbText
  0
TEXT
  5
1C8
330
1B7
100
AcDbEntity
  8
LAYER004
  6
Continuous
 62
     7
370
    20
100
AcDbText
 10
19.22414588928223
 20
190.8836669921875
 30
0.0
 40
2.099999904632567
  1
This material and any attachment contain information that is privileged confidentialor exempt
 41
0.5714286200854266
  7
FX_VECTOR
100
AcDbText
  0
TEXT
  5
1C9
330
1B7
100
AcDbEntity
  8
LAYER004
  6
Continuous
 62
     7
370
    20
100
AcDbText
 10
39.38414764404297
 20
188.7769165039061
 30
0.0
 40
2.0
  1
 
 41
0.899999976158142
  7
FX_VECTOR
100
AcDbText
  0
TEXT
  5
1CA
330
1B7
100
AcDbEntity
  8
LAYER004
  6
Continuous
 62
     7
370
    20
100
AcDbText
 10
19.22414588928223
 20
187.5641021728515
 30
0.0
 40
2.099999904632567
  1
form disclosure under application or copying of this information is strictly prohibited.
 41
0.5714286200854266
  7
FX_VECTOR
100
AcDbText
  0
TEXT
  5
1CB
330
1B7
100
AcDbEntity
  8
LAYER004
  6
Continuous
 62
     7
370
    20
100
AcDbText
 10
19.22414588928223
 20
183.8472442626953
 30
0.0
 40
2.299999952316284
  1
本資料は、
 41
0.7826086911452065
  7
FX_VECTOR
100
AcDbText
  0
TEXT
  5
1CC
330
1B7
100
AcDbEntity
  8
LAYER004
  6
Continuous
 62
     7
370
    20
100
AcDbText
 10
27.77736091613769
 20
183.8472442626953
 30
0.0
 40
2.200000047683715
  1
HOYA CANDEO OPTRONICS
 41
0.6363636117336185
  7
FX_VECTOR
100
AcDbText
  0
TEXT
  5
1CD
330
1B7
100
AcDbEntity
  8
LAYER004
  6
Continuous
 62
     7
370
    20
100
AcDbText
 10
57.83607864379883
 20
183.8472442626953
 30
0.0
 40
2.299999952316284
  1
株式会社の財産的情報を含んでおりますので、
 41
0.7826086911452065
  7
FX_VECTOR
100
AcDbText
  0
TEXT
  5
1CE
330
1B7
100
AcDbEntity
  8
LAYER004
  6
Continuous
 62
     7
370
    20
100
AcDbText
 10
19.22414588928223
 20
180.7472534179688
 30
0.0
 40
2.299999952316284
  1
許可なく第三者に開示したり内容の全部又は一部を複写する事を御遠慮下さい。
 41
0.7826086911452065
  7
FX_VECTOR
100
AcDbText
  0
ENDBLK
  5
1B9
330
1B7
100
AcDbEntity
  8
0
100
AcDbBlockEnd
  0
BLOCK
  5
1D0
330
1CF
100
AcDbEntity
  8
0
100
AcDbBlockBegin
  2
BLKF024
 70
     0
 10
0.0
 20
0.0
 30
0.0
  3
BLKF024
  1

  0
TEXT
  5
1D3
330
1CF
100
AcDbEntity
  8
LAYER004
  6
Continuous
 62
     7
370
    20
100
AcDbText
 10
221.4999999999999
 20
32.75690078735352
 30
0.0
 40
2.0
  1
2010/07/29
 41
0.8000000119209291
  7
FX_VECTOR
100
AcDbText
  0
TEXT
  5
1D4
330
1CF
100
AcDbEntity
  8
LAYER004
  6
Continuous
 62
     7
370
    20
100
AcDbText
 10
203.0764770507811
 20
28.45743370056151
 30
0.0
 40
2.5
  1
元図番
 41
1.438202285766601
  7
FX_VECTOR
100
AcDbText
  0
TEXT
  5
1D5
330
1CF
100
AcDbEntity
  8
LAYER004
  6
Continuous
 62
     7
370
    20
100
AcDbText
 10
274.4500122070312
 20
13.14485645294189
 30
0.0
 40
2.0
  1
1/1
 41
0.6000000238418579
  7
FX_VECTOR
100
AcDbText
  0
TEXT
  5
1D6
330
1CF
100
AcDbEntity
  8
LAYER004
  6
Continuous
 62
     7
370
    20
100
AcDbText
 10
275.0499877929688
 20
21.38633155822753
 30
0.0
 40
2.0
  1
A4
 41
0.6000000238418579
  7
FX_VECTOR
100
AcDbText
  0
TEXT
  5
1D7
330
1CF
100
AcDbEntity
  8
LAYER004
  6
Continuous
 62
     7
370
    20
100
AcDbText
 10
122.5
 20
28.22083282470703
 30
0.0
 40
3.299999952316283
  1
JIS B 0419-cH(ISO2768-2)
 41
0.7449494816310404
  7
FX_VECTOR
100
AcDbText
  0
TEXT
  5
1D8
330
1CF
100
AcDbEntity
  8
LAYER004
  6
Continuous
 62
     7
370
    20
100
AcDbText
 10
148.4974822998046
 20
34.64977264404296
 30
0.0
 40
3.299999952316283
  1
**
 41
0.8484848462955135
  7
FX_VECTOR
100
AcDbText
  0
TEXT
  5
1D9
330
1CF
100
AcDbEntity
  8
LAYER004
  6
Continuous
 62
     7
370
    20
100
AcDbText
 10
148.3046112060546
 20
41.13259506225586
 30
0.0
 40
3.299999952316283
  1
**
 41
0.8484848462955135
  7
FX_VECTOR
100
AcDbText
  0
TEXT
  5
1DA
330
1CF
100
AcDbEntity
  8
LAYER004
  6
Continuous
 62
     7
370
    20
100
AcDbText
 10
204.3000030517577
 20
41.21905136108398
 30
0.0
 40
3.0
  1
2:1
 41
0.9333333174387613
  7
FX_VECTOR
100
AcDbText
  0
TEXT
  5
1DB
330
1CF
100
AcDbEntity
  8
LAYER004
  6
Continuous
 62
     6
370
    20
100
AcDbText
 10
5.59656810760498
 20
13.62403011322021
 30
0.0
 40
1.799999952316284
  1
****
 41
0.7777777851363761
  7
FX_VECTOR
100
AcDbText
  0
TEXT
  5
1DC
330
1CF
100
AcDbEntity
  8
LAYER004
  6
Continuous
 62
     6
370
    20
100
AcDbText
 10
5.59656810760498
 20
10.22377681732177
 30
0.0
 40
1.799999952316284
  1
%%%U%%%
 41
0.7777777851363761
  7
FX_VECTOR
100
AcDbText
  0
ENDBLK
  5
1D1
330
1CF
100
AcDbEntity
  8
0
100
AcDbBlockEnd
  0
BLOCK
  5
1DF
330
1DE
100
AcDbEntity
  8
0
100
AcDbBlockBegin
  2
BLKF025
 70
     0
 10
0.0
 20
0.0
 30
0.0
  3
BLKF025
  1

  0
LINE
  5
1E2
330
1DE
100
AcDbEntity
  8
LAYER004
  6
Continuous
 62
     7
370
    20
100
AcDbLine
 10
217.1958087157903
 20
37.67999678925763
 30
0.0
 11
214.6958087157903
 21
37.17999678925764
 31
0.0
  0
LINE
  5
1E3
330
1DE
100
AcDbEntity
  8
LAYER004
  6
Continuous
 62
     7
370
    20
100
AcDbLine
 10
217.1958087157903
 20
37.67999678925763
 30
0.0
 11
217.1958087157903
 21
34.67999678925764
 31
0.0
  0
CIRCLE
  5
1E4
330
1DE
100
AcDbEntity
  8
LAYER004
  6
Continuous
 62
     7
370
    20
100
AcDbCircle
 10
212.1958087157902
 20
36.14231643089117
 30
0.0
 40
1.414213562373105
  0
CIRCLE
  5
1E5
330
1DE
100
AcDbEntity
  8
LAYER004
  6
Continuous
 62
     7
370
    20
100
AcDbCircle
 10
212.1958087157902
 20
36.14231643089117
 30
0.0
 40
1.0
  0
LINE
  5
1E6
330
1DE
100
AcDbEntity
  8
LAYER004
  6
Continuous
 62
     7
370
    20
100
AcDbLine
 10
214.6958087157903
 20
37.17999678925764
 30
0.0
 11
214.6958087157903
 21
35.17999678925765
 31
0.0
  0
LINE
  5
1E7
330
1DE
100
AcDbEntity
  8
LAYER004
  6
Continuous
 62
     7
370
    20
100
AcDbLine
 10
217.1958087157903
 20
34.67999678925764
 30
0.0
 11
214.6958087157903
 21
35.17999678925765
 31
0.0
  0
LINE
  5
1E9
330
1DE
100
AcDbEntity
  8
LAYER004
  6
DASH_DOT
 62
     7
370
    20
100
AcDbLine
 10
212.1958087157902
 20
38.05663829568981
 30
0.0
 11
212.1958087157902
 21
34.23222723368709
 31
0.0
  0
LINE
  5
1EA
330
1DE
100
AcDbEntity
  8
LAYER004
  6
DASH_DOT
 62
     7
370
    20
100
AcDbLine
 10
210.353895244483
 20
36.14231643089117
 30
0.0
 11
217.6001474700413
 21
36.14231643089117
 31
0.0
  0
TEXT
  5
1EB
330
1DE
100
AcDbEntity
  8
LAYER004
  6
Continuous
 62
     7
370
    20
100
AcDbText
 10
20.80375289916992
 20
14.9008617401123
 30
0.0
 40
2.299999952316284
  1
仕様書番号
 41
0.8999999896339746
  7
FX_VECTOR
100
AcDbText
  0
TEXT
  5
1EC
330
1DE
100
AcDbEntity
  8
LAYER004
  6
Continuous
 62
     7
370
    20
100
AcDbText
 10
20.30875205993651
 20
10.75086212158202
 30
0.0
 40
1.799999952316284
  1
Spec.No
 41
0.9000000264909539
  7
FX_VECTOR
100
AcDbText
  0
TEXT
  5
1ED
330
1DE
100
AcDbEntity
  8
LAYER004
  6
Continuous
 62
     7
370
    20
100
AcDbText
 10
196.0196838378905
 20
14.39006233215332
 30
0.0
 40
2.299999952316284
  1
図番
 41
0.8000000310980761
  7
FX_VECTOR
100
AcDbText
  0
TEXT
  5
1EE
330
1DE
100
AcDbEntity
  8
LAYER004
  6
Continuous
 62
     7
370
    20
100
AcDbText
 10
196.0196838378905
 20
10.89006233215332
 30
0.0
 40
1.799999952316284
  1
DWG＿No
 41
0.6666667108182566
  7
FX_VECTOR
100
AcDbText
  0
TEXT
  5
1EF
330
1DE
100
AcDbEntity
  8
LAYER004
  6
Continuous
 62
     7
370
    20
100
AcDbText
 10
196.0196838378905
 20
22.61516952514648
 30
0.0
 40
2.299999952316284
  1
図名
 41
0.8000000310980761
  7
FX_VECTOR
100
AcDbText
  0
TEXT
  5
1F0
330
1DE
100
AcDbEntity
  8
LAYER004
  6
Continuous
 62
     7
370
    20
100
AcDbText
 10
196.0196838378905
 20
19.11516952514648
 30
0.0
 40
1.799999952316284
  1
DWG＿Name
 41
0.6666667108182566
  7
FX_VECTOR
100
AcDbText
  0
TEXT
  5
1F1
330
1DE
100
AcDbEntity
  8
LAYER004
  6
Continuous
 62
     7
370
    20
100
AcDbText
 10
266.5531921386719
 20
14.26356601715088
 30
0.0
 40
2.0
  1
ページ
 41
0.899999976158142
  7
FX_VECTOR
100
AcDbText
  0
TEXT
  5
1F2
330
1DE
100
AcDbEntity
  8
LAYER004
  6
Continuous
 62
     7
370
    20
100
AcDbText
 10
266.8500061035155
 20
10.96356582641602
 30
0.0
 40
1.799999952316284
  1
Page
 41
0.6666667108182566
  7
FX_VECTOR
100
AcDbText
  0
TEXT
  5
1F3
330
1DE
100
AcDbEntity
  8
LAYER004
  6
Continuous
 62
     7
370
    20
100
AcDbText
 10
267.3749694824219
 20
42.81801223754882
 30
0.0
 40
2.299999952316284
  1
作成
 41
0.8999999896339746
  7
FX_VECTOR
100
AcDbText
  0
TEXT
  5
1F4
330
1DE
100
AcDbEntity
  8
LAYER004
  6
Continuous
 62
     7
370
    20
100
AcDbText
 10
267.3749694824219
 20
40.32801055908203
 30
0.0
 40
1.799999952316284
  1
Drawn
 41
0.6666667108182566
  7
FX_VECTOR
100
AcDbText
  0
TEXT
  5
1F5
330
1DE
100
AcDbEntity
  8
LAYER004
  6
Continuous
 62
     7
370
    20
100
AcDbText
 10
254.3677062988281
 20
42.49589920043945
 30
0.0
 40
2.299999952316284
  1
設計
 41
0.8999999896339746
  7
FX_VECTOR
100
AcDbText
  0
TEXT
  5
1F6
330
1DE
100
AcDbEntity
  8
LAYER004
  6
Continuous
 62
     7
370
    20
100
AcDbText
 10
254.3677062988281
 20
40.00589752197265
 30
0.0
 40
1.799999952316284
  1
Designed
 41
0.6666667108182566
  7
FX_VECTOR
100
AcDbText
  0
TEXT
  5
1F7
330
1DE
100
AcDbEntity
  8
LAYER004
  6
Continuous
 62
     7
370
    20
100
AcDbText
 10
241.364273071289
 20
42.84443283081055
 30
0.0
 40
2.299999952316284
  1
検図
 41
0.8999999896339746
  7
FX_VECTOR
100
AcDbText
  0
TEXT
  5
1F8
330
1DE
100
AcDbEntity
  8
LAYER004
  6
Continuous
 62
     7
370
    20
100
AcDbText
 10
241.364273071289
 20
40.35443115234374
 30
0.0
 40
1.799999952316284
  1
Checked
 41
0.6666667108182566
  7
FX_VECTOR
100
AcDbText
  0
TEXT
  5
1F9
330
1DE
100
AcDbEntity
  8
LAYER004
  6
Continuous
 62
     7
370
    20
100
AcDbText
 10
219.3719635009765
 20
42.79372787475586
 30
0.0
 40
2.299999952316284
  1
承認 - 日付
 41
0.8999999896339746
  7
FX_VECTOR
100
AcDbText
  0
TEXT
  5
1FA
330
1DE
100
AcDbEntity
  8
LAYER004
  6
Continuous
 62
     7
370
    20
100
AcDbText
 10
219.3719635009765
 20
40.30373001098633
 30
0.0
 40
1.799999952316284
  1
Approval - Date
 41
0.6666667108182566
  7
FX_VECTOR
100
AcDbText
  0
TEXT
  5
1FB
330
1DE
100
AcDbEntity
  8
LAYER004
  6
Continuous
 62
     7
370
    20
100
AcDbText
 10
200.3130340576171
 20
35.14861297607422
 30
0.0
 40
2.0
  1
第三角法
  7
FX_VECTOR
100
AcDbText
  0
TEXT
  5
1FC
330
1DE
100
AcDbEntity
  8
LAYER004
  6
Continuous
 62
     7
370
    20
100
AcDbText
 10
266.5531921386719
 20
22.50294303894043
 30
0.0
 40
2.0
  1
サイズ
 41
0.899999976158142
  7
FX_VECTOR
100
AcDbText
  0
TEXT
  5
1FD
330
1DE
100
AcDbEntity
  8
LAYER004
  6
Continuous
 62
     7
370
    20
100
AcDbText
 10
266.8500061035155
 20
19.20294380187987
 30
0.0
 40
1.799999952316284
  1
Size
 41
0.6666667108182566
  7
FX_VECTOR
100
AcDbText
  0
TEXT
  5
1FE
330
1DE
100
AcDbEntity
  8
LAYER004
  6
Continuous
 62
     7
370
    20
100
AcDbText
 10
227.0676727294921
 20
37.45894241333008
 30
0.0
 40
2.0
  1
岸根
 41
1.325000047683715
  7
FX_VECTOR
100
AcDbText
  0
TEXT
  5
1FF
330
1DE
100
AcDbEntity
  8
LAYER004
  6
Continuous
 62
     7
370
    20
100
AcDbText
 10
244.1469268798828
 20
37.45894241333008
 30
0.0
 40
2.0
  1
岸根
 41
1.325000047683715
  7
FX_VECTOR
100
AcDbText
  0
TEXT
  5
200
330
1DE
100
AcDbEntity
  8
LAYER004
  6
Continuous
 62
     7
370
    20
100
AcDbText
 10
257.0972595214844
 20
37.45894241333008
 30
0.0
 40
2.0
  1
紫藤
 41
1.325000047683715
  7
FX_VECTOR
100
AcDbText
  0
TEXT
  5
201
330
1DE
100
AcDbEntity
  8
LAYER004
  6
Continuous
 62
     7
370
    20
100
AcDbText
 10
270.0841064453125
 20
37.45894241333008
 30
0.0
 40
2.0
  1
紫藤
 41
1.325000047683715
  7
FX_VECTOR
100
AcDbText
  0
TEXT
  5
202
330
1DE
100
AcDbEntity
  8
LAYER004
  6
Continuous
 62
     7
370
    20
100
AcDbText
 10
110.9876480102539
 20
42.91971206665039
 30
0.0
 40
2.299999952316284
  1
材質
 41
0.8999999896339746
  7
FX_VECTOR
100
AcDbText
  0
TEXT
  5
203
330
1DE
100
AcDbEntity
  8
LAYER004
  6
Continuous
 62
     7
370
    20
100
AcDbText
 10
110.9876480102539
 20
39.79286193847656
 30
0.0
 40
1.799999952316284
  1
Material
 41
0.6666667108182566
  7
FX_VECTOR
100
AcDbText
  0
TEXT
  5
204
330
1DE
100
AcDbEntity
  8
LAYER004
  6
Continuous
 62
     7
370
    20
100
AcDbText
 10
110.9876480102539
 20
36.3911018371582
 30
0.0
 40
2.299999952316284
  1
処理
 41
0.8999999896339746
  7
FX_VECTOR
100
AcDbText
  0
TEXT
  5
205
330
1DE
100
AcDbEntity
  8
LAYER004
  6
Continuous
 62
     7
370
    20
100
AcDbText
 10
110.9876480102539
 20
33.26425170898438
 30
0.0
 40
1.799999952316284
  1
Treatment
 41
0.6666667108182566
  7
FX_VECTOR
100
AcDbText
  0
TEXT
  5
206
330
1DE
100
AcDbEntity
  8
LAYER004
  6
Continuous
 62
     7
370
    20
100
AcDbText
 10
110.9876480102539
 20
29.89969444274901
 30
0.0
 40
2.299999952316284
  1
公差
 41
0.8999999896339746
  7
FX_VECTOR
100
AcDbText
  0
TEXT
  5
207
330
1DE
100
AcDbEntity
  8
LAYER004
  6
Continuous
 62
     7
370
    20
100
AcDbText
 10
110.9876480102539
 20
26.77284240722656
 30
0.0
 40
1.799999952316284
  1
Tolerance
 41
0.6666667108182566
  7
FX_VECTOR
100
AcDbText
  0
TEXT
  5
208
330
1DE
100
AcDbEntity
  8
LAYER004
  6
Continuous
 62
     7
370
    20
100
AcDbText
 10
181.9535369873046
 20
42.90362167358398
 30
0.0
 40
2.299999952316284
  1
尺度
 41
0.8999999896339746
  7
FX_VECTOR
100
AcDbText
  0
TEXT
  5
209
330
1DE
100
AcDbEntity
  8
LAYER004
  6
Continuous
 62
     7
370
    20
100
AcDbText
 10
181.9535369873046
 20
39.77677154541015
 30
0.0
 40
1.799999952316284
  1
Scale
 41
0.6666667108182566
  7
FX_VECTOR
100
AcDbText
  0
TEXT
  5
20A
330
1DE
100
AcDbEntity
  8
LAYER004
  6
Continuous
 62
     7
370
    20
100
AcDbText
 10
181.9535369873046
 20
36.41714477539061
 30
0.0
 40
2.299999952316284
  1
投影法
 41
0.8999999896339746
  7
FX_VECTOR
100
AcDbText
  0
TEXT
  5
20B
330
1DE
100
AcDbEntity
  8
LAYER004
  6
Continuous
 62
     7
370
    20
100
AcDbText
 10
181.9535369873046
 20
33.2902946472168
 30
0.0
 40
1.799999952316284
  1
Projection
 41
0.6666667108182566
  7
FX_VECTOR
100
AcDbText
  0
TEXT
  5
20C
330
1DE
100
AcDbEntity
  8
LAYER004
  6
Continuous
 62
     7
370
    20
100
AcDbText
 10
181.9535369873046
 20
30.07779121398926
 30
0.0
 40
2.299999952316284
  1
元図番
 41
0.8999999896339746
  7
FX_VECTOR
100
AcDbText
  0
TEXT
  5
20D
330
1DE
100
AcDbEntity
  8
LAYER004
  6
Continuous
 62
     7
370
    20
100
AcDbText
 10
181.9535369873046
 20
26.95093727111816
 30
0.0
 40
1.799999952316284
  1
Origin DWG-No
 41
0.6666667108182566
  7
FX_VECTOR
100
AcDbText
  0
ENDBLK
  5
1E0
330
1DE
100
AcDbEntity
  8
0
100
AcDbBlockEnd
  0
BLOCK
  5
20F
330
20E
100
AcDbEntity
  8
0
100
AcDbBlockBegin
  2
BLKF026
 70
     0
 10
0.0
 20
0.0
 30
0.0
  3
BLKF026
  1

  0
LINE
  5
212
330
20E
100
AcDbEntity
  8
LAYER004
  6
Continuous
 62
   161
370
    20
100
AcDbLine
 10
70.5000000000001
 20
10.0
 30
0.0
 11
70.5000000000001
 21
18.5
 31
0.0
  0
LINE
  5
213
330
20E
100
AcDbEntity
  8
LAYER004
  6
Continuous
 62
     7
370
    20
100
AcDbLine
 10
34.50000000000007
 20
10.00000000000008
 30
0.0
 11
34.50000000000005
 21
18.5
 31
0.0
  0
LINE
  5
214
330
20E
100
AcDbEntity
  8
LAYER004
  6
Continuous
 62
   161
370
    20
100
AcDbLine
 10
17.50000000000006
 20
18.5
 30
0.0
 11
70.5000000000001
 21
18.5
 31
0.0
  0
LINE
  5
215
330
20E
100
AcDbEntity
  8
LAYER004
  6
Continuous
 62
     7
370
    20
100
AcDbLine
 10
17.50000000000006
 20
9.999999999999991
 30
0.0
 11
70.5000000000001
 21
10.0
 31
0.0
  0
LINE
  5
216
330
20E
100
AcDbEntity
  8
LAYER004
  6
Continuous
 62
   161
370
    20
100
AcDbLine
 10
218.5
 20
46.0
 30
0.0
 11
218.5
 21
26.50000000000002
 31
0.0
  0
LINE
  5
217
330
20E
100
AcDbEntity
  8
LAYER004
  6
Continuous
 62
     7
370
    20
100
AcDbLine
 10
207.5000000000001
 20
26.50000000000001
 30
0.0
 11
207.5000000000001
 21
10.00000000000001
 31
0.0
  0
LINE
  5
218
330
20E
100
AcDbEntity
  8
LAYER004
  6
Continuous
 62
     7
370
    20
100
AcDbLine
 10
198.5000000000001
 20
26.50000000000001
 30
0.0
 11
198.5000000000001
 21
46.0
 31
0.0
  0
LINE
  5
219
330
20E
100
AcDbEntity
  8
LAYER004
  6
Continuous
 62
   161
370
    20
100
AcDbLine
 10
195.5
 20
26.50000000000001
 30
0.0
 11
195.5
 21
10.0
 31
0.0
  0
LINE
  5
21A
330
20E
100
AcDbEntity
  8
LAYER004
  6
Continuous
 62
     7
370
    20
100
AcDbLine
 10
240.5
 20
46.0
 30
0.0
 11
240.5
 21
26.50000000000003
 31
0.0
  0
LINE
  5
21B
330
20E
100
AcDbEntity
  8
LAYER004
  6
Continuous
 62
     7
370
    20
100
AcDbLine
 10
195.5
 20
18.25000000000001
 30
0.0
 11
279.5
 21
18.25000000000004
 31
0.0
  0
LINE
  5
21C
330
20E
100
AcDbEntity
  8
LAYER004
  6
Continuous
 62
     7
370
    20
100
AcDbLine
 10
218.5
 20
36.0
 30
0.0
 11
279.5
 21
36.00000000000003
 31
0.0
  0
LINE
  5
21D
330
20E
100
AcDbEntity
  8
LAYER004
  6
Continuous
 62
     7
370
    20
100
AcDbLine
 10
279.5
 20
10.00000000000005
 30
0.0
 11
110.5000000000001
 21
9.999999999999962
 31
0.0
  0
LINE
  5
21E
330
20E
100
AcDbEntity
  8
LAYER004
  6
Continuous
 62
   161
370
    20
100
AcDbLine
 10
110.5000000000001
 20
26.49999999999996
 30
0.0
 11
279.5
 21
26.50000000000005
 31
0.0
  0
LINE
  5
21F
330
20E
100
AcDbEntity
  8
LAYER004
  6
Continuous
 62
   161
370
    20
100
AcDbLine
 10
110.5000000000001
 20
46.0
 30
0.0
 11
279.5
 21
46.0
 31
0.0
  0
LINE
  5
220
330
20E
100
AcDbEntity
  8
LAYER004
  6
Continuous
 62
     7
370
    20
100
AcDbLine
 10
279.5
 20
46.0
 30
0.0
 11
279.5
 21
10.00000000000005
 31
0.0
  0
LINE
  5
221
330
20E
100
AcDbEntity
  8
LAYER004
  6
Continuous
 62
     7
370
    20
100
AcDbLine
 10
253.5000000000001
 20
46.0
 30
0.0
 11
253.5000000000001
 21
26.50000000000003
 31
0.0
  0
LINE
  5
222
330
20E
100
AcDbEntity
  8
LAYER004
  6
Continuous
 62
     7
370
    20
100
AcDbLine
 10
266.5
 20
46.0
 30
0.0
 11
266.5
 21
26.50000000000003
 31
0.0
  0
LINE
  5
223
330
20E
100
AcDbEntity
  8
LAYER004
  6
Continuous
 62
   161
370
    20
100
AcDbLine
 10
265.5
 20
26.50000000000003
 30
0.0
 11
265.5
 21
10.00000000000005
 31
0.0
  0
LINE
  5
224
330
20E
100
AcDbEntity
  8
LAYER004
  6
Continuous
 62
     7
370
    20
100
AcDbLine
 10
273.0
 20
26.50000000000003
 30
0.0
 11
273.0
 21
10.00000000000005
 31
0.0
  0
LINE
  5
225
330
20E
100
AcDbEntity
  8
LAYER004
  6
Continuous
 62
   161
370
    20
100
AcDbLine
 10
181.5
 20
46.0
 30
0.0
 11
181.5
 21
26.5
 31
0.0
  0
LINE
  5
226
330
20E
100
AcDbEntity
  8
LAYER004
  6
Continuous
 62
   161
370
    20
100
AcDbLine
 10
110.5000000000001
 20
9.999999999999962
 30
0.0
 11
110.5000000000001
 21
46.0
 31
0.0
  0
LINE
  5
227
330
20E
100
AcDbEntity
  8
LAYER004
  6
Continuous
 62
     7
370
    20
100
AcDbLine
 10
122.5
 20
46.0
 30
0.0
 11
122.5
 21
26.49999999999996
 31
0.0
  0
LINE
  5
228
330
20E
100
AcDbEntity
  8
LAYER004
  6
Continuous
 62
   161
370
    20
100
AcDbLine
 10
17.5
 20
200.0
 30
0.0
 11
279.4999999999999
 21
200.0
 31
0.0
  0
LINE
  5
229
330
20E
100
AcDbEntity
  8
LAYER004
  6
Continuous
 62
   161
370
    20
100
AcDbLine
 10
279.4999999999999
 20
200.0
 30
0.0
 11
279.5
 21
10.0
 31
0.0
  0
LINE
  5
22A
330
20E
100
AcDbEntity
  8
LAYER004
  6
Continuous
 62
   161
370
    20
100
AcDbLine
 10
279.5
 20
9.999999999999996
 30
0.0
 11
17.50000000000003
 21
9.999999999999962
 31
0.0
  0
LINE
  5
22B
330
20E
100
AcDbEntity
  8
LAYER004
  6
Continuous
 62
   161
370
    20
100
AcDbLine
 10
17.50000000000003
 20
9.999999999999962
 30
0.0
 11
17.5
 21
200.0
 31
0.0
  0
LINE
  5
22C
330
20E
100
AcDbEntity
  8
LAYER004
  6
Continuous
 62
     7
370
    20
100
AcDbLine
 10
61.16700000000001
 20
200.0
 30
0.0
 11
61.16700000000001
 21
205.0
 31
0.0
  0
LINE
  5
22D
330
20E
100
AcDbEntity
  8
LAYER004
  6
Continuous
 62
     7
370
    20
100
AcDbLine
 10
104.834
 20
200.0
 30
0.0
 11
104.834
 21
205.0
 31
0.0
  0
LINE
  5
22E
330
20E
100
AcDbEntity
  8
LAYER004
  6
Continuous
 62
     7
370
    20
100
AcDbLine
 10
148.501
 20
200.0
 30
0.0
 11
148.501
 21
205.0
 31
0.0
  0
LINE
  5
22F
330
20E
100
AcDbEntity
  8
LAYER004
  6
Continuous
 62
     7
370
    20
100
AcDbLine
 10
192.168
 20
200.0
 30
0.0
 11
192.168
 21
205.0
 31
0.0
  0
LINE
  5
230
330
20E
100
AcDbEntity
  8
LAYER004
  6
Continuous
 62
     7
370
    20
100
AcDbLine
 10
235.835
 20
200.0
 30
0.0
 11
235.835
 21
205.0
 31
0.0
  0
LINE
  5
231
330
20E
100
AcDbEntity
  8
LAYER004
  6
Continuous
 62
     7
370
    20
100
AcDbLine
 10
279.4999999999999
 20
152.5
 30
0.0
 11
284.5
 21
152.5
 31
0.0
  0
LINE
  5
232
330
20E
100
AcDbEntity
  8
LAYER004
  6
Continuous
 62
     7
370
    20
100
AcDbLine
 10
279.4999999999999
 20
105.0
 30
0.0
 11
284.5
 21
105.0
 31
0.0
  0
LINE
  5
233
330
20E
100
AcDbEntity
  8
LAYER004
  6
Continuous
 62
     7
370
    20
100
AcDbLine
 10
279.4999999999999
 20
57.5
 30
0.0
 11
284.5
 21
57.5
 31
0.0
  0
LINE
  5
234
330
20E
100
AcDbEntity
  8
LAYER004
  6
Continuous
 62
     7
370
    20
100
AcDbLine
 10
17.50200000000007
 20
152.4999999999999
 30
0.0
 11
12.50200000000007
 21
152.5
 31
0.0
  0
LINE
  5
235
330
20E
100
AcDbEntity
  8
LAYER004
  6
Continuous
 62
     7
370
    20
100
AcDbLine
 10
17.50200000000007
 20
104.9999999999998
 30
0.0
 11
12.50200000000007
 21
105.0
 31
0.0
  0
LINE
  5
236
330
20E
100
AcDbEntity
  8
LAYER004
  6
Continuous
 62
     7
370
    20
100
AcDbLine
 10
17.5020000000001
 20
57.49999999999996
 30
0.0
 11
12.5020000000001
 21
57.49999999999996
 31
0.0
  0
LINE
  5
237
330
20E
100
AcDbEntity
  8
LAYER004
  6
Continuous
 62
     7
370
    20
100
AcDbLine
 10
235.835
 20
10.00000000000007
 30
0.0
 11
235.835
 21
5.000000000000071
 31
0.0
  0
LINE
  5
238
330
20E
100
AcDbEntity
  8
LAYER004
  6
Continuous
 62
     7
370
    20
100
AcDbLine
 10
192.168
 20
10.00000000000003
 30
0.0
 11
192.168
 21
5.000000000000036
 31
0.0
  0
LINE
  5
239
330
20E
100
AcDbEntity
  8
LAYER004
  6
Continuous
 62
     7
370
    20
100
AcDbLine
 10
148.501
 20
10.00000000000003
 30
0.0
 11
148.501
 21
5.000000000000036
 31
0.0
  0
LINE
  5
23A
330
20E
100
AcDbEntity
  8
LAYER004
  6
Continuous
 62
     7
370
    20
100
AcDbLine
 10
61.16700000000004
 20
10.0
 30
0.0
 11
61.16700000000003
 21
5.0
 31
0.0
  0
LINE
  5
23B
330
20E
100
AcDbEntity
  8
LAYER004
  6
Continuous
 62
     7
370
    20
100
AcDbLine
 10
104.834
 20
10.00000000000003
 30
0.0
 11
104.834
 21
5.000000000000036
 31
0.0
  0
TEXT
  5
23C
330
20E
100
AcDbEntity
  8
LAYER004
  6
Continuous
 62
   161
370
    20
100
AcDbText
 10
280.4542846679688
 20
174.75
 30
0.0
 40
3.0
  1
A
 41
0.8571429252624511
  7
FX_VECTOR
100
AcDbText
  0
TEXT
  5
23D
330
20E
100
AcDbEntity
  8
LAYER004
  6
Continuous
 62
   161
370
    20
100
AcDbText
 10
280.239990234375
 20
79.75
 30
0.0
 40
3.0
  1
C
  7
FX_VECTOR
100
AcDbText
  0
TEXT
  5
23E
330
20E
100
AcDbEntity
  8
LAYER004
  6
Continuous
 62
   161
370
    20
100
AcDbText
 10
280.1685791015625
 20
32.25
 30
0.0
 40
3.0
  1
D
 41
1.047619104385375
  7
FX_VECTOR
100
AcDbText
  0
TEXT
  5
23F
330
20E
100
AcDbEntity
  8
LAYER004
  6
Continuous
 62
   161
370
    20
100
AcDbText
 10
280.1685791015625
 20
127.2499999999999
 30
0.0
 40
3.0
  1
B
 41
1.047619104385375
  7
FX_VECTOR
100
AcDbText
  0
TEXT
  5
240
330
20E
100
AcDbEntity
  8
LAYER004
  6
Continuous
 62
   161
370
    20
100
AcDbText
 10
256.167999267578
 20
200.8999938964843
 30
0.0
 40
3.0
  1
6
  7
FX_VECTOR
100
AcDbText
  0
TEXT
  5
241
330
20E
100
AcDbEntity
  8
LAYER004
  6
Continuous
 62
   161
370
    20
100
AcDbText
 10
168.833999633789
 20
200.8999938964843
 30
0.0
 40
3.0
  1
4
  7
FX_VECTOR
100
AcDbText
  0
TEXT
  5
242
330
20E
100
AcDbEntity
  8
LAYER004
  6
Continuous
 62
   161
370
    20
100
AcDbText
 10
38.11871337890625
 20
200.8999938964843
 30
0.0
 40
3.0
  1
1
 41
0.8095238208770751
  7
FX_VECTOR
100
AcDbText
  0
TEXT
  5
243
330
20E
100
AcDbEntity
  8
LAYER004
  6
Continuous
 62
   161
370
    20
100
AcDbText
 10
81.57142639160156
 20
200.8999938964843
 30
0.0
 40
3.0
  1
2
 41
0.9523809750874837
  7
FX_VECTOR
100
AcDbText
  0
TEXT
  5
244
330
20E
100
AcDbEntity
  8
LAYER004
  6
Continuous
 62
   161
370
    20
100
AcDbText
 10
125.2384262084961
 20
200.8999938964843
 30
0.0
 40
3.0
  1
3
 41
0.9523809750874837
  7
FX_VECTOR
100
AcDbText
  0
TEXT
  5
245
330
20E
100
AcDbEntity
  8
LAYER004
  6
Continuous
 62
   161
370
    20
100
AcDbText
 10
212.5724334716796
 20
200.8999938964843
 30
0.0
 40
3.0
  1
5
 41
0.9523809750874837
  7
FX_VECTOR
100
AcDbText
  0
TEXT
  5
246
330
20E
100
AcDbEntity
  8
LAYER004
  6
Continuous
 62
   161
370
    20
100
AcDbText
 10
38.11871337890625
 20
6.099999904632567
 30
0.0
 40
3.0
  1
1
 41
0.8095238208770751
  7
FX_VECTOR
100
AcDbText
  0
TEXT
  5
247
330
20E
100
AcDbEntity
  8
LAYER004
  6
Continuous
 62
   161
370
    20
100
AcDbText
 10
81.57142639160156
 20
6.099999904632567
 30
0.0
 40
3.0
  1
2
 41
0.9523809750874837
  7
FX_VECTOR
100
AcDbText
  0
TEXT
  5
248
330
20E
100
AcDbEntity
  8
LAYER004
  6
Continuous
 62
   161
370
    20
100
AcDbText
 10
125.2384262084961
 20
6.099999904632567
 30
0.0
 40
3.0
  1
3
 41
0.9523809750874837
  7
FX_VECTOR
100
AcDbText
  0
TEXT
  5
249
330
20E
100
AcDbEntity
  8
LAYER004
  6
Continuous
 62
   161
370
    20
100
AcDbText
 10
168.833999633789
 20
6.099999904632567
 30
0.0
 40
3.0
  1
4
  7
FX_VECTOR
100
AcDbText
  0
TEXT
  5
24A
330
20E
100
AcDbEntity
  8
LAYER004
  6
Continuous
 62
   161
370
    20
100
AcDbText
 10
212.5724334716796
 20
6.099999904632567
 30
0.0
 40
3.0
  1
5
 41
0.9523809750874837
  7
FX_VECTOR
100
AcDbText
  0
TEXT
  5
24B
330
20E
100
AcDbEntity
  8
LAYER004
  6
Continuous
 62
   161
370
    20
100
AcDbText
 10
256.167999267578
 20
6.099999904632567
 30
0.0
 40
3.0
  1
6
  7
FX_VECTOR
100
AcDbText
  0
TEXT
  5
24C
330
20E
100
AcDbEntity
  8
LAYER004
  6
Continuous
 62
   161
370
    20
100
AcDbText
 10
13.97428607940674
 20
174.75
 30
0.0
 40
3.0
  1
A
 41
0.8571429252624511
  7
FX_VECTOR
100
AcDbText
  0
TEXT
  5
24D
330
20E
100
AcDbEntity
  8
LAYER004
  6
Continuous
 62
   161
370
    20
100
AcDbText
 10
13.68857097625731
 20
127.2499999999999
 30
0.0
 40
3.0
  1
B
 41
1.047619104385375
  7
FX_VECTOR
100
AcDbText
  0
TEXT
  5
24E
330
20E
100
AcDbEntity
  8
LAYER004
  6
Continuous
 62
   161
370
    20
100
AcDbText
 10
13.76000022888184
 20
79.75
 30
0.0
 40
3.0
  1
C
  7
FX_VECTOR
100
AcDbText
  0
TEXT
  5
24F
330
20E
100
AcDbEntity
  8
LAYER004
  6
Continuous
 62
   161
370
    20
100
AcDbText
 10
13.68857097625731
 20
32.25
 30
0.0
 40
3.0
  1
D
 41
1.047619104385375
  7
FX_VECTOR
100
AcDbText
  0
ENDBLK
  5
210
330
20E
100
AcDbEntity
  8
0
100
AcDbBlockEnd
  0
BLOCK
  5
251
330
250
100
AcDbEntity
  8
0
100
AcDbBlockBegin
  2
BLKF027
 70
     0
 10
0.0
 20
0.0
 30
0.0
  3
BLKF027
  1

  0
LINE
  5
254
330
250
100
AcDbEntity
  8
LAYER004
  6
Continuous
 62
     7
370
    20
100
AcDbLine
 10
177.168
 20
200.0000028302204
 30
0.0
 11
279.4999828890983
 21
200.0000028302204
 31
0.0
  0
LINE
  5
255
330
250
100
AcDbEntity
  8
LAYER004
  6
Continuous
 62
   161
370
    20
100
AcDbLine
 10
279.4999828890983
 20
187.5
 30
0.0
 11
177.168
 21
187.5
 31
0.0
  0
LINE
  5
256
330
250
100
AcDbEntity
  8
LAYER004
  6
Continuous
 62
   161
370
    20
100
AcDbLine
 10
177.168
 20
187.5
 30
0.0
 11
177.168
 21
200.0000028302204
 31
0.0
  0
LINE
  5
257
330
250
100
AcDbEntity
  8
LAYER004
  6
Continuous
 62
     7
370
    20
100
AcDbLine
 10
177.168
 20
192.4999999999999
 30
0.0
 11
279.4999828890983
 21
192.4999999999999
 31
0.0
  0
LINE
  5
258
330
250
100
AcDbEntity
  8
LAYER004
  6
Continuous
 62
     7
370
    20
100
AcDbLine
 10
192.168
 20
187.5
 30
0.0
 11
192.168
 21
200.0000028302204
 31
0.0
  0
LINE
  5
259
330
250
100
AcDbEntity
  8
LAYER004
  6
Continuous
 62
     7
370
    20
100
AcDbLine
 10
207.168
 20
200.0000028302204
 30
0.0
 11
207.168
 21
187.5
 31
0.0
  0
TEXT
  5
25A
330
250
100
AcDbEntity
  8
LAYER004
  6
Continuous
 62
     7
370
    20
100
AcDbText
 10
238.7339935302734
 20
196.4786682128906
 30
0.0
 40
2.299999952316284
  1
改訂内容
  7
FX_VECTOR
100
AcDbText
  0
TEXT
  5
25B
330
250
100
AcDbEntity
  8
LAYER004
  6
Continuous
 62
     7
370
    20
100
AcDbText
 10
232.9340057373046
 20
193.6854553222655
 30
0.0
 40
1.600000023841858
  1
Revision note
  7
FX_VECTOR
100
AcDbText
  0
TEXT
  5
25C
330
250
100
AcDbEntity
  8
LAYER004
  6
Continuous
 62
     7
370
    20
100
AcDbText
 10
196.2272186279296
 20
196.4786682128906
 30
0.0
 40
2.299999952316284
  1
改訂日
  7
FX_VECTOR
100
AcDbText
  0
TEXT
  5
25D
330
250
100
AcDbEntity
  8
LAYER004
  6
Continuous
 62
     7
370
    20
100
AcDbText
 10
196.4772186279296
 20
193.6854553222655
 30
0.0
 40
1.600000023841858
  1
Date
  7
FX_VECTOR
100
AcDbText
  0
TEXT
  5
25E
330
250
100
AcDbEntity
  8
LAYER004
  6
Continuous
 62
     7
370
    20
100
AcDbText
 10
180.0540313720703
 20
196.4786682128906
 30
0.0
 40
2.299999952316284
  1
改訂番号
  7
FX_VECTOR
100
AcDbText
  0
TEXT
  5
25F
330
250
100
AcDbEntity
  8
LAYER004
  6
Continuous
 62
     7
370
    20
100
AcDbText
 10
179.8679962158203
 20
193.6854553222655
 30
0.0
 40
1.600000023841858
  1
Rev.No
  7
FX_VECTOR
100
AcDbText
  0
ENDBLK
  5
252
330
250
100
AcDbEntity
  8
0
100
AcDbBlockEnd
  0
BLOCK
  5
263
330
262
100
AcDbEntity
  8
0
100
AcDbBlockBegin
  2
BLKF028
 70
     0
 10
0.0
 20
0.0
 30
0.0
  3
BLKF028
  1

  0
LINE
  5
266
330
262
100
AcDbEntity
  8
用紙-GR3
  6
Continuous
 62
     7
370
    20
100
AcDbLine
 10
190.5502691035671
 20
74.57262319306654
 30
0.0
 11
206.0502691035671
 21
74.57262319306654
 31
0.0
  0
LINE
  5
267
330
262
100
AcDbEntity
  8
用紙-GR3
  6
Continuous
 62
     7
370
    20
100
AcDbLine
 10
190.5502691035671
 20
77.87262319306653
 30
0.0
 11
206.0502691035671
 21
77.87262319306655
 31
0.0
  0
LINE
  5
268
330
262
100
AcDbEntity
  8
用紙-GR3
  6
Continuous
 62
     7
370
    20
100
AcDbLine
 10
207.0502691035672
 20
77.87262319306653
 30
0.0
 11
220.1455769139365
 21
77.87262319306652
 31
0.0
  0
LINE
  5
269
330
262
100
AcDbEntity
  8
用紙-GR3
  6
Continuous
 62
     7
370
    20
100
AcDbLine
 10
207.0502691035672
 20
74.57262319306654
 30
0.0
 11
220.1455769139365
 21
74.57262319306654
 31
0.0
  0
INSERT
  5
26D
330
262
100
AcDbEntity
  8
0
100
AcDbBlockReference
  2
BLKF029
 10
0.0
 20
0.0
 30
0.0
  0
INSERT
  5
274
330
262
100
AcDbEntity
  8
0
100
AcDbBlockReference
  2
BLKF030
 10
0.0
 20
0.0
 30
0.0
  0
LINE
  5
278
330
262
100
AcDbEntity
  8
用紙-GR3
  6
Continuous
 62
     7
370
    20
100
AcDbLine
 10
180.6420387572726
 20
79.62819964447112
 30
0.0
 11
179.6716497036521
 21
78.89773201466607
 31
0.0
  0
LINE
  5
279
330
262
100
AcDbEntity
  8
用紙-GR3
  6
Continuous
 62
     7
370
    20
100
AcDbLine
 10
180.6420387572726
 20
79.62819964447112
 30
0.0
 11
182.9833109983221
 21
79.62819964447112
 31
0.0
  0
LINE
  5
27A
330
262
100
AcDbEntity
  8
用紙-GR3
  6
Continuous
 62
     7
370
    20
100
AcDbLine
 10
178.0758990038386
 20
79.62819964447112
 30
0.0
 11
179.0462880574589
 21
78.89773201466607
 31
0.0
  0
LINE
  5
27B
330
262
100
AcDbEntity
  8
用紙-GR3
  6
Continuous
 62
     7
370
    20
100
AcDbLine
 10
177.3849796073467
 20
79.62819964447112
 30
0.0
 11
177.1432421576655
 21
79.89762319306651
 31
0.0
  0
LINE
  5
27C
330
262
100
AcDbEntity
  8
用紙-GR3
  6
Continuous
 62
     7
370
    20
100
AcDbLine
 10
177.3849796073467
 20
79.62819964447112
 30
0.0
 11
178.0758990038386
 21
79.62819964447112
 31
0.0
  0
LINE
  5
27D
330
262
100
AcDbEntity
  8
用紙-GR3
  6
Continuous
 62
     7
370
    20
100
AcDbLine
 10
179.0462880574589
 20
78.89773201466607
 30
0.0
 11
179.6716497036521
 21
78.89773201466607
 31
0.0
  0
LINE
  5
27E
330
262
100
AcDbEntity
  8
用紙-GR3
  6
Continuous
 62
     7
370
    20
100
AcDbLine
 10
180.6420387572726
 20
72.81704674166167
 30
0.0
 11
179.6716497036521
 21
73.54751437146695
 31
0.0
  0
LINE
  5
27F
330
262
100
AcDbEntity
  8
用紙-GR3
  6
Continuous
 62
     7
370
    20
100
AcDbLine
 10
180.6420387572726
 20
72.81704674166167
 30
0.0
 11
182.9833109983221
 21
72.81704674166167
 31
0.0
  0
LINE
  5
280
330
262
100
AcDbEntity
  8
用紙-GR3
  6
Continuous
 62
     7
370
    20
100
AcDbLine
 10
178.0758990038386
 20
72.81704674166167
 30
0.0
 11
179.0462880574589
 21
73.54751437146695
 31
0.0
  0
LINE
  5
281
330
262
100
AcDbEntity
  8
用紙-GR3
  6
Continuous
 62
     7
370
    20
100
AcDbLine
 10
177.3849796073467
 20
72.81704674166167
 30
0.0
 11
177.1432421576655
 21
72.54762319306653
 31
0.0
  0
LINE
  5
282
330
262
100
AcDbEntity
  8
用紙-GR3
  6
Continuous
 62
     7
370
    20
100
AcDbLine
 10
177.3849796073467
 20
72.81704674166167
 30
0.0
 11
178.0758990038386
 21
72.81704674166167
 31
0.0
  0
LINE
  5
283
330
262
100
AcDbEntity
  8
用紙-GR3
  6
Continuous
 62
     7
370
    20
100
AcDbLine
 10
179.0462880574589
 20
73.54751437146695
 30
0.0
 11
179.6716497036521
 21
73.54751437146695
 31
0.0
  0
LINE
  5
284
330
262
100
AcDbEntity
  8
用紙-GR3
  6
Continuous
 62
     7
370
    20
100
AcDbLine
 10
182.9833109983221
 20
79.62819964447112
 30
0.0
 11
182.9833109983221
 21
72.81704674166167
 31
0.0
  0
LINE
  5
285
330
262
100
AcDbEntity
  8
用紙-GR3
  6
Continuous
 62
     7
370
    20
100
AcDbLine
 10
177.3849796073467
 20
79.62819964447112
 30
0.0
 11
177.3849796073467
 21
72.81704674166167
 31
0.0
  0
LINE
  5
286
330
262
100
AcDbEntity
  8
用紙-GR3
  6
Continuous
 62
     7
370
    20
100
AcDbLine
 10
178.0758990038386
 20
79.62819964447112
 30
0.0
 11
178.0758990038386
 21
72.81704674166167
 31
0.0
  0
LINE
  5
287
330
262
100
AcDbEntity
  8
用紙-GR3
  6
Continuous
 62
     7
370
    20
100
AcDbLine
 10
178.5610935306486
 20
79.26296582956855
 30
0.0
 11
178.5610935306486
 21
73.18228055656422
 31
0.0
  0
LINE
  5
288
330
262
100
AcDbEntity
  8
用紙-GR3
  6
Continuous
 62
     7
370
    20
100
AcDbLine
 10
179.0462880574589
 20
78.89773201466607
 30
0.0
 11
179.0462880574589
 21
73.54751437146695
 31
0.0
  0
LINE
  5
289
330
262
100
AcDbEntity
  8
用紙-GR3
  6
Continuous
 62
     7
370
    20
100
AcDbLine
 10
179.6716497036521
 20
78.89773201466607
 30
0.0
 11
179.6716497036521
 21
73.54751437146695
 31
0.0
  0
LINE
  5
28A
330
262
100
AcDbEntity
  8
用紙-GR3
  6
Continuous
 62
     7
370
    20
100
AcDbLine
 10
180.6420387572726
 20
79.62819964447112
 30
0.0
 11
180.6420387572726
 21
72.81704674166167
 31
0.0
  0
LINE
  5
28B
330
262
100
AcDbEntity
  8
用紙-GR3
  6
Continuous
 62
     7
370
    20
100
AcDbLine
 10
182.9833109983221
 20
73.33036116891287
 30
0.0
 11
190.5502691035671
 21
74.14564062162269
 31
0.0
  0
LINE
  5
28C
330
262
100
AcDbEntity
  8
用紙-GR3
  6
Continuous
 62
     7
370
    20
100
AcDbLine
 10
182.9833109983221
 20
79.11488521722009
 30
0.0
 11
190.5502691035671
 21
78.2996057645103
 31
0.0
  0
LINE
  5
28D
330
262
100
AcDbEntity
  8
用紙-GR3
  6
Continuous
 62
     7
370
    20
100
AcDbLine
 10
174.5440808952645
 20
79.62819964447112
 30
0.0
 11
174.9900503279516
 21
79.62819964447112
 31
0.0
  0
LINE
  5
28E
330
262
100
AcDbEntity
  8
用紙-GR3
  6
Continuous
 62
     7
370
    20
100
AcDbLine
 10
174.5440808952645
 20
79.62819964447112
 30
0.0
 11
174.3023434455836
 21
79.89762319306651
 31
0.0
  0
LINE
  5
28F
330
262
100
AcDbEntity
  8
用紙-GR3
  6
Continuous
 62
     7
370
    20
100
AcDbLine
 10
174.9900503279516
 20
79.62819964447112
 30
0.0
 11
175.2317877776324
 21
79.89762319306651
 31
0.0
  0
LINE
  5
290
330
262
100
AcDbEntity
  8
用紙-GR3
  6
Continuous
 62
     7
370
    20
100
AcDbLine
 10
171.6734600703185
 20
79.62819964447112
 30
0.0
 11
171.9151975199997
 21
79.89762319306651
 31
0.0
  0
LINE
  5
291
330
262
100
AcDbEntity
  8
用紙-GR3
  6
Continuous
 62
     7
370
    20
100
AcDbLine
 10
171.9151975199997
 20
79.89762319306651
 30
0.0
 11
174.3023434455836
 21
79.89762319306651
 31
0.0
  0
LINE
  5
292
330
262
100
AcDbEntity
  8
用紙-GR3
  6
Continuous
 62
     7
370
    20
100
AcDbLine
 10
169.6489171406466
 20
78.59762319306648
 30
0.0
 11
169.258988703027
 21
78.59762319306648
 31
0.0
  0
LINE
  5
293
330
262
100
AcDbEntity
  8
用紙-GR3
  6
Continuous
 62
     7
370
    20
100
AcDbLine
 10
169.6489171406466
 20
79.62819964447112
 30
0.0
 11
171.6734600703185
 21
79.62819964447112
 31
0.0
  0
LINE
  5
294
330
262
100
AcDbEntity
  8
用紙-GR3
  6
Continuous
 62
     7
370
    20
100
AcDbLine
 10
174.5440808952645
 20
72.81704674166167
 30
0.0
 11
174.9900503279516
 21
72.81704674166167
 31
0.0
  0
LINE
  5
295
330
262
100
AcDbEntity
  8
用紙-GR3
  6
Continuous
 62
     7
370
    20
100
AcDbLine
 10
174.5440808952645
 20
72.81704674166167
 30
0.0
 11
174.3023434455836
 21
72.54762319306653
 31
0.0
  0
LINE
  5
296
330
262
100
AcDbEntity
  8
用紙-GR3
  6
Continuous
 62
     7
370
    20
100
AcDbLine
 10
174.9900503279516
 20
72.81704674166167
 30
0.0
 11
175.2317877776324
 21
72.54762319306653
 31
0.0
  0
LINE
  5
297
330
262
100
AcDbEntity
  8
用紙-GR3
  6
Continuous
 62
     7
370
    20
100
AcDbLine
 10
171.6734600703185
 20
72.81704674166167
 30
0.0
 11
171.9151975199997
 21
72.54762319306653
 31
0.0
  0
LINE
  5
298
330
262
100
AcDbEntity
  8
用紙-GR3
  6
Continuous
 62
     7
370
    20
100
AcDbLine
 10
171.9151975199997
 20
72.54762319306653
 30
0.0
 11
174.3023434455836
 21
72.54762319306653
 31
0.0
  0
LINE
  5
299
330
262
100
AcDbEntity
  8
用紙-GR3
  6
Continuous
 62
     7
370
    20
100
AcDbLine
 10
169.6489171406466
 20
73.84762319306644
 30
0.0
 11
169.258988703027
 21
73.84762319306644
 31
0.0
  0
LINE
  5
29A
330
262
100
AcDbEntity
  8
用紙-GR3
  6
Continuous
 62
     7
370
    20
100
AcDbLine
 10
169.6489171406466
 20
72.81704674166167
 30
0.0
 11
171.6734600703185
 21
72.81704674166167
 31
0.0
  0
LINE
  5
29B
330
262
100
AcDbEntity
  8
用紙-GR3
  6
Continuous
 62
     7
370
    20
100
AcDbLine
 10
169.258988703027
 20
78.59762319306648
 30
0.0
 11
169.258988703027
 21
73.84762319306644
 31
0.0
  0
LINE
  5
29C
330
262
100
AcDbEntity
  8
用紙-GR3
  6
Continuous
 62
     7
370
    20
100
AcDbLine
 10
171.6734600703185
 20
79.62819964447112
 30
0.0
 11
171.6734600703185
 21
72.81704674166167
 31
0.0
  0
LINE
  5
29D
330
262
100
AcDbEntity
  8
用紙-GR3
  6
Continuous
 62
     7
370
    20
100
AcDbLine
 10
174.5440808952645
 20
79.62819964447112
 30
0.0
 11
174.5440808952645
 21
72.81704674166167
 31
0.0
  0
LINE
  5
29E
330
262
100
AcDbEntity
  8
用紙-GR3
  6
Continuous
 62
     7
370
    20
100
AcDbLine
 10
174.9900503279516
 20
79.62819964447112
 30
0.0
 11
174.9900503279516
 21
72.81704674166167
 31
0.0
  0
LINE
  5
29F
330
262
100
AcDbEntity
  8
用紙-GR3
  6
Continuous
 62
     7
370
    20
100
AcDbLine
 10
169.6489171406466
 20
72.81704674166167
 30
0.0
 11
169.6489171406466
 21
79.62819964447112
 31
0.0
  0
LINE
  5
2A0
330
262
100
AcDbEntity
  8
用紙-GR3
  6
Continuous
 62
     7
370
    20
100
AcDbLine
 10
175.2317877776324
 20
72.54762319306653
 30
0.0
 11
177.1432421576655
 21
72.54762319306653
 31
0.0
  0
LINE
  5
2A1
330
262
100
AcDbEntity
  8
用紙-GR3
  6
Continuous
 62
     7
370
    20
100
AcDbLine
 10
175.2317877776324
 20
79.89762319306651
 30
0.0
 11
177.1432421576655
 21
79.89762319306651
 31
0.0
  0
LINE
  5
2A2
330
262
100
AcDbEntity
  8
用紙-GR3
  6
Continuous
 62
     7
370
    20
100
AcDbLine
 10
190.5502691035671
 20
78.2996057645103
 30
0.0
 11
190.5502691035671
 21
74.14564062162269
 31
0.0
  0
LINE
  5
2A3
330
262
100
AcDbEntity
  8
用紙-GR3
  6
Continuous
 62
     6
370
    20
100
AcDbLine
 10
177.1432421576655
 20
72.54762319306653
 30
0.0
 11
177.1432421576655
 21
79.89762319306648
 31
0.0
  0
LINE
  5
2A4
330
262
100
AcDbEntity
  8
用紙-GR3
  6
Continuous
 62
     6
370
    20
100
AcDbLine
 10
175.2317877776324
 20
72.54762319306653
 30
0.0
 11
175.2317877776324
 21
79.89762319306648
 31
0.0
  0
HATCH
  5
2A5
330
262
100
AcDbEntity
  8
用紙-GR3
  6
Continuous
 62
     6
370
    20
100
AcDbHatch
 10
0.0
 20
0.0
 30
0.0
210
0.0
220
0.0
230
1.0
  2

 70
     0
 71
     1
 91
        2
 92
        0
 93
        4
 72
     1
 10
175.2317877776324
 20
79.89762319306651
 11
177.1432421576655
 21
79.89762319306651
 72
     1
 10
177.1432421576655
 20
79.89762319306648
 11
177.1432421576655
 21
76.22262319306651
 72
     1
 10
177.1432421576655
 20
76.22262319306651
 11
175.2317877776324
 21
76.22262319306651
 72
     1
 10
175.2317877776324
 20
76.22262319306651
 11
175.2317877776324
 21
79.89762319306651
 97
        0
 92
        0
 93
        5
 72
     1
 10
175.2317877776325
 20
76.22262319306651
 11
177.1432421576655
 21
76.22262319306651
 72
     1
 10
177.1432421576655
 20
76.22262319306651
 11
177.1432421576655
 21
72.54762319306653
 72
     1
 10
177.1432421576655
 20
72.54762319306653
 11
175.2317877776324
 21
72.54762319306653
 72
     1
 10
175.2317877776324
 20
72.54762319306653
 11
175.2317877776324
 21
74.81653103643906
 72
     1
 10
175.2317877776324
 20
74.81653103643906
 11
175.2317877776325
 21
76.22262319306651
 97
        0
 75
     0
 76
     0
 52
45.0
 41
0.3175
 77
     0
 78
     1
 53
45.0
 43
0.0
 44
0.0
 45
-0.2245064030267288
 46
0.2245064030267289
 79
     0
 98
        0
  0
HATCH
  5
2A6
330
262
100
AcDbEntity
  8
用紙-GR3
  6
Continuous
 62
     6
370
    20
100
AcDbHatch
 10
0.0
 20
0.0
 30
0.0
210
0.0
220
0.0
230
1.0
  2

 70
     0
 71
     1
 91
        2
 92
        0
 93
        4
 72
     1
 10
175.2317877776324
 20
79.89762319306651
 11
177.1432421576655
 21
79.89762319306651
 72
     1
 10
177.1432421576655
 20
79.89762319306648
 11
177.1432421576655
 21
76.22262319306651
 72
     1
 10
177.1432421576655
 20
76.22262319306651
 11
175.2317877776324
 21
76.22262319306651
 72
     1
 10
175.2317877776324
 20
76.22262319306651
 11
175.2317877776324
 21
79.89762319306651
 97
        0
 92
        0
 93
        5
 72
     1
 10
175.2317877776325
 20
76.22262319306655
 11
177.1432421576655
 21
76.22262319306655
 72
     1
 10
177.1432421576655
 20
76.22262319306655
 11
177.1432421576655
 21
72.54762319306653
 72
     1
 10
177.1432421576655
 20
72.54762319306653
 11
175.2317877776324
 21
72.54762319306653
 72
     1
 10
175.2317877776324
 20
72.54762319306653
 11
175.2317877776324
 21
75.92720523967256
 72
     1
 10
175.2317877776324
 20
75.92720523967256
 11
175.2317877776325
 21
76.22262319306655
 97
        0
 75
     0
 76
     0
 52
-45.0
 41
0.3175
 77
     0
 78
     1
 53
-45.0
 43
0.0
 44
0.0
 45
0.2245064030267288
 46
0.2245064030267289
 79
     0
 98
        0
  0
LINE
  5
2A7
330
262
100
AcDbEntity
  8
用紙-GR3
  6
Continuous
 62
     6
370
    20
100
AcDbLine
 10
174.3023434455836
 20
72.54762319306649
 30
0.0
 11
174.3023434455836
 21
79.89762319306651
 31
0.0
  0
LINE
  5
2A8
330
262
100
AcDbEntity
  8
用紙-GR3
  6
Continuous
 62
     6
370
    20
100
AcDbLine
 10
171.9151975199997
 20
72.54762319306649
 30
0.0
 11
171.9151975199997
 21
79.89762319306651
 31
0.0
  0
HATCH
  5
2A9
330
262
100
AcDbEntity
  8
用紙-GR3
  6
Continuous
 62
     6
370
    20
100
AcDbHatch
 10
0.0
 20
0.0
 30
0.0
210
0.0
220
0.0
230
1.0
  2

 70
     0
 71
     1
 91
        2
 92
        0
 93
        4
 72
     1
 10
171.9151975199997
 20
79.89762319306648
 11
174.3023434455836
 21
79.89762319306651
 72
     1
 10
174.3023434455836
 20
79.89762319306651
 11
174.3023434455836
 21
76.22262319306655
 72
     1
 10
174.3023434455836
 20
76.22262319306655
 11
171.9151975199997
 21
76.22262319306651
 72
     1
 10
171.9151975199997
 20
76.22262319306651
 11
171.9151975199997
 21
79.89762319306648
 97
        0
 92
        0
 93
        5
 72
     1
 10
171.9151975199997
 20
76.22262319306655
 11
174.3023434455836
 21
76.22262319306655
 72
     1
 10
174.3023434455836
 20
76.22262319306655
 11
174.3023434455836
 21
72.54762319306653
 72
     1
 10
174.3023434455836
 20
72.54762319306653
 11
171.9151975199997
 21
72.54762319306649
 72
     1
 10
171.9151975199997
 20
72.54762319306649
 11
171.9151975199997
 21
75.1438876437079
 72
     1
 10
171.9151975199997
 20
75.1438876437079
 11
171.9151975199997
 21
76.22262319306655
 97
        0
 75
     0
 76
     0
 52
-45.0
 41
0.3175
 77
     0
 78
     1
 53
-45.0
 43
0.0
 44
0.0
 45
0.2245064030267288
 46
0.2245064030267289
 79
     0
 98
        0
  0
HATCH
  5
2AA
330
262
100
AcDbEntity
  8
用紙-GR3
  6
Continuous
 62
     6
370
    20
100
AcDbHatch
 10
0.0
 20
0.0
 30
0.0
210
0.0
220
0.0
230
1.0
  2

 70
     0
 71
     1
 91
        2
 92
        0
 93
        4
 72
     1
 10
171.9151975199997
 20
79.89762319306651
 11
174.3023434455836
 21
79.89762319306651
 72
     1
 10
174.3023434455836
 20
79.89762319306651
 11
174.3023434455836
 21
76.22262319306655
 72
     1
 10
174.3023434455836
 20
76.22262319306655
 11
171.9151975199997
 21
76.22262319306651
 72
     1
 10
171.9151975199997
 20
76.22262319306651
 11
171.9151975199997
 21
79.89762319306651
 97
        0
 92
        0
 93
        5
 72
     1
 10
171.9151975199997
 20
76.22262319306655
 11
174.3023434455836
 21
76.22262319306655
 72
     1
 10
174.3023434455836
 20
76.22262319306655
 11
174.3023434455836
 21
72.54762319306653
 72
     1
 10
174.3023434455836
 20
72.54762319306653
 11
171.9151975199997
 21
72.54762319306649
 72
     1
 10
171.9151975199997
 20
72.54762319306649
 11
171.9151975199997
 21
75.63492255461113
 72
     1
 10
171.9151975199997
 20
75.63492255461113
 11
171.9151975199997
 21
76.22262319306655
 97
        0
 75
     0
 76
     0
 52
45.0
 41
0.3175
 77
     0
 78
     1
 53
45.0
 43
0.0
 44
0.0
 45
-0.2245064030267288
 46
0.2245064030267289
 79
     0
 98
        0
  0
LINE
  5
2AB
330
262
100
AcDbEntity
  8
用紙-GR3
  6
Continuous
 62
     7
370
    20
100
AcDbLine
 10
236.2605769139365
 20
79.19762319306653
 30
0.0
 11
239.1091709139365
 21
79.19762319306653
 31
0.0
  0
LINE
  5
2AC
330
262
100
AcDbEntity
  8
用紙-GR3
  6
Continuous
 62
     7
370
    20
100
AcDbLine
 10
239.2091709139366
 20
79.09762319306655
 30
0.0
 11
239.2091709139366
 21
76.22262319306655
 31
0.0
  0
LINE
  5
2AD
330
262
100
AcDbEntity
  8
用紙-GR3
  6
DASHED
 62
     6
370
    20
100
AcDbLine
 10
239.4591709139366
 20
78.97262319306655
 30
0.0
 11
239.4591709139366
 21
76.22262319306655
 31
0.0
  0
LINE
  5
2AE
330
262
100
AcDbEntity
  8
用紙-GR3
  6
Continuous
 62
     7
370
    20
100
AcDbLine
 10
239.1091709139365
 20
79.19762319306653
 30
0.0
 11
239.2091709139366
 21
79.09762319306655
 31
0.0
  0
LINE
  5
2AF
330
262
100
AcDbEntity
  8
用紙-GR3
  6
DASHED
 62
     6
370
    20
100
AcDbLine
 10
239.4591709139366
 20
78.97262319306655
 30
0.0
 11
240.2091709139365
 21
78.97262319306655
 31
0.0
  0
LINE
  5
2B0
330
262
100
AcDbEntity
  8
用紙-GR3
  6
DASHED
 62
     6
370
    20
100
AcDbLine
 10
241.1455769139365
 20
78.67262319306653
 30
0.0
 11
241.1455769139365
 21
76.22262319306655
 31
0.0
  0
LINE
  5
2B1
330
262
100
AcDbEntity
  8
用紙-GR3
  6
DASHED
 62
     6
370
    20
100
AcDbLine
 10
239.4591709139366
 20
78.83712319306653
 30
0.0
 11
239.2091709139366
 21
78.83712319306653
 31
0.0
  0
LINE
  5
2B2
330
262
100
AcDbEntity
  8
用紙-GR3
  6
DASHED
 62
     6
370
    20
100
AcDbLine
 10
241.0955769139365
 20
78.72262319306655
 30
0.0
 11
240.2091709139365
 21
78.72262319306655
 31
0.0
  0
LINE
  5
2B3
330
262
100
AcDbEntity
  8
用紙-GR3
  6
DASHED
 62
     6
370
    20
100
AcDbLine
 10
239.4591709139366
 20
78.83712319306653
 30
0.0
 11
240.2091709139365
 21
78.83712319306653
 31
0.0
  0
LINE
  5
2B4
330
262
100
AcDbEntity
  8
用紙-GR3
  6
DASHED
 62
     6
370
    20
100
AcDbLine
 10
240.2091709139365
 20
78.97262319306655
 30
0.0
 11
240.2091709139363
 21
76.22262319306655
 31
0.0
  0
LINE
  5
2B5
330
262
100
AcDbEntity
  8
用紙-GR3
  6
Continuous
 62
     7
370
    20
100
AcDbLine
 10
236.2105769139365
 20
79.14762319306655
 30
0.0
 11
236.2105769139365
 21
76.22262319306655
 31
0.0
  0
LINE
  5
2B6
330
262
100
AcDbEntity
  8
用紙-GR3
  6
Continuous
 62
     7
370
    20
100
AcDbLine
 10
236.2605769139365
 20
79.19762319306653
 30
0.0
 11
236.2105769139365
 21
79.14762319306655
 31
0.0
  0
LINE
  5
2B7
330
262
100
AcDbEntity
  8
用紙-GR3
  6
DASHED
 62
     6
370
    20
100
AcDbLine
 10
241.0955769139365
 20
78.72262319306655
 30
0.0
 11
241.1455769139365
 21
78.67262319306653
 31
0.0
  0
LINE
  5
2B8
330
262
100
AcDbEntity
  8
用紙-GR3
  6
Continuous
 62
     7
370
    20
100
AcDbLine
 10
236.0605769139366
 20
79.22262319306655
 30
0.0
 11
229.7955769139365
 21
79.22262319306655
 31
0.0
  0
LINE
  5
2B9
330
262
100
AcDbEntity
  8
用紙-GR3
  6
Continuous
 62
     7
370
    20
100
AcDbLine
 10
236.2105769139365
 20
78.84762319306656
 30
0.0
 11
236.2105769139365
 21
79.07262319306653
 31
0.0
  0
LINE
  5
2BA
330
262
100
AcDbEntity
  8
用紙-GR3
  6
Continuous
 62
     7
370
    20
100
AcDbLine
 10
236.0605769139366
 20
79.22262319306655
 30
0.0
 11
236.2105769139365
 21
79.07262319306653
 31
0.0
  0
LINE
  5
2BB
330
262
100
AcDbEntity
  8
用紙-GR3
  6
Continuous
 62
     7
370
    20
100
AcDbLine
 10
220.1455769139365
 20
79.07262319306653
 30
0.0
 11
220.1455769139365
 21
76.22262319306655
 31
0.0
  0
LINE
  5
2BC
330
262
100
AcDbEntity
  8
用紙-GR3
  6
Continuous
 62
     7
370
    20
100
AcDbLine
 10
220.1455769139365
 20
79.07262319306653
 30
0.0
 11
220.2955769139365
 21
79.22262319306655
 31
0.0
  0
LINE
  5
2BD
330
262
100
AcDbEntity
  8
用紙-GR3
  6
Continuous
 62
     6
370
    20
100
AcDbLine
 10
236.0605769139366
 20
79.22262319306655
 30
0.0
 11
236.0605769139366
 21
76.22262319306655
 31
0.0
  0
LINE
  5
2BE
330
262
100
AcDbEntity
  8
用紙-GR3
  6
Continuous
 62
     6
370
    20
100
AcDbLine
 10
236.2605769139365
 20
79.19762319306653
 30
0.0
 11
236.2605769139365
 21
76.22262319306655
 31
0.0
  0
LINE
  5
2BF
330
262
100
AcDbEntity
  8
用紙-GR3
  6
DASHED
 62
     6
370
    20
100
AcDbLine
 10
241.0955769139365
 20
78.72262319306655
 30
0.0
 11
241.0955769139365
 21
76.22262319306655
 31
0.0
  0
LINE
  5
2C0
330
262
100
AcDbEntity
  8
用紙-GR3
  6
Continuous
 62
     6
370
    20
100
AcDbLine
 10
239.1091709139365
 20
79.19762319306653
 30
0.0
 11
239.1091709139365
 21
76.22262319306655
 31
0.0
  0
LINE
  5
2C1
330
262
100
AcDbEntity
  8
用紙-GR3
  6
Continuous
 62
     6
370
    20
100
AcDbLine
 10
220.2955769139365
 20
79.22262319306655
 30
0.0
 11
220.2955769139365
 21
76.22262319306655
 31
0.0
  0
LINE
  5
2C2
330
262
100
AcDbEntity
  8
用紙-GR3
  6
Continuous
 62
     7
370
    20
100
AcDbLine
 10
229.6455769139365
 20
79.07262319306655
 30
0.0
 11
229.6455769139365
 21
76.22262319306649
 31
0.0
  0
LINE
  5
2C3
330
262
100
AcDbEntity
  8
用紙-GR3
  6
Continuous
 62
     7
370
    20
100
AcDbLine
 10
229.7955769139365
 20
79.22262319306655
 30
0.0
 11
229.6455769139365
 21
79.07262319306655
 31
0.0
  0
LINE
  5
2C4
330
262
100
AcDbEntity
  8
用紙-GR3
  6
Continuous
 62
     7
370
    20
100
AcDbLine
 10
229.6455769139365
 20
79.07262319306655
 30
0.0
 11
229.4955769139365
 21
79.22262319306655
 31
0.0
  0
LINE
  5
2C5
330
262
100
AcDbEntity
  8
用紙-GR3
  6
Continuous
 62
     7
370
    20
100
AcDbLine
 10
229.4955769139365
 20
79.22262319306655
 30
0.0
 11
220.2955769139365
 21
79.22262319306655
 31
0.0
  0
LINE
  5
2C6
330
262
100
AcDbEntity
  8
用紙-GR3
  6
Continuous
 62
     6
370
    20
100
AcDbLine
 10
229.4955769139365
 20
79.22262319306655
 30
0.0
 11
229.4955769139365
 21
76.22262319306655
 31
0.0
  0
LINE
  5
2C7
330
262
100
AcDbEntity
  8
用紙-GR3
  6
Continuous
 62
     6
370
    20
100
AcDbLine
 10
229.7955769139365
 20
79.22262319306655
 30
0.0
 11
229.7955769139365
 21
76.22262319306655
 31
0.0
  0
LINE
  5
2C8
330
262
100
AcDbEntity
  8
用紙-GR3
  6
Continuous
 62
     7
370
    20
100
AcDbLine
 10
236.2605769139365
 20
73.24762319306654
 30
0.0
 11
239.1091709139365
 21
73.24762319306654
 31
0.0
  0
LINE
  5
2C9
330
262
100
AcDbEntity
  8
用紙-GR3
  6
Continuous
 62
     7
370
    20
100
AcDbLine
 10
239.2091709139366
 20
73.34762319306655
 30
0.0
 11
239.2091709139366
 21
76.22262319306655
 31
0.0
  0
LINE
  5
2CA
330
262
100
AcDbEntity
  8
用紙-GR3
  6
DASHED
 62
     6
370
    20
100
AcDbLine
 10
239.4591709139366
 20
73.47262319306655
 30
0.0
 11
239.4591709139366
 21
76.22262319306653
 31
0.0
  0
LINE
  5
2CB
330
262
100
AcDbEntity
  8
用紙-GR3
  6
Continuous
 62
     7
370
    20
100
AcDbLine
 10
239.1091709139365
 20
73.24762319306654
 30
0.0
 11
239.2091709139366
 21
73.34762319306655
 31
0.0
  0
LINE
  5
2CC
330
262
100
AcDbEntity
  8
用紙-GR3
  6
DASHED
 62
     6
370
    20
100
AcDbLine
 10
239.4591709139366
 20
73.47262319306655
 30
0.0
 11
240.2091709139365
 21
73.47262319306655
 31
0.0
  0
LINE
  5
2CD
330
262
100
AcDbEntity
  8
用紙-GR3
  6
DASHED
 62
     6
370
    20
100
AcDbLine
 10
241.1455769139365
 20
73.77262319306655
 30
0.0
 11
241.1455769139365
 21
76.22262319306655
 31
0.0
  0
LINE
  5
2CE
330
262
100
AcDbEntity
  8
用紙-GR3
  6
DASHED
 62
     6
370
    20
100
AcDbLine
 10
239.4591709139366
 20
73.60812319306655
 30
0.0
 11
239.2091709139366
 21
73.60812319306655
 31
0.0
  0
LINE
  5
2CF
330
262
100
AcDbEntity
  8
用紙-GR3
  6
DASHED
 62
     6
370
    20
100
AcDbLine
 10
241.0955769139365
 20
73.72262319306655
 30
0.0
 11
240.2091709139365
 21
73.72262319306655
 31
0.0
  0
LINE
  5
2D0
330
262
100
AcDbEntity
  8
用紙-GR3
  6
DASHED
 62
     6
370
    20
100
AcDbLine
 10
239.4591709139366
 20
73.60812319306655
 30
0.0
 11
240.2091709139365
 21
73.60812319306655
 31
0.0
  0
LINE
  5
2D1
330
262
100
AcDbEntity
  8
用紙-GR3
  6
DASHED
 62
     6
370
    20
100
AcDbLine
 10
240.2091709139365
 20
73.47262319306655
 30
0.0
 11
240.2091709139363
 21
76.22262319306655
 31
0.0
  0
LINE
  5
2D2
330
262
100
AcDbEntity
  8
用紙-GR3
  6
Continuous
 62
     7
370
    20
100
AcDbLine
 10
236.2105769139365
 20
73.29762319306652
 30
0.0
 11
236.2105769139365
 21
76.22262319306655
 31
0.0
  0
LINE
  5
2D3
330
262
100
AcDbEntity
  8
用紙-GR3
  6
Continuous
 62
     7
370
    20
100
AcDbLine
 10
236.2605769139365
 20
73.24762319306654
 30
0.0
 11
236.2105769139365
 21
73.29762319306652
 31
0.0
  0
LINE
  5
2D4
330
262
100
AcDbEntity
  8
用紙-GR3
  6
DASHED
 62
     6
370
    20
100
AcDbLine
 10
241.0955769139365
 20
73.72262319306655
 30
0.0
 11
241.1455769139365
 21
73.77262319306655
 31
0.0
  0
LINE
  5
2D5
330
262
100
AcDbEntity
  8
用紙-GR3
  6
Continuous
 62
     7
370
    20
100
AcDbLine
 10
236.0605769139366
 20
73.22262319306656
 30
0.0
 11
229.7955769139365
 21
73.22262319306652
 31
0.0
  0
LINE
  5
2D6
330
262
100
AcDbEntity
  8
用紙-GR3
  6
Continuous
 62
     7
370
    20
100
AcDbLine
 10
236.2105769139365
 20
73.59762319306655
 30
0.0
 11
236.2105769139365
 21
73.37262319306654
 31
0.0
  0
LINE
  5
2D7
330
262
100
AcDbEntity
  8
用紙-GR3
  6
Continuous
 62
     7
370
    20
100
AcDbLine
 10
236.0605769139366
 20
73.22262319306656
 30
0.0
 11
236.2105769139365
 21
73.37262319306654
 31
0.0
  0
LINE
  5
2D8
330
262
100
AcDbEntity
  8
用紙-GR3
  6
Continuous
 62
     7
370
    20
100
AcDbLine
 10
220.1455769139365
 20
73.37262319306654
 30
0.0
 11
220.1455769139365
 21
76.22262319306655
 31
0.0
  0
LINE
  5
2D9
330
262
100
AcDbEntity
  8
用紙-GR3
  6
Continuous
 62
     7
370
    20
100
AcDbLine
 10
220.1455769139365
 20
73.37262319306654
 30
0.0
 11
220.2955769139365
 21
73.22262319306652
 31
0.0
  0
LINE
  5
2DA
330
262
100
AcDbEntity
  8
用紙-GR3
  6
Continuous
 62
     6
370
    20
100
AcDbLine
 10
236.0605769139366
 20
73.22262319306656
 30
0.0
 11
236.0605769139366
 21
76.22262319306655
 31
0.0
  0
LINE
  5
2DB
330
262
100
AcDbEntity
  8
用紙-GR3
  6
Continuous
 62
     6
370
    20
100
AcDbLine
 10
236.2605769139365
 20
73.24762319306654
 30
0.0
 11
236.2605769139365
 21
76.22262319306655
 31
0.0
  0
LINE
  5
2DC
330
262
100
AcDbEntity
  8
用紙-GR3
  6
DASHED
 62
     6
370
    20
100
AcDbLine
 10
241.0955769139365
 20
73.72262319306655
 30
0.0
 11
241.0955769139365
 21
76.22262319306655
 31
0.0
  0
LINE
  5
2DD
330
262
100
AcDbEntity
  8
用紙-GR3
  6
Continuous
 62
     6
370
    20
100
AcDbLine
 10
239.1091709139365
 20
73.24762319306654
 30
0.0
 11
239.1091709139365
 21
76.22262319306655
 31
0.0
  0
LINE
  5
2DE
330
262
100
AcDbEntity
  8
用紙-GR3
  6
Continuous
 62
     6
370
    20
100
AcDbLine
 10
220.2955769139365
 20
73.22262319306652
 30
0.0
 11
220.2955769139365
 21
76.22262319306655
 31
0.0
  0
LINE
  5
2DF
330
262
100
AcDbEntity
  8
用紙-GR3
  6
Continuous
 62
     7
370
    20
100
AcDbLine
 10
229.6455769139365
 20
73.37262319306653
 30
0.0
 11
229.6455769139365
 21
76.22262319306658
 31
0.0
  0
LINE
  5
2E0
330
262
100
AcDbEntity
  8
用紙-GR3
  6
Continuous
 62
     7
370
    20
100
AcDbLine
 10
229.7955769139365
 20
73.22262319306652
 30
0.0
 11
229.6455769139365
 21
73.37262319306653
 31
0.0
  0
LINE
  5
2E1
330
262
100
AcDbEntity
  8
用紙-GR3
  6
Continuous
 62
     7
370
    20
100
AcDbLine
 10
229.6455769139365
 20
73.37262319306653
 30
0.0
 11
229.4955769139365
 21
73.22262319306652
 31
0.0
  0
LINE
  5
2E2
330
262
100
AcDbEntity
  8
用紙-GR3
  6
Continuous
 62
     7
370
    20
100
AcDbLine
 10
229.4955769139365
 20
73.22262319306656
 30
0.0
 11
220.2955769139365
 21
73.22262319306652
 31
0.0
  0
LINE
  5
2E3
330
262
100
AcDbEntity
  8
用紙-GR3
  6
Continuous
 62
     6
370
    20
100
AcDbLine
 10
229.4955769139365
 20
73.22262319306656
 30
0.0
 11
229.4955769139365
 21
76.22262319306655
 31
0.0
  0
LINE
  5
2E4
330
262
100
AcDbEntity
  8
用紙-GR3
  6
Continuous
 62
     6
370
    20
100
AcDbLine
 10
229.7955769139365
 20
73.22262319306656
 30
0.0
 11
229.7955769139365
 21
76.22262319306655
 31
0.0
  0
ENDBLK
  5
264
330
262
100
AcDbEntity
  8
0
100
AcDbBlockEnd
  0
BLOCK
  5
26B
330
26A
100
AcDbEntity
  8
0
100
AcDbBlockBegin
  2
BLKF029
 70
     0
 10
0.0
 20
0.0
 30
0.0
  3
BLKF029
  1

  0
ARC
  5
26E
330
26A
100
AcDbEntity
  8
用紙-GR3
  6
Continuous
 62
     7
370
    20
100
AcDbCircle
 10
204.7990191035672
 20
75.39762319306655
 30
0.0
 40
1.49875
100
AcDbArc
 50
326.6015115320126
 51
33.39848846798716
  0
ARC
  5
26F
330
26A
100
AcDbEntity
  8
用紙-GR3
  6
Continuous
 62
     7
370
    20
100
AcDbCircle
 10
207.3015191035672
 20
77.04762319306652
 30
0.0
 40
1.498749999999985
100
AcDbArc
 50
146.6015115320123
 51
213.3984884679874
  0
ARC
  5
270
330
26A
100
AcDbEntity
  8
用紙-GR3
  6
Continuous
 62
     7
370
    20
100
AcDbCircle
 10
204.7990191035672
 20
77.04762319306652
 30
0.0
 40
1.498749999999996
100
AcDbArc
 50
326.6015115320129
 51
33.39848846798736
  0
ENDBLK
  5
26C
330
26A
100
AcDbEntity
  8
0
100
AcDbBlockEnd
  0
BLOCK
  5
272
330
271
100
AcDbEntity
  8
0
100
AcDbBlockBegin
  2
BLKF030
 70
     0
 10
0.0
 20
0.0
 30
0.0
  3
BLKF030
  1

  0
ARC
  5
275
330
271
100
AcDbEntity
  8
用紙-GR3
  6
Continuous
 62
     7
370
    20
100
AcDbCircle
 10
208.3015191035671
 20
77.04762319306652
 30
0.0
 40
1.498749999999988
100
AcDbArc
 50
146.6015115320126
 51
213.3984884679874
  0
ARC
  5
276
330
271
100
AcDbEntity
  8
用紙-GR3
  6
Continuous
 62
     7
370
    20
100
AcDbCircle
 10
205.7990191035671
 20
75.39762319306655
 30
0.0
 40
1.498750000000008
100
AcDbArc
 50
326.6015115320129
 51
33.39848846798685
  0
ARC
  5
277
330
271
100
AcDbEntity
  8
用紙-GR3
  6
Continuous
 62
     7
370
    20
100
AcDbCircle
 10
208.3015191035671
 20
75.39762319306655
 30
0.0
 40
1.498749999999985
100
AcDbArc
 50
146.6015115320126
 51
213.3984884679875
  0
ENDBLK
  5
273
330
271
100
AcDbEntity
  8
0
100
AcDbBlockEnd
  0
BLOCK
  5
2E7
330
2E6
100
AcDbEntity
  8
0
100
AcDbBlockBegin
  2
*D29
 70
     1
 10
0.0
 20
0.0
 30
0.0
  3
*D29
  1

  0
LINE
  5
413
330
2E6
100
AcDbEntity
  8
用紙-GR3
 62
     6
370
    -2
100
AcDbLine
 10
145.9447071375084
 20
44.52631236719111
 30
0.0
 11
145.9447071375084
 21
28.59931834920536
 31
0.0
  0
LINE
  5
414
330
2E6
100
AcDbEntity
  8
用紙-GR3
 62
     6
370
    -2
100
AcDbLine
 10
183.7297071375081
 20
43.22631236719104
 30
0.0
 11
183.7297071375081
 21
28.59931834920536
 31
0.0
  0
LINE
  5
415
330
2E6
100
AcDbEntity
  8
用紙-GR3
 62
     6
370
    -2
100
AcDbLine
 10
148.9447071375084
 20
30.09931834920536
 30
0.0
 11
180.7297071375081
 21
30.09931834920536
 31
0.0
  0
INSERT
  5
416
330
2E6
100
AcDbEntity
  8
用紙-GR3
 62
     6
370
    -2
100
AcDbBlockReference
  2
FXTIP_ARROW_S
 10
145.9447071375084
 20
30.09931834920536
 30
0.0
 41
3.0
 42
3.0
 43
3.0
 50
180.0
  0
INSERT
  5
417
330
2E6
100
AcDbEntity
  8
用紙-GR3
 62
     6
370
    -2
100
AcDbBlockReference
  2
FXTIP_ARROW_E
 10
183.7297071375081
 20
30.09931834920536
 30
0.0
 41
3.0
 42
3.0
 43
3.0
  0
MTEXT
  5
418
330
2E6
100
AcDbEntity
  8
用紙-GR3
 62
     6
100
AcDbMText
 10
164.8372071375083
 20
32.34931834920536
 30
0.0
 40
3.5
 41
0.0
 71
     5
 72
     1
  1
\A1;37.79
  7
STYLE003
 73
     1
 44
1.0
  0
POINT
  5
419
330
2E6
100
AcDbEntity
  8
Defpoints
 62
     0
100
AcDbPoint
 10
145.9447071375084
 20
45.5263123671911
 30
0.0
  0
POINT
  5
41A
330
2E6
100
AcDbEntity
  8
Defpoints
 62
     0
100
AcDbPoint
 10
183.7297071375081
 20
44.22631236719104
 30
0.0
  0
POINT
  5
41B
330
2E6
100
AcDbEntity
  8
Defpoints
 62
     0
100
AcDbPoint
 10
183.7297071375081
 20
30.09931834920536
 30
0.0
  0
ENDBLK
  5
2E8
330
2E6
100
AcDbEntity
  8
0
100
AcDbBlockEnd
  0
BLOCK
  5
2F3
330
2F2
100
AcDbEntity
  8
0
100
AcDbBlockBegin
  2
*D30
 70
     1
 10
0.0
 20
0.0
 30
0.0
  3
*D30
  1

  0
LINE
  5
427
330
2F2
100
AcDbEntity
  8
用紙-GR3
 62
     6
370
    -2
100
AcDbLine
 10
145.9447071375084
 20
52.22631236719109
 30
0.0
 11
145.9447071375084
 21
59.91101606714536
 31
0.0
  0
LINE
  5
428
330
2F2
100
AcDbEntity
  8
用紙-GR3
 62
     6
370
    -2
100
AcDbLine
 10
166.9447071375084
 20
51.82631236719108
 30
0.0
 11
166.9447071375084
 21
59.91101606714536
 31
0.0
  0
LINE
  5
429
330
2F2
100
AcDbEntity
  8
用紙-GR3
 62
     6
370
    -2
100
AcDbLine
 10
148.9447071375084
 20
58.41101606714537
 30
0.0
 11
163.9447071375084
 21
58.41101606714537
 31
0.0
  0
INSERT
  5
42A
330
2F2
100
AcDbEntity
  8
用紙-GR3
 62
     6
370
    -2
100
AcDbBlockReference
  2
FXTIP_ARROW_S
 10
145.9447071375084
 20
58.41101606714537
 30
0.0
 41
3.0
 42
3.0
 43
3.0
 50
180.0
  0
INSERT
  5
42B
330
2F2
100
AcDbEntity
  8
用紙-GR3
 62
     6
370
    -2
100
AcDbBlockReference
  2
FXTIP_ARROW_E
 10
166.9447071375084
 20
58.41101606714537
 30
0.0
 41
3.0
 42
3.0
 43
3.0
  0
MTEXT
  5
42C
330
2F2
100
AcDbEntity
  8
用紙-GR3
 62
     6
100
AcDbMText
 10
156.4447071375084
 20
60.66101606714537
 30
0.0
 40
3.5
 41
0.0
 71
     5
 72
     1
  1
\A1;21
  7
STYLE003
 73
     1
 44
1.0
  0
POINT
  5
42D
330
2F2
100
AcDbEntity
  8
Defpoints
 62
     0
100
AcDbPoint
 10
145.9447071375084
 20
51.2263123671911
 30
0.0
  0
POINT
  5
42E
330
2F2
100
AcDbEntity
  8
Defpoints
 62
     0
100
AcDbPoint
 10
166.9447071375084
 20
50.82631236719108
 30
0.0
  0
POINT
  5
42F
330
2F2
100
AcDbEntity
  8
Defpoints
 62
     0
100
AcDbPoint
 10
166.9447071375084
 20
58.41101606714537
 30
0.0
  0
ENDBLK
  5
2F4
330
2F2
100
AcDbEntity
  8
0
100
AcDbBlockEnd
  0
BLOCK
  5
2FC
330
2FB
100
AcDbEntity
  8
0
100
AcDbBlockBegin
  2
FXDIM033
 70
     0
 10
0.0
 20
0.0
 30
0.0
  3
FXDIM033
  1

  0
LINE
  5
2FF
330
2FB
100
AcDbEntity
  8
用紙-GR3
  6
Continuous
 62
     6
370
    20
100
AcDbLine
 10
222.3482001099736
 20
79.22262319306655
 30
0.0
 11
218.0156350488013
 21
84.09722489973995
 31
0.0
  0
INSERT
  5
300
330
2FB
100
AcDbEntity
  8
用紙-GR3
  6
Continuous
 62
     6
370
    20
100
AcDbBlockReference
  2
FXTIP_ARROW_S
 10
222.3482001099736
 20
79.22262319306655
 30
0.0
 41
3.0
 42
3.0
 50
311.6308193659546
  0
LINE
  5
301
330
2FB
100
AcDbEntity
  8
用紙-GR3
  6
Continuous
 62
     6
370
    20
100
AcDbLine
 10
218.0156350488013
 20
84.09722489973995
 30
0.0
 11
195.5732992068733
 21
84.09722489973995
 31
0.0
  0
TEXT
  5
302
330
2FB
100
AcDbEntity
  8
用紙-GR3
  6
Continuous
 62
     6
370
    20
100
AcDbText
 10
196.7944641113281
 20
84.34721374337184
 30
0.0
 40
2.5
  1
ヘッド(H-1VH)
 50
0.0000000100000079
 41
0.8
  7
FX_VECTOR
100
AcDbText
  0
ENDBLK
  5
2FD
330
2FB
100
AcDbEntity
  8
0
100
AcDbBlockEnd
  0
BLOCK
  5
304
330
303
100
AcDbEntity
  8
0
100
AcDbBlockBegin
  2
FXDIM034
 70
     0
 10
0.0
 20
0.0
 30
0.0
  3
FXDIM034
  1

  0
LINE
  5
307
330
303
100
AcDbEntity
  8
用紙-GR3
  6
Continuous
 62
     6
370
    20
100
AcDbLine
 10
253.6389477739966
 20
80.44762319306645
 30
0.0
 11
255.0029034414027
 21
84.73908639028403
 31
0.0
  0
INSERT
  5
308
330
303
100
AcDbEntity
  8
用紙-GR3
  6
Continuous
 62
     6
370
    20
100
AcDbBlockReference
  2
FXTIP_ARROW_S
 10
253.6389477739966
 20
80.44762319306645
 30
0.0
 41
3.0
 42
3.0
 50
252.368183167612
  0
LINE
  5
309
330
303
100
AcDbEntity
  8
用紙-GR3
  6
Continuous
 62
     6
370
    20
100
AcDbLine
 10
255.0029034414027
 20
84.73908639028403
 30
0.0
 11
272.2160220702588
 21
84.73908639028403
 31
0.0
  0
TEXT
  5
30A
330
303
100
AcDbEntity
  8
用紙-GR3
  6
Continuous
 62
     6
370
    20
100
AcDbText
 10
255.6094665527344
 20
84.989074705635
 30
0.0
 40
2.5
  1
HLL-D01L
 50
0.0000000099999999
 41
0.8
  7
FX_VECTOR
100
AcDbText
  0
ENDBLK
  5
305
330
303
100
AcDbEntity
  8
0
100
AcDbBlockEnd
  0
BLOCK
  5
30D
330
30C
100
AcDbEntity
  8
0
100
AcDbBlockBegin
  2
*D33
 70
     1
 10
0.0
 20
0.0
 30
0.0
  3
*D33
  1

  0
LINE
  5
430
330
30C
100
AcDbEntity
  8
用紙-GR3
 62
     6
370
    -2
100
AcDbLine
 10
184.6297071375081
 20
44.12631236719112
 30
0.0
 11
195.6079558593508
 21
44.12631236719112
 31
0.0
  0
LINE
  5
431
330
30C
100
AcDbEntity
  8
用紙-GR3
 62
     6
370
    -2
100
AcDbLine
 10
184.6297071375081
 20
52.62631236719109
 30
0.0
 11
195.6079558593508
 21
52.62631236719109
 31
0.0
  0
LINE
  5
432
330
30C
100
AcDbEntity
  8
用紙-GR3
 62
     6
370
    -2
100
AcDbLine
 10
194.1079558593507
 20
47.12631236719111
 30
0.0
 11
194.1079558593507
 21
49.62631236719109
 31
0.0
  0
INSERT
  5
433
330
30C
100
AcDbEntity
  8
用紙-GR3
 62
     6
370
    -2
100
AcDbBlockReference
  2
FXTIP_ARROW_S
 10
194.1079558593507
 20
44.12631236719112
 30
0.0
 41
3.0
 42
3.0
 43
3.0
 50
270.0
  0
INSERT
  5
434
330
30C
100
AcDbEntity
  8
用紙-GR3
 62
     6
370
    -2
100
AcDbBlockReference
  2
FXTIP_ARROW_E
 10
194.1079558593507
 20
52.62631236719109
 30
0.0
 41
3.0
 42
3.0
 43
3.0
 50
90.0
  0
MTEXT
  5
435
330
30C
100
AcDbEntity
  8
用紙-GR3
 62
     6
100
AcDbMText
 10
191.8579558593507
 20
48.37631236719113
 30
0.0
 40
3.5
 41
0.0
 71
     5
 72
     1
  1
\A1;8.5
  7
STYLE003
 11
0.0000000000000001
 21
1.0
 31
0.0
 73
     1
 44
1.0
  0
POINT
  5
436
330
30C
100
AcDbEntity
  8
Defpoints
 62
     0
100
AcDbPoint
 10
183.6297071375081
 20
44.12631236719112
 30
0.0
  0
POINT
  5
437
330
30C
100
AcDbEntity
  8
Defpoints
 62
     0
100
AcDbPoint
 10
183.6297071375081
 20
52.62631236719109
 30
0.0
  0
POINT
  5
438
330
30C
100
AcDbEntity
  8
Defpoints
 62
     0
100
AcDbPoint
 10
194.1079558593507
 20
52.62631236719109
 30
0.0
  0
ENDBLK
  5
30E
330
30C
100
AcDbEntity
  8
0
100
AcDbBlockEnd
  0
BLOCK
  5
31A
330
319
100
AcDbEntity
  8
0
100
AcDbBlockBegin
  2
*D34
 70
     1
 10
0.0
 20
0.0
 30
0.0
  3
*D34
  1

  0
LINE
  5
41C
330
319
100
AcDbEntity
  8
用紙-GR3
 62
     6
370
    -2
100
AcDbLine
 10
145.0947071375084
 20
45.37631236719109
 30
0.0
 11
138.0079020386691
 21
45.3763123671911
 31
0.0
  0
LINE
  5
41D
330
319
100
AcDbEntity
  8
用紙-GR3
 62
     6
370
    -2
100
AcDbLine
 10
145.0947071375084
 20
51.37631236719112
 30
0.0
 11
138.0079020386691
 21
51.37631236719112
 31
0.0
  0
LINE
  5
41E
330
319
100
AcDbEntity
  8
用紙-GR3
 62
     6
370
    -2
100
AcDbLine
 10
139.5079020386691
 20
42.37631236719109
 30
0.0
 11
139.5079020386691
 21
39.37631236719109
 31
0.0
  0
LINE
  5
41F
330
319
100
AcDbEntity
  8
用紙-GR3
 62
     6
370
    -2
100
AcDbLine
 10
139.5079020386691
 20
54.37631236719113
 30
0.0
 11
139.5079020386691
 21
57.37631236719113
 31
0.0
  0
LINE
  5
420
330
319
100
AcDbEntity
  8
用紙-GR3
 62
     6
370
    -2
100
AcDbLine
 10
139.5079020386691
 20
45.3763123671911
 30
0.0
 11
139.5079020386691
 21
51.37631236719112
 31
0.0
  0
INSERT
  5
421
330
319
100
AcDbEntity
  8
用紙-GR3
 62
     6
370
    -2
100
AcDbBlockReference
  2
FXTIP_ARROW_S
 10
139.5079020386691
 20
45.3763123671911
 30
0.0
 41
3.0
 42
3.0
 43
3.0
 50
90.0
  0
INSERT
  5
422
330
319
100
AcDbEntity
  8
用紙-GR3
 62
     6
370
    -2
100
AcDbBlockReference
  2
FXTIP_ARROW_E
 10
139.5079020386691
 20
51.37631236719112
 30
0.0
 41
3.0
 42
3.0
 43
3.0
 50
270.0
  0
MTEXT
  5
423
330
319
100
AcDbEntity
  8
用紙-GR3
 62
     6
100
AcDbMText
 10
137.2579020386691
 20
48.37631236719113
 30
0.0
 40
3.5
 41
0.0
 71
     5
 72
     1
  1
\A1;6
  7
STYLE003
 11
0.0000000000000001
 21
1.0
 31
0.0
 73
     1
 44
1.0
  0
POINT
  5
424
330
319
100
AcDbEntity
  8
Defpoints
 62
     0
100
AcDbPoint
 10
146.0947071375084
 20
45.37631236719109
 30
0.0
  0
POINT
  5
425
330
319
100
AcDbEntity
  8
Defpoints
 62
     0
100
AcDbPoint
 10
146.0947071375084
 20
51.37631236719112
 30
0.0
  0
POINT
  5
426
330
319
100
AcDbEntity
  8
Defpoints
 62
     0
100
AcDbPoint
 10
139.5079020386691
 20
51.37631236719112
 30
0.0
  0
ENDBLK
  5
31B
330
319
100
AcDbEntity
  8
0
100
AcDbBlockEnd
  0
BLOCK
  5
32A
330
329
100
AcDbEntity
  8
0
100
AcDbBlockBegin
  2
BLKF037
 70
     0
 10
0.0
 20
0.0
 30
0.0
  3
BLKF037
  1

  0
LINE
  5
32D
330
329
100
AcDbEntity
  8
用紙-GR3
  6
Continuous
 62
     7
370
    20
100
AcDbLine
 10
246.3591709139365
 20
80.44762319306657
 30
0.0
 11
246.0591709139364
 21
80.44762319306656
 31
0.0
  0
LINE
  5
32E
330
329
100
AcDbEntity
  8
用紙-GR3
  6
Continuous
 62
     7
370
    20
100
AcDbLine
 10
239.2091709139366
 20
79.37262319306651
 30
0.0
 11
239.2091709139366
 21
76.22262319306655
 31
0.0
  0
LINE
  5
32F
330
329
100
AcDbEntity
  8
用紙-GR3
  6
DASHED
 62
     6
370
    20
100
AcDbLine
 10
239.2091709139366
 20
78.8371231930665
 30
0.0
 11
240.7441709139365
 21
78.83712319306653
 31
0.0
  0
LINE
  5
330
330
329
100
AcDbEntity
  8
用紙-GR3
  6
DASHED
 62
     6
370
    20
100
AcDbLine
 10
239.2091709139366
 20
78.97262319306655
 30
0.0
 11
240.7441709139365
 21
78.97262319306655
 31
0.0
  0
LINE
  5
331
330
329
100
AcDbEntity
  8
用紙-GR3
  6
DASHED
 62
     6
370
    20
100
AcDbLine
 10
241.2441709139365
 20
78.97262319306655
 30
0.0
 11
241.2441709139365
 21
76.22262319306655
 31
0.0
  0
LINE
  5
332
330
329
100
AcDbEntity
  8
用紙-GR3
  6
DASHED
 62
     6
370
    20
100
AcDbLine
 10
240.7441709139365
 20
78.97262319306655
 30
0.0
 11
240.7441709139365
 21
76.22262319306655
 31
0.0
  0
LINE
  5
333
330
329
100
AcDbEntity
  8
用紙-GR3
  6
DASHED
 62
     6
370
    20
100
AcDbLine
 10
240.7441709139365
 20
78.97262319306655
 30
0.0
 11
241.2441709139365
 21
78.97262319306655
 31
0.0
  0
LINE
  5
334
330
329
100
AcDbEntity
  8
用紙-GR3
  6
Continuous
 62
     7
370
    20
100
AcDbLine
 10
246.4591709139364
 20
80.34762319306652
 30
0.0
 11
246.4591709139364
 21
76.22262319306655
 31
0.0
  0
LINE
  5
335
330
329
100
AcDbEntity
  8
用紙-GR3
  6
Continuous
 62
     7
370
    20
100
AcDbLine
 10
246.4591709139364
 20
80.02262319306609
 30
0.0
 11
246.5555769139362
 21
80.02262319306609
 31
0.0
  0
LINE
  5
336
330
329
100
AcDbEntity
  8
用紙-GR3
  6
Continuous
 62
     7
370
    20
100
AcDbLine
 10
246.4591709139364
 20
80.34762319306656
 30
0.0
 11
246.3591709139365
 21
80.44762319306657
 31
0.0
  0
LINE
  5
337
330
329
100
AcDbEntity
  8
用紙-GR3
  6
Continuous
 62
     7
370
    20
100
AcDbLine
 10
245.9591709139365
 20
80.34762319306656
 30
0.0
 11
245.9591709139364
 21
76.22262319306655
 31
0.0
  0
LINE
  5
338
330
329
100
AcDbEntity
  8
用紙-GR3
  6
Continuous
 62
     7
370
    20
100
AcDbLine
 10
246.0591709139364
 20
80.44762319306656
 30
0.0
 11
245.9591709139365
 21
80.34762319306656
 31
0.0
  0
LINE
  5
339
330
329
100
AcDbEntity
  8
用紙-GR3
  6
Continuous
 62
     7
370
    20
100
AcDbLine
 10
245.9591709139365
 20
79.47262319306656
 30
0.0
 11
239.3091709139365
 21
79.47262319306656
 31
0.0
  0
LINE
  5
33A
330
329
100
AcDbEntity
  8
用紙-GR3
  6
Continuous
 62
     7
370
    20
100
AcDbLine
 10
239.3091709139365
 20
79.47262319306656
 30
0.0
 11
239.2091709139366
 21
79.37262319306651
 31
0.0
  0
LINE
  5
33B
330
329
100
AcDbEntity
  8
用紙-GR3
  6
Continuous
 62
     7
370
    20
100
AcDbLine
 10
257.9305769139363
 20
80.37262319306655
 30
0.0
 11
257.9305769139363
 21
76.22262319306655
 31
0.0
  0
LINE
  5
33C
330
329
100
AcDbEntity
  8
用紙-GR3
  6
Continuous
 62
     7
370
    20
100
AcDbLine
 10
246.5555769139362
 20
80.37262319306654
 30
0.0
 11
246.5555769139362
 21
76.22262319306655
 31
0.0
  0
LINE
  5
33D
330
329
100
AcDbEntity
  8
用紙-GR3
  6
Continuous
 62
     7
370
    20
100
AcDbLine
 10
246.6555769139362
 20
80.47262319306655
 30
0.0
 11
246.5555769139362
 21
80.37262319306654
 31
0.0
  0
LINE
  5
33E
330
329
100
AcDbEntity
  8
用紙-GR3
  6
Continuous
 62
     7
370
    20
100
AcDbLine
 10
246.655576913936
 20
80.47262319306655
 30
0.0
 11
257.8305769139362
 21
80.47262319306652
 31
0.0
  0
LINE
  5
33F
330
329
100
AcDbEntity
  8
用紙-GR3
  6
Continuous
 62
     7
370
    20
100
AcDbLine
 10
257.8305769139362
 20
80.47262319306652
 30
0.0
 11
257.9305769139363
 21
80.37262319306655
 31
0.0
  0
LINE
  5
340
330
329
100
AcDbEntity
  8
用紙-GR3
  6
Continuous
 62
     6
370
    20
100
AcDbLine
 10
239.3091709139365
 20
79.47262319306656
 30
0.0
 11
239.3091709139365
 21
76.22262319306655
 31
0.0
  0
LINE
  5
341
330
329
100
AcDbEntity
  8
用紙-GR3
  6
Continuous
 62
     6
370
    20
100
AcDbLine
 10
246.0591709139364
 20
76.22262319306655
 30
0.0
 11
246.0591709139364
 21
80.44762319306656
 31
0.0
  0
LINE
  5
342
330
329
100
AcDbEntity
  8
用紙-GR3
  6
Continuous
 62
     6
370
    20
100
AcDbLine
 10
246.3591709139365
 20
80.44762319306657
 30
0.0
 11
246.3591709139365
 21
76.22262319306655
 31
0.0
  0
LINE
  5
343
330
329
100
AcDbEntity
  8
用紙-GR3
  6
Continuous
 62
     6
370
    20
100
AcDbLine
 10
246.6555769139362
 20
80.47262319306655
 30
0.0
 11
246.6555769139362
 21
76.22262319306655
 31
0.0
  0
LINE
  5
344
330
329
100
AcDbEntity
  8
用紙-GR3
  6
Continuous
 62
     6
370
    20
100
AcDbLine
 10
257.8305769139362
 20
80.47262319306655
 30
0.0
 11
257.8305769139362
 21
76.22262319306655
 31
0.0
  0
LINE
  5
345
330
329
100
AcDbEntity
  8
用紙-GR3
  6
Continuous
 62
     7
370
    20
100
AcDbLine
 10
246.3591709139365
 20
71.9976231930665
 30
0.0
 11
246.0591709139364
 21
71.99762319306652
 31
0.0
  0
LINE
  5
346
330
329
100
AcDbEntity
  8
用紙-GR3
  6
Continuous
 62
     7
370
    20
100
AcDbLine
 10
239.2091709139366
 20
73.07262319306656
 30
0.0
 11
239.2091709139366
 21
76.22262319306655
 31
0.0
  0
LINE
  5
347
330
329
100
AcDbEntity
  8
用紙-GR3
  6
DASHED
 62
     6
370
    20
100
AcDbLine
 10
239.2091709139366
 20
73.60812319306657
 30
0.0
 11
240.7441709139365
 21
73.60812319306655
 31
0.0
  0
LINE
  5
348
330
329
100
AcDbEntity
  8
用紙-GR3
  6
DASHED
 62
     6
370
    20
100
AcDbLine
 10
239.2091709139366
 20
73.47262319306655
 30
0.0
 11
240.7441709139365
 21
73.47262319306655
 31
0.0
  0
LINE
  5
349
330
329
100
AcDbEntity
  8
用紙-GR3
  6
DASHED
 62
     6
370
    20
100
AcDbLine
 10
241.2441709139365
 20
73.47262319306655
 30
0.0
 11
241.2441709139365
 21
76.22262319306655
 31
0.0
  0
LINE
  5
34A
330
329
100
AcDbEntity
  8
用紙-GR3
  6
DASHED
 62
     6
370
    20
100
AcDbLine
 10
240.7441709139365
 20
73.47262319306655
 30
0.0
 11
240.7441709139365
 21
76.22262319306655
 31
0.0
  0
LINE
  5
34B
330
329
100
AcDbEntity
  8
用紙-GR3
  6
DASHED
 62
     6
370
    20
100
AcDbLine
 10
240.7441709139365
 20
73.47262319306655
 30
0.0
 11
241.2441709139365
 21
73.47262319306655
 31
0.0
  0
LINE
  5
34C
330
329
100
AcDbEntity
  8
用紙-GR3
  6
Continuous
 62
     7
370
    20
100
AcDbLine
 10
246.4591709139364
 20
72.09762319306655
 30
0.0
 11
246.4591709139364
 21
76.22262319306655
 31
0.0
  0
LINE
  5
34D
330
329
100
AcDbEntity
  8
用紙-GR3
  6
Continuous
 62
     7
370
    20
100
AcDbLine
 10
246.4591709139364
 20
72.42262319306698
 30
0.0
 11
246.5555769139362
 21
72.42262319306698
 31
0.0
  0
LINE
  5
34E
330
329
100
AcDbEntity
  8
用紙-GR3
  6
Continuous
 62
     7
370
    20
100
AcDbLine
 10
246.4591709139364
 20
72.09762319306655
 30
0.0
 11
246.3591709139365
 21
71.9976231930665
 31
0.0
  0
LINE
  5
34F
330
329
100
AcDbEntity
  8
用紙-GR3
  6
Continuous
 62
     7
370
    20
100
AcDbLine
 10
245.9591709139365
 20
72.09762319306652
 30
0.0
 11
245.9591709139364
 21
76.22262319306655
 31
0.0
  0
LINE
  5
350
330
329
100
AcDbEntity
  8
用紙-GR3
  6
Continuous
 62
     7
370
    20
100
AcDbLine
 10
246.0591709139364
 20
71.99762319306652
 30
0.0
 11
245.9591709139365
 21
72.09762319306652
 31
0.0
  0
LINE
  5
351
330
329
100
AcDbEntity
  8
用紙-GR3
  6
Continuous
 62
     7
370
    20
100
AcDbLine
 10
245.9591709139365
 20
72.97262319306655
 30
0.0
 11
239.3091709139365
 21
72.97262319306655
 31
0.0
  0
LINE
  5
352
330
329
100
AcDbEntity
  8
用紙-GR3
  6
Continuous
 62
     7
370
    20
100
AcDbLine
 10
239.3091709139365
 20
72.97262319306655
 30
0.0
 11
239.2091709139366
 21
73.07262319306656
 31
0.0
  0
LINE
  5
353
330
329
100
AcDbEntity
  8
用紙-GR3
  6
Continuous
 62
     7
370
    20
100
AcDbLine
 10
257.9305769139363
 20
72.0726231930665
 30
0.0
 11
257.9305769139363
 21
76.22262319306655
 31
0.0
  0
LINE
  5
354
330
329
100
AcDbEntity
  8
用紙-GR3
  6
Continuous
 62
     7
370
    20
100
AcDbLine
 10
246.5555769139362
 20
72.07262319306654
 30
0.0
 11
246.5555769139362
 21
76.22262319306655
 31
0.0
  0
LINE
  5
355
330
329
100
AcDbEntity
  8
用紙-GR3
  6
Continuous
 62
     7
370
    20
100
AcDbLine
 10
246.6555769139362
 20
71.97262319306652
 30
0.0
 11
246.5555769139362
 21
72.07262319306654
 31
0.0
  0
LINE
  5
356
330
329
100
AcDbEntity
  8
用紙-GR3
  6
Continuous
 62
     7
370
    20
100
AcDbLine
 10
246.655576913936
 20
71.97262319306652
 30
0.0
 11
257.8305769139362
 21
71.97262319306656
 31
0.0
  0
LINE
  5
357
330
329
100
AcDbEntity
  8
用紙-GR3
  6
Continuous
 62
     7
370
    20
100
AcDbLine
 10
257.8305769139362
 20
71.97262319306656
 30
0.0
 11
257.9305769139363
 21
72.0726231930665
 31
0.0
  0
LINE
  5
358
330
329
100
AcDbEntity
  8
用紙-GR3
  6
Continuous
 62
     6
370
    20
100
AcDbLine
 10
239.3091709139365
 20
72.97262319306655
 30
0.0
 11
239.3091709139365
 21
76.22262319306655
 31
0.0
  0
LINE
  5
359
330
329
100
AcDbEntity
  8
用紙-GR3
  6
Continuous
 62
     6
370
    20
100
AcDbLine
 10
246.0591709139364
 20
76.22262319306655
 30
0.0
 11
246.0591709139364
 21
71.99762319306652
 31
0.0
  0
LINE
  5
35A
330
329
100
AcDbEntity
  8
用紙-GR3
  6
Continuous
 62
     6
370
    20
100
AcDbLine
 10
246.3591709139365
 20
71.9976231930665
 30
0.0
 11
246.3591709139365
 21
76.22262319306655
 31
0.0
  0
LINE
  5
35B
330
329
100
AcDbEntity
  8
用紙-GR3
  6
Continuous
 62
     6
370
    20
100
AcDbLine
 10
246.6555769139362
 20
71.97262319306652
 30
0.0
 11
246.6555769139362
 21
76.22262319306655
 31
0.0
  0
LINE
  5
35C
330
329
100
AcDbEntity
  8
用紙-GR3
  6
Continuous
 62
     6
370
    20
100
AcDbLine
 10
257.8305769139362
 20
71.97262319306656
 30
0.0
 11
257.8305769139362
 21
76.22262319306655
 31
0.0
  0
ENDBLK
  5
32B
330
329
100
AcDbEntity
  8
0
100
AcDbBlockEnd
  0
BLOCK
  5
35F
330
35E
100
AcDbEntity
  8
0
100
AcDbBlockBegin
  2
*D36
 70
     1
 10
0.0
 20
0.0
 30
0.0
  3
*D36
  1

  0
LINE
  5
40A
330
35E
100
AcDbEntity
  8
用紙-GR3
 62
     6
370
    -2
100
AcDbLine
 10
165.0083011375084
 20
44.22631236719114
 30
0.0
 11
165.0083011375084
 21
35.80978817999158
 31
0.0
  0
LINE
  5
40B
330
35E
100
AcDbEntity
  8
用紙-GR3
 62
     6
370
    -2
100
AcDbLine
 10
183.7297071375081
 20
43.22631236719104
 30
0.0
 11
183.7297071375081
 21
35.80978817999158
 31
0.0
  0
LINE
  5
40C
330
35E
100
AcDbEntity
  8
用紙-GR3
 62
     6
370
    -2
100
AcDbLine
 10
168.0083011375084
 20
37.30978817999158
 30
0.0
 11
180.7297071375081
 21
37.30978817999158
 31
0.0
  0
INSERT
  5
40D
330
35E
100
AcDbEntity
  8
用紙-GR3
 62
     6
370
    -2
100
AcDbBlockReference
  2
FXTIP_ARROW_S
 10
165.0083011375084
 20
37.30978817999158
 30
0.0
 41
3.0
 42
3.0
 43
3.0
 50
180.0
  0
INSERT
  5
40E
330
35E
100
AcDbEntity
  8
用紙-GR3
 62
     6
370
    -2
100
AcDbBlockReference
  2
FXTIP_ARROW_E
 10
183.7297071375081
 20
37.30978817999158
 30
0.0
 41
3.0
 42
3.0
 43
3.0
  0
MTEXT
  5
40F
330
35E
100
AcDbEntity
  8
用紙-GR3
 62
     6
100
AcDbMText
 10
174.3690041375083
 20
39.55978817999158
 30
0.0
 40
3.5
 41
0.0
 71
     5
 72
     1
  1
\A1;18.72
  7
STYLE003
 73
     1
 44
1.0
  0
POINT
  5
410
330
35E
100
AcDbEntity
  8
Defpoints
 62
     0
100
AcDbPoint
 10
165.0083011375084
 20
45.22631236719114
 30
0.0
  0
POINT
  5
411
330
35E
100
AcDbEntity
  8
Defpoints
 62
     0
100
AcDbPoint
 10
183.7297071375081
 20
44.22631236719104
 30
0.0
  0
POINT
  5
412
330
35E
100
AcDbEntity
  8
Defpoints
 62
     0
100
AcDbPoint
 10
183.7297071375081
 20
37.30978817999158
 30
0.0
  0
ENDBLK
  5
360
330
35E
100
AcDbEntity
  8
0
100
AcDbBlockEnd
  0
BLOCK
  5
36D
330
36C
100
AcDbEntity
  8
0
100
AcDbBlockBegin
  2
*D37
 70
     1
 10
0.0
 20
0.0
 30
0.0
  3
*D37
  1

  0
LINE
  5
439
330
36C
100
AcDbEntity
  8
用紙-GR4
 62
     6
370
    -2
100
AcDbLine
 10
114.5717210099387
 20
96.08710073581336
 30
0.0
 11
129.0961155413498
 21
96.08710073581336
 31
0.0
  0
LINE
  5
43A
330
36C
100
AcDbEntity
  8
用紙-GR4
 62
     6
370
    -2
100
AcDbLine
 10
114.5717210099387
 20
130.0871007358132
 30
0.0
 11
129.0961155413498
 21
130.0871007358132
 31
0.0
  0
LINE
  5
43B
330
36C
100
AcDbEntity
  8
用紙-GR4
 62
     6
370
    -2
100
AcDbLine
 10
127.5961155413498
 20
99.08710073581337
 30
0.0
 11
127.5961155413498
 21
127.0871007358132
 31
0.0
  0
INSERT
  5
43C
330
36C
100
AcDbEntity
  8
用紙-GR4
 62
     6
370
    -2
100
AcDbBlockReference
  2
FXTIP_ARROW_S
 10
127.5961155413498
 20
96.08710073581336
 30
0.0
 41
3.0
 42
3.0
 43
3.0
 50
270.0
  0
INSERT
  5
43D
330
36C
100
AcDbEntity
  8
用紙-GR4
 62
     6
370
    -2
100
AcDbBlockReference
  2
FXTIP_ARROW_E
 10
127.5961155413498
 20
130.0871007358132
 30
0.0
 41
3.0
 42
3.0
 43
3.0
 50
90.0
  0
MTEXT
  5
43E
330
36C
100
AcDbEntity
  8
用紙-GR4
 62
     6
100
AcDbMText
 10
125.3461155413498
 20
113.0871007358133
 30
0.0
 40
3.5
 41
0.0
 71
     5
 72
     1
  1
\A1;34
  7
STYLE003
 11
0.0000000000000001
 21
1.0
 31
0.0
 73
     1
 44
1.0
  0
POINT
  5
43F
330
36C
100
AcDbEntity
  8
Defpoints
 62
     0
100
AcDbPoint
 10
113.5717210099387
 20
96.08710073581336
 30
0.0
  0
POINT
  5
440
330
36C
100
AcDbEntity
  8
Defpoints
 62
     0
100
AcDbPoint
 10
113.5717210099387
 20
130.0871007358132
 30
0.0
  0
POINT
  5
441
330
36C
100
AcDbEntity
  8
Defpoints
 62
     0
100
AcDbPoint
 10
127.5961155413498
 20
130.0871007358132
 30
0.0
  0
ENDBLK
  5
36E
330
36C
100
AcDbEntity
  8
0
100
AcDbBlockEnd
  0
BLOCK
  5
378
330
377
100
AcDbEntity
  8
0
100
AcDbBlockBegin
  2
*D38
 70
     1
 10
0.0
 20
0.0
 30
0.0
  3
*D38
  1

  0
LINE
  5
401
330
377
100
AcDbEntity
  8
用紙-GR4
 62
     6
370
    -2
100
AcDbLine
 10
38.48609700993996
 20
100.0871007358132
 30
0.0
 11
13.59068705312523
 21
100.0871007358133
 31
0.0
  0
LINE
  5
402
330
377
100
AcDbEntity
  8
用紙-GR4
 62
     6
370
    -2
100
AcDbLine
 10
38.48609700993996
 20
126.0871007358132
 30
0.0
 11
13.59068705312523
 21
126.0871007358132
 31
0.0
  0
LINE
  5
403
330
377
100
AcDbEntity
  8
用紙-GR4
 62
     6
370
    -2
100
AcDbLine
 10
15.09068705312523
 20
103.0871007358132
 30
0.0
 11
15.09068705312523
 21
123.0871007358132
 31
0.0
  0
INSERT
  5
404
330
377
100
AcDbEntity
  8
用紙-GR4
 62
     6
370
    -2
100
AcDbBlockReference
  2
FXTIP_ARROW_S
 10
15.09068705312523
 20
100.0871007358133
 30
0.0
 41
3.0
 42
3.0
 43
3.0
 50
270.0
  0
INSERT
  5
405
330
377
100
AcDbEntity
  8
用紙-GR4
 62
     6
370
    -2
100
AcDbBlockReference
  2
FXTIP_ARROW_E
 10
15.09068705312523
 20
126.0871007358132
 30
0.0
 41
3.0
 42
3.0
 43
3.0
 50
90.0
  0
MTEXT
  5
406
330
377
100
AcDbEntity
  8
用紙-GR4
 62
     6
100
AcDbMText
 10
12.84068705312521
 20
113.0871007358132
 30
0.0
 40
3.5
 41
0.0
 71
     5
 72
     1
  1
\A1;26
  7
STYLE003
 11
0.0000000000000001
 21
1.0
 31
0.0
 73
     1
 44
1.0
  0
POINT
  5
407
330
377
100
AcDbEntity
  8
Defpoints
 62
     0
100
AcDbPoint
 10
39.48609700993996
 20
100.0871007358132
 30
0.0
  0
POINT
  5
408
330
377
100
AcDbEntity
  8
Defpoints
 62
     0
100
AcDbPoint
 10
39.48609700993996
 20
126.0871007358132
 30
0.0
  0
POINT
  5
409
330
377
100
AcDbEntity
  8
Defpoints
 62
     0
100
AcDbPoint
 10
15.09068705312523
 20
126.0871007358132
 30
0.0
  0
ENDBLK
  5
379
330
377
100
AcDbEntity
  8
0
100
AcDbBlockEnd
  0
BLOCK
  5
385
330
384
100
AcDbEntity
  8
0
100
AcDbBlockBegin
  2
*D39
 70
     1
 10
0.0
 20
0.0
 30
0.0
  3
*D39
  1

  0
LINE
  5
3F8
330
384
100
AcDbEntity
  8
用紙-GR4
 62
     6
370
    -2
100
AcDbLine
 10
38.08609700993996
 20
102.0871007358132
 30
0.0
 11
23.59068705312521
 21
102.0871007358132
 31
0.0
  0
LINE
  5
3F9
330
384
100
AcDbEntity
  8
用紙-GR4
 62
     6
370
    -2
100
AcDbLine
 10
38.08609700993996
 20
124.0871007358132
 30
0.0
 11
23.59068705312522
 21
124.0871007358132
 31
0.0
  0
LINE
  5
3FA
330
384
100
AcDbEntity
  8
用紙-GR4
 62
     6
370
    -2
100
AcDbLine
 10
25.09068705312522
 20
105.0871007358132
 30
0.0
 11
25.09068705312522
 21
121.0871007358132
 31
0.0
  0
INSERT
  5
3FB
330
384
100
AcDbEntity
  8
用紙-GR4
 62
     6
370
    -2
100
AcDbBlockReference
  2
FXTIP_ARROW_S
 10
25.09068705312521
 20
102.0871007358132
 30
0.0
 41
3.0
 42
3.0
 43
3.0
 50
270.0
  0
INSERT
  5
3FC
330
384
100
AcDbEntity
  8
用紙-GR4
 62
     6
370
    -2
100
AcDbBlockReference
  2
FXTIP_ARROW_E
 10
25.09068705312522
 20
124.0871007358132
 30
0.0
 41
3.0
 42
3.0
 43
3.0
 50
90.0
  0
MTEXT
  5
3FD
330
384
100
AcDbEntity
  8
用紙-GR4
 62
     6
100
AcDbMText
 10
22.8406870531252
 20
113.0871007358132
 30
0.0
 40
3.5
 41
0.0
 71
     5
 72
     1
  1
\A1;22
  7
STYLE003
 11
0.0000000000000001
 21
1.0
 31
0.0
 73
     1
 44
1.0
  0
POINT
  5
3FE
330
384
100
AcDbEntity
  8
Defpoints
 62
     0
100
AcDbPoint
 10
39.08609700993996
 20
102.0871007358132
 30
0.0
  0
POINT
  5
3FF
330
384
100
AcDbEntity
  8
Defpoints
 62
     0
100
AcDbPoint
 10
39.08609700993996
 20
124.0871007358132
 30
0.0
  0
POINT
  5
400
330
384
100
AcDbEntity
  8
Defpoints
 62
     0
100
AcDbPoint
 10
25.09068705312522
 20
124.0871007358132
 30
0.0
  0
ENDBLK
  5
386
330
384
100
AcDbEntity
  8
0
100
AcDbBlockEnd
  0
BLOCK
  5
392
330
391
100
AcDbEntity
  8
0
100
AcDbBlockBegin
  2
*D40
 70
     1
 10
0.0
 20
0.0
 30
0.0
  3
*D40
  1

  0
LINE
  5
3EF
330
391
100
AcDbEntity
  8
用紙-GR4
 62
     6
370
    -2
100
AcDbLine
 10
66.08609700993966
 20
95.58710073581329
 30
0.0
 11
66.08609700993966
 21
84.40252891882385
 31
0.0
  0
LINE
  5
3F0
330
391
100
AcDbEntity
  8
用紙-GR4
 62
     6
370
    -2
100
AcDbLine
 10
113.9717210099388
 20
95.48710073581316
 30
0.0
 11
113.9717210099388
 21
84.40252891882385
 31
0.0
  0
LINE
  5
3F1
330
391
100
AcDbEntity
  8
用紙-GR4
 62
     6
370
    -2
100
AcDbLine
 10
69.08609700993967
 20
85.90252891882384
 30
0.0
 11
110.9717210099388
 21
85.90252891882384
 31
0.0
  0
INSERT
  5
3F2
330
391
100
AcDbEntity
  8
用紙-GR4
 62
     6
370
    -2
100
AcDbBlockReference
  2
FXTIP_ARROW_S
 10
66.08609700993966
 20
85.90252891882384
 30
0.0
 41
3.0
 42
3.0
 43
3.0
 50
180.0
  0
INSERT
  5
3F3
330
391
100
AcDbEntity
  8
用紙-GR4
 62
     6
370
    -2
100
AcDbBlockReference
  2
FXTIP_ARROW_E
 10
113.9717210099388
 20
85.90252891882384
 30
0.0
 41
3.0
 42
3.0
 43
3.0
  0
MTEXT
  5
3F4
330
391
100
AcDbEntity
  8
用紙-GR4
 62
     6
100
AcDbMText
 10
90.02890900993927
 20
88.15252891882385
 30
0.0
 40
3.5
 41
0.0
 71
     5
 72
     1
  1
\A1;47.89
  7
STYLE003
 73
     1
 44
1.0
  0
POINT
  5
3F5
330
391
100
AcDbEntity
  8
Defpoints
 62
     0
100
AcDbPoint
 10
66.08609700993966
 20
96.58710073581328
 30
0.0
  0
POINT
  5
3F6
330
391
100
AcDbEntity
  8
Defpoints
 62
     0
100
AcDbPoint
 10
113.9717210099388
 20
96.48710073581316
 30
0.0
  0
POINT
  5
3F7
330
391
100
AcDbEntity
  8
Defpoints
 62
     0
100
AcDbPoint
 10
113.9717210099388
 20
85.90252891882384
 30
0.0
  0
ENDBLK
  5
393
330
391
100
AcDbEntity
  8
0
100
AcDbBlockEnd
  0
BLOCK
  5
39B
330
39A
100
AcDbEntity
  8
0
100
AcDbBlockBegin
  2
*D41
 70
     1
 10
0.0
 20
0.0
 30
0.0
  3
*D41
  1

  0
LINE
  5
3E6
330
39A
100
AcDbEntity
  8
用紙-GR4
 62
     6
370
    -2
100
AcDbLine
 10
39.08609700993996
 20
99.48710073581336
 30
0.0
 11
39.08609700993996
 21
74.40252891882384
 31
0.0
  0
LINE
  5
3E7
330
39A
100
AcDbEntity
  8
用紙-GR4
 62
     6
370
    -2
100
AcDbLine
 10
113.9717210099388
 20
95.48710073581316
 30
0.0
 11
113.9717210099388
 21
74.40252891882384
 31
0.0
  0
LINE
  5
3E8
330
39A
100
AcDbEntity
  8
用紙-GR4
 62
     6
370
    -2
100
AcDbLine
 10
42.08609700993996
 20
75.90252891882385
 30
0.0
 11
110.9717210099388
 21
75.90252891882385
 31
0.0
  0
INSERT
  5
3E9
330
39A
100
AcDbEntity
  8
用紙-GR4
 62
     6
370
    -2
100
AcDbBlockReference
  2
FXTIP_ARROW_S
 10
39.08609700993996
 20
75.90252891882385
 30
0.0
 41
3.0
 42
3.0
 43
3.0
 50
180.0
  0
INSERT
  5
3EA
330
39A
100
AcDbEntity
  8
用紙-GR4
 62
     6
370
    -2
100
AcDbBlockReference
  2
FXTIP_ARROW_E
 10
113.9717210099388
 20
75.90252891882385
 30
0.0
 41
3.0
 42
3.0
 43
3.0
  0
MTEXT
  5
3EB
330
39A
100
AcDbEntity
  8
用紙-GR4
 62
     6
100
AcDbMText
 10
76.52890900993941
 20
78.15252891882384
 30
0.0
 40
3.5
 41
0.0
 71
     5
 72
     1
  1
\A1;74.89
  7
STYLE003
 73
     1
 44
1.0
  0
POINT
  5
3EC
330
39A
100
AcDbEntity
  8
Defpoints
 62
     0
100
AcDbPoint
 10
39.08609700993996
 20
100.4871007358133
 30
0.0
  0
POINT
  5
3ED
330
39A
100
AcDbEntity
  8
Defpoints
 62
     0
100
AcDbPoint
 10
113.9717210099388
 20
96.48710073581316
 30
0.0
  0
POINT
  5
3EE
330
39A
100
AcDbEntity
  8
Defpoints
 62
     0
100
AcDbPoint
 10
113.9717210099388
 20
75.90252891882385
 30
0.0
  0
ENDBLK
  5
39C
330
39A
100
AcDbEntity
  8
0
100
AcDbBlockEnd
  0
ENDSEC
  0
SECTION
  2
ENTITIES
  0
LINE
  5
261
330
1F
100
AcDbEntity
  8
用紙-GR3
  6
DASHDOT
 62
     6
370
    20
100
AcDbLine
 10
185.8305284387749
 20
48.37631236719111
 30
0.0
 11
92.60111799183619
 21
48.37631236719111
 31
0.0
  0
INSERT
  5
265
330
1F
100
AcDbEntity
  8
0
100
AcDbBlockReference
  2
BLKF028
 10
-74.20086977642814
 20
-27.84631082587543
 30
0.0
  0
DIMENSION
  5
2E5
330
1F
100
AcDbEntity
  8
用紙-GR3
100
AcDbDimension
  2
*D29
 10
183.7297071375081
 20
30.09931834920536
 30
0.0
 11
164.8372071375083
 21
32.34931834920536
 31
0.0
 70
    32
 71
     5
 42
37.78499999999974
  3
FXDIMINFO
100
AcDbAlignedDimension
 13
145.9447071375084
 23
45.5263123671911
 33
0.0
 14
183.7297071375081
 24
44.22631236719104
 34
0.0
 50
180.0
100
AcDbRotatedDimension
1001
ACAD
1000
DSTYLE
1002
{
1070
   173
1070
     1
1070
   344
1005
48
1070
   343
1005
42
1002
}
  0
DIMENSION
  5
2F1
330
1F
100
AcDbEntity
  8
用紙-GR3
100
AcDbDimension
  2
*D30
 10
166.9447071375084
 20
58.41101606714537
 30
0.0
 11
156.4447071375084
 21
60.66101606714537
 31
0.0
 70
    32
 71
     5
 42
21.0
  3
FXDIMINFO
100
AcDbAlignedDimension
 13
145.9447071375084
 23
51.2263123671911
 33
0.0
 14
166.9447071375084
 24
50.82631236719108
 34
0.0
 50
180.0
100
AcDbRotatedDimension
1001
ACAD
1000
DSTYLE
1002
{
1070
   173
1070
     1
1070
   344
1005
48
1070
   343
1005
42
1002
}
  0
INSERT
  5
2FE
330
1F
100
AcDbEntity
  8
0
100
AcDbBlockReference
  2
FXDIM033
 10
-74.20086977642814
 20
-27.84631082587543
 30
0.0
  0
INSERT
  5
306
330
1F
100
AcDbEntity
  8
0
100
AcDbBlockReference
  2
FXDIM034
 10
-74.20086977642814
 20
-27.84631082587543
 30
0.0
  0
DIMENSION
  5
30B
330
1F
100
AcDbEntity
  8
用紙-GR3
100
AcDbDimension
  2
*D33
 10
194.1079558593507
 20
52.62631236719109
 30
0.0
 11
191.8579558593507
 21
48.37631236719113
 31
0.0
 70
    33
 71
     5
 42
8.499999999999971
  3
FXDIMINFO
100
AcDbAlignedDimension
 13
183.6297071375081
 23
44.12631236719112
 33
0.0
 14
183.6297071375081
 24
52.62631236719109
 34
0.0
  0
DIMENSION
  5
318
330
1F
100
AcDbEntity
  8
用紙-GR3
100
AcDbDimension
  2
*D34
 10
139.5079020386691
 20
51.37631236719112
 30
0.0
 11
137.2579020386691
 21
48.37631236719113
 31
0.0
 70
    33
 71
     5
 42
6.000000000000028
  3
FXDIMINFO
100
AcDbAlignedDimension
 13
146.0947071375084
 23
45.37631236719109
 33
0.0
 14
146.0947071375084
 24
51.37631236719112
 34
0.0
  0
TEXT
  5
325
330
1F
100
AcDbEntity
  8
用紙-GR3
  6
Continuous
 62
     6
370
    20
100
AcDbText
 10
129.1751067860718
 20
21.94970204966273
 30
0.0
 40
3.5
  1
レンズ装着時（1：2）
 50
0.0000000099999999
 41
0.8571428571428571
  7
FX_VECTOR
100
AcDbText
  0
TEXT
  5
326
330
1F
100
AcDbEntity
  8
LAYER004
  6
Continuous
 62
     6
370
    20
100
AcDbText
 10
-32.55658266705313
 20
37.85837820000345
 30
0.0
 40
3.5
  1
※ （  ）寸法は参考値とする
 41
0.8571428571428571
  7
FX_VECTOR
100
AcDbText
  0
TEXT
  5
327
330
1F
100
AcDbEntity
  8
LAYER004
  6
Continuous
 62
     6
370
    20
100
AcDbText
 10
-32.24496767681875
 20
32.39014699883159
 30
0.0
 40
3.5
  1
※ UV-LEDヘッド（H-1VH）は含みません
 41
0.8571428571428571
  7
FX_VECTOR
100
AcDbText
  0
LINE
  5
328
330
1F
100
AcDbEntity
  8
用紙-GR3
  6
Continuous
 62
     6
370
    20
100
AcDbLine
 10
128.1751094882358
 20
20.9497024473122
 30
0.0
 11
163.1751094882358
 21
20.9497024473122
 31
0.0
  0
INSERT
  5
32C
330
1F
100
AcDbEntity
  8
0
100
AcDbBlockReference
  2
BLKF037
 10
-74.20086977642814
 20
-27.84631082587543
 30
0.0
  0
DIMENSION
  5
35D
330
1F
100
AcDbEntity
  8
用紙-GR3
100
AcDbDimension
  2
*D36
 10
183.7297071375081
 20
37.30978817999158
 30
0.0
 11
174.3690041375083
 21
39.55978817999158
 31
0.0
 70
    32
 71
     5
 42
18.72140599999971
  3
FXDIMINFO
100
AcDbAlignedDimension
 13
165.0083011375084
 23
45.22631236719114
 33
0.0
 14
183.7297071375081
 24
44.22631236719104
 34
0.0
 50
180.0
100
AcDbRotatedDimension
1001
ACAD
1000
DSTYLE
1002
{
1070
   173
1070
     1
1070
   344
1005
48
1070
   343
1005
42
1002
}
  0
LINE
  5
369
330
1F
100
AcDbEntity
  8
用紙-GR3
  6
Continuous
 62
     6
370
    20
100
AcDbLine
 10
125.519389744936
 20
66.35318449887584
 30
0.0
 11
198.0275382695389
 21
66.35318449887584
 31
0.0
  0
DIMENSION
  5
36A
330
1F
100
AcDbEntity
  8
用紙-GR4
100
AcDbDimension
  2
*D37
 10
127.5961155413498
 20
130.0871007358132
 30
0.0
 11
125.3461155413498
 21
113.0871007358133
 31
0.0
 70
    33
 71
     5
 42
33.9999999999999
  3
FXDIMINFO
100
AcDbAlignedDimension
 13
113.5717210099387
 23
96.08710073581336
 33
0.0
 14
113.5717210099387
 24
130.0871007358132
 34
0.0
1001
ACAD
1000
DSTYLE
1002
{
1070
   173
1070
     1
1070
   344
1005
48
1070
   343
1005
42
1002
}
  0
DIMENSION
  5
376
330
1F
100
AcDbEntity
  8
用紙-GR4
100
AcDbDimension
  2
*D38
 10
15.09068705312523
 20
126.0871007358132
 30
0.0
 11
12.84068705312521
 21
113.0871007358132
 31
0.0
 70
    33
 71
     5
 42
25.99999999999998
  3
FXDIMINFO
100
AcDbAlignedDimension
 13
39.48609700993996
 23
100.0871007358132
 33
0.0
 14
39.48609700993996
 24
126.0871007358132
 34
0.0
  0
DIMENSION
  5
383
330
1F
100
AcDbEntity
  8
用紙-GR4
100
AcDbDimension
  2
*D39
 10
25.09068705312522
 20
124.0871007358132
 30
0.0
 11
22.8406870531252
 21
113.0871007358132
 31
0.0
 70
    33
 71
     5
 42
22.0
  3
FXDIMINFO
100
AcDbAlignedDimension
 13
39.08609700993996
 23
102.0871007358132
 33
0.0
 14
39.08609700993996
 24
124.0871007358132
 34
0.0
  0
DIMENSION
  5
390
330
1F
100
AcDbEntity
  8
用紙-GR4
100
AcDbDimension
  2
*D40
 10
113.9717210099388
 20
85.90252891882384
 30
0.0
 11
90.02890900993927
 21
88.15252891882385
 31
0.0
 70
    32
 71
     5
 42
47.8856239999992
  3
FXDIMINFO
100
AcDbAlignedDimension
 13
66.08609700993966
 23
96.58710073581328
 33
0.0
 14
113.9717210099388
 24
96.48710073581316
 34
0.0
 50
180.0
100
AcDbRotatedDimension
1001
ACAD
1000
DSTYLE
1002
{
1070
   173
1070
     1
1070
   344
1005
48
1070
   343
1005
42
1002
}
  0
DIMENSION
  5
399
330
1F
100
AcDbEntity
  8
用紙-GR4
100
AcDbDimension
  2
*D41
 10
113.9717210099388
 20
75.90252891882385
 30
0.0
 11
76.52890900993941
 21
78.15252891882384
 31
0.0
 70
    32
 71
     5
 42
74.88562399999891
  3
FXDIMINFO
100
AcDbAlignedDimension
 13
39.08609700993996
 23
100.4871007358133
 33
0.0
 14
113.9717210099388
 24
96.48710073581316
 34
0.0
 50
180.0
100
AcDbRotatedDimension
1001
ACAD
1000
DSTYLE
1002
{
1070
   173
1070
     1
1070
   344
1005
48
1070
   343
1005
42
1002
}
  0
TEXT
  5
3A5
330
1F
100
AcDbEntity
  8
用紙-GR4
  6
Continuous
 62
     6
370
    20
100
AcDbText
 10
29.53397824603276
 20
66.26492574639019
 30
0.0
 40
3.5
  1
(LEDヘッド接続部)
 50
90.0
 41
0.8571428571428571
  7
FX_VECTOR
100
AcDbText
  0
LINE
  5
3A6
330
1F
100
AcDbEntity
  8
用紙-GR3
  6
Continuous
 62
     6
370
    20
100
AcDbLine
 10
125.519389744936
 20
66.35318449887584
 30
0.0
 11
94.88560608795166
 21
58.40410583423537
 31
0.0
  0
LINE
  5
3A7
330
1F
100
AcDbEntity
  8
用紙-GR3
  6
Continuous
 62
     6
370
    20
100
AcDbLine
 10
94.88560608795166
 20
58.40410583423537
 30
0.0
 11
84.17816686439044
 21
41.6854726606047
 31
0.0
  0
LINE
  5
3A8
330
1F
100
AcDbEntity
  8
用紙-GR3
  6
Continuous
 62
     6
370
    20
100
AcDbLine
 10
84.17816686439044
 20
41.6854726606047
 30
0.0
 11
80.79687026747635
 21
27.2210372182501
 31
0.0
  0
LINE
  5
3A9
330
1F
100
AcDbEntity
  8
用紙-GR4
  6
DASHDOT
 62
     6
370
    20
100
AcDbLine
 10
36.07401605096036
 20
113.0871007358132
 30
0.0
 11
117.8330766859259
 21
113.0871007358132
 31
0.0
  0
LINE
  5
3AA
330
1F
100
AcDbEntity
  8
用紙-GR4
  6
Continuous
 62
     7
370
    20
100
AcDbLine
 10
67.68609700993977
 20
129.9871007358134
 30
0.0
 11
66.48609700993978
 21
129.9871007358133
 31
0.0
  0
LINE
  5
3AB
330
1F
100
AcDbEntity
  8
用紙-GR4
  6
Continuous
 62
     7
370
    20
100
AcDbLine
 10
39.08609700993996
 20
125.6871007358131
 30
0.0
 11
39.08609700994006
 21
113.0871007358132
 31
0.0
  0
LINE
  5
3AC
330
1F
100
AcDbEntity
  8
用紙-GR4
  6
DASHED
 62
     6
370
    20
100
AcDbLine
 10
39.08609700993996
 20
123.5451007358131
 30
0.0
 11
45.22609700993988
 21
123.5451007358132
 31
0.0
  0
LINE
  5
3AD
330
1F
100
AcDbEntity
  8
用紙-GR4
  6
DASHED
 62
     6
370
    20
100
AcDbLine
 10
39.08609700993996
 20
124.0871007358132
 30
0.0
 11
45.22609700993988
 21
124.0871007358132
 31
0.0
  0
LINE
  5
3AE
330
1F
100
AcDbEntity
  8
用紙-GR4
  6
DASHED
 62
     6
370
    20
100
AcDbLine
 10
47.22609700993987
 20
124.0871007358132
 30
0.0
 11
47.22609700993987
 21
113.0871007358132
 31
0.0
  0
LINE
  5
3AF
330
1F
100
AcDbEntity
  8
用紙-GR4
  6
DASHED
 62
     6
370
    20
100
AcDbLine
 10
45.22609700993988
 20
124.0871007358132
 30
0.0
 11
45.22609700994006
 21
113.0871007358133
 31
0.0
  0
LINE
  5
3B0
330
1F
100
AcDbEntity
  8
用紙-GR4
  6
DASHED
 62
     6
370
    20
100
AcDbLine
 10
45.22609700993988
 20
124.0871007358132
 30
0.0
 11
47.22609700993987
 21
124.0871007358132
 31
0.0
  0
LINE
  5
3B1
330
1F
100
AcDbEntity
  8
用紙-GR4
  6
Continuous
 62
     7
370
    20
100
AcDbLine
 10
68.08609700993969
 20
129.5871007358132
 30
0.0
 11
68.08609700993969
 21
113.0871007358132
 31
0.0
  0
LINE
  5
3B2
330
1F
100
AcDbEntity
  8
用紙-GR4
  6
Continuous
 62
     7
370
    20
100
AcDbLine
 10
68.08609700993969
 20
128.2871007358115
 30
0.0
 11
68.47172100993856
 21
128.2871007358115
 31
0.0
  0
LINE
  5
3B3
330
1F
100
AcDbEntity
  8
用紙-GR4
  6
Continuous
 62
     7
370
    20
100
AcDbLine
 10
68.08609700993969
 20
129.5871007358132
 30
0.0
 11
67.68609700993977
 21
129.9871007358134
 31
0.0
  0
LINE
  5
3B4
330
1F
100
AcDbEntity
  8
用紙-GR4
  6
Continuous
 62
     7
370
    20
100
AcDbLine
 10
66.08609700993966
 20
129.5871007358133
 30
0.0
 11
66.08609700993918
 21
113.0871007358132
 31
0.0
  0
LINE
  5
3B5
330
1F
100
AcDbEntity
  8
用紙-GR4
  6
Continuous
 62
     7
370
    20
100
AcDbLine
 10
66.48609700993978
 20
129.9871007358133
 30
0.0
 11
66.08609700993966
 21
129.5871007358133
 31
0.0
  0
LINE
  5
3B6
330
1F
100
AcDbEntity
  8
用紙-GR4
  6
Continuous
 62
     7
370
    20
100
AcDbLine
 10
66.08609700993958
 20
126.0871007358132
 30
0.0
 11
39.48609700993987
 21
126.0871007358132
 31
0.0
  0
LINE
  5
3B7
330
1F
100
AcDbEntity
  8
用紙-GR4
  6
Continuous
 62
     7
370
    20
100
AcDbLine
 10
39.48609700993987
 20
126.0871007358132
 30
0.0
 11
39.08609700993996
 21
125.6871007358131
 31
0.0
  0
LINE
  5
3B8
330
1F
100
AcDbEntity
  8
用紙-GR4
  6
Continuous
 62
     7
370
    20
100
AcDbLine
 10
113.9717210099388
 20
129.6871007358133
 30
0.0
 11
113.9717210099388
 21
113.0871007358132
 31
0.0
  0
LINE
  5
3B9
330
1F
100
AcDbEntity
  8
用紙-GR4
  6
Continuous
 62
     7
370
    20
100
AcDbLine
 10
68.47172100993856
 20
129.6871007358133
 30
0.0
 11
68.47172100993856
 21
113.0871007358132
 31
0.0
  0
LINE
  5
3BA
330
1F
100
AcDbEntity
  8
用紙-GR4
  6
Continuous
 62
     7
370
    20
100
AcDbLine
 10
68.87172100993845
 20
130.0871007358133
 30
0.0
 11
68.47172100993856
 21
129.6871007358133
 31
0.0
  0
LINE
  5
3BB
330
1F
100
AcDbEntity
  8
用紙-GR4
  6
Continuous
 62
     7
370
    20
100
AcDbLine
 10
68.87172100993817
 20
130.0871007358133
 30
0.0
 11
113.5717210099387
 21
130.0871007358132
 31
0.0
  0
LINE
  5
3BC
330
1F
100
AcDbEntity
  8
用紙-GR4
  6
Continuous
 62
     7
370
    20
100
AcDbLine
 10
113.5717210099387
 20
130.0871007358132
 30
0.0
 11
113.9717210099388
 21
129.6871007358134
 31
0.0
  0
LINE
  5
3BD
330
1F
100
AcDbEntity
  8
用紙-GR4
  6
Continuous
 62
     6
370
    20
100
AcDbLine
 10
39.48609700993987
 20
126.0871007358132
 30
0.0
 11
39.48609700993987
 21
113.0871007358132
 31
0.0
  0
LINE
  5
3BE
330
1F
100
AcDbEntity
  8
用紙-GR4
  6
Continuous
 62
     6
370
    20
100
AcDbLine
 10
66.48609700993978
 20
113.0871007358132
 30
0.0
 11
66.48609700993978
 21
129.9871007358133
 31
0.0
  0
LINE
  5
3BF
330
1F
100
AcDbEntity
  8
用紙-GR4
  6
Continuous
 62
     6
370
    20
100
AcDbLine
 10
67.68609700993969
 20
129.9871007358134
 30
0.0
 11
67.68609700993969
 21
113.0871007358132
 31
0.0
  0
LINE
  5
3C0
330
1F
100
AcDbEntity
  8
用紙-GR4
  6
Continuous
 62
     6
370
    20
100
AcDbLine
 10
68.87172100993845
 20
130.0871007358133
 30
0.0
 11
68.87172100993845
 21
113.0871007358132
 31
0.0
  0
LINE
  5
3C1
330
1F
100
AcDbEntity
  8
用紙-GR4
  6
Continuous
 62
     6
370
    20
100
AcDbLine
 10
113.5717210099387
 20
130.0871007358132
 30
0.0
 11
113.5717210099387
 21
113.0871007358132
 31
0.0
  0
LINE
  5
3C2
330
1F
100
AcDbEntity
  8
用紙-GR4
  6
Continuous
 62
     7
370
    20
100
AcDbLine
 10
67.68609700993977
 20
96.18710073581317
 30
0.0
 11
66.48609700993978
 21
96.18710073581317
 31
0.0
  0
LINE
  5
3C3
330
1F
100
AcDbEntity
  8
用紙-GR4
  6
Continuous
 62
     7
370
    20
100
AcDbLine
 10
39.08609700993996
 20
100.4871007358133
 30
0.0
 11
39.08609700994006
 21
113.0871007358132
 31
0.0
  0
LINE
  5
3C4
330
1F
100
AcDbEntity
  8
用紙-GR4
  6
DASHED
 62
     6
370
    20
100
AcDbLine
 10
39.08609700993996
 20
102.6291007358134
 30
0.0
 11
45.22609700993988
 21
102.6291007358133
 31
0.0
  0
LINE
  5
3C5
330
1F
100
AcDbEntity
  8
用紙-GR4
  6
DASHED
 62
     6
370
    20
100
AcDbLine
 10
39.08609700993996
 20
102.0871007358132
 30
0.0
 11
45.22609700993988
 21
102.0871007358132
 31
0.0
  0
LINE
  5
3C6
330
1F
100
AcDbEntity
  8
用紙-GR4
  6
DASHED
 62
     6
370
    20
100
AcDbLine
 10
47.22609700993987
 20
102.0871007358132
 30
0.0
 11
47.22609700993987
 21
113.0871007358132
 31
0.0
  0
LINE
  5
3C7
330
1F
100
AcDbEntity
  8
用紙-GR4
  6
DASHED
 62
     6
370
    20
100
AcDbLine
 10
45.22609700993988
 20
102.0871007358132
 30
0.0
 11
45.22609700994006
 21
113.0871007358132
 31
0.0
  0
LINE
  5
3C8
330
1F
100
AcDbEntity
  8
用紙-GR4
  6
DASHED
 62
     6
370
    20
100
AcDbLine
 10
45.22609700993988
 20
102.0871007358132
 30
0.0
 11
47.22609700993987
 21
102.0871007358132
 31
0.0
  0
LINE
  5
3C9
330
1F
100
AcDbEntity
  8
用紙-GR4
  6
Continuous
 62
     7
370
    20
100
AcDbLine
 10
68.08609700993969
 20
96.58710073581337
 30
0.0
 11
68.08609700993969
 21
113.0871007358132
 31
0.0
  0
LINE
  5
3CA
330
1F
100
AcDbEntity
  8
用紙-GR4
  6
Continuous
 62
     7
370
    20
100
AcDbLine
 10
68.08609700993969
 20
97.88710073581507
 30
0.0
 11
68.47172100993856
 21
97.88710073581507
 31
0.0
  0
LINE
  5
3CB
330
1F
100
AcDbEntity
  8
用紙-GR4
  6
Continuous
 62
     7
370
    20
100
AcDbLine
 10
68.08609700993969
 20
96.58710073581328
 30
0.0
 11
67.68609700993977
 21
96.18710073581317
 31
0.0
  0
LINE
  5
3CC
330
1F
100
AcDbEntity
  8
用紙-GR4
  6
Continuous
 62
     7
370
    20
100
AcDbLine
 10
66.08609700993966
 20
96.58710073581328
 30
0.0
 11
66.08609700993918
 21
113.0871007358132
 31
0.0
  0
LINE
  5
3CD
330
1F
100
AcDbEntity
  8
用紙-GR4
  6
Continuous
 62
     7
370
    20
100
AcDbLine
 10
66.48609700993978
 20
96.18710073581317
 30
0.0
 11
66.08609700993966
 21
96.58710073581328
 31
0.0
  0
LINE
  5
3CE
330
1F
100
AcDbEntity
  8
用紙-GR4
  6
Continuous
 62
     7
370
    20
100
AcDbLine
 10
66.08609700993958
 20
100.0871007358132
 30
0.0
 11
39.48609700993987
 21
100.0871007358132
 31
0.0
  0
LINE
  5
3CF
330
1F
100
AcDbEntity
  8
用紙-GR4
  6
Continuous
 62
     7
370
    20
100
AcDbLine
 10
39.48609700993987
 20
100.0871007358132
 30
0.0
 11
39.08609700993996
 21
100.4871007358133
 31
0.0
  0
LINE
  5
3D0
330
1F
100
AcDbEntity
  8
用紙-GR4
  6
Continuous
 62
     7
370
    20
100
AcDbLine
 10
113.9717210099388
 20
96.48710073581316
 30
0.0
 11
113.9717210099388
 21
113.0871007358132
 31
0.0
  0
LINE
  5
3D1
330
1F
100
AcDbEntity
  8
用紙-GR4
  6
Continuous
 62
     7
370
    20
100
AcDbLine
 10
68.47172100993856
 20
96.48710073581327
 30
0.0
 11
68.47172100993856
 21
113.0871007358132
 31
0.0
  0
LINE
  5
3D2
330
1F
100
AcDbEntity
  8
用紙-GR4
  6
Continuous
 62
     7
370
    20
100
AcDbLine
 10
68.87172100993845
 20
96.08710073581328
 30
0.0
 11
68.47172100993856
 21
96.48710073581327
 31
0.0
  0
LINE
  5
3D3
330
1F
100
AcDbEntity
  8
用紙-GR4
  6
Continuous
 62
     7
370
    20
100
AcDbLine
 10
68.87172100993817
 20
96.08710073581328
 30
0.0
 11
113.5717210099387
 21
96.08710073581336
 31
0.0
  0
LINE
  5
3D4
330
1F
100
AcDbEntity
  8
用紙-GR4
  6
Continuous
 62
     7
370
    20
100
AcDbLine
 10
113.5717210099387
 20
96.08710073581336
 30
0.0
 11
113.9717210099388
 21
96.48710073581316
 31
0.0
  0
LINE
  5
3D5
330
1F
100
AcDbEntity
  8
用紙-GR4
  6
Continuous
 62
     6
370
    20
100
AcDbLine
 10
39.48609700993987
 20
100.0871007358132
 30
0.0
 11
39.48609700993987
 21
113.0871007358132
 31
0.0
  0
LINE
  5
3D6
330
1F
100
AcDbEntity
  8
用紙-GR4
  6
Continuous
 62
     6
370
    20
100
AcDbLine
 10
66.48609700993978
 20
113.0871007358132
 30
0.0
 11
66.48609700993978
 21
96.18710073581317
 31
0.0
  0
LINE
  5
3D7
330
1F
100
AcDbEntity
  8
用紙-GR4
  6
Continuous
 62
     6
370
    20
100
AcDbLine
 10
67.68609700993969
 20
96.18710073581317
 30
0.0
 11
67.68609700993969
 21
113.0871007358132
 31
0.0
  0
LINE
  5
3D8
330
1F
100
AcDbEntity
  8
用紙-GR4
  6
Continuous
 62
     6
370
    20
100
AcDbLine
 10
68.87172100993845
 20
96.08710073581328
 30
0.0
 11
68.87172100993845
 21
113.0871007358132
 31
0.0
  0
LINE
  5
3D9
330
1F
100
AcDbEntity
  8
用紙-GR4
  6
Continuous
 62
     6
370
    20
100
AcDbLine
 10
113.5717210099387
 20
96.08710073581336
 30
0.0
 11
113.5717210099387
 21
113.0871007358132
 31
0.0
  0
ENDSEC
  0
SECTION
  2
OBJECTS
  0
DICTIONARY
  5
C
330
0
100
AcDbDictionary
281
     1
  3
ACAD_GROUP
350
D
  3
ACAD_LAYOUT
350
1A
  3
ACAD_MLEADERSTYLE
350
3DB
  3
ACAD_MLINESTYLE
350
17
  3
ACAD_PLOTSETTINGS
350
19
  3
ACAD_PLOTSTYLENAME
350
E
  3
ACAD_TABLESTYLE
350
3DA
  3
ACAD_VISUALSTYLE
350
2A
  3
AcDbVariableDictionary
350
3DC
  0
DICTIONARY
  5
D
102
{ACAD_REACTORS
330
C
102
}
330
C
100
AcDbDictionary
281
     1
  0
DICTIONARY
  5
1A
102
{ACAD_REACTORS
330
C
102
}
330
C
100
AcDbDictionary
281
     1
  3
Layout1
350
1E
  3
Layout2
350
26
  3
Model
350
22
  0
DICTIONARY
  5
3DB
102
{ACAD_REACTORS
330
C
102
}
330
C
100
AcDbDictionary
281
     1
  0
DICTIONARY
  5
17
102
{ACAD_REACTORS
330
C
102
}
330
C
100
AcDbDictionary
281
     1
  3
Standard
350
18
  0
DICTIONARY
  5
19
102
{ACAD_REACTORS
330
C
102
}
330
C
100
AcDbDictionary
281
     1
  0
ACDBDICTIONARYWDFLT
  5
E
102
{ACAD_REACTORS
330
C
102
}
330
C
100
AcDbDictionary
281
     1
  3
Normal
350
F
100
AcDbDictionaryWithDefault
340
F
  0
DICTIONARY
  5
3DA
102
{ACAD_REACTORS
330
C
102
}
330
C
100
AcDbDictionary
281
     1
  0
DICTIONARY
  5
2A
102
{ACAD_REACTORS
330
C
102
}
330
C
100
AcDbDictionary
281
     1
  3
2dWireframe
350
2F
  3
3D Hidden
350
31
  3
3dWireframe
350
30
  3
Basic
350
32
  3
Brighten
350
36
  3
ColorChange
350
3A
  3
Conceptual
350
34
  3
Dim
350
35
  3
Facepattern
350
39
  3
Flat
350
2B
  3
FlatWithEdges
350
2C
  3
Gouraud
350
2D
  3
GouraudWithEdges
350
2E
  3
Linepattern
350
38
  3
Realistic
350
33
  3
Thicken
350
37
  0
DICTIONARY
  5
3DC
102
{ACAD_REACTORS
330
C
102
}
330
C
100
AcDbDictionary
281
     1
  3
PSOLHEIGHT
350
3DE
  3
PSOLWIDTH
350
3DD
  0
LAYOUT
  5
1E
102
{ACAD_REACTORS
330
1A
102
}
330
1A
100
AcDbPlotSettings
  1

  2
none_device
  4

  6

 40
0.0
 41
0.0
 42
0.0
 43
0.0
 44
0.0
 45
0.0
 46
0.0
 47
0.0
 48
0.0
 49
0.0
140
0.0
141
0.0
142
1.0
143
1.0
 70
   688
 72
     0
 73
     0
 74
     5
  7

 75
    16
147
1.0
148
0.0
149
0.0
100
AcDbLayout
  1
Layout1
 70
     1
 71
     1
 10
0.0
 20
0.0
 11
420.0
 21
297.0
 12
0.0
 22
0.0
 32
0.0
 14
1.000000000000000E+20
 24
1.000000000000000E+20
 34
1.000000000000000E+20
 15
-1.000000000000000E+20
 25
-1.000000000000000E+20
 35
-1.000000000000000E+20
146
0.0
 13
0.0
 23
0.0
 33
0.0
 16
1.0
 26
0.0
 36
0.0
 17
0.0
 27
1.0
 37
0.0
 76
     0
330
1B
  0
LAYOUT
  5
26
102
{ACAD_REACTORS
330
1A
102
}
330
1A
100
AcDbPlotSettings
  1

  2
none_device
  4

  6

 40
0.0
 41
0.0
 42
0.0
 43
0.0
 44
0.0
 45
0.0
 46
0.0
 47
0.0
 48
0.0
 49
0.0
140
0.0
141
0.0
142
1.0
143
1.0
 70
   688
 72
     0
 73
     0
 74
     5
  7

 75
    16
147
1.0
148
0.0
149
0.0
100
AcDbLayout
  1
Layout2
 70
     1
 71
     2
 10
0.0
 20
0.0
 11
0.0
 21
0.0
 12
0.0
 22
0.0
 32
0.0
 14
0.0
 24
0.0
 34
0.0
 15
0.0
 25
0.0
 35
0.0
146
0.0
 13
0.0
 23
0.0
 33
0.0
 16
1.0
 26
0.0
 36
0.0
 17
0.0
 27
1.0
 37
0.0
 76
     0
330
23
  0
LAYOUT
  5
22
102
{ACAD_REACTORS
330
1A
102
}
330
1A
100
AcDbPlotSettings
  1

  2
none_device
  4

  6

 40
0.0
 41
0.0
 42
0.0
 43
0.0
 44
0.0
 45
0.0
 46
0.0
 47
0.0
 48
0.0
 49
0.0
140
0.0
141
0.0
142
1.0
143
1.0
 70
  1712
 72
     0
 73
     0
 74
     0
  7

 75
     0
147
1.0
148
0.0
149
0.0
100
AcDbLayout
  1
Model
 70
     1
 71
     0
 10
0.0
 20
0.0
 11
297.0
 21
210.0
 12
0.0
 22
0.0
 32
0.0
 14
0.0
 24
0.0
 34
0.0
 15
297.0
 25
210.0
 35
0.0
146
0.0
 13
0.0
 23
0.0
 33
0.0
 16
1.0
 26
0.0
 36
0.0
 17
0.0
 27
1.0
 37
0.0
 76
     0
330
1F
331
29
  0
MLINESTYLE
  5
18
102
{ACAD_REACTORS
330
17
102
}
330
17
100
AcDbMlineStyle
  2
STANDARD
 70
     0
  3

 62
   256
 51
90.0
 52
90.0
 71
     2
 49
0.5
 62
   256
  6
BYLAYER
 49
-0.5
 62
   256
  6
BYLAYER
  0
ACDBPLACEHOLDER
  5
F
102
{ACAD_REACTORS
330
E
102
}
330
E
  0
VISUALSTYLE
  5
2F
102
{ACAD_REACTORS
330
2A
102
}
330
2A
100
AcDbVisualStyle
  2
2dWireframe
 70
     4
 71
     0
 72
     2
 73
     0
 90
        0
 40
-0.6
 41
-30.0
 62
     5
 63
     7
 74
     1
 91
        4
 64
     7
 65
   257
 75
     1
175
     1
 42
1.0
 92
        0
 66
   257
 43
1.0
 76
     1
 77
     6
 78
     2
 67
     7
 79
     5
170
     0
171
     0
290
     0
174
     0
 93
        1
 44
0.0
173
     0
291
     0
 45
0.0
1001
ACAD
1000
AcDbSavedByObjectVersion
1070
     0
  0
VISUALSTYLE
  5
31
102
{ACAD_REACTORS
330
2A
102
}
330
2A
100
AcDbVisualStyle
  2
3D Hidden
 70
     6
 71
     1
 72
     2
 73
     2
 90
        0
 40
-0.6
 41
-30.0
 62
     5
 63
     7
 74
     2
 91
        2
 64
     7
 65
   257
 75
     2
175
     1
 42
40.0
 92
        0
 66
   257
 43
1.0
 76
     1
 77
     6
 78
     2
 67
     7
 79
     3
170
     0
171
     0
290
     0
174
     0
 93
        1
 44
0.0
173
     0
291
     0
 45
0.0
1001
ACAD
1000
AcDbSavedByObjectVersion
1070
     0
  0
VISUALSTYLE
  5
30
102
{ACAD_REACTORS
330
2A
102
}
330
2A
100
AcDbVisualStyle
  2
3dWireframe
 70
     5
 71
     0
 72
     2
 73
     0
 90
        0
 40
-0.6
 41
-30.0
 62
     5
 63
     7
 74
     1
 91
        4
 64
     7
 65
   257
 75
     1
175
     1
 42
1.0
 92
        0
 66
   257
 43
1.0
 76
     1
 77
     6
 78
     2
 67
     7
 79
     5
170
     0
171
     0
290
     0
174
     0
 93
        1
 44
0.0
173
     0
291
     0
 45
0.0
1001
ACAD
1000
AcDbSavedByObjectVersion
1070
     0
  0
VISUALSTYLE
  5
32
102
{ACAD_REACTORS
330
2A
102
}
330
2A
100
AcDbVisualStyle
  2
Basic
 70
     7
 71
     1
 72
     0
 73
     1
 90
        0
 40
-0.6
 41
-30.0
 62
     5
 63
     7
 74
     0
 91
        4
 64
     7
 65
   257
 75
     1
175
     1
 42
1.0
 92
        8
 66
     7
 43
1.0
 76
     1
 77
     6
 78
     2
 67
     7
 79
     5
170
     0
171
     0
290
     0
174
     0
 93
        1
 44
0.0
173
     0
291
     1
 45
0.0
1001
ACAD
1000
AcDbSavedByObjectVersion
1070
     0
  0
VISUALSTYLE
  5
36
102
{ACAD_REACTORS
330
2A
102
}
330
2A
100
AcDbVisualStyle
  2
Brighten
 70
    12
 71
     2
 72
     2
 73
     0
 90
        0
 40
-0.6
 41
-30.0
 62
     5
 63
     7
 74
     1
 91
        4
 64
     7
 65
   257
 75
     1
175
     1
 42
1.0
 92
        8
 66
     7
 43
1.0
 76
     1
 77
     6
 78
     2
 67
     7
 79
     5
170
     0
171
     0
290
     0
174
     0
 93
        1
 44
50.0
173
     0
291
     1
 45
0.0
1001
ACAD
1000
AcDbSavedByObjectVersion
1070
     0
  0
VISUALSTYLE
  5
3A
102
{ACAD_REACTORS
330
2A
102
}
330
2A
100
AcDbVisualStyle
  2
ColorChange
 70
    16
 71
     2
 72
     2
 73
     3
 90
        0
 40
-0.6
 41
-30.0
 62
     5
 63
     8
 74
     1
 91
        4
 64
     7
 65
   257
 75
     1
175
     1
 42
1.0
 92
        8
 66
     8
 43
1.0
 76
     1
 77
     6
 78
     2
 67
     7
 79
     5
170
     0
171
     0
290
     0
174
     0
 93
        1
 44
0.0
173
     0
291
     1
 45
0.0
1001
ACAD
1000
AcDbSavedByObjectVersion
1070
     0
  0
VISUALSTYLE
  5
34
102
{ACAD_REACTORS
330
2A
102
}
330
2A
100
AcDbVisualStyle
  2
Conceptual
 70
     9
 71
     3
 72
     2
 73
     0
 90
        0
 40
-0.6
 41
-30.0
 62
     5
 63
     7
 74
     2
 91
        2
 64
     7
 65
   257
 75
     1
175
     1
 42
40.0
 92
        8
 66
     7
 43
1.0
 76
     1
 77
     6
 78
     2
 67
     7
 79
     3
170
     0
171
     0
290
     0
174
     0
 93
        1
 44
0.0
173
     0
291
     0
 45
0.0
1001
ACAD
1000
AcDbSavedByObjectVersion
1070
     0
  0
VISUALSTYLE
  5
35
102
{ACAD_REACTORS
330
2A
102
}
330
2A
100
AcDbVisualStyle
  2
Dim
 70
    11
 71
     2
 72
     2
 73
     0
 90
        0
 40
-0.6
 41
-30.0
 62
     5
 63
     7
 74
     1
 91
        4
 64
     7
 65
   257
 75
     1
175
     1
 42
1.0
 92
        8
 66
     7
 43
1.0
 76
     1
 77
     6
 78
     2
 67
     7
 79
     5
170
     0
171
     0
290
     0
174
     0
 93
        1
 44
-50.0
173
     0
291
     1
 45
0.0
1001
ACAD
1000
AcDbSavedByObjectVersion
1070
     0
  0
VISUALSTYLE
  5
39
102
{ACAD_REACTORS
330
2A
102
}
330
2A
100
AcDbVisualStyle
  2
Facepattern
 70
    15
 71
     2
 72
     2
 73
     0
 90
        0
 40
-0.6
 41
-30.0
 62
     5
 63
     7
 74
     1
 91
        4
 64
     7
 65
   257
 75
     1
175
     1
 42
1.0
 92
        8
 66
     7
 43
1.0
 76
     1
 77
     6
 78
     2
 67
     7
 79
     5
170
     0
171
     0
290
     0
174
     0
 93
        1
 44
0.0
173
     0
291
     1
 45
0.0
1001
ACAD
1000
AcDbSavedByObjectVersion
1070
     0
  0
VISUALSTYLE
  5
2B
102
{ACAD_REACTORS
330
2A
102
}
330
2A
100
AcDbVisualStyle
  2
Flat
 70
     0
 71
     2
 72
     1
 73
     1
 90
        2
 40
-0.6
 41
30.0
 62
     5
 63
     7
 74
     0
 91
        4
 64
     7
 65
   257
 75
     1
175
     1
 42
1.0
 92
        8
 66
     7
 43
1.0
 76
     1
 77
     6
 78
     2
 67
     7
 79
     5
170
     0
171
     0
290
     0
174
     0
 93
       13
 44
0.0
173
     0
291
     1
 45
0.0
1001
ACAD
1000
AcDbSavedByObjectVersion
1070
     0
  0
VISUALSTYLE
  5
2C
102
{ACAD_REACTORS
330
2A
102
}
330
2A
100
AcDbVisualStyle
  2
FlatWithEdges
 70
     1
 71
     2
 72
     1
 73
     1
 90
        2
 40
-0.6
 41
30.0
 62
     5
 63
     7
 74
     1
 91
        4
 64
     7
 65
   257
 75
     1
175
     1
 42
1.0
 92
        0
 66
   257
 43
1.0
 76
     1
 77
     6
 78
     2
 67
     7
 79
     5
170
     0
171
     0
290
     0
174
     0
 93
       13
 44
0.0
173
     0
291
     1
 45
0.0
1001
ACAD
1000
AcDbSavedByObjectVersion
1070
     0
  0
VISUALSTYLE
  5
2D
102
{ACAD_REACTORS
330
2A
102
}
330
2A
100
AcDbVisualStyle
  2
Gouraud
 70
     2
 71
     2
 72
     2
 73
     1
 90
        2
 40
-0.6
 41
30.0
 62
     5
 63
     7
 74
     0
 91
        4
 64
     7
 65
   257
 75
     1
175
     1
 42
1.0
 92
        0
 66
     7
 43
1.0
 76
     1
 77
     6
 78
     2
 67
     7
 79
     5
170
     0
171
     0
290
     0
174
     0
 93
       13
 44
0.0
173
     0
291
     1
 45
0.0
1001
ACAD
1000
AcDbSavedByObjectVersion
1070
     0
  0
VISUALSTYLE
  5
2E
102
{ACAD_REACTORS
330
2A
102
}
330
2A
100
AcDbVisualStyle
  2
GouraudWithEdges
 70
     3
 71
     2
 72
     2
 73
     1
 90
        2
 40
-0.6
 41
30.0
 62
     5
 63
     7
 74
     1
 91
        4
 64
     7
 65
   257
 75
     1
175
     1
 42
1.0
 92
        0
 66
   257
 43
1.0
 76
     1
 77
     6
 78
     2
 67
     7
 79
     5
170
     0
171
     0
290
     0
174
     0
 93
       13
 44
0.0
173
     0
291
     1
 45
0.0
1001
ACAD
1000
AcDbSavedByObjectVersion
1070
     0
  0
VISUALSTYLE
  5
38
102
{ACAD_REACTORS
330
2A
102
}
330
2A
100
AcDbVisualStyle
  2
Linepattern
 70
    14
 71
     2
 72
     2
 73
     0
 90
        0
 40
-0.6
 41
-30.0
 62
     5
 63
     7
 74
     1
 91
        4
 64
     7
 65
   257
 75
     7
175
     7
 42
1.0
 92
        8
 66
     7
 43
1.0
 76
     1
 77
     6
 78
     2
 67
     7
 79
     5
170
     0
171
     0
290
     0
174
     0
 93
        1
 44
0.0
173
     0
291
     1
 45
0.0
1001
ACAD
1000
AcDbSavedByObjectVersion
1070
     0
  0
VISUALSTYLE
  5
33
102
{ACAD_REACTORS
330
2A
102
}
330
2A
100
AcDbVisualStyle
  2
Realistic
 70
     8
 71
     2
 72
     2
 73
     0
 90
        0
 40
-0.6
 41
-30.0
 62
     5
 63
     7
 74
     1
 91
        0
 64
     7
 65
   257
 75
     1
175
     1
 42
1.0
 92
        8
 66
     8
 43
1.0
 76
     1
 77
     6
 78
     2
 67
     7
 79
     5
170
     0
171
     0
290
     0
174
     0
 93
       13
 44
0.0
173
     0
291
     0
 45
0.0
1001
ACAD
1000
AcDbSavedByObjectVersion
1070
     0
  0
VISUALSTYLE
  5
37
102
{ACAD_REACTORS
330
2A
102
}
330
2A
100
AcDbVisualStyle
  2
Thicken
 70
    13
 71
     2
 72
     2
 73
     0
 90
        0
 40
-0.6
 41
-30.0
 62
     5
 63
     7
 74
     1
 91
        4
 64
     7
 65
   257
 75
     1
175
     1
 42
1.0
 92
       12
 66
     7
 43
1.0
 76
     1
 77
     6
 78
     2
 67
     7
 79
     5
170
     0
171
     0
290
     0
174
     0
 93
        1
 44
0.0
173
     0
291
     1
 45
0.0
1001
ACAD
1000
AcDbSavedByObjectVersion
1070
     0
  0
DICTIONARYVAR
  5
3DE
102
{ACAD_REACTORS
330
3DC
102
}
330
3DC
100
DictionaryVariables
280
     0
  1
80.000000
  0
DICTIONARYVAR
  5
3DD
102
{ACAD_REACTORS
330
3DC
102
}
330
3DC
100
DictionaryVariables
280
     0
  1
5.000000
  0
ENDSEC
  0
EOF
