  0
SECTION
  2
HEADER
  9
$ACADVER
  1
AC1015
  9
$ACADMAINTVER
 70
    10
  9
$DWGCODEPAGE
  3
ANSI_932
  9
$INSBASE
 10
0.0
 20
0.0
 30
0.0
  9
$EXTMIN
 10
-41.13564630182452
 20
28.99292044457155
 30
-0.0000000349181948
  9
$EXTMAX
 10
63.78462513885086
 20
78.8044742131658
 30
0.0000000814935747
  9
$LIMMIN
 10
0.0
 20
0.0
  9
$LIMMAX
 10
297.0
 20
210.0
  9
$ORTHOMODE
 70
     0
  9
$REGENMODE
 70
     1
  9
$FILLMODE
 70
     1
  9
$QTEXTMODE
 70
     0
  9
$MIRRTEXT
 70
     1
  9
$LTSCALE
 40
1.0
  9
$ATTMODE
 70
     1
  9
$TEXTSIZE
 40
0.2
  9
$TRACEWID
 40
1.0
  9
$TEXTSTYLE
  7
STYLE003
  9
$CLAYER
  8
0
  9
$CELTYPE
  6
ByLayer
  9
$CECOLOR
 62
   256
  9
$CELTSCALE
 40
1.0
  9
$DISPSILH
 70
     0
  9
$DIMSCALE
 40
1.0
  9
$DIMASZ
 40
3.0
  9
$DIMEXO
 40
1.0
  9
$DIMDLI
 40
10.0
  9
$DIMRND
 40
0.0
  9
$DIMDLE
 40
3.0
  9
$DIMEXE
 40
1.5
  9
$DIMTP
 40
0.0
  9
$DIMTM
 40
0.0
  9
$DIMTXT
 40
3.5
  9
$DIMCEN
 40
2.5
  9
$DIMTSZ
 40
0.0
  9
$DIMTOL
 70
     0
  9
$DIMLIM
 70
     0
  9
$DIMTIH
 70
     0
  9
$DIMTOH
 70
     0
  9
$DIMSE1
 70
     0
  9
$DIMSE2
 70
     0
  9
$DIMTAD
 70
     1
  9
$DIMZIN
 70
     8
  9
$DIMBLK
  1

  9
$DIMASO
 70
     1
  9
$DIMSHO
 70
     1
  9
$DIMPOST
  1

  9
$DIMAPOST
  1

  9
$DIMALT
 70
     0
  9
$DIMALTD
 70
     3
  9
$DIMALTF
 40
0.03937
  9
$DIMLFAC
 40
1.0
  9
$DIMTOFL
 70
     1
  9
$DIMTVP
 40
0.0
  9
$DIMTIX
 70
     0
  9
$DIMSOXD
 70
     0
  9
$DIMSAH
 70
     1
  9
$DIMBLK1
  1
FXTIP_ARROW_S
  9
$DIMBLK2
  1
FXTIP_ARROW_E
  9
$DIMSTYLE
  2
FXDIMINFO
  9
$DIMCLRD
 70
     6
  9
$DIMCLRE
 70
     6
  9
$DIMCLRT
 70
     6
  9
$DIMTFAC
 40
1.0
  9
$DIMGAP
 40
0.5
  9
$DIMJUST
 70
     0
  9
$DIMSD1
 70
     0
  9
$DIMSD2
 70
     0
  9
$DIMTOLJ
 70
     1
  9
$DIMTZIN
 70
     8
  9
$DIMALTZ
 70
     0
  9
$DIMALTTZ
 70
     0
  9
$DIMUPT
 70
     0
  9
$DIMDEC
 70
     2
  9
$DIMTDEC
 70
     2
  9
$DIMALTU
 70
     2
  9
$DIMALTTD
 70
     3
  9
$DIMTXSTY
  7
STYLE003
  9
$DIMAUNIT
 70
     0
  9
$DIMADEC
 70
     2
  9
$DIMALTRND
 40
0.0
  9
$DIMAZIN
 70
     0
  9
$DIMDSEP
 70
    46
  9
$DIMATFIT
 70
     3
  9
$DIMFRAC
 70
     0
  9
$DIMLDRBLK
  1
FXTIP_ARROW_S
  9
$DIMLUNIT
 70
     2
  9
$DIMLWD
 70
    -2
  9
$DIMLWE
 70
    -2
  9
$DIMTMOVE
 70
     0
  9
$LUNITS
 70
     2
  9
$LUPREC
 70
     4
  9
$SKETCHINC
 40
1.0
  9
$FILLETRAD
 40
10.0
  9
$AUNITS
 70
     0
  9
$AUPREC
 70
     0
  9
$MENU
  1
.
  9
$ELEVATION
 40
0.0
  9
$PELEVATION
 40
0.0
  9
$THICKNESS
 40
0.0
  9
$LIMCHECK
 70
     0
  9
$CHAMFERA
 40
10.0
  9
$CHAMFERB
 40
10.0
  9
$CHAMFERC
 40
20.0
  9
$CHAMFERD
 40
0.0
  9
$SKPOLY
 70
     0
  9
$TDCREATE
 40
2456668.786747696
  9
$TDUCREATE
 40
2456668.411747696
  9
$TDUPDATE
 40
2456673.825531006
  9
$TDUUPDATE
 40
2456673.450531007
  9
$TDINDWG
 40
0.0065831250
  9
$TDUSRTIMER
 40
0.0065804051
  9
$USRTIMER
 70
     1
  9
$ANGBASE
 50
0.0
  9
$ANGDIR
 70
     0
  9
$PDMODE
 70
     0
  9
$PDSIZE
 40
0.0
  9
$PLINEWID
 40
0.0
  9
$SPLFRAME
 70
     0
  9
$SPLINETYPE
 70
     6
  9
$SPLINESEGS
 70
     8
  9
$HANDSEED
  5
580
  9
$SURFTAB1
 70
     6
  9
$SURFTAB2
 70
     6
  9
$SURFTYPE
 70
     6
  9
$SURFU
 70
     6
  9
$SURFV
 70
     6
  9
$UCSBASE
  2

  9
$UCSNAME
  2

  9
$UCSORG
 10
0.0
 20
0.0
 30
0.0
  9
$UCSXDIR
 10
1.0
 20
0.0
 30
0.0
  9
$UCSYDIR
 10
0.0
 20
1.0
 30
0.0
  9
$UCSORTHOREF
  2

  9
$UCSORTHOVIEW
 70
     0
  9
$UCSORGTOP
 10
0.0
 20
0.0
 30
0.0
  9
$UCSORGBOTTOM
 10
0.0
 20
0.0
 30
0.0
  9
$UCSORGLEFT
 10
0.0
 20
0.0
 30
0.0
  9
$UCSORGRIGHT
 10
0.0
 20
0.0
 30
0.0
  9
$UCSORGFRONT
 10
0.0
 20
0.0
 30
0.0
  9
$UCSORGBACK
 10
0.0
 20
0.0
 30
0.0
  9
$PUCSBASE
  2

  9
$PUCSNAME
  2

  9
$PUCSORG
 10
0.0
 20
0.0
 30
0.0
  9
$PUCSXDIR
 10
1.0
 20
0.0
 30
0.0
  9
$PUCSYDIR
 10
0.0
 20
1.0
 30
0.0
  9
$PUCSORTHOREF
  2

  9
$PUCSORTHOVIEW
 70
     0
  9
$PUCSORGTOP
 10
0.0
 20
0.0
 30
0.0
  9
$PUCSORGBOTTOM
 10
0.0
 20
0.0
 30
0.0
  9
$PUCSORGLEFT
 10
0.0
 20
0.0
 30
0.0
  9
$PUCSORGRIGHT
 10
0.0
 20
0.0
 30
0.0
  9
$PUCSORGFRONT
 10
0.0
 20
0.0
 30
0.0
  9
$PUCSORGBACK
 10
0.0
 20
0.0
 30
0.0
  9
$USERI1
 70
     0
  9
$USERI2
 70
     0
  9
$USERI3
 70
     0
  9
$USERI4
 70
     0
  9
$USERI5
 70
     0
  9
$USERR1
 40
0.0
  9
$USERR2
 40
0.0
  9
$USERR3
 40
0.0
  9
$USERR4
 40
0.0
  9
$USERR5
 40
0.0
  9
$WORLDVIEW
 70
     1
  9
$SHADEDGE
 70
     3
  9
$SHADEDIF
 70
    70
  9
$TILEMODE
 70
     1
  9
$MAXACTVP
 70
    64
  9
$PINSBASE
 10
0.0
 20
0.0
 30
0.0
  9
$PLIMCHECK
 70
     0
  9
$PEXTMIN
 10
1.000000000000000E+20
 20
1.000000000000000E+20
 30
1.000000000000000E+20
  9
$PEXTMAX
 10
-1.000000000000000E+20
 20
-1.000000000000000E+20
 30
-1.000000000000000E+20
  9
$PLIMMIN
 10
0.0
 20
0.0
  9
$PLIMMAX
 10
420.0
 20
297.0
  9
$UNITMODE
 70
     0
  9
$VISRETAIN
 70
     1
  9
$PLINEGEN
 70
     0
  9
$PSLTSCALE
 70
     1
  9
$TREEDEPTH
 70
  3020
  9
$CMLSTYLE
  2
Standard
  9
$CMLJUST
 70
     0
  9
$CMLSCALE
 40
20.0
  9
$PROXYGRAPHICS
 70
     1
  9
$MEASUREMENT
 70
     1
  9
$CELWEIGHT
370
    -1
  9
$ENDCAPS
280
     0
  9
$JOINSTYLE
280
     0
  9
$LWDISPLAY
290
     0
  9
$INSUNITS
 70
     4
  9
$HYPERLINKBASE
  1

  9
$STYLESHEET
  1
monochrome.ctb
  9
$XEDIT
290
     1
  9
$CEPSNTYPE
380
     0
  9
$PSTYLEMODE
290
     1
  9
$FINGERPRINTGUID
  2
{64B711A0-0A49-468E-BE39-98502296E2CD}
  9
$VERSIONGUID
  2
{629C00CA-F4B8-4A4B-8793-8F7FF42D0D0E}
  9
$EXTNAMES
290
     1
  9
$PSVPSCALE
 40
0.0
  9
$OLESTARTUP
290
     0
  0
ENDSEC
  0
SECTION
  2
CLASSES
  0
CLASS
  1
ACDBDICTIONARYWDFLT
  2
AcDbDictionaryWithDefault
  3
AutoCAD 2000
 90
        0
280
     0
281
     0
  0
CLASS
  1
VISUALSTYLE
  2
AcDbVisualStyle
  3
ObjectDBX Classes
 90
     4095
280
     0
281
     0
  0
CLASS
  1
DICTIONARYVAR
  2
AcDbDictionaryVar
  3
AutoCAD 2000
 90
        0
280
     0
281
     0
  0
CLASS
  1
ACDBPLACEHOLDER
  2
AcDbPlaceHolder
  3
AutoCAD 2000
 90
        0
280
     0
281
     0
  0
CLASS
  1
LAYOUT
  2
AcDbLayout
  3
AutoCAD 2000
 90
        0
280
     0
281
     0
  0
ENDSEC
  0
SECTION
  2
TABLES
  0
TABLE
  2
VPORT
  5
8
330
0
100
AcDbSymbolTable
 70
     6
  0
VPORT
  5
57F
330
8
100
AcDbSymbolTableRecord
100
AcDbViewportTableRecord
  2
*Active
 70
     0
 10
0.0
 20
0.0
 11
1.0
 21
1.0
 12
127.9321768490877
 22
105.0
 13
0.0
 23
0.0
 14
10.0
 24
10.0
 15
10.0
 25
10.0
 16
0.0
 26
0.0
 36
1.0
 17
0.0
 27
0.0
 37
0.0
 40
212.2340425531914
 41
2.119005328596802
 42
50.0
 43
0.0
 44
0.0
 50
0.0
 51
0.0
 71
     0
 72
   100
 73
     1
 74
     3
 75
     0
 76
     0
 77
     0
 78
     0
281
     0
 65
     1
110
0.0
120
0.0
130
0.0
111
1.0
121
0.0
131
0.0
112
0.0
122
1.0
132
0.0
 79
     0
146
0.0
  0
ENDTAB
  0
TABLE
  2
LTYPE
  5
5
330
0
100
AcDbSymbolTable
 70
     4
  0
LTYPE
  5
14
330
5
100
AcDbSymbolTableRecord
100
AcDbLinetypeTableRecord
  2
ByBlock
 70
     0
  3

 72
    65
 73
     0
 40
0.0
  0
LTYPE
  5
15
330
5
100
AcDbSymbolTableRecord
100
AcDbLinetypeTableRecord
  2
ByLayer
 70
     0
  3

 72
    65
 73
     0
 40
0.0
  0
LTYPE
  5
16
330
5
100
AcDbSymbolTableRecord
100
AcDbLinetypeTableRecord
  2
Continuous
 70
     0
  3
Continuous ___________________________________
 72
    65
 73
     0
 40
0.0
  0
LTYPE
  5
3B
330
5
100
AcDbSymbolTableRecord
100
AcDbLinetypeTableRecord
  2
DASHDOT
 70
     0
  3
Dash dot __ . __ . __ . __ . __ . __ . __ . __
 72
    65
 73
     4
 40
25.3
 49
12.7
 74
     0
 49
-6.299999999999998
 74
     0
 49
0.0
 74
     0
 49
-6.299999999999998
 74
     0
  0
LTYPE
  5
3E
330
5
100
AcDbSymbolTableRecord
100
AcDbLinetypeTableRecord
  2
DASHED
 70
     0
  3
Dashed __ __ __ __ __ __ __ __ __ __ __ __ __ _
 72
    65
 73
     2
 40
19.0
 49
12.7
 74
     0
 49
-6.299999999999998
 74
     0
  0
LTYPE
  5
1E8
330
5
100
AcDbSymbolTableRecord
100
AcDbLinetypeTableRecord
  2
DASH_DOT
 70
     0
  3

 72
    65
 73
     4
 40
0.5
 49
0.2
 74
     0
 49
-0.1
 74
     0
 49
0.1
 74
     0
 49
-0.1
 74
     0
  0
ENDTAB
  0
TABLE
  2
LAYER
  5
2
330
0
100
AcDbSymbolTable
 70
     4
  0
LAYER
  5
10
330
2
100
AcDbSymbolTableRecord
100
AcDbLayerTableRecord
  2
0
 70
     0
 62
     7
  6
Continuous
370
    -3
390
F
  0
LAYER
  5
AA
330
2
100
AcDbSymbolTableRecord
100
AcDbLayerTableRecord
  2
Defpoints
 70
     0
 62
     7
  6
Continuous
290
     0
370
    -3
390
F
  0
LAYER
  5
AB
330
2
100
AcDbSymbolTableRecord
100
AcDbLayerTableRecord
  2
LAYER004
 70
     0
 62
     7
  6
Continuous
370
    -3
390
F
  0
LAYER
  5
260
330
2
100
AcDbSymbolTableRecord
100
AcDbLayerTableRecord
  2
用紙-GR2
 70
     0
 62
     7
  6
Continuous
370
    -3
390
F
  0
ENDTAB
  0
TABLE
  2
STYLE
  5
3
330
0
100
AcDbSymbolTable
 70
     3
  0
STYLE
  5
11
330
3
100
AcDbSymbolTableRecord
100
AcDbTextStyleTableRecord
  2
Standard
 70
     0
 40
0.0
 41
1.0
 50
0.0
 71
     0
 42
2.5
  3
txt
  4

  0
STYLE
  5
41
330
3
100
AcDbSymbolTableRecord
100
AcDbTextStyleTableRecord
  2
FX_VECTOR
 70
     0
 40
0.0
 41
1.0
 50
0.0
 71
     0
 42
0.2
  3
MONOTXT.SHX
  4
BigFont.shx
  0
STYLE
  5
A9
330
3
100
AcDbSymbolTableRecord
100
AcDbTextStyleTableRecord
  2
STYLE003
 70
     0
 40
0.0
 41
1.0
 50
0.0
 71
     0
 42
0.2
  3

  4

1001
ACAD
1000
ＭＳ 明朝
1071
    32785
  0
ENDTAB
  0
TABLE
  2
VIEW
  5
6
330
0
100
AcDbSymbolTable
 70
     0
  0
ENDTAB
  0
TABLE
  2
UCS
  5
7
330
0
100
AcDbSymbolTable
 70
     0
  0
ENDTAB
  0
TABLE
  2
APPID
  5
9
330
0
100
AcDbSymbolTable
 70
     1
  0
APPID
  5
12
330
9
100
AcDbSymbolTableRecord
100
AcDbRegAppTableRecord
  2
ACAD
 70
     0
  0
ENDTAB
  0
TABLE
  2
DIMSTYLE
  5
A
330
0
100
AcDbSymbolTable
 70
     2
100
AcDbDimStyleTable
 71
     2
340
A8
340
27
  0
DIMSTYLE
105
27
330
A
100
AcDbSymbolTableRecord
100
AcDbDimStyleTableRecord
  2
ISO-25
 70
     0
 41
2.5
 42
0.625
 43
3.75
 44
1.25
 73
     0
 74
     0
 77
     1
 78
     8
140
2.5
141
2.5
143
0.03937007874016
147
0.625
171
     3
172
     1
271
     2
272
     2
274
     3
278
    44
283
     0
284
     8
340
11
  0
DIMSTYLE
105
A8
102
{ACAD_REACTORS
330
280
330
28D
330
297
330
2A0
330
2A9
330
2B6
330
2C3
330
2CF
330
2DC
330
2E8
330
2FB
330
305
330
313
102
}
330
A
100
AcDbSymbolTableRecord
100
AcDbDimStyleTableRecord
  2
FXDIMINFO
 70
     0
 41
3.0
 42
1.0
 43
10.0
 44
1.5
 46
3.0
 73
     0
 74
     0
 77
     1
 78
     8
140
3.5
141
2.5
143
0.03937
147
0.5
171
     3
172
     1
173
     1
176
     6
177
     6
178
     6
179
     2
271
     2
272
     2
274
     3
284
     8
340
A9
341
42
343
42
344
48
  0
ENDTAB
  0
TABLE
  2
BLOCK_RECORD
  5
1
330
0
100
AcDbSymbolTable
 70
    40
  0
BLOCK_RECORD
  5
1F
330
1
100
AcDbSymbolTableRecord
100
AcDbBlockTableRecord
  2
*Model_Space
340
22
  0
BLOCK_RECORD
  5
1B
330
1
100
AcDbSymbolTableRecord
100
AcDbBlockTableRecord
  2
*Paper_Space
340
1E
  0
BLOCK_RECORD
  5
23
330
1
100
AcDbSymbolTableRecord
100
AcDbBlockTableRecord
  2
*Paper_Space0
340
26
  0
BLOCK_RECORD
  5
42
330
1
100
AcDbSymbolTableRecord
100
AcDbBlockTableRecord
  2
FXTIP_ARROW_S
340
0
102
{BLKREFS
331
28A
331
293
331
29D
331
2A6
331
2B3
331
2C0
331
2CC
331
2D9
331
2E5
331
2EF
331
302
331
30F
331
319
331
338
331
341
331
34A
331
353
331
35C
331
365
331
36E
331
377
331
380
331
38A
331
393
331
39F
331
3AB
331
3B4
331
3BE
331
3C7
331
3D0
331
3D9
331
3E2
331
3EB
331
3F4
331
3FD
331
409
331
413
331
41C
331
427
331
438
331
441
331
44A
331
455
331
45E
331
467
331
470
331
47B
331
485
331
491
331
49C
331
4A7
331
4B2
331
4BB
331
4C7
331
4D1
331
4DB
331
4E4
331
4ED
331
4F6
331
501
331
50C
331
515
331
51E
331
529
331
532
331
53B
331
547
331
550
331
559
331
565
331
56D
331
579
102
}
  0
BLOCK_RECORD
  5
48
330
1
100
AcDbSymbolTableRecord
100
AcDbBlockTableRecord
  2
FXTIP_ARROW_E
340
0
102
{BLKREFS
331
28C
331
294
331
29E
331
2A7
331
2B5
331
2C2
331
2CE
331
2DB
331
2E7
331
2EE
331
301
331
311
331
31A
331
339
331
342
331
34B
331
354
331
35D
331
366
331
36F
331
378
331
37F
331
38B
331
394
331
39E
331
3AC
331
3B3
331
3BF
331
3C8
331
3D1
331
3DA
331
3E3
331
3EC
331
3F5
331
3FE
331
408
331
414
331
41D
331
428
331
439
331
442
331
44B
331
456
331
45F
331
468
331
471
331
47A
331
486
331
490
331
49D
331
4A8
331
4B3
331
4BC
331
4C6
331
4D0
331
4DC
331
4E5
331
4EE
331
4F7
331
502
331
50D
331
516
331
51F
331
52A
331
533
331
53C
331
548
331
551
331
55A
331
564
331
56E
331
578
102
}
  0
BLOCK_RECORD
  5
4E
330
1
100
AcDbSymbolTableRecord
100
AcDbBlockTableRecord
  2
FXTIP_BLACKDOT_S
340
0
  0
BLOCK_RECORD
  5
54
330
1
100
AcDbSymbolTableRecord
100
AcDbBlockTableRecord
  2
FXTIP_BLACKDOT_E
340
0
  0
BLOCK_RECORD
  5
5A
330
1
100
AcDbSymbolTableRecord
100
AcDbBlockTableRecord
  2
FXTIP_TRIANGLE_S
340
0
  0
BLOCK_RECORD
  5
61
330
1
100
AcDbSymbolTableRecord
100
AcDbBlockTableRecord
  2
FXTIP_TRIANGLE_E
340
0
  0
BLOCK_RECORD
  5
68
330
1
100
AcDbSymbolTableRecord
100
AcDbBlockTableRecord
  2
FXTIP_ARCHITECT_S
340
0
  0
BLOCK_RECORD
  5
6E
330
1
100
AcDbSymbolTableRecord
100
AcDbBlockTableRecord
  2
FXTIP_ARCHITECT_E
340
0
  0
BLOCK_RECORD
  5
74
330
1
100
AcDbSymbolTableRecord
100
AcDbBlockTableRecord
  2
FXTIP_CIVIL_S
340
0
  0
BLOCK_RECORD
  5
7A
330
1
100
AcDbSymbolTableRecord
100
AcDbBlockTableRecord
  2
FXTIP_CIVIL_E
340
0
  0
BLOCK_RECORD
  5
80
330
1
100
AcDbSymbolTableRecord
100
AcDbBlockTableRecord
  2
FXTIP_WHITEDOT_S
340
0
  0
BLOCK_RECORD
  5
85
330
1
100
AcDbSymbolTableRecord
100
AcDbBlockTableRecord
  2
FXTIP_WHITEDOT_E
340
0
  0
BLOCK_RECORD
  5
8A
330
1
100
AcDbSymbolTableRecord
100
AcDbBlockTableRecord
  2
FXTIP_UPARROW_S
340
0
  0
BLOCK_RECORD
  5
8F
330
1
100
AcDbSymbolTableRecord
100
AcDbBlockTableRecord
  2
FXTIP_UPARROW_E
340
0
  0
BLOCK_RECORD
  5
94
330
1
100
AcDbSymbolTableRecord
100
AcDbBlockTableRecord
  2
FXTIP_DOWNARROW_S
340
0
  0
BLOCK_RECORD
  5
99
330
1
100
AcDbSymbolTableRecord
100
AcDbBlockTableRecord
  2
FXTIP_DOWNARROW_E
340
0
  0
BLOCK_RECORD
  5
9E
330
1
100
AcDbSymbolTableRecord
100
AcDbBlockTableRecord
  2
FXTIP_BLACKTRIANGLE_S
340
0
  0
BLOCK_RECORD
  5
A3
330
1
100
AcDbSymbolTableRecord
100
AcDbBlockTableRecord
  2
FXTIP_BLACKTRIANGLE_E
340
0
  0
BLOCK_RECORD
  5
1A9
330
1
100
AcDbSymbolTableRecord
100
AcDbBlockTableRecord
  2
BLKF021
340
0
102
{BLKREFS
331
1AC
102
}
  0
BLOCK_RECORD
  5
1AF
330
1
100
AcDbSymbolTableRecord
100
AcDbBlockTableRecord
  2
FXDIM022
340
0
102
{BLKREFS
331
1B2
102
}
  0
BLOCK_RECORD
  5
1B7
330
1
100
AcDbSymbolTableRecord
100
AcDbBlockTableRecord
  2
BLKF023
340
0
102
{BLKREFS
331
1BA
102
}
  0
BLOCK_RECORD
  5
1CF
330
1
100
AcDbSymbolTableRecord
100
AcDbBlockTableRecord
  2
BLKF024
340
0
102
{BLKREFS
331
1D2
102
}
  0
BLOCK_RECORD
  5
1DE
330
1
100
AcDbSymbolTableRecord
100
AcDbBlockTableRecord
  2
BLKF025
340
0
102
{BLKREFS
331
1E1
102
}
  0
BLOCK_RECORD
  5
20E
330
1
100
AcDbSymbolTableRecord
100
AcDbBlockTableRecord
  2
BLKF026
340
0
102
{BLKREFS
331
211
102
}
  0
BLOCK_RECORD
  5
250
330
1
100
AcDbSymbolTableRecord
100
AcDbBlockTableRecord
  2
BLKF027
340
0
102
{BLKREFS
331
253
102
}
  0
BLOCK_RECORD
  5
262
330
1
100
AcDbSymbolTableRecord
100
AcDbBlockTableRecord
  2
BLKF028
340
0
102
{BLKREFS
331
265
102
}
  0
BLOCK_RECORD
  5
281
330
1
100
AcDbSymbolTableRecord
100
AcDbBlockTableRecord
  2
*D27
340
0
  0
BLOCK_RECORD
  5
28E
330
1
100
AcDbSymbolTableRecord
100
AcDbBlockTableRecord
  2
*D28
340
0
  0
BLOCK_RECORD
  5
298
330
1
100
AcDbSymbolTableRecord
100
AcDbBlockTableRecord
  2
*D29
340
0
  0
BLOCK_RECORD
  5
2A1
330
1
100
AcDbSymbolTableRecord
100
AcDbBlockTableRecord
  2
*D30
340
0
  0
BLOCK_RECORD
  5
2AA
330
1
100
AcDbSymbolTableRecord
100
AcDbBlockTableRecord
  2
*D31
340
0
  0
BLOCK_RECORD
  5
2B7
330
1
100
AcDbSymbolTableRecord
100
AcDbBlockTableRecord
  2
*D32
340
0
  0
BLOCK_RECORD
  5
2C4
330
1
100
AcDbSymbolTableRecord
100
AcDbBlockTableRecord
  2
*D33
340
0
  0
BLOCK_RECORD
  5
2D0
330
1
100
AcDbSymbolTableRecord
100
AcDbBlockTableRecord
  2
*D34
340
0
  0
BLOCK_RECORD
  5
2DD
330
1
100
AcDbSymbolTableRecord
100
AcDbBlockTableRecord
  2
*D35
340
0
  0
BLOCK_RECORD
  5
2E9
330
1
100
AcDbSymbolTableRecord
100
AcDbBlockTableRecord
  2
*D36
340
0
  0
BLOCK_RECORD
  5
2FC
330
1
100
AcDbSymbolTableRecord
100
AcDbBlockTableRecord
  2
*D37
340
0
  0
BLOCK_RECORD
  5
306
330
1
100
AcDbSymbolTableRecord
100
AcDbBlockTableRecord
  2
*D38
340
0
  0
BLOCK_RECORD
  5
314
330
1
100
AcDbSymbolTableRecord
100
AcDbBlockTableRecord
  2
*D39
340
0
  0
ENDTAB
  0
ENDSEC
  0
SECTION
  2
BLOCKS
  0
BLOCK
  5
20
330
1F
100
AcDbEntity
  8
0
100
AcDbBlockBegin
  2
*Model_Space
 70
     0
 10
0.0
 20
0.0
 30
0.0
  3
*Model_Space
  1

  0
ENDBLK
  5
21
330
1F
100
AcDbEntity
  8
0
100
AcDbBlockEnd
  0
BLOCK
  5
1C
330
1B
100
AcDbEntity
 67
     1
  8
0
100
AcDbBlockBegin
  2
*Paper_Space
 70
     0
 10
0.0
 20
0.0
 30
0.0
  3
*Paper_Space
  1

  0
ENDBLK
  5
1D
330
1B
100
AcDbEntity
 67
     1
  8
0
100
AcDbBlockEnd
  0
BLOCK
  5
24
330
23
100
AcDbEntity
  8
0
100
AcDbBlockBegin
  2
*Paper_Space0
 70
     0
 10
0.0
 20
0.0
 30
0.0
  3
*Paper_Space0
  1

  0
ENDBLK
  5
25
330
23
100
AcDbEntity
  8
0
100
AcDbBlockEnd
  0
BLOCK
  5
43
330
42
100
AcDbEntity
  8
0
100
AcDbBlockBegin
  2
FXTIP_ARROW_S
 70
     0
 10
0.0
 20
0.0
 30
0.0
  3
FXTIP_ARROW_S
  1

  0
LINE
  5
45
330
42
100
AcDbEntity
  8
0
  6
Continuous
 62
     0
370
    -2
100
AcDbLine
 10
0.0
 20
0.0
 30
0.0
 11
-1.0
 21
0.0000000000000001
 31
0.0
  0
LINE
  5
46
330
42
100
AcDbEntity
  8
0
  6
Continuous
 62
     0
370
    -2
100
AcDbLine
 10
0.0
 20
0.0
 30
0.0
 11
-0.9659258262890684
 21
-0.2588190451025206
 31
0.0
  0
LINE
  5
47
330
42
100
AcDbEntity
  8
0
  6
Continuous
 62
     0
370
    -2
100
AcDbLine
 10
0.0
 20
0.0
 30
0.0
 11
-0.9659258262890684
 21
0.2588190451025209
 31
0.0
  0
ENDBLK
  5
44
330
42
100
AcDbEntity
  8
0
100
AcDbBlockEnd
  0
BLOCK
  5
49
330
48
100
AcDbEntity
  8
0
100
AcDbBlockBegin
  2
FXTIP_ARROW_E
 70
     0
 10
0.0
 20
0.0
 30
0.0
  3
FXTIP_ARROW_E
  1

  0
LINE
  5
4B
330
48
100
AcDbEntity
  8
0
  6
Continuous
 62
     0
370
    -2
100
AcDbLine
 10
0.0
 20
0.0
 30
0.0
 11
-1.0
 21
0.0
 31
0.0
  0
LINE
  5
4C
330
48
100
AcDbEntity
  8
0
  6
Continuous
 62
     0
370
    -2
100
AcDbLine
 10
0.0
 20
0.0
 30
0.0
 11
-0.9659258262890684
 21
0.2588190451025207
 31
0.0
  0
LINE
  5
4D
330
48
100
AcDbEntity
  8
0
  6
Continuous
 62
     0
370
    -2
100
AcDbLine
 10
0.0
 20
0.0
 30
0.0
 11
-0.9659258262890684
 21
-0.2588190451025207
 31
0.0
  0
ENDBLK
  5
4A
330
48
100
AcDbEntity
  8
0
100
AcDbBlockEnd
  0
BLOCK
  5
4F
330
4E
100
AcDbEntity
  8
0
100
AcDbBlockBegin
  2
FXTIP_BLACKDOT_S
 70
     0
 10
0.0
 20
0.0
 30
0.0
  3
FXTIP_BLACKDOT_S
  1

  0
LINE
  5
51
330
4E
100
AcDbEntity
  8
0
  6
Continuous
 62
     0
370
    -2
100
AcDbLine
 10
0.0
 20
0.0
 30
0.0
 11
-1.0
 21
0.0000000000000001
 31
0.0
  0
LWPOLYLINE
  5
52
330
4E
100
AcDbEntity
  8
0
  6
Continuous
 62
     0
370
    -2
100
AcDbPolyline
 90
        2
 70
     1
 43
0.5
 10
-0.25
 20
0.0
 42
1.0
 10
0.25
 20
0.0
 42
1.0
  0
CIRCLE
  5
53
330
4E
100
AcDbEntity
  8
0
  6
Continuous
 62
     0
370
    -2
100
AcDbCircle
 10
0.0
 20
0.0
 30
0.0
 40
0.5
  0
ENDBLK
  5
50
330
4E
100
AcDbEntity
  8
0
100
AcDbBlockEnd
  0
BLOCK
  5
55
330
54
100
AcDbEntity
  8
0
100
AcDbBlockBegin
  2
FXTIP_BLACKDOT_E
 70
     0
 10
0.0
 20
0.0
 30
0.0
  3
FXTIP_BLACKDOT_E
  1

  0
LINE
  5
57
330
54
100
AcDbEntity
  8
0
  6
Continuous
 62
     0
370
    -2
100
AcDbLine
 10
0.0
 20
0.0
 30
0.0
 11
-1.0
 21
0.0
 31
0.0
  0
LWPOLYLINE
  5
58
330
54
100
AcDbEntity
  8
0
  6
Continuous
 62
     0
370
    -2
100
AcDbPolyline
 90
        2
 70
     1
 43
0.5
 10
-0.25
 20
0.0
 42
1.0
 10
0.25
 20
0.0
 42
1.0
  0
CIRCLE
  5
59
330
54
100
AcDbEntity
  8
0
  6
Continuous
 62
     0
370
    -2
100
AcDbCircle
 10
0.0
 20
0.0
 30
0.0
 40
0.5
  0
ENDBLK
  5
56
330
54
100
AcDbEntity
  8
0
100
AcDbBlockEnd
  0
BLOCK
  5
5B
330
5A
100
AcDbEntity
  8
0
100
AcDbBlockBegin
  2
FXTIP_TRIANGLE_S
 70
     0
 10
0.0
 20
0.0
 30
0.0
  3
FXTIP_TRIANGLE_S
  1

  0
LINE
  5
5D
330
5A
100
AcDbEntity
  8
0
  6
Continuous
 62
     0
370
    -2
100
AcDbLine
 10
0.0
 20
0.0
 30
0.0
 11
-1.0
 21
0.0000000000000001
 31
0.0
  0
LINE
  5
5E
330
5A
100
AcDbEntity
  8
0
  6
Continuous
 62
     0
370
    -2
100
AcDbLine
 10
0.0
 20
0.0
 30
0.0
 11
-0.9659258262890684
 21
-0.2588190451025206
 31
0.0
  0
LINE
  5
5F
330
5A
100
AcDbEntity
  8
0
  6
Continuous
 62
     0
370
    -2
100
AcDbLine
 10
0.0
 20
0.0
 30
0.0
 11
-0.9659258262890684
 21
0.2588190451025209
 31
0.0
  0
LINE
  5
60
330
5A
100
AcDbEntity
  8
0
  6
Continuous
 62
     0
370
    -2
100
AcDbLine
 10
-0.9659258262890684
 20
-0.2588190451025206
 30
0.0
 11
-0.9659258262890684
 21
0.2588190451025209
 31
0.0
  0
ENDBLK
  5
5C
330
5A
100
AcDbEntity
  8
0
100
AcDbBlockEnd
  0
BLOCK
  5
62
330
61
100
AcDbEntity
  8
0
100
AcDbBlockBegin
  2
FXTIP_TRIANGLE_E
 70
     0
 10
0.0
 20
0.0
 30
0.0
  3
FXTIP_TRIANGLE_E
  1

  0
LINE
  5
64
330
61
100
AcDbEntity
  8
0
  6
Continuous
 62
     0
370
    -2
100
AcDbLine
 10
0.0
 20
0.0
 30
0.0
 11
-1.0
 21
0.0
 31
0.0
  0
LINE
  5
65
330
61
100
AcDbEntity
  8
0
  6
Continuous
 62
     0
370
    -2
100
AcDbLine
 10
0.0
 20
0.0
 30
0.0
 11
-0.9659258262890684
 21
0.2588190451025207
 31
0.0
  0
LINE
  5
66
330
61
100
AcDbEntity
  8
0
  6
Continuous
 62
     0
370
    -2
100
AcDbLine
 10
0.0
 20
0.0
 30
0.0
 11
-0.9659258262890684
 21
-0.2588190451025207
 31
0.0
  0
LINE
  5
67
330
61
100
AcDbEntity
  8
0
  6
Continuous
 62
     0
370
    -2
100
AcDbLine
 10
-0.9659258262890684
 20
0.2588190451025207
 30
0.0
 11
-0.9659258262890684
 21
-0.2588190451025207
 31
0.0
  0
ENDBLK
  5
63
330
61
100
AcDbEntity
  8
0
100
AcDbBlockEnd
  0
BLOCK
  5
69
330
68
100
AcDbEntity
  8
0
100
AcDbBlockBegin
  2
FXTIP_ARCHITECT_S
 70
     0
 10
0.0
 20
0.0
 30
0.0
  3
FXTIP_ARCHITECT_S
  1

  0
LINE
  5
6B
330
68
100
AcDbEntity
  8
0
  6
Continuous
 62
     0
370
    -2
100
AcDbLine
 10
0.0
 20
0.0
 30
0.0
 11
-1.0
 21
0.0000000000000001
 31
0.0
  0
LINE
  5
6C
330
68
100
AcDbEntity
  8
0
  6
Continuous
 62
     0
370
    -2
100
AcDbLine
 10
0.0
 20
0.0
 30
0.0
 11
-0.7071067811865476
 21
-0.7071067811865474
 31
0.0
  0
LINE
  5
6D
330
68
100
AcDbEntity
  8
0
  6
Continuous
 62
     0
370
    -2
100
AcDbLine
 10
0.0
 20
0.0
 30
0.0
 11
0.7071067811865476
 21
0.7071067811865474
 31
0.0
  0
ENDBLK
  5
6A
330
68
100
AcDbEntity
  8
0
100
AcDbBlockEnd
  0
BLOCK
  5
6F
330
6E
100
AcDbEntity
  8
0
100
AcDbBlockBegin
  2
FXTIP_ARCHITECT_E
 70
     0
 10
0.0
 20
0.0
 30
0.0
  3
FXTIP_ARCHITECT_E
  1

  0
LINE
  5
71
330
6E
100
AcDbEntity
  8
0
  6
Continuous
 62
     0
370
    -2
100
AcDbLine
 10
0.0
 20
0.0
 30
0.0
 11
-1.0
 21
0.0
 31
0.0
  0
LINE
  5
72
330
6E
100
AcDbEntity
  8
0
  6
Continuous
 62
     0
370
    -2
100
AcDbLine
 10
0.0
 20
0.0
 30
0.0
 11
0.7071067811865475
 21
0.7071067811865475
 31
0.0
  0
LINE
  5
73
330
6E
100
AcDbEntity
  8
0
  6
Continuous
 62
     0
370
    -2
100
AcDbLine
 10
0.0
 20
0.0
 30
0.0
 11
-0.7071067811865475
 21
-0.7071067811865475
 31
0.0
  0
ENDBLK
  5
70
330
6E
100
AcDbEntity
  8
0
100
AcDbBlockEnd
  0
BLOCK
  5
75
330
74
100
AcDbEntity
  8
0
100
AcDbBlockBegin
  2
FXTIP_CIVIL_S
 70
     0
 10
0.0
 20
0.0
 30
0.0
  3
FXTIP_CIVIL_S
  1

  0
LINE
  5
77
330
74
100
AcDbEntity
  8
0
  6
Continuous
 62
     0
370
    -2
100
AcDbLine
 10
0.0
 20
0.0
 30
0.0
 11
-1.0
 21
0.0000000000000001
 31
0.0
  0
LINE
  5
78
330
74
100
AcDbEntity
  8
0
  6
Continuous
 62
     0
370
    -2
100
AcDbLine
 10
0.0
 20
-0.0833333333333333
 30
0.0
 11
-1.0
 21
-0.0833333333333332
 31
0.0
  0
LINE
  5
79
330
74
100
AcDbEntity
  8
0
  6
Continuous
 62
     0
370
    -2
100
AcDbLine
 10
0.0
 20
-0.1666666666666667
 30
0.0
 11
-1.0
 21
-0.1666666666666666
 31
0.0
  0
ENDBLK
  5
76
330
74
100
AcDbEntity
  8
0
100
AcDbBlockEnd
  0
BLOCK
  5
7B
330
7A
100
AcDbEntity
  8
0
100
AcDbBlockBegin
  2
FXTIP_CIVIL_E
 70
     0
 10
0.0
 20
0.0
 30
0.0
  3
FXTIP_CIVIL_E
  1

  0
LINE
  5
7D
330
7A
100
AcDbEntity
  8
0
  6
Continuous
 62
     0
370
    -2
100
AcDbLine
 10
0.0
 20
0.0
 30
0.0
 11
-1.0
 21
0.0
 31
0.0
  0
LINE
  5
7E
330
7A
100
AcDbEntity
  8
0
  6
Continuous
 62
     0
370
    -2
100
AcDbLine
 10
0.0
 20
0.0833333333333333
 30
0.0
 11
-1.0
 21
0.0833333333333333
 31
0.0
  0
LINE
  5
7F
330
7A
100
AcDbEntity
  8
0
  6
Continuous
 62
     0
370
    -2
100
AcDbLine
 10
0.0
 20
0.1666666666666667
 30
0.0
 11
-1.0
 21
0.1666666666666667
 31
0.0
  0
ENDBLK
  5
7C
330
7A
100
AcDbEntity
  8
0
100
AcDbBlockEnd
  0
BLOCK
  5
81
330
80
100
AcDbEntity
  8
0
100
AcDbBlockBegin
  2
FXTIP_WHITEDOT_S
 70
     0
 10
0.0
 20
0.0
 30
0.0
  3
FXTIP_WHITEDOT_S
  1

  0
LINE
  5
83
330
80
100
AcDbEntity
  8
0
  6
Continuous
 62
     0
370
    -2
100
AcDbLine
 10
0.0
 20
0.0
 30
0.0
 11
-1.0
 21
0.0000000000000001
 31
0.0
  0
CIRCLE
  5
84
330
80
100
AcDbEntity
  8
0
  6
Continuous
 62
     0
370
    -2
100
AcDbCircle
 10
0.0
 20
0.0
 30
0.0
 40
0.5
  0
ENDBLK
  5
82
330
80
100
AcDbEntity
  8
0
100
AcDbBlockEnd
  0
BLOCK
  5
86
330
85
100
AcDbEntity
  8
0
100
AcDbBlockBegin
  2
FXTIP_WHITEDOT_E
 70
     0
 10
0.0
 20
0.0
 30
0.0
  3
FXTIP_WHITEDOT_E
  1

  0
LINE
  5
88
330
85
100
AcDbEntity
  8
0
  6
Continuous
 62
     0
370
    -2
100
AcDbLine
 10
0.0
 20
0.0
 30
0.0
 11
-1.0
 21
0.0
 31
0.0
  0
CIRCLE
  5
89
330
85
100
AcDbEntity
  8
0
  6
Continuous
 62
     0
370
    -2
100
AcDbCircle
 10
0.0
 20
0.0
 30
0.0
 40
0.5
  0
ENDBLK
  5
87
330
85
100
AcDbEntity
  8
0
100
AcDbBlockEnd
  0
BLOCK
  5
8B
330
8A
100
AcDbEntity
  8
0
100
AcDbBlockBegin
  2
FXTIP_UPARROW_S
 70
     0
 10
0.0
 20
0.0
 30
0.0
  3
FXTIP_UPARROW_S
  1

  0
LINE
  5
8D
330
8A
100
AcDbEntity
  8
0
  6
Continuous
 62
     0
370
    -2
100
AcDbLine
 10
0.0
 20
0.0
 30
0.0
 11
-1.0
 21
0.0000000000000001
 31
0.0
  0
LINE
  5
8E
330
8A
100
AcDbEntity
  8
0
  6
Continuous
 62
     0
370
    -2
100
AcDbLine
 10
0.0
 20
0.0
 30
0.0
 11
-0.9659258262890684
 21
-0.2588190451025206
 31
0.0
  0
ENDBLK
  5
8C
330
8A
100
AcDbEntity
  8
0
100
AcDbBlockEnd
  0
BLOCK
  5
90
330
8F
100
AcDbEntity
  8
0
100
AcDbBlockBegin
  2
FXTIP_UPARROW_E
 70
     0
 10
0.0
 20
0.0
 30
0.0
  3
FXTIP_UPARROW_E
  1

  0
LINE
  5
92
330
8F
100
AcDbEntity
  8
0
  6
Continuous
 62
     0
370
    -2
100
AcDbLine
 10
0.0
 20
0.0
 30
0.0
 11
-1.0
 21
0.0
 31
0.0
  0
LINE
  5
93
330
8F
100
AcDbEntity
  8
0
  6
Continuous
 62
     0
370
    -2
100
AcDbLine
 10
0.0
 20
0.0
 30
0.0
 11
-0.9659258262890684
 21
0.2588190451025207
 31
0.0
  0
ENDBLK
  5
91
330
8F
100
AcDbEntity
  8
0
100
AcDbBlockEnd
  0
BLOCK
  5
95
330
94
100
AcDbEntity
  8
0
100
AcDbBlockBegin
  2
FXTIP_DOWNARROW_S
 70
     0
 10
0.0
 20
0.0
 30
0.0
  3
FXTIP_DOWNARROW_S
  1

  0
LINE
  5
97
330
94
100
AcDbEntity
  8
0
  6
Continuous
 62
     0
370
    -2
100
AcDbLine
 10
0.0
 20
0.0
 30
0.0
 11
-1.0
 21
0.0000000000000001
 31
0.0
  0
LINE
  5
98
330
94
100
AcDbEntity
  8
0
  6
Continuous
 62
     0
370
    -2
100
AcDbLine
 10
0.0
 20
0.0
 30
0.0
 11
-0.9659258262890684
 21
0.2588190451025209
 31
0.0
  0
ENDBLK
  5
96
330
94
100
AcDbEntity
  8
0
100
AcDbBlockEnd
  0
BLOCK
  5
9A
330
99
100
AcDbEntity
  8
0
100
AcDbBlockBegin
  2
FXTIP_DOWNARROW_E
 70
     0
 10
0.0
 20
0.0
 30
0.0
  3
FXTIP_DOWNARROW_E
  1

  0
LINE
  5
9C
330
99
100
AcDbEntity
  8
0
  6
Continuous
 62
     0
370
    -2
100
AcDbLine
 10
0.0
 20
0.0
 30
0.0
 11
-1.0
 21
0.0
 31
0.0
  0
LINE
  5
9D
330
99
100
AcDbEntity
  8
0
  6
Continuous
 62
     0
370
    -2
100
AcDbLine
 10
0.0
 20
0.0
 30
0.0
 11
-0.9659258262890684
 21
-0.2588190451025207
 31
0.0
  0
ENDBLK
  5
9B
330
99
100
AcDbEntity
  8
0
100
AcDbBlockEnd
  0
BLOCK
  5
9F
330
9E
100
AcDbEntity
  8
0
100
AcDbBlockBegin
  2
FXTIP_BLACKTRIANGLE_S
 70
     0
 10
0.0
 20
0.0
 30
0.0
  3
FXTIP_BLACKTRIANGLE_S
  1

  0
LINE
  5
A1
330
9E
100
AcDbEntity
  8
0
  6
Continuous
 62
     0
370
    -2
100
AcDbLine
 10
0.0
 20
0.0
 30
0.0
 11
-1.0
 21
0.0000000000000001
 31
0.0
  0
SOLID
  5
A2
330
9E
100
AcDbEntity
  8
0
  6
Continuous
 62
     0
370
    -2
100
AcDbTrace
 10
0.0
 20
0.0
 30
0.0
 11
-0.9659258262890684
 21
-0.2588190451025206
 31
0.0
 12
-0.9659258262890684
 22
0.2588190451025209
 32
0.0
 13
-0.9659258262890684
 23
0.2588190451025209
 33
0.0
  0
ENDBLK
  5
A0
330
9E
100
AcDbEntity
  8
0
100
AcDbBlockEnd
  0
BLOCK
  5
A4
330
A3
100
AcDbEntity
  8
0
100
AcDbBlockBegin
  2
FXTIP_BLACKTRIANGLE_E
 70
     0
 10
0.0
 20
0.0
 30
0.0
  3
FXTIP_BLACKTRIANGLE_E
  1

  0
LINE
  5
A6
330
A3
100
AcDbEntity
  8
0
  6
Continuous
 62
     0
370
    -2
100
AcDbLine
 10
0.0
 20
0.0
 30
0.0
 11
-1.0
 21
0.0
 31
0.0
  0
SOLID
  5
A7
330
A3
100
AcDbEntity
  8
0
  6
Continuous
 62
     0
370
    -2
100
AcDbTrace
 10
0.0
 20
0.0
 30
0.0
 11
-0.9659258262890684
 21
0.2588190451025207
 31
0.0
 12
-0.9659258262890684
 22
-0.2588190451025207
 32
0.0
 13
-0.9659258262890684
 23
-0.2588190451025207
 33
0.0
  0
ENDBLK
  5
A5
330
A3
100
AcDbEntity
  8
0
100
AcDbBlockEnd
  0
BLOCK
  5
1AA
330
1A9
100
AcDbEntity
  8
0
100
AcDbBlockBegin
  2
BLKF021
 70
     0
 10
0.0
 20
0.0
 30
0.0
  3
BLKF021
  1

  0
TEXT
  5
1AD
330
1A9
100
AcDbEntity
  8
LAYER004
  6
Continuous
 62
     6
370
    20
100
AcDbText
 10
193.6679992675781
 20
188.8809204101561
 30
0.0
 40
2.299999952316284
  1
 
 41
0.5217391619835557
  7
FX_VECTOR
100
AcDbText
  0
TEXT
  5
1AE
330
1A9
100
AcDbEntity
  8
LAYER004
  6
Continuous
 62
     6
370
    20
100
AcDbText
 10
241.8339996337889
 20
188.8809204101561
 30
0.0
 40
2.299999952316284
  1
 
 41
0.5217391619835557
  7
FX_VECTOR
100
AcDbText
  0
INSERT
  5
1B2
330
1A9
100
AcDbEntity
  8
0
100
AcDbBlockReference
  2
FXDIM022
 10
0.0
 20
0.0
 30
0.0
  0
ENDBLK
  5
1AB
330
1A9
100
AcDbEntity
  8
0
100
AcDbBlockEnd
  0
BLOCK
  5
1B0
330
1AF
100
AcDbEntity
  8
0
100
AcDbBlockBegin
  2
FXDIM022
 70
     0
 10
0.0
 20
0.0
 30
0.0
  3
FXDIM022
  1

  0
TEXT
  5
1B3
330
1AF
100
AcDbEntity
  8
LAYER004
  6
Continuous
 62
     6
370
    20
100
AcDbText
 10
184.4885314704908
 20
188.6425079106235
 30
0.0
 40
2.200000047683714
  1
 
 50
0.0000000099999999
 41
0.5454545553065528
  7
FX_VECTOR
100
AcDbText
  0
LINE
  5
1B4
330
1AF
100
AcDbEntity
  8
LAYER004
  6
Continuous
 62
     6
370
    20
100
AcDbLine
 10
185.0885254983104
 20
191.8425053757654
 30
0.0
 11
182.9885254989454
 21
188.2051986795044
 31
0.0
  0
LINE
  5
1B5
330
1AF
100
AcDbEntity
  8
LAYER004
  6
Continuous
 62
     6
370
    20
100
AcDbLine
 10
182.9885254989454
 20
188.2051986795044
 30
0.0
 11
187.1885254989453
 21
188.2051986802373
 31
0.0
  0
LINE
  5
1B6
330
1AF
100
AcDbEntity
  8
LAYER004
  6
Continuous
 62
     6
370
    20
100
AcDbLine
 10
187.1885254989453
 20
188.2051986802373
 30
0.0
 11
185.0885254983104
 21
191.8425053757654
 31
0.0
  0
ENDBLK
  5
1B1
330
1AF
100
AcDbEntity
  8
0
100
AcDbBlockEnd
  0
BLOCK
  5
1B8
330
1B7
100
AcDbEntity
  8
0
100
AcDbBlockBegin
  2
BLKF023
 70
     0
 10
0.0
 20
0.0
 30
0.0
  3
BLKF023
  1

  0
LINE
  5
1BB
330
1B7
100
AcDbEntity
  8
LAYER004
  6
Continuous
 62
     7
370
    20
100
AcDbLine
 10
18.47867977292269
 20
198.9797160754094
 30
0.0
 11
133.4665303663903
 21
198.9797160754094
 31
0.0
  0
LINE
  5
1BC
330
1B7
100
AcDbEntity
  8
LAYER004
  6
Continuous
 62
     7
370
    20
100
AcDbLine
 10
133.4665303663903
 20
198.9797160754094
 30
0.0
 11
133.4665303663903
 21
178.3368977228819
 31
0.0
  0
LINE
  5
1BD
330
1B7
100
AcDbEntity
  8
LAYER004
  6
Continuous
 62
     7
370
    20
100
AcDbLine
 10
133.4665303663903
 20
178.3368977228819
 30
0.0
 11
18.47867977292268
 21
178.3368977228819
 31
0.0
  0
LINE
  5
1BE
330
1B7
100
AcDbEntity
  8
LAYER004
  6
Continuous
 62
     7
370
    20
100
AcDbLine
 10
18.47867977292268
 20
178.3368977228819
 30
0.0
 11
18.47867977292269
 21
198.9797160754094
 31
0.0
  0
LINE
  5
1BF
330
1B7
100
AcDbEntity
  8
LAYER004
  6
Continuous
 62
     7
370
    20
100
AcDbLine
 10
17.72867977292269
 20
199.7297160754095
 30
0.0
 11
134.2165303663903
 21
199.7297160754095
 31
0.0
  0
LINE
  5
1C0
330
1B7
100
AcDbEntity
  8
LAYER004
  6
Continuous
 62
     7
370
    20
100
AcDbLine
 10
134.2165303663903
 20
199.7297160754095
 30
0.0
 11
134.2165303663903
 21
177.5868977228818
 31
0.0
  0
LINE
  5
1C1
330
1B7
100
AcDbEntity
  8
LAYER004
  6
Continuous
 62
     7
370
    20
100
AcDbLine
 10
134.2165303663903
 20
177.5868977228818
 30
0.0
 11
17.72867977292269
 21
177.5868977228818
 31
0.0
  0
LINE
  5
1C2
330
1B7
100
AcDbEntity
  8
LAYER004
  6
Continuous
 62
     7
370
    20
100
AcDbLine
 10
17.72867977292269
 20
177.5868977228818
 30
0.0
 11
17.72867977292269
 21
199.7297160754095
 31
0.0
  0
TEXT
  5
1C3
330
1B7
100
AcDbEntity
  8
LAYER004
  6
Continuous
 62
     7
370
    20
100
AcDbText
 10
19.22414588928223
 20
194.9769134521483
 30
0.0
 40
3.0
  1
　
 41
0.9000000158945717
  7
FX_VECTOR
100
AcDbText
  0
TEXT
  5
1C4
330
1B7
100
AcDbEntity
  8
LAYER004
  6
Continuous
 62
     7
370
    20
100
AcDbText
 10
21.92414665222166
 20
194.3809661865234
 30
0.0
 40
2.299999952316284
  1
Confidential
 41
0.8999999896339746
  7
FX_VECTOR
100
AcDbText
  0
TEXT
  5
1C5
330
1B7
100
AcDbEntity
  8
LAYER004
  6
Continuous
 62
     7
370
    20
100
AcDbText
 10
46.76414489746092
 20
194.9769134521483
 30
0.0
 40
2.299999952316284
  1
　
 41
0.8999999896339746
  7
FX_VECTOR
100
AcDbText
  0
TEXT
  5
1C6
330
1B7
100
AcDbEntity
  8
LAYER004
  6
Continuous
 62
     7
370
    20
100
AcDbText
 10
48.83414840698242
 20
194.3809661865234
 30
0.0
 40
2.299999952316284
  1
Information
 41
0.8999999896339746
  7
FX_VECTOR
100
AcDbText
  0
TEXT
  5
1C7
330
1B7
100
AcDbEntity
  8
LAYER004
  6
Continuous
 62
     7
370
    20
100
AcDbText
 10
71.60414886474609
 20
194.3809661865234
 30
0.0
 40
2.5
  1
　　機密情報
 41
0.9
  7
FX_VECTOR
100
AcDbText
  0
TEXT
  5
1C8
330
1B7
100
AcDbEntity
  8
LAYER004
  6
Continuous
 62
     7
370
    20
100
AcDbText
 10
19.22414588928223
 20
190.8836669921875
 30
0.0
 40
2.099999904632567
  1
This material and any attachment contain information that is privileged confidentialor exempt
 41
0.5714286200854266
  7
FX_VECTOR
100
AcDbText
  0
TEXT
  5
1C9
330
1B7
100
AcDbEntity
  8
LAYER004
  6
Continuous
 62
     7
370
    20
100
AcDbText
 10
39.38414764404297
 20
188.7769165039061
 30
0.0
 40
2.0
  1
 
 41
0.899999976158142
  7
FX_VECTOR
100
AcDbText
  0
TEXT
  5
1CA
330
1B7
100
AcDbEntity
  8
LAYER004
  6
Continuous
 62
     7
370
    20
100
AcDbText
 10
19.22414588928223
 20
187.5641021728514
 30
0.0
 40
2.099999904632567
  1
form disclosure under application or copying of this information is strictly prohibited.
 41
0.5714286200854266
  7
FX_VECTOR
100
AcDbText
  0
TEXT
  5
1CB
330
1B7
100
AcDbEntity
  8
LAYER004
  6
Continuous
 62
     7
370
    20
100
AcDbText
 10
19.22414588928223
 20
183.8472442626953
 30
0.0
 40
2.299999952316284
  1
本資料は、
 41
0.7826086911452065
  7
FX_VECTOR
100
AcDbText
  0
TEXT
  5
1CC
330
1B7
100
AcDbEntity
  8
LAYER004
  6
Continuous
 62
     7
370
    20
100
AcDbText
 10
27.77736091613769
 20
183.8472442626953
 30
0.0
 40
2.200000047683714
  1
HOYA CANDEO OPTRONICS
 41
0.6363636117336186
  7
FX_VECTOR
100
AcDbText
  0
TEXT
  5
1CD
330
1B7
100
AcDbEntity
  8
LAYER004
  6
Continuous
 62
     7
370
    20
100
AcDbText
 10
57.83607864379883
 20
183.8472442626953
 30
0.0
 40
2.299999952316284
  1
株式会社の財産的情報を含んでおりますので、
 41
0.7826086911452065
  7
FX_VECTOR
100
AcDbText
  0
TEXT
  5
1CE
330
1B7
100
AcDbEntity
  8
LAYER004
  6
Continuous
 62
     7
370
    20
100
AcDbText
 10
19.22414588928223
 20
180.7472534179688
 30
0.0
 40
2.299999952316284
  1
許可なく第三者に開示したり内容の全部又は一部を複写する事を御遠慮下さい。
 41
0.7826086911452065
  7
FX_VECTOR
100
AcDbText
  0
ENDBLK
  5
1B9
330
1B7
100
AcDbEntity
  8
0
100
AcDbBlockEnd
  0
BLOCK
  5
1D0
330
1CF
100
AcDbEntity
  8
0
100
AcDbBlockBegin
  2
BLKF024
 70
     0
 10
0.0
 20
0.0
 30
0.0
  3
BLKF024
  1

  0
TEXT
  5
1D3
330
1CF
100
AcDbEntity
  8
LAYER004
  6
Continuous
 62
     7
370
    20
100
AcDbText
 10
221.4999999999999
 20
32.75690078735352
 30
0.0
 40
2.0
  1
2011/11/18
 41
0.8000000119209291
  7
FX_VECTOR
100
AcDbText
  0
TEXT
  5
1D4
330
1CF
100
AcDbEntity
  8
LAYER004
  6
Continuous
 62
     7
370
    20
100
AcDbText
 10
203.076477050781
 20
28.45743370056151
 30
0.0
 40
2.5
  1
元図番
 41
1.438202285766601
  7
FX_VECTOR
100
AcDbText
  0
TEXT
  5
1D5
330
1CF
100
AcDbEntity
  8
LAYER004
  6
Continuous
 62
     7
370
    20
100
AcDbText
 10
274.4500122070312
 20
13.14485645294189
 30
0.0
 40
2.0
  1
1/1
 41
0.6000000238418579
  7
FX_VECTOR
100
AcDbText
  0
TEXT
  5
1D6
330
1CF
100
AcDbEntity
  8
LAYER004
  6
Continuous
 62
     7
370
    20
100
AcDbText
 10
275.0499877929688
 20
21.38633155822753
 30
0.0
 40
2.0
  1
A4
 41
0.6000000238418579
  7
FX_VECTOR
100
AcDbText
  0
TEXT
  5
1D7
330
1CF
100
AcDbEntity
  8
LAYER004
  6
Continuous
 62
     7
370
    20
100
AcDbText
 10
122.5
 20
28.22083282470703
 30
0.0
 40
3.299999952316282
  1
JIS B 0419-cH(ISO2768-2)
 41
0.7449494816310404
  7
FX_VECTOR
100
AcDbText
  0
TEXT
  5
1D8
330
1CF
100
AcDbEntity
  8
LAYER004
  6
Continuous
 62
     7
370
    20
100
AcDbText
 10
148.4974822998045
 20
34.64977264404296
 30
0.0
 40
3.299999952316282
  1
**
 41
0.8484848462955135
  7
FX_VECTOR
100
AcDbText
  0
TEXT
  5
1D9
330
1CF
100
AcDbEntity
  8
LAYER004
  6
Continuous
 62
     7
370
    20
100
AcDbText
 10
148.3046112060546
 20
41.13259506225586
 30
0.0
 40
3.299999952316282
  1
**
 41
0.8484848462955135
  7
FX_VECTOR
100
AcDbText
  0
TEXT
  5
1DA
330
1CF
100
AcDbEntity
  8
LAYER004
  6
Continuous
 62
     7
370
    20
100
AcDbText
 10
204.3000030517577
 20
41.21905136108398
 30
0.0
 40
3.0
  1
2:1
 41
0.9333333174387611
  7
FX_VECTOR
100
AcDbText
  0
TEXT
  5
1DB
330
1CF
100
AcDbEntity
  8
LAYER004
  6
Continuous
 62
     6
370
    20
100
AcDbText
 10
5.59656810760498
 20
13.62403011322021
 30
0.0
 40
1.799999952316284
  1
****
 41
0.7777777851363761
  7
FX_VECTOR
100
AcDbText
  0
TEXT
  5
1DC
330
1CF
100
AcDbEntity
  8
LAYER004
  6
Continuous
 62
     6
370
    20
100
AcDbText
 10
5.59656810760498
 20
10.22377681732176
 30
0.0
 40
1.799999952316284
  1
%%%U%%%
 41
0.7777777851363761
  7
FX_VECTOR
100
AcDbText
  0
ENDBLK
  5
1D1
330
1CF
100
AcDbEntity
  8
0
100
AcDbBlockEnd
  0
BLOCK
  5
1DF
330
1DE
100
AcDbEntity
  8
0
100
AcDbBlockBegin
  2
BLKF025
 70
     0
 10
0.0
 20
0.0
 30
0.0
  3
BLKF025
  1

  0
LINE
  5
1E2
330
1DE
100
AcDbEntity
  8
LAYER004
  6
Continuous
 62
     7
370
    20
100
AcDbLine
 10
217.1958087157903
 20
37.67999678925763
 30
0.0
 11
214.6958087157903
 21
37.17999678925764
 31
0.0
  0
LINE
  5
1E3
330
1DE
100
AcDbEntity
  8
LAYER004
  6
Continuous
 62
     7
370
    20
100
AcDbLine
 10
217.1958087157903
 20
37.67999678925763
 30
0.0
 11
217.1958087157903
 21
34.67999678925764
 31
0.0
  0
CIRCLE
  5
1E4
330
1DE
100
AcDbEntity
  8
LAYER004
  6
Continuous
 62
     7
370
    20
100
AcDbCircle
 10
212.1958087157902
 20
36.14231643089117
 30
0.0
 40
1.414213562373104
  0
CIRCLE
  5
1E5
330
1DE
100
AcDbEntity
  8
LAYER004
  6
Continuous
 62
     7
370
    20
100
AcDbCircle
 10
212.1958087157902
 20
36.14231643089117
 30
0.0
 40
1.0
  0
LINE
  5
1E6
330
1DE
100
AcDbEntity
  8
LAYER004
  6
Continuous
 62
     7
370
    20
100
AcDbLine
 10
214.6958087157903
 20
37.17999678925764
 30
0.0
 11
214.6958087157903
 21
35.17999678925765
 31
0.0
  0
LINE
  5
1E7
330
1DE
100
AcDbEntity
  8
LAYER004
  6
Continuous
 62
     7
370
    20
100
AcDbLine
 10
217.1958087157903
 20
34.67999678925764
 30
0.0
 11
214.6958087157903
 21
35.17999678925765
 31
0.0
  0
LINE
  5
1E9
330
1DE
100
AcDbEntity
  8
LAYER004
  6
DASH_DOT
 62
     7
370
    20
100
AcDbLine
 10
212.1958087157902
 20
38.05663829568981
 30
0.0
 11
212.1958087157902
 21
34.23222723368709
 31
0.0
  0
LINE
  5
1EA
330
1DE
100
AcDbEntity
  8
LAYER004
  6
DASH_DOT
 62
     7
370
    20
100
AcDbLine
 10
210.353895244483
 20
36.14231643089117
 30
0.0
 11
217.6001474700413
 21
36.14231643089117
 31
0.0
  0
TEXT
  5
1EB
330
1DE
100
AcDbEntity
  8
LAYER004
  6
Continuous
 62
     7
370
    20
100
AcDbText
 10
20.80375289916992
 20
14.9008617401123
 30
0.0
 40
2.299999952316284
  1
仕様書番号
 41
0.8999999896339746
  7
FX_VECTOR
100
AcDbText
  0
TEXT
  5
1EC
330
1DE
100
AcDbEntity
  8
LAYER004
  6
Continuous
 62
     7
370
    20
100
AcDbText
 10
20.30875205993651
 20
10.75086212158201
 30
0.0
 40
1.799999952316284
  1
Spec.No
 41
0.9000000264909539
  7
FX_VECTOR
100
AcDbText
  0
TEXT
  5
1ED
330
1DE
100
AcDbEntity
  8
LAYER004
  6
Continuous
 62
     7
370
    20
100
AcDbText
 10
196.0196838378905
 20
14.39006233215332
 30
0.0
 40
2.299999952316284
  1
図番
 41
0.8000000310980761
  7
FX_VECTOR
100
AcDbText
  0
TEXT
  5
1EE
330
1DE
100
AcDbEntity
  8
LAYER004
  6
Continuous
 62
     7
370
    20
100
AcDbText
 10
196.0196838378905
 20
10.89006233215332
 30
0.0
 40
1.799999952316284
  1
DWG＿No
 41
0.6666667108182566
  7
FX_VECTOR
100
AcDbText
  0
TEXT
  5
1EF
330
1DE
100
AcDbEntity
  8
LAYER004
  6
Continuous
 62
     7
370
    20
100
AcDbText
 10
196.0196838378905
 20
22.61516952514648
 30
0.0
 40
2.299999952316284
  1
図名
 41
0.8000000310980761
  7
FX_VECTOR
100
AcDbText
  0
TEXT
  5
1F0
330
1DE
100
AcDbEntity
  8
LAYER004
  6
Continuous
 62
     7
370
    20
100
AcDbText
 10
196.0196838378905
 20
19.11516952514648
 30
0.0
 40
1.799999952316284
  1
DWG＿Name
 41
0.6666667108182566
  7
FX_VECTOR
100
AcDbText
  0
TEXT
  5
1F1
330
1DE
100
AcDbEntity
  8
LAYER004
  6
Continuous
 62
     7
370
    20
100
AcDbText
 10
266.5531921386719
 20
14.26356601715088
 30
0.0
 40
2.0
  1
ページ
 41
0.899999976158142
  7
FX_VECTOR
100
AcDbText
  0
TEXT
  5
1F2
330
1DE
100
AcDbEntity
  8
LAYER004
  6
Continuous
 62
     7
370
    20
100
AcDbText
 10
266.8500061035155
 20
10.96356582641602
 30
0.0
 40
1.799999952316284
  1
Page
 41
0.6666667108182566
  7
FX_VECTOR
100
AcDbText
  0
TEXT
  5
1F3
330
1DE
100
AcDbEntity
  8
LAYER004
  6
Continuous
 62
     7
370
    20
100
AcDbText
 10
267.3749694824219
 20
42.81801223754881
 30
0.0
 40
2.299999952316284
  1
作成
 41
0.8999999896339746
  7
FX_VECTOR
100
AcDbText
  0
TEXT
  5
1F4
330
1DE
100
AcDbEntity
  8
LAYER004
  6
Continuous
 62
     7
370
    20
100
AcDbText
 10
267.3749694824219
 20
40.32801055908203
 30
0.0
 40
1.799999952316284
  1
Drawn
 41
0.6666667108182566
  7
FX_VECTOR
100
AcDbText
  0
TEXT
  5
1F5
330
1DE
100
AcDbEntity
  8
LAYER004
  6
Continuous
 62
     7
370
    20
100
AcDbText
 10
254.3677062988281
 20
42.49589920043945
 30
0.0
 40
2.299999952316284
  1
設計
 41
0.8999999896339746
  7
FX_VECTOR
100
AcDbText
  0
TEXT
  5
1F6
330
1DE
100
AcDbEntity
  8
LAYER004
  6
Continuous
 62
     7
370
    20
100
AcDbText
 10
254.3677062988281
 20
40.00589752197265
 30
0.0
 40
1.799999952316284
  1
Designed
 41
0.6666667108182566
  7
FX_VECTOR
100
AcDbText
  0
TEXT
  5
1F7
330
1DE
100
AcDbEntity
  8
LAYER004
  6
Continuous
 62
     7
370
    20
100
AcDbText
 10
241.364273071289
 20
42.84443283081055
 30
0.0
 40
2.299999952316284
  1
検図
 41
0.8999999896339746
  7
FX_VECTOR
100
AcDbText
  0
TEXT
  5
1F8
330
1DE
100
AcDbEntity
  8
LAYER004
  6
Continuous
 62
     7
370
    20
100
AcDbText
 10
241.364273071289
 20
40.35443115234374
 30
0.0
 40
1.799999952316284
  1
Checked
 41
0.6666667108182566
  7
FX_VECTOR
100
AcDbText
  0
TEXT
  5
1F9
330
1DE
100
AcDbEntity
  8
LAYER004
  6
Continuous
 62
     7
370
    20
100
AcDbText
 10
219.3719635009764
 20
42.79372787475586
 30
0.0
 40
2.299999952316284
  1
承認 - 日付
 41
0.8999999896339746
  7
FX_VECTOR
100
AcDbText
  0
TEXT
  5
1FA
330
1DE
100
AcDbEntity
  8
LAYER004
  6
Continuous
 62
     7
370
    20
100
AcDbText
 10
219.3719635009764
 20
40.30373001098633
 30
0.0
 40
1.799999952316284
  1
Approval - Date
 41
0.6666667108182566
  7
FX_VECTOR
100
AcDbText
  0
TEXT
  5
1FB
330
1DE
100
AcDbEntity
  8
LAYER004
  6
Continuous
 62
     7
370
    20
100
AcDbText
 10
200.313034057617
 20
35.14861297607422
 30
0.0
 40
2.0
  1
第三角法
  7
FX_VECTOR
100
AcDbText
  0
TEXT
  5
1FC
330
1DE
100
AcDbEntity
  8
LAYER004
  6
Continuous
 62
     7
370
    20
100
AcDbText
 10
266.5531921386719
 20
22.50294303894043
 30
0.0
 40
2.0
  1
サイズ
 41
0.899999976158142
  7
FX_VECTOR
100
AcDbText
  0
TEXT
  5
1FD
330
1DE
100
AcDbEntity
  8
LAYER004
  6
Continuous
 62
     7
370
    20
100
AcDbText
 10
266.8500061035155
 20
19.20294380187987
 30
0.0
 40
1.799999952316284
  1
Size
 41
0.6666667108182566
  7
FX_VECTOR
100
AcDbText
  0
TEXT
  5
1FE
330
1DE
100
AcDbEntity
  8
LAYER004
  6
Continuous
 62
     7
370
    20
100
AcDbText
 10
227.0676727294921
 20
37.45894241333008
 30
0.0
 40
2.0
  1
岸根
 41
1.325000047683715
  7
FX_VECTOR
100
AcDbText
  0
TEXT
  5
1FF
330
1DE
100
AcDbEntity
  8
LAYER004
  6
Continuous
 62
     7
370
    20
100
AcDbText
 10
244.1469268798828
 20
37.45894241333008
 30
0.0
 40
2.0
  1
岸根
 41
1.325000047683715
  7
FX_VECTOR
100
AcDbText
  0
TEXT
  5
200
330
1DE
100
AcDbEntity
  8
LAYER004
  6
Continuous
 62
     7
370
    20
100
AcDbText
 10
257.0972595214844
 20
37.45894241333008
 30
0.0
 40
2.0
  1
紫藤
 41
1.325000047683715
  7
FX_VECTOR
100
AcDbText
  0
TEXT
  5
201
330
1DE
100
AcDbEntity
  8
LAYER004
  6
Continuous
 62
     7
370
    20
100
AcDbText
 10
270.0841064453125
 20
37.45894241333008
 30
0.0
 40
2.0
  1
紫藤
 41
1.325000047683715
  7
FX_VECTOR
100
AcDbText
  0
TEXT
  5
202
330
1DE
100
AcDbEntity
  8
LAYER004
  6
Continuous
 62
     7
370
    20
100
AcDbText
 10
110.9876480102539
 20
42.91971206665039
 30
0.0
 40
2.299999952316284
  1
材質
 41
0.8999999896339746
  7
FX_VECTOR
100
AcDbText
  0
TEXT
  5
203
330
1DE
100
AcDbEntity
  8
LAYER004
  6
Continuous
 62
     7
370
    20
100
AcDbText
 10
110.9876480102539
 20
39.79286193847656
 30
0.0
 40
1.799999952316284
  1
Material
 41
0.6666667108182566
  7
FX_VECTOR
100
AcDbText
  0
TEXT
  5
204
330
1DE
100
AcDbEntity
  8
LAYER004
  6
Continuous
 62
     7
370
    20
100
AcDbText
 10
110.9876480102539
 20
36.3911018371582
 30
0.0
 40
2.299999952316284
  1
処理
 41
0.8999999896339746
  7
FX_VECTOR
100
AcDbText
  0
TEXT
  5
205
330
1DE
100
AcDbEntity
  8
LAYER004
  6
Continuous
 62
     7
370
    20
100
AcDbText
 10
110.9876480102539
 20
33.26425170898438
 30
0.0
 40
1.799999952316284
  1
Treatment
 41
0.6666667108182566
  7
FX_VECTOR
100
AcDbText
  0
TEXT
  5
206
330
1DE
100
AcDbEntity
  8
LAYER004
  6
Continuous
 62
     7
370
    20
100
AcDbText
 10
110.9876480102539
 20
29.89969444274901
 30
0.0
 40
2.299999952316284
  1
公差
 41
0.8999999896339746
  7
FX_VECTOR
100
AcDbText
  0
TEXT
  5
207
330
1DE
100
AcDbEntity
  8
LAYER004
  6
Continuous
 62
     7
370
    20
100
AcDbText
 10
110.9876480102539
 20
26.77284240722656
 30
0.0
 40
1.799999952316284
  1
Tolerance
 41
0.6666667108182566
  7
FX_VECTOR
100
AcDbText
  0
TEXT
  5
208
330
1DE
100
AcDbEntity
  8
LAYER004
  6
Continuous
 62
     7
370
    20
100
AcDbText
 10
181.9535369873046
 20
42.90362167358398
 30
0.0
 40
2.299999952316284
  1
尺度
 41
0.8999999896339746
  7
FX_VECTOR
100
AcDbText
  0
TEXT
  5
209
330
1DE
100
AcDbEntity
  8
LAYER004
  6
Continuous
 62
     7
370
    20
100
AcDbText
 10
181.9535369873046
 20
39.77677154541014
 30
0.0
 40
1.799999952316284
  1
Scale
 41
0.6666667108182566
  7
FX_VECTOR
100
AcDbText
  0
TEXT
  5
20A
330
1DE
100
AcDbEntity
  8
LAYER004
  6
Continuous
 62
     7
370
    20
100
AcDbText
 10
181.9535369873046
 20
36.41714477539061
 30
0.0
 40
2.299999952316284
  1
投影法
 41
0.8999999896339746
  7
FX_VECTOR
100
AcDbText
  0
TEXT
  5
20B
330
1DE
100
AcDbEntity
  8
LAYER004
  6
Continuous
 62
     7
370
    20
100
AcDbText
 10
181.9535369873046
 20
33.2902946472168
 30
0.0
 40
1.799999952316284
  1
Projection
 41
0.6666667108182566
  7
FX_VECTOR
100
AcDbText
  0
TEXT
  5
20C
330
1DE
100
AcDbEntity
  8
LAYER004
  6
Continuous
 62
     7
370
    20
100
AcDbText
 10
181.9535369873046
 20
30.07779121398926
 30
0.0
 40
2.299999952316284
  1
元図番
 41
0.8999999896339746
  7
FX_VECTOR
100
AcDbText
  0
TEXT
  5
20D
330
1DE
100
AcDbEntity
  8
LAYER004
  6
Continuous
 62
     7
370
    20
100
AcDbText
 10
181.9535369873046
 20
26.95093727111816
 30
0.0
 40
1.799999952316284
  1
Origin DWG-No
 41
0.6666667108182566
  7
FX_VECTOR
100
AcDbText
  0
ENDBLK
  5
1E0
330
1DE
100
AcDbEntity
  8
0
100
AcDbBlockEnd
  0
BLOCK
  5
20F
330
20E
100
AcDbEntity
  8
0
100
AcDbBlockBegin
  2
BLKF026
 70
     0
 10
0.0
 20
0.0
 30
0.0
  3
BLKF026
  1

  0
LINE
  5
212
330
20E
100
AcDbEntity
  8
LAYER004
  6
Continuous
 62
   161
370
    20
100
AcDbLine
 10
70.5000000000001
 20
10.0
 30
0.0
 11
70.5000000000001
 21
18.5
 31
0.0
  0
LINE
  5
213
330
20E
100
AcDbEntity
  8
LAYER004
  6
Continuous
 62
     7
370
    20
100
AcDbLine
 10
34.50000000000007
 20
10.00000000000007
 30
0.0
 11
34.50000000000005
 21
18.5
 31
0.0
  0
LINE
  5
214
330
20E
100
AcDbEntity
  8
LAYER004
  6
Continuous
 62
   161
370
    20
100
AcDbLine
 10
17.50000000000006
 20
18.5
 30
0.0
 11
70.5000000000001
 21
18.5
 31
0.0
  0
LINE
  5
215
330
20E
100
AcDbEntity
  8
LAYER004
  6
Continuous
 62
     7
370
    20
100
AcDbLine
 10
17.50000000000006
 20
9.999999999999991
 30
0.0
 11
70.5000000000001
 21
10.0
 31
0.0
  0
LINE
  5
216
330
20E
100
AcDbEntity
  8
LAYER004
  6
Continuous
 62
   161
370
    20
100
AcDbLine
 10
218.5
 20
46.0
 30
0.0
 11
218.5
 21
26.50000000000002
 31
0.0
  0
LINE
  5
217
330
20E
100
AcDbEntity
  8
LAYER004
  6
Continuous
 62
     7
370
    20
100
AcDbLine
 10
207.5000000000001
 20
26.50000000000001
 30
0.0
 11
207.5000000000001
 21
10.0
 31
0.0
  0
LINE
  5
218
330
20E
100
AcDbEntity
  8
LAYER004
  6
Continuous
 62
     7
370
    20
100
AcDbLine
 10
198.5000000000001
 20
26.50000000000001
 30
0.0
 11
198.5000000000001
 21
46.0
 31
0.0
  0
LINE
  5
219
330
20E
100
AcDbEntity
  8
LAYER004
  6
Continuous
 62
   161
370
    20
100
AcDbLine
 10
195.5
 20
26.50000000000001
 30
0.0
 11
195.5
 21
10.0
 31
0.0
  0
LINE
  5
21A
330
20E
100
AcDbEntity
  8
LAYER004
  6
Continuous
 62
     7
370
    20
100
AcDbLine
 10
240.5
 20
46.0
 30
0.0
 11
240.5
 21
26.50000000000003
 31
0.0
  0
LINE
  5
21B
330
20E
100
AcDbEntity
  8
LAYER004
  6
Continuous
 62
     7
370
    20
100
AcDbLine
 10
195.5
 20
18.25000000000001
 30
0.0
 11
279.4999999999999
 21
18.25000000000003
 31
0.0
  0
LINE
  5
21C
330
20E
100
AcDbEntity
  8
LAYER004
  6
Continuous
 62
     7
370
    20
100
AcDbLine
 10
218.5
 20
36.0
 30
0.0
 11
279.4999999999999
 21
36.00000000000003
 31
0.0
  0
LINE
  5
21D
330
20E
100
AcDbEntity
  8
LAYER004
  6
Continuous
 62
     7
370
    20
100
AcDbLine
 10
279.4999999999999
 20
10.00000000000005
 30
0.0
 11
110.5000000000001
 21
9.999999999999962
 31
0.0
  0
LINE
  5
21E
330
20E
100
AcDbEntity
  8
LAYER004
  6
Continuous
 62
   161
370
    20
100
AcDbLine
 10
110.5000000000001
 20
26.49999999999996
 30
0.0
 11
279.4999999999999
 21
26.50000000000005
 31
0.0
  0
LINE
  5
21F
330
20E
100
AcDbEntity
  8
LAYER004
  6
Continuous
 62
   161
370
    20
100
AcDbLine
 10
110.5000000000001
 20
46.0
 30
0.0
 11
279.4999999999999
 21
46.0
 31
0.0
  0
LINE
  5
220
330
20E
100
AcDbEntity
  8
LAYER004
  6
Continuous
 62
     7
370
    20
100
AcDbLine
 10
279.4999999999999
 20
46.0
 30
0.0
 11
279.4999999999999
 21
10.00000000000005
 31
0.0
  0
LINE
  5
221
330
20E
100
AcDbEntity
  8
LAYER004
  6
Continuous
 62
     7
370
    20
100
AcDbLine
 10
253.5000000000001
 20
46.0
 30
0.0
 11
253.5000000000001
 21
26.50000000000003
 31
0.0
  0
LINE
  5
222
330
20E
100
AcDbEntity
  8
LAYER004
  6
Continuous
 62
     7
370
    20
100
AcDbLine
 10
266.5
 20
46.0
 30
0.0
 11
266.5
 21
26.50000000000003
 31
0.0
  0
LINE
  5
223
330
20E
100
AcDbEntity
  8
LAYER004
  6
Continuous
 62
   161
370
    20
100
AcDbLine
 10
265.5
 20
26.50000000000003
 30
0.0
 11
265.5
 21
10.00000000000005
 31
0.0
  0
LINE
  5
224
330
20E
100
AcDbEntity
  8
LAYER004
  6
Continuous
 62
     7
370
    20
100
AcDbLine
 10
273.0
 20
26.50000000000003
 30
0.0
 11
273.0
 21
10.00000000000005
 31
0.0
  0
LINE
  5
225
330
20E
100
AcDbEntity
  8
LAYER004
  6
Continuous
 62
   161
370
    20
100
AcDbLine
 10
181.4999999999999
 20
46.0
 30
0.0
 11
181.4999999999999
 21
26.5
 31
0.0
  0
LINE
  5
226
330
20E
100
AcDbEntity
  8
LAYER004
  6
Continuous
 62
   161
370
    20
100
AcDbLine
 10
110.5000000000001
 20
9.999999999999962
 30
0.0
 11
110.5000000000001
 21
46.0
 31
0.0
  0
LINE
  5
227
330
20E
100
AcDbEntity
  8
LAYER004
  6
Continuous
 62
     7
370
    20
100
AcDbLine
 10
122.5
 20
46.0
 30
0.0
 11
122.5
 21
26.49999999999996
 31
0.0
  0
LINE
  5
228
330
20E
100
AcDbEntity
  8
LAYER004
  6
Continuous
 62
   161
370
    20
100
AcDbLine
 10
17.5
 20
200.0
 30
0.0
 11
279.4999999999999
 21
200.0
 31
0.0
  0
LINE
  5
229
330
20E
100
AcDbEntity
  8
LAYER004
  6
Continuous
 62
   161
370
    20
100
AcDbLine
 10
279.4999999999999
 20
200.0
 30
0.0
 11
279.4999999999999
 21
10.0
 31
0.0
  0
LINE
  5
22A
330
20E
100
AcDbEntity
  8
LAYER004
  6
Continuous
 62
   161
370
    20
100
AcDbLine
 10
279.4999999999999
 20
9.999999999999996
 30
0.0
 11
17.50000000000002
 21
9.999999999999962
 31
0.0
  0
LINE
  5
22B
330
20E
100
AcDbEntity
  8
LAYER004
  6
Continuous
 62
   161
370
    20
100
AcDbLine
 10
17.50000000000002
 20
9.999999999999962
 30
0.0
 11
17.5
 21
200.0
 31
0.0
  0
LINE
  5
22C
330
20E
100
AcDbEntity
  8
LAYER004
  6
Continuous
 62
     7
370
    20
100
AcDbLine
 10
61.16700000000001
 20
200.0
 30
0.0
 11
61.16700000000001
 21
205.0
 31
0.0
  0
LINE
  5
22D
330
20E
100
AcDbEntity
  8
LAYER004
  6
Continuous
 62
     7
370
    20
100
AcDbLine
 10
104.834
 20
200.0
 30
0.0
 11
104.834
 21
205.0
 31
0.0
  0
LINE
  5
22E
330
20E
100
AcDbEntity
  8
LAYER004
  6
Continuous
 62
     7
370
    20
100
AcDbLine
 10
148.501
 20
200.0
 30
0.0
 11
148.501
 21
205.0
 31
0.0
  0
LINE
  5
22F
330
20E
100
AcDbEntity
  8
LAYER004
  6
Continuous
 62
     7
370
    20
100
AcDbLine
 10
192.168
 20
200.0
 30
0.0
 11
192.168
 21
205.0
 31
0.0
  0
LINE
  5
230
330
20E
100
AcDbEntity
  8
LAYER004
  6
Continuous
 62
     7
370
    20
100
AcDbLine
 10
235.835
 20
200.0
 30
0.0
 11
235.835
 21
205.0
 31
0.0
  0
LINE
  5
231
330
20E
100
AcDbEntity
  8
LAYER004
  6
Continuous
 62
     7
370
    20
100
AcDbLine
 10
279.4999999999999
 20
152.5
 30
0.0
 11
284.5
 21
152.5
 31
0.0
  0
LINE
  5
232
330
20E
100
AcDbEntity
  8
LAYER004
  6
Continuous
 62
     7
370
    20
100
AcDbLine
 10
279.4999999999999
 20
105.0
 30
0.0
 11
284.5
 21
105.0
 31
0.0
  0
LINE
  5
233
330
20E
100
AcDbEntity
  8
LAYER004
  6
Continuous
 62
     7
370
    20
100
AcDbLine
 10
279.4999999999999
 20
57.5
 30
0.0
 11
284.5
 21
57.5
 31
0.0
  0
LINE
  5
234
330
20E
100
AcDbEntity
  8
LAYER004
  6
Continuous
 62
     7
370
    20
100
AcDbLine
 10
17.50200000000007
 20
152.4999999999999
 30
0.0
 11
12.50200000000007
 21
152.5
 31
0.0
  0
LINE
  5
235
330
20E
100
AcDbEntity
  8
LAYER004
  6
Continuous
 62
     7
370
    20
100
AcDbLine
 10
17.50200000000007
 20
104.9999999999997
 30
0.0
 11
12.50200000000007
 21
105.0
 31
0.0
  0
LINE
  5
236
330
20E
100
AcDbEntity
  8
LAYER004
  6
Continuous
 62
     7
370
    20
100
AcDbLine
 10
17.5020000000001
 20
57.49999999999996
 30
0.0
 11
12.5020000000001
 21
57.49999999999996
 31
0.0
  0
LINE
  5
237
330
20E
100
AcDbEntity
  8
LAYER004
  6
Continuous
 62
     7
370
    20
100
AcDbLine
 10
235.835
 20
10.00000000000007
 30
0.0
 11
235.835
 21
5.000000000000071
 31
0.0
  0
LINE
  5
238
330
20E
100
AcDbEntity
  8
LAYER004
  6
Continuous
 62
     7
370
    20
100
AcDbLine
 10
192.168
 20
10.00000000000003
 30
0.0
 11
192.168
 21
5.000000000000036
 31
0.0
  0
LINE
  5
239
330
20E
100
AcDbEntity
  8
LAYER004
  6
Continuous
 62
     7
370
    20
100
AcDbLine
 10
148.501
 20
10.00000000000003
 30
0.0
 11
148.501
 21
5.000000000000036
 31
0.0
  0
LINE
  5
23A
330
20E
100
AcDbEntity
  8
LAYER004
  6
Continuous
 62
     7
370
    20
100
AcDbLine
 10
61.16700000000004
 20
10.0
 30
0.0
 11
61.16700000000003
 21
5.0
 31
0.0
  0
LINE
  5
23B
330
20E
100
AcDbEntity
  8
LAYER004
  6
Continuous
 62
     7
370
    20
100
AcDbLine
 10
104.834
 20
10.00000000000003
 30
0.0
 11
104.834
 21
5.000000000000036
 31
0.0
  0
TEXT
  5
23C
330
20E
100
AcDbEntity
  8
LAYER004
  6
Continuous
 62
   161
370
    20
100
AcDbText
 10
280.4542846679688
 20
174.75
 30
0.0
 40
3.0
  1
A
 41
0.8571429252624509
  7
FX_VECTOR
100
AcDbText
  0
TEXT
  5
23D
330
20E
100
AcDbEntity
  8
LAYER004
  6
Continuous
 62
   161
370
    20
100
AcDbText
 10
280.239990234375
 20
79.75
 30
0.0
 40
3.0
  1
C
  7
FX_VECTOR
100
AcDbText
  0
TEXT
  5
23E
330
20E
100
AcDbEntity
  8
LAYER004
  6
Continuous
 62
   161
370
    20
100
AcDbText
 10
280.1685791015625
 20
32.25
 30
0.0
 40
3.0
  1
D
 41
1.047619104385374
  7
FX_VECTOR
100
AcDbText
  0
TEXT
  5
23F
330
20E
100
AcDbEntity
  8
LAYER004
  6
Continuous
 62
   161
370
    20
100
AcDbText
 10
280.1685791015625
 20
127.2499999999999
 30
0.0
 40
3.0
  1
B
 41
1.047619104385374
  7
FX_VECTOR
100
AcDbText
  0
TEXT
  5
240
330
20E
100
AcDbEntity
  8
LAYER004
  6
Continuous
 62
   161
370
    20
100
AcDbText
 10
256.167999267578
 20
200.8999938964842
 30
0.0
 40
3.0
  1
6
  7
FX_VECTOR
100
AcDbText
  0
TEXT
  5
241
330
20E
100
AcDbEntity
  8
LAYER004
  6
Continuous
 62
   161
370
    20
100
AcDbText
 10
168.833999633789
 20
200.8999938964842
 30
0.0
 40
3.0
  1
4
  7
FX_VECTOR
100
AcDbText
  0
TEXT
  5
242
330
20E
100
AcDbEntity
  8
LAYER004
  6
Continuous
 62
   161
370
    20
100
AcDbText
 10
38.11871337890625
 20
200.8999938964842
 30
0.0
 40
3.0
  1
1
 41
0.809523820877075
  7
FX_VECTOR
100
AcDbText
  0
TEXT
  5
243
330
20E
100
AcDbEntity
  8
LAYER004
  6
Continuous
 62
   161
370
    20
100
AcDbText
 10
81.57142639160156
 20
200.8999938964842
 30
0.0
 40
3.0
  1
2
 41
0.9523809750874836
  7
FX_VECTOR
100
AcDbText
  0
TEXT
  5
244
330
20E
100
AcDbEntity
  8
LAYER004
  6
Continuous
 62
   161
370
    20
100
AcDbText
 10
125.2384262084961
 20
200.8999938964842
 30
0.0
 40
3.0
  1
3
 41
0.9523809750874836
  7
FX_VECTOR
100
AcDbText
  0
TEXT
  5
245
330
20E
100
AcDbEntity
  8
LAYER004
  6
Continuous
 62
   161
370
    20
100
AcDbText
 10
212.5724334716796
 20
200.8999938964842
 30
0.0
 40
3.0
  1
5
 41
0.9523809750874836
  7
FX_VECTOR
100
AcDbText
  0
TEXT
  5
246
330
20E
100
AcDbEntity
  8
LAYER004
  6
Continuous
 62
   161
370
    20
100
AcDbText
 10
38.11871337890625
 20
6.099999904632567
 30
0.0
 40
3.0
  1
1
 41
0.809523820877075
  7
FX_VECTOR
100
AcDbText
  0
TEXT
  5
247
330
20E
100
AcDbEntity
  8
LAYER004
  6
Continuous
 62
   161
370
    20
100
AcDbText
 10
81.57142639160156
 20
6.099999904632567
 30
0.0
 40
3.0
  1
2
 41
0.9523809750874836
  7
FX_VECTOR
100
AcDbText
  0
TEXT
  5
248
330
20E
100
AcDbEntity
  8
LAYER004
  6
Continuous
 62
   161
370
    20
100
AcDbText
 10
125.2384262084961
 20
6.099999904632567
 30
0.0
 40
3.0
  1
3
 41
0.9523809750874836
  7
FX_VECTOR
100
AcDbText
  0
TEXT
  5
249
330
20E
100
AcDbEntity
  8
LAYER004
  6
Continuous
 62
   161
370
    20
100
AcDbText
 10
168.833999633789
 20
6.099999904632567
 30
0.0
 40
3.0
  1
4
  7
FX_VECTOR
100
AcDbText
  0
TEXT
  5
24A
330
20E
100
AcDbEntity
  8
LAYER004
  6
Continuous
 62
   161
370
    20
100
AcDbText
 10
212.5724334716796
 20
6.099999904632567
 30
0.0
 40
3.0
  1
5
 41
0.9523809750874836
  7
FX_VECTOR
100
AcDbText
  0
TEXT
  5
24B
330
20E
100
AcDbEntity
  8
LAYER004
  6
Continuous
 62
   161
370
    20
100
AcDbText
 10
256.167999267578
 20
6.099999904632567
 30
0.0
 40
3.0
  1
6
  7
FX_VECTOR
100
AcDbText
  0
TEXT
  5
24C
330
20E
100
AcDbEntity
  8
LAYER004
  6
Continuous
 62
   161
370
    20
100
AcDbText
 10
13.97428607940674
 20
174.75
 30
0.0
 40
3.0
  1
A
 41
0.8571429252624509
  7
FX_VECTOR
100
AcDbText
  0
TEXT
  5
24D
330
20E
100
AcDbEntity
  8
LAYER004
  6
Continuous
 62
   161
370
    20
100
AcDbText
 10
13.68857097625731
 20
127.2499999999999
 30
0.0
 40
3.0
  1
B
 41
1.047619104385374
  7
FX_VECTOR
100
AcDbText
  0
TEXT
  5
24E
330
20E
100
AcDbEntity
  8
LAYER004
  6
Continuous
 62
   161
370
    20
100
AcDbText
 10
13.76000022888184
 20
79.75
 30
0.0
 40
3.0
  1
C
  7
FX_VECTOR
100
AcDbText
  0
TEXT
  5
24F
330
20E
100
AcDbEntity
  8
LAYER004
  6
Continuous
 62
   161
370
    20
100
AcDbText
 10
13.68857097625731
 20
32.25
 30
0.0
 40
3.0
  1
D
 41
1.047619104385374
  7
FX_VECTOR
100
AcDbText
  0
ENDBLK
  5
210
330
20E
100
AcDbEntity
  8
0
100
AcDbBlockEnd
  0
BLOCK
  5
251
330
250
100
AcDbEntity
  8
0
100
AcDbBlockBegin
  2
BLKF027
 70
     0
 10
0.0
 20
0.0
 30
0.0
  3
BLKF027
  1

  0
LINE
  5
254
330
250
100
AcDbEntity
  8
LAYER004
  6
Continuous
 62
     7
370
    20
100
AcDbLine
 10
177.168
 20
200.0000028302204
 30
0.0
 11
279.4999828890983
 21
200.0000028302204
 31
0.0
  0
LINE
  5
255
330
250
100
AcDbEntity
  8
LAYER004
  6
Continuous
 62
   161
370
    20
100
AcDbLine
 10
279.4999828890983
 20
187.5
 30
0.0
 11
177.168
 21
187.5
 31
0.0
  0
LINE
  5
256
330
250
100
AcDbEntity
  8
LAYER004
  6
Continuous
 62
   161
370
    20
100
AcDbLine
 10
177.168
 20
187.5
 30
0.0
 11
177.168
 21
200.0000028302204
 31
0.0
  0
LINE
  5
257
330
250
100
AcDbEntity
  8
LAYER004
  6
Continuous
 62
     7
370
    20
100
AcDbLine
 10
177.168
 20
192.4999999999999
 30
0.0
 11
279.4999828890983
 21
192.4999999999999
 31
0.0
  0
LINE
  5
258
330
250
100
AcDbEntity
  8
LAYER004
  6
Continuous
 62
     7
370
    20
100
AcDbLine
 10
192.168
 20
187.5
 30
0.0
 11
192.168
 21
200.0000028302204
 31
0.0
  0
LINE
  5
259
330
250
100
AcDbEntity
  8
LAYER004
  6
Continuous
 62
     7
370
    20
100
AcDbLine
 10
207.168
 20
200.0000028302204
 30
0.0
 11
207.168
 21
187.5
 31
0.0
  0
TEXT
  5
25A
330
250
100
AcDbEntity
  8
LAYER004
  6
Continuous
 62
     7
370
    20
100
AcDbText
 10
238.7339935302734
 20
196.4786682128906
 30
0.0
 40
2.299999952316284
  1
改訂内容
  7
FX_VECTOR
100
AcDbText
  0
TEXT
  5
25B
330
250
100
AcDbEntity
  8
LAYER004
  6
Continuous
 62
     7
370
    20
100
AcDbText
 10
232.9340057373046
 20
193.6854553222655
 30
0.0
 40
1.600000023841858
  1
Revision note
  7
FX_VECTOR
100
AcDbText
  0
TEXT
  5
25C
330
250
100
AcDbEntity
  8
LAYER004
  6
Continuous
 62
     7
370
    20
100
AcDbText
 10
196.2272186279296
 20
196.4786682128906
 30
0.0
 40
2.299999952316284
  1
改訂日
  7
FX_VECTOR
100
AcDbText
  0
TEXT
  5
25D
330
250
100
AcDbEntity
  8
LAYER004
  6
Continuous
 62
     7
370
    20
100
AcDbText
 10
196.4772186279296
 20
193.6854553222655
 30
0.0
 40
1.600000023841858
  1
Date
  7
FX_VECTOR
100
AcDbText
  0
TEXT
  5
25E
330
250
100
AcDbEntity
  8
LAYER004
  6
Continuous
 62
     7
370
    20
100
AcDbText
 10
180.0540313720703
 20
196.4786682128906
 30
0.0
 40
2.299999952316284
  1
改訂番号
  7
FX_VECTOR
100
AcDbText
  0
TEXT
  5
25F
330
250
100
AcDbEntity
  8
LAYER004
  6
Continuous
 62
     7
370
    20
100
AcDbText
 10
179.8679962158203
 20
193.6854553222655
 30
0.0
 40
1.600000023841858
  1
Rev.No
  7
FX_VECTOR
100
AcDbText
  0
ENDBLK
  5
252
330
250
100
AcDbEntity
  8
0
100
AcDbBlockEnd
  0
BLOCK
  5
263
330
262
100
AcDbEntity
  8
0
100
AcDbBlockBegin
  2
BLKF028
 70
     0
 10
0.0
 20
0.0
 30
0.0
  3
BLKF028
  1

  0
LINE
  5
266
330
262
100
AcDbEntity
  8
用紙-GR2
  6
DASHED
 62
     5
370
    20
100
AcDbLine
 10
191.0214217433584
 20
104.128336334418
 30
0.0
 11
180.4148200255601
 21
114.7349380522163
 31
0.0
  0
LINE
  5
267
330
262
100
AcDbEntity
  8
用紙-GR2
  6
DASHED
 62
     5
370
    20
100
AcDbLine
 10
180.839084094272
 20
115.159202120928
 30
0.0
 11
191.4456858120705
 21
104.5526004031299
 31
0.0
  0
LINE
  5
268
330
262
100
AcDbEntity
  8
用紙-GR2
  6
DASHED
 62
     5
370
    20
100
AcDbLine
 10
180.839084094272
 20
115.1592021209282
 30
0.0
 11
180.4148200255601
 21
114.7349380522162
 31
0.0
  0
LINE
  5
269
330
262
100
AcDbEntity
  8
用紙-GR2
  6
DASHED
 62
     5
370
    20
100
AcDbLine
 10
191.4456858120705
 20
104.5526004031299
 30
0.0
 11
191.0214217433584
 21
104.128336334418
 31
0.0
  0
ENDBLK
  5
264
330
262
100
AcDbEntity
  8
0
100
AcDbBlockEnd
  0
BLOCK
  5
282
330
281
100
AcDbEntity
  8
0
100
AcDbBlockBegin
  2
*D27
 70
     1
 10
0.0
 20
0.0
 30
0.0
  3
*D27
  1

  0
LINE
  5
4D8
330
281
100
AcDbEntity
  8
用紙-GR2
 62
     6
370
    -2
100
AcDbLine
 10
-28.35908174454488
 20
51.33577651973531
 30
0.0
 11
-38.85908174454488
 21
51.33577651973531
 31
0.0
  0
LINE
  5
4D9
330
281
100
AcDbEntity
  8
用紙-GR2
 62
     6
370
    -2
100
AcDbLine
 10
-28.35908174454488
 20
63.2357765197353
 30
0.0
 11
-38.85908174454488
 21
63.2357765197353
 31
0.0
  0
LINE
  5
4DA
330
281
100
AcDbEntity
  8
用紙-GR2
 62
     6
370
    -2
100
AcDbLine
 10
-37.35908174454488
 20
54.33577651973532
 30
0.0
 11
-37.35908174454488
 21
60.2357765197353
 31
0.0
  0
INSERT
  5
4DB
330
281
100
AcDbEntity
  8
用紙-GR2
 62
     6
370
    -2
100
AcDbBlockReference
  2
FXTIP_ARROW_S
 10
-37.35908174454488
 20
51.33577651973531
 30
0.0
 41
3.0
 42
3.0
 43
3.0
 50
270.0
  0
INSERT
  5
4DC
330
281
100
AcDbEntity
  8
用紙-GR2
 62
     6
370
    -2
100
AcDbBlockReference
  2
FXTIP_ARROW_E
 10
-37.35908174454488
 20
63.2357765197353
 30
0.0
 41
3.0
 42
3.0
 43
3.0
 50
90.0
  0
MTEXT
  5
4DD
330
281
100
AcDbEntity
  8
用紙-GR2
 62
     6
100
AcDbMText
 10
-38.85908174454489
 20
57.2857765197353
 30
0.0
 40
2.0
 41
0.0
 71
     5
 72
     1
  1
\A1;11.9
  7
STYLE003
 11
0.0000000000000001
 21
1.0
 31
0.0
 73
     1
 44
1.0
  0
POINT
  5
4DE
330
281
100
AcDbEntity
  8
Defpoints
 62
     0
100
AcDbPoint
 10
-27.35908174454488
 20
51.33577651973531
 30
0.0
  0
POINT
  5
4DF
330
281
100
AcDbEntity
  8
Defpoints
 62
     0
100
AcDbPoint
 10
-27.35908174454488
 20
63.2357765197353
 30
0.0
  0
POINT
  5
4E0
330
281
100
AcDbEntity
  8
Defpoints
 62
     0
100
AcDbPoint
 10
-37.35908174454488
 20
63.2357765197353
 30
0.0
  0
ENDBLK
  5
283
330
281
100
AcDbEntity
  8
0
100
AcDbBlockEnd
  0
BLOCK
  5
28F
330
28E
100
AcDbEntity
  8
0
100
AcDbBlockBegin
  2
*D28
 70
     1
 10
0.0
 20
0.0
 30
0.0
  3
*D28
  1

  0
LINE
  5
573
330
28E
100
AcDbEntity
  8
用紙-GR2
 62
     6
370
    -2
100
AcDbLine
 10
-27.35908174454488
 20
64.23577651973531
 30
0.0
 11
-27.35908174454488
 21
72.32777622537594
 31
0.0
  0
LINE
  5
574
330
28E
100
AcDbEntity
  8
用紙-GR2
 62
     6
370
    -2
100
AcDbLine
 10
-20.88626974421105
 20
64.03577651973535
 30
0.0
 11
-20.88626974421105
 21
72.32777622537594
 31
0.0
  0
LINE
  5
575
330
28E
100
AcDbEntity
  8
用紙-GR2
 62
     6
370
    -2
100
AcDbLine
 10
-17.88626974421105
 20
70.82777622537594
 30
0.0
 11
-14.88626974421105
 21
70.82777622537594
 31
0.0
  0
LINE
  5
576
330
28E
100
AcDbEntity
  8
用紙-GR2
 62
     6
370
    -2
100
AcDbLine
 10
-30.35908174454488
 20
70.82777622537594
 30
0.0
 11
-41.11932539473613
 21
70.82777622537594
 31
0.0
  0
LINE
  5
577
330
28E
100
AcDbEntity
  8
用紙-GR2
 62
     6
370
    -2
100
AcDbLine
 10
-20.88626974421105
 20
70.82777622537594
 30
0.0
 11
-27.35908174454488
 21
70.82777622537594
 31
0.0
  0
INSERT
  5
578
330
28E
100
AcDbEntity
  8
用紙-GR2
 62
     6
370
    -2
100
AcDbBlockReference
  2
FXTIP_ARROW_E
 10
-20.88626974421105
 20
70.82777622537594
 30
0.0
 41
3.0
 42
3.0
 43
3.0
 50
180.0
  0
INSERT
  5
579
330
28E
100
AcDbEntity
  8
用紙-GR2
 62
     6
370
    -2
100
AcDbBlockReference
  2
FXTIP_ARROW_S
 10
-27.35908174454488
 20
70.82777622537594
 30
0.0
 41
3.0
 42
3.0
 43
3.0
  0
MTEXT
  5
57A
330
28E
100
AcDbEntity
  8
用紙-GR2
 62
     6
100
AcDbMText
 10
-37.84789682330756
 20
72.32777622537594
 30
0.0
 40
2.0
 41
0.0
 71
     5
 72
     1
  1
\A1;6.47
  7
STYLE003
 73
     1
 44
1.0
  0
POINT
  5
57B
330
28E
100
AcDbEntity
  8
Defpoints
 62
     0
100
AcDbPoint
 10
-27.35908174454488
 20
63.2357765197353
 30
0.0
  0
POINT
  5
57C
330
28E
100
AcDbEntity
  8
Defpoints
 62
     0
100
AcDbPoint
 10
-20.88626974421105
 20
63.03577651973535
 30
0.0
  0
POINT
  5
57D
330
28E
100
AcDbEntity
  8
Defpoints
 62
     0
100
AcDbPoint
 10
-20.88626974421105
 20
70.82777622537594
 30
0.0
  0
ENDBLK
  5
290
330
28E
100
AcDbEntity
  8
0
100
AcDbBlockEnd
  0
BLOCK
  5
299
330
298
100
AcDbEntity
  8
0
100
AcDbBlockBegin
  2
*D29
 70
     1
 10
0.0
 20
0.0
 30
0.0
  3
*D29
  1

  0
LINE
  5
56A
330
298
100
AcDbEntity
  8
用紙-GR2
 62
     6
370
    -2
100
AcDbLine
 10
-20.88626974421105
 20
64.03577651973535
 30
0.0
 11
-20.88626974421105
 21
72.34262135613693
 31
0.0
  0
LINE
  5
56B
330
298
100
AcDbEntity
  8
用紙-GR2
 62
     6
370
    -2
100
AcDbLine
 10
-0.8862697442110521
 20
63.0857765197353
 30
0.0
 11
-0.8862697442110516
 21
72.34262135613693
 31
0.0
  0
LINE
  5
56C
330
298
100
AcDbEntity
  8
用紙-GR2
 62
     6
370
    -2
100
AcDbLine
 10
-17.88626974421105
 20
70.84262135613693
 30
0.0
 11
-3.886269744211051
 21
70.84262135613693
 31
0.0
  0
INSERT
  5
56D
330
298
100
AcDbEntity
  8
用紙-GR2
 62
     6
370
    -2
100
AcDbBlockReference
  2
FXTIP_ARROW_S
 10
-20.88626974421105
 20
70.84262135613693
 30
0.0
 41
3.0
 42
3.0
 43
3.0
 50
180.0
  0
INSERT
  5
56E
330
298
100
AcDbEntity
  8
用紙-GR2
 62
     6
370
    -2
100
AcDbBlockReference
  2
FXTIP_ARROW_E
 10
-0.8862697442110517
 20
70.84262135613693
 30
0.0
 41
3.0
 42
3.0
 43
3.0
  0
MTEXT
  5
56F
330
298
100
AcDbEntity
  8
用紙-GR2
 62
     6
100
AcDbMText
 10
-11.23088094649256
 20
72.34262135613693
 30
0.0
 40
2.0
 41
0.0
 71
     5
 72
     1
  1
\A1;20
  7
STYLE003
 73
     1
 44
1.0
  0
POINT
  5
570
330
298
100
AcDbEntity
  8
Defpoints
 62
     0
100
AcDbPoint
 10
-20.88626974421105
 20
63.03577651973535
 30
0.0
  0
POINT
  5
571
330
298
100
AcDbEntity
  8
Defpoints
 62
     0
100
AcDbPoint
 10
-0.8862697442110523
 20
62.08577651973531
 30
0.0
  0
POINT
  5
572
330
298
100
AcDbEntity
  8
Defpoints
 62
     0
100
AcDbPoint
 10
-0.8862697442110517
 20
70.84262135613693
 30
0.0
  0
ENDBLK
  5
29A
330
298
100
AcDbEntity
  8
0
100
AcDbBlockEnd
  0
BLOCK
  5
2A2
330
2A1
100
AcDbEntity
  8
0
100
AcDbBlockBegin
  2
*D30
 70
     1
 10
0.0
 20
0.0
 30
0.0
  3
*D30
  1

  0
LINE
  5
538
330
2A1
100
AcDbEntity
  8
用紙-GR2
 62
     6
370
    -2
100
AcDbLine
 10
-0.8862697442110521
 20
63.0857765197353
 30
0.0
 11
-0.8862697442110516
 21
72.28577651973527
 31
0.0
  0
LINE
  5
539
330
2A1
100
AcDbEntity
  8
用紙-GR2
 62
     6
370
    -2
100
AcDbLine
 10
27.16373025578885
 20
61.7857765197353
 30
0.0
 11
27.16373025578885
 21
72.28577651973527
 31
0.0
  0
LINE
  5
53A
330
2A1
100
AcDbEntity
  8
用紙-GR2
 62
     6
370
    -2
100
AcDbLine
 10
2.113730255788948
 20
70.78577651973526
 30
0.0
 11
24.16373025578885
 21
70.78577651973526
 31
0.0
  0
INSERT
  5
53B
330
2A1
100
AcDbEntity
  8
用紙-GR2
 62
     6
370
    -2
100
AcDbBlockReference
  2
FXTIP_ARROW_S
 10
-0.8862697442110517
 20
70.78577651973526
 30
0.0
 41
3.0
 42
3.0
 43
3.0
 50
180.0
  0
INSERT
  5
53C
330
2A1
100
AcDbEntity
  8
用紙-GR2
 62
     6
370
    -2
100
AcDbBlockReference
  2
FXTIP_ARROW_E
 10
27.16373025578885
 20
70.78577651973526
 30
0.0
 41
3.0
 42
3.0
 43
3.0
  0
MTEXT
  5
53D
330
2A1
100
AcDbEntity
  8
用紙-GR2
 62
     6
100
AcDbMText
 10
13.1387302557889
 20
72.28577651973527
 30
0.0
 40
2.0
 41
0.0
 71
     5
 72
     1
  1
\A1;28.05
  7
STYLE003
 73
     1
 44
1.0
  0
POINT
  5
53E
330
2A1
100
AcDbEntity
  8
Defpoints
 62
     0
100
AcDbPoint
 10
-0.8862697442110523
 20
62.08577651973531
 30
0.0
  0
POINT
  5
53F
330
2A1
100
AcDbEntity
  8
Defpoints
 62
     0
100
AcDbPoint
 10
27.16373025578885
 20
60.78577651973531
 30
0.0
  0
POINT
  5
540
330
2A1
100
AcDbEntity
  8
Defpoints
 62
     0
100
AcDbPoint
 10
27.16373025578885
 20
70.78577651973526
 30
0.0
  0
ENDBLK
  5
2A3
330
2A1
100
AcDbEntity
  8
0
100
AcDbBlockEnd
  0
BLOCK
  5
2AB
330
2AA
100
AcDbEntity
  8
0
100
AcDbBlockBegin
  2
*D31
 70
     1
 10
0.0
 20
0.0
 30
0.0
  3
*D31
  1

  0
LINE
  5
4F3
330
2AA
100
AcDbEntity
  8
用紙-GR2
 62
     6
370
    -2
100
AcDbLine
 10
-2.086269744211055
 20
52.28577651973532
 30
0.0
 11
-13.46566678325627
 21
52.28577651973532
 31
0.0
  0
LINE
  5
4F4
330
2AA
100
AcDbEntity
  8
用紙-GR2
 62
     6
370
    -2
100
AcDbLine
 10
-2.086269744211055
 20
62.28577651973529
 30
0.0
 11
-13.46566678325627
 21
62.28577651973529
 31
0.0
  0
LINE
  5
4F5
330
2AA
100
AcDbEntity
  8
用紙-GR2
 62
     6
370
    -2
100
AcDbLine
 10
-11.96566678325627
 20
55.28577651973532
 30
0.0
 11
-11.96566678325627
 21
59.2857765197353
 31
0.0
  0
INSERT
  5
4F6
330
2AA
100
AcDbEntity
  8
用紙-GR2
 62
     6
370
    -2
100
AcDbBlockReference
  2
FXTIP_ARROW_S
 10
-11.96566678325627
 20
52.28577651973532
 30
0.0
 41
3.0
 42
3.0
 43
3.0
 50
270.0
  0
INSERT
  5
4F7
330
2AA
100
AcDbEntity
  8
用紙-GR2
 62
     6
370
    -2
100
AcDbBlockReference
  2
FXTIP_ARROW_E
 10
-11.96566678325627
 20
62.28577651973529
 30
0.0
 41
3.0
 42
3.0
 43
3.0
 50
90.0
  0
MTEXT
  5
4F8
330
2AA
100
AcDbEntity
  8
用紙-GR2
 62
     6
100
AcDbMText
 10
-13.46566678325628
 20
57.2857765197353
 30
0.0
 40
2.0
 41
0.0
 71
     5
 72
     1
  1
\A1;10
  7
STYLE003
 11
0.0000000000000001
 21
1.0
 31
0.0
 73
     1
 44
1.0
  0
POINT
  5
4F9
330
2AA
100
AcDbEntity
  8
Defpoints
 62
     0
100
AcDbPoint
 10
-1.086269744211055
 20
52.28577651973532
 30
0.0
  0
POINT
  5
4FA
330
2AA
100
AcDbEntity
  8
Defpoints
 62
     0
100
AcDbPoint
 10
-1.086269744211055
 20
62.28577651973529
 30
0.0
  0
POINT
  5
4FB
330
2AA
100
AcDbEntity
  8
Defpoints
 62
     0
100
AcDbPoint
 10
-11.96566678325627
 20
62.28577651973529
 30
0.0
  0
ENDBLK
  5
2AC
330
2AA
100
AcDbEntity
  8
0
100
AcDbBlockEnd
  0
BLOCK
  5
2B8
330
2B7
100
AcDbEntity
  8
0
100
AcDbBlockBegin
  2
*D32
 70
     1
 10
0.0
 20
0.0
 30
0.0
  3
*D32
  1

  0
LINE
  5
4EA
330
2B7
100
AcDbEntity
  8
用紙-GR2
 62
     6
370
    -2
100
AcDbLine
 10
26.66373025578885
 20
53.7857765197353
 30
0.0
 11
2.666986914689446
 21
53.78577651973531
 31
0.0
  0
LINE
  5
4EB
330
2B7
100
AcDbEntity
  8
用紙-GR2
 62
     6
370
    -2
100
AcDbLine
 10
26.66373025578885
 20
60.78577651973531
 30
0.0
 11
2.666986914689448
 21
60.78577651973532
 31
0.0
  0
LINE
  5
4EC
330
2B7
100
AcDbEntity
  8
用紙-GR2
 62
     6
370
    -2
100
AcDbLine
 10
4.166986914689448
 20
56.7857765197353
 30
0.0
 11
4.166986914689448
 21
57.78577651973531
 31
0.0
  0
INSERT
  5
4ED
330
2B7
100
AcDbEntity
  8
用紙-GR2
 62
     6
370
    -2
100
AcDbBlockReference
  2
FXTIP_ARROW_S
 10
4.166986914689447
 20
53.78577651973531
 30
0.0
 41
3.0
 42
3.0
 43
3.0
 50
270.0
  0
INSERT
  5
4EE
330
2B7
100
AcDbEntity
  8
用紙-GR2
 62
     6
370
    -2
100
AcDbBlockReference
  2
FXTIP_ARROW_E
 10
4.166986914689449
 20
60.78577651973532
 30
0.0
 41
3.0
 42
3.0
 43
3.0
 50
90.0
  0
MTEXT
  5
4EF
330
2B7
100
AcDbEntity
  8
用紙-GR2
 62
     6
100
AcDbMText
 10
2.666986914689439
 20
57.2857765197353
 30
0.0
 40
2.0
 41
0.0
 71
     5
 72
     1
  1
\A1;7
  7
STYLE003
 11
0.0000000000000001
 21
1.0
 31
0.0
 73
     1
 44
1.0
  0
POINT
  5
4F0
330
2B7
100
AcDbEntity
  8
Defpoints
 62
     0
100
AcDbPoint
 10
27.66373025578885
 20
53.7857765197353
 30
0.0
  0
POINT
  5
4F1
330
2B7
100
AcDbEntity
  8
Defpoints
 62
     0
100
AcDbPoint
 10
27.66373025578885
 20
60.78577651973531
 30
0.0
  0
POINT
  5
4F2
330
2B7
100
AcDbEntity
  8
Defpoints
 62
     0
100
AcDbPoint
 10
4.166986914689449
 20
60.78577651973532
 30
0.0
  0
ENDBLK
  5
2B9
330
2B7
100
AcDbEntity
  8
0
100
AcDbBlockEnd
  0
BLOCK
  5
2C5
330
2C4
100
AcDbEntity
  8
0
100
AcDbBlockBegin
  2
*D33
 70
     1
 10
0.0
 20
0.0
 30
0.0
  3
*D33
  1

  0
LINE
  5
512
330
2C4
100
AcDbEntity
  8
用紙-GR2
 62
     6
370
    -2
100
AcDbLine
 10
26.66373025578885
 20
46.8357765197353
 30
0.0
 11
38.66373025578885
 21
46.8357765197353
 31
0.0
  0
LINE
  5
513
330
2C4
100
AcDbEntity
  8
用紙-GR2
 62
     6
370
    -2
100
AcDbLine
 10
24.66373025578884
 20
57.28577651973525
 30
0.0
 11
38.66373025578885
 21
57.28577651973525
 31
0.0
  0
LINE
  5
514
330
2C4
100
AcDbEntity
  8
用紙-GR2
 62
     6
370
    -2
100
AcDbLine
 10
37.16373025578885
 20
49.8357765197353
 30
0.0
 11
37.16373025578885
 21
54.28577651973525
 31
0.0
  0
INSERT
  5
515
330
2C4
100
AcDbEntity
  8
用紙-GR2
 62
     6
370
    -2
100
AcDbBlockReference
  2
FXTIP_ARROW_S
 10
37.16373025578885
 20
46.8357765197353
 30
0.0
 41
3.0
 42
3.0
 43
3.0
 50
270.0
  0
INSERT
  5
516
330
2C4
100
AcDbEntity
  8
用紙-GR2
 62
     6
370
    -2
100
AcDbBlockReference
  2
FXTIP_ARROW_E
 10
37.16373025578885
 20
57.28577651973525
 30
0.0
 41
3.0
 42
3.0
 43
3.0
 50
90.0
  0
MTEXT
  5
517
330
2C4
100
AcDbEntity
  8
用紙-GR2
 62
     6
100
AcDbMText
 10
35.66373025578884
 20
52.06077651973529
 30
0.0
 40
2.0
 41
0.0
 71
     5
 72
     1
  1
\A1;10.45
  7
STYLE003
 11
0.0000000000000001
 21
1.0
 31
0.0
 73
     1
 44
1.0
  0
POINT
  5
518
330
2C4
100
AcDbEntity
  8
Defpoints
 62
     0
100
AcDbPoint
 10
25.66373025578885
 20
46.8357765197353
 30
0.0
  0
POINT
  5
519
330
2C4
100
AcDbEntity
  8
Defpoints
 62
     0
100
AcDbPoint
 10
23.66373025578884
 20
57.28577651973525
 30
0.0
  0
POINT
  5
51A
330
2C4
100
AcDbEntity
  8
Defpoints
 62
     0
100
AcDbPoint
 10
37.16373025578885
 20
57.28577651973525
 30
0.0
  0
ENDBLK
  5
2C6
330
2C4
100
AcDbEntity
  8
0
100
AcDbBlockEnd
  0
BLOCK
  5
2D1
330
2D0
100
AcDbEntity
  8
0
100
AcDbBlockBegin
  2
*D34
 70
     1
 10
0.0
 20
0.0
 30
0.0
  3
*D34
  1

  0
LINE
  5
507
330
2D0
100
AcDbEntity
  8
用紙-GR2
 62
     6
370
    -2
100
AcDbLine
 10
27.16373025578885
 20
46.8357765197353
 30
0.0
 11
33.66373025578885
 21
46.8357765197353
 31
0.0
  0
LINE
  5
508
330
2D0
100
AcDbEntity
  8
用紙-GR2
 62
     6
370
    -2
100
AcDbLine
 10
28.16373025578885
 20
53.7857765197353
 30
0.0
 11
33.66373025578885
 21
53.7857765197353
 31
0.0
  0
LINE
  5
509
330
2D0
100
AcDbEntity
  8
用紙-GR2
 62
     6
370
    -2
100
AcDbLine
 10
32.16373025578885
 20
43.8357765197353
 30
0.0
 11
32.16373025578885
 21
40.8357765197353
 31
0.0
  0
LINE
  5
50A
330
2D0
100
AcDbEntity
  8
用紙-GR2
 62
     6
370
    -2
100
AcDbLine
 10
32.16373025578885
 20
56.7857765197353
 30
0.0
 11
32.16373025578885
 21
59.7857765197353
 31
0.0
  0
LINE
  5
50B
330
2D0
100
AcDbEntity
  8
用紙-GR2
 62
     6
370
    -2
100
AcDbLine
 10
32.16373025578885
 20
46.8357765197353
 30
0.0
 11
32.16373025578885
 21
53.7857765197353
 31
0.0
  0
INSERT
  5
50C
330
2D0
100
AcDbEntity
  8
用紙-GR2
 62
     6
370
    -2
100
AcDbBlockReference
  2
FXTIP_ARROW_S
 10
32.16373025578885
 20
46.8357765197353
 30
0.0
 41
3.0
 42
3.0
 43
3.0
 50
90.0
  0
INSERT
  5
50D
330
2D0
100
AcDbEntity
  8
用紙-GR2
 62
     6
370
    -2
100
AcDbBlockReference
  2
FXTIP_ARROW_E
 10
32.16373025578885
 20
53.7857765197353
 30
0.0
 41
3.0
 42
3.0
 43
3.0
 50
270.0
  0
MTEXT
  5
50E
330
2D0
100
AcDbEntity
  8
用紙-GR2
 62
     6
100
AcDbMText
 10
30.66373025578884
 20
50.31077651973531
 30
0.0
 40
2.0
 41
0.0
 71
     5
 72
     1
  1
\A1;6.95
  7
STYLE003
 11
0.0000000000000001
 21
1.0
 31
0.0
 73
     1
 44
1.0
  0
POINT
  5
50F
330
2D0
100
AcDbEntity
  8
Defpoints
 62
     0
100
AcDbPoint
 10
26.16373025578885
 20
46.8357765197353
 30
0.0
  0
POINT
  5
510
330
2D0
100
AcDbEntity
  8
Defpoints
 62
     0
100
AcDbPoint
 10
27.16373025578885
 20
53.7857765197353
 30
0.0
  0
POINT
  5
511
330
2D0
100
AcDbEntity
  8
Defpoints
 62
     0
100
AcDbPoint
 10
32.16373025578885
 20
53.7857765197353
 30
0.0
  0
ENDBLK
  5
2D2
330
2D0
100
AcDbEntity
  8
0
100
AcDbBlockEnd
  0
BLOCK
  5
2DE
330
2DD
100
AcDbEntity
  8
0
100
AcDbBlockBegin
  2
*D35
 70
     1
 10
0.0
 20
0.0
 30
0.0
  3
*D35
  1

  0
LINE
  5
4FC
330
2DD
100
AcDbEntity
  8
用紙-GR2
 62
     6
370
    -2
100
AcDbLine
 10
23.66373025578888
 20
58.28577651973525
 30
0.0
 11
23.66373025578888
 21
67.2857765197353
 31
0.0
  0
LINE
  5
4FD
330
2DD
100
AcDbEntity
  8
用紙-GR2
 62
     6
370
    -2
100
AcDbLine
 10
27.16373025578885
 20
61.7857765197353
 30
0.0
 11
27.16373025578885
 21
67.2857765197353
 31
0.0
  0
LINE
  5
4FE
330
2DD
100
AcDbEntity
  8
用紙-GR2
 62
     6
370
    -2
100
AcDbLine
 10
20.66373025578888
 20
65.78577651973531
 30
0.0
 11
17.66373025578888
 21
65.78577651973531
 31
0.0
  0
LINE
  5
4FF
330
2DD
100
AcDbEntity
  8
用紙-GR2
 62
     6
370
    -2
100
AcDbLine
 10
30.16373025578885
 20
65.78577651973531
 30
0.0
 11
38.19801597007457
 21
65.78577651973531
 31
0.0
  0
LINE
  5
500
330
2DD
100
AcDbEntity
  8
用紙-GR2
 62
     6
370
    -2
100
AcDbLine
 10
23.66373025578888
 20
65.78577651973531
 30
0.0
 11
27.16373025578885
 21
65.78577651973531
 31
0.0
  0
INSERT
  5
501
330
2DD
100
AcDbEntity
  8
用紙-GR2
 62
     6
370
    -2
100
AcDbBlockReference
  2
FXTIP_ARROW_S
 10
23.66373025578888
 20
65.78577651973531
 30
0.0
 41
3.0
 42
3.0
 43
3.0
  0
INSERT
  5
502
330
2DD
100
AcDbEntity
  8
用紙-GR2
 62
     6
370
    -2
100
AcDbBlockReference
  2
FXTIP_ARROW_E
 10
27.16373025578885
 20
65.78577651973531
 30
0.0
 41
3.0
 42
3.0
 43
3.0
 50
180.0
  0
MTEXT
  5
503
330
2DD
100
AcDbEntity
  8
用紙-GR2
 62
     6
100
AcDbMText
 10
35.68087311293171
 20
67.2857765197353
 30
0.0
 40
2.0
 41
0.0
 71
     5
 72
     1
  1
\A1;3.5
  7
STYLE003
 73
     1
 44
1.0
  0
POINT
  5
504
330
2DD
100
AcDbEntity
  8
Defpoints
 62
     0
100
AcDbPoint
 10
23.66373025578888
 20
57.28577651973525
 30
0.0
  0
POINT
  5
505
330
2DD
100
AcDbEntity
  8
Defpoints
 62
     0
100
AcDbPoint
 10
27.16373025578885
 20
60.78577651973531
 30
0.0
  0
POINT
  5
506
330
2DD
100
AcDbEntity
  8
Defpoints
 62
     0
100
AcDbPoint
 10
27.16373025578885
 20
65.78577651973531
 30
0.0
  0
ENDBLK
  5
2DF
330
2DD
100
AcDbEntity
  8
0
100
AcDbBlockEnd
  0
BLOCK
  5
2EA
330
2E9
100
AcDbEntity
  8
0
100
AcDbBlockBegin
  2
*D36
 70
     1
 10
0.0
 20
0.0
 30
0.0
  3
*D36
  1

  0
LINE
  5
4CE
330
2E9
100
AcDbEntity
  8
用紙-GR2
 62
     6
370
    -2
100
AcDbLine
 10
23.66373025578888
 20
45.8357765197353
 30
0.0
 11
23.66373025578886
 21
40.97229257923837
 31
0.0
  0
ARC
  5
4CF
330
2E9
100
AcDbEntity
  8
用紙-GR2
 62
     6
370
    -2
100
AcDbCircle
 10
23.66373025578889
 20
57.28577651973529
 30
0.0
 40
14.81348394049692
100
AcDbArc
 50
191.6233589130433
 51
258.3766410869567
  0
INSERT
  5
4D0
330
2E9
100
AcDbEntity
  8
用紙-GR2
 62
     6
370
    -2
100
AcDbBlockReference
  2
FXTIP_ARROW_E
 10
8.850246315291968
 20
57.28577651973529
 30
0.0
 41
3.0
 42
3.0
 43
3.0
 50
95.81167945652165
  0
INSERT
  5
4D1
330
2E9
100
AcDbEntity
  8
用紙-GR2
 62
     6
370
    -2
100
AcDbBlockReference
  2
FXTIP_ARROW_S
 10
23.66373025578886
 20
42.47229257923836
 30
0.0
 41
3.0
 42
3.0
 43
3.0
 50
354.1883205434783
  0
MTEXT
  5
4D2
330
2E9
100
AcDbEntity
  8
用紙-GR2
 62
     6
100
AcDbMText
 10
14.2496754802453
 20
47.87172174419171
 30
0.0
 40
2.0
 41
0.0
 71
     5
 72
     1
  1
\A1;90.00°
  7
STYLE003
 11
0.7071067811865476
 21
-0.7071067811865475
 31
0.0
 73
     1
 44
1.0
  0
POINT
  5
4D3
330
2E9
100
AcDbEntity
  8
Defpoints
 62
     0
100
AcDbPoint
 10
10.83487684476573
 20
49.87903454948685
 30
0.0
  0
POINT
  5
4D4
330
2E9
100
AcDbEntity
  8
Defpoints
 62
     0
100
AcDbPoint
 10
23.66373025578884
 20
57.28577651973529
 30
0.0
  0
POINT
  5
4D5
330
2E9
100
AcDbEntity
  8
Defpoints
 62
     0
100
AcDbPoint
 10
23.66373025578887
 20
46.8357765197353
 30
0.0
  0
POINT
  5
4D6
330
2E9
100
AcDbEntity
  8
Defpoints
 62
     0
100
AcDbPoint
 10
23.66373025578889
 20
57.28577651973529
 30
0.0
  0
POINT
  5
4D7
330
2E9
100
AcDbEntity
  8
Defpoints
 62
     0
100
AcDbPoint
 10
-7.974633996768265
 20
57.28577651973529
 30
0.0
  0
ENDBLK
  5
2EB
330
2E9
100
AcDbEntity
  8
0
100
AcDbBlockEnd
  0
BLOCK
  5
2FD
330
2FC
100
AcDbEntity
  8
0
100
AcDbBlockBegin
  2
*D37
 70
     1
 10
0.0
 20
0.0
 30
0.0
  3
*D37
  1

  0
LINE
  5
4C1
330
2FC
100
AcDbEntity
  8
用紙-GR2
 62
     6
370
    -2
100
AcDbLine
 10
19.45662347460233
 20
53.07866973854875
 30
0.0
 11
17.41092901985784
 21
51.0329752838043
 31
0.0
  0
LINE
  5
4C2
330
2FC
100
AcDbEntity
  8
用紙-GR2
 62
     6
370
    -2
100
AcDbLine
 10
27.23461950078091
 20
53.71488727474321
 30
0.0
 11
29.91653149171986
 21
51.03297528380428
 31
0.0
  0
ARC
  5
4C3
330
2FC
100
AcDbEntity
  8
用紙-GR2
 62
     6
370
    -2
100
AcDbCircle
 10
23.66373025578886
 20
57.28577651973523
 30
0.0
 40
7.342796310676835
100
AcDbArc
 50
201.4250752951881
 51
224.9999999999996
  0
LINE
  5
4C4
330
2FC
100
AcDbEntity
  8
用紙-GR2
 62
     6
370
    -2
100
AcDbLine
 10
16.82835025008147
 20
54.60356887720175
 30
0.0
 11
12.7684770324612
 21
64.94981343238336
 31
0.0
  0
ARC
  5
4C5
330
2FC
100
AcDbEntity
  8
用紙-GR2
 62
     6
370
    -2
100
AcDbCircle
 10
23.66373025578886
 20
57.28577651973523
 30
0.0
 40
7.342796310676835
100
AcDbArc
 50
248.5749247048111
 51
291.4250752951886
  0
INSERT
  5
4C6
330
2FC
100
AcDbEntity
  8
用紙-GR2
 62
     6
370
    -2
100
AcDbBlockReference
  2
FXTIP_ARROW_E
 10
18.47158919163767
 20
52.0936354555841
 30
0.0
 41
3.0
 42
3.0
 43
3.0
 50
146.7874623524053
  0
INSERT
  5
4C7
330
2FC
100
AcDbEntity
  8
用紙-GR2
 62
     6
370
    -2
100
AcDbBlockReference
  2
FXTIP_ARROW_S
 10
28.85587131994003
 20
52.0936354555841
 30
0.0
 41
3.0
 42
3.0
 43
3.0
 50
33.21253764759443
  0
MTEXT
  5
4C8
330
2FC
100
AcDbEntity
  8
用紙-GR2
 62
     6
100
AcDbMText
 10
16.19475770077528
 20
60.32461748879015
 30
0.0
 40
2.0
 41
0.0
 71
     5
 72
     1
  1
\A1;90.00°
  7
STYLE003
 11
0.3652842226650621
 21
-0.930896039669297
 31
0.0
 73
     1
 44
1.0
  0
POINT
  5
4C9
330
2FC
100
AcDbEntity
  8
Defpoints
 62
     0
100
AcDbPoint
 10
25.56418578530055
 20
50.19317992607239
 30
0.0
  0
POINT
  5
4CA
330
2FC
100
AcDbEntity
  8
Defpoints
 62
     0
100
AcDbPoint
 10
23.66373025578888
 20
57.28577651973525
 30
0.0
  0
POINT
  5
4CB
330
2FC
100
AcDbEntity
  8
Defpoints
 62
     0
100
AcDbPoint
 10
26.52751271959436
 20
54.42199405592975
 30
0.0
  0
POINT
  5
4CC
330
2FC
100
AcDbEntity
  8
Defpoints
 62
     0
100
AcDbPoint
 10
23.66373025578884
 20
57.28577651973525
 30
0.0
  0
POINT
  5
4CD
330
2FC
100
AcDbEntity
  8
Defpoints
 62
     0
100
AcDbPoint
 10
20.16373025578888
 20
53.7857765197353
 30
0.0
  0
ENDBLK
  5
2FE
330
2FC
100
AcDbEntity
  8
0
100
AcDbBlockEnd
  0
BLOCK
  5
307
330
306
100
AcDbEntity
  8
0
100
AcDbBlockBegin
  2
*D38
 70
     1
 10
0.0
 20
0.0
 30
0.0
  3
*D38
  1

  0
LINE
  5
4E1
330
306
100
AcDbEntity
  8
用紙-GR2
 62
     6
370
    -2
100
AcDbLine
 10
-28.35908174454487
 20
51.78577651973532
 30
0.0
 11
-33.85908174454488
 21
51.78577651973532
 31
0.0
  0
LINE
  5
4E2
330
306
100
AcDbEntity
  8
用紙-GR2
 62
     6
370
    -2
100
AcDbLine
 10
-28.35908174454487
 20
62.78577651973529
 30
0.0
 11
-33.85908174454488
 21
62.78577651973529
 31
0.0
  0
LINE
  5
4E3
330
306
100
AcDbEntity
  8
用紙-GR2
 62
     6
370
    -2
100
AcDbLine
 10
-32.35908174454488
 20
54.78577651973532
 30
0.0
 11
-32.35908174454488
 21
59.78577651973529
 31
0.0
  0
INSERT
  5
4E4
330
306
100
AcDbEntity
  8
用紙-GR2
 62
     6
370
    -2
100
AcDbBlockReference
  2
FXTIP_ARROW_S
 10
-32.35908174454488
 20
51.78577651973532
 30
0.0
 41
3.0
 42
3.0
 43
3.0
 50
270.0
  0
INSERT
  5
4E5
330
306
100
AcDbEntity
  8
用紙-GR2
 62
     6
370
    -2
100
AcDbBlockReference
  2
FXTIP_ARROW_E
 10
-32.35908174454488
 20
62.78577651973529
 30
0.0
 41
3.0
 42
3.0
 43
3.0
 50
90.0
  0
MTEXT
  5
4E6
330
306
100
AcDbEntity
  8
用紙-GR2
 62
     6
100
AcDbMText
 10
-33.85908174454489
 20
57.2857765197353
 30
0.0
 40
2.0
 41
0.0
 71
     5
 72
     1
  1
\A1;11
  7
STYLE003
 11
0.0000000000000001
 21
1.0
 31
0.0
 73
     1
 44
1.0
  0
POINT
  5
4E7
330
306
100
AcDbEntity
  8
Defpoints
 62
     0
100
AcDbPoint
 10
-27.35908174454487
 20
51.78577651973532
 30
0.0
  0
POINT
  5
4E8
330
306
100
AcDbEntity
  8
Defpoints
 62
     0
100
AcDbPoint
 10
-27.35908174454487
 20
62.78577651973529
 30
0.0
  0
POINT
  5
4E9
330
306
100
AcDbEntity
  8
Defpoints
 62
     0
100
AcDbPoint
 10
-32.35908174454488
 20
62.78577651973529
 30
0.0
  0
ENDBLK
  5
308
330
306
100
AcDbEntity
  8
0
100
AcDbBlockEnd
  0
BLOCK
  5
315
330
314
100
AcDbEntity
  8
0
100
AcDbBlockBegin
  2
*D39
 70
     1
 10
0.0
 20
0.0
 30
0.0
  3
*D39
  1

  0
LINE
  5
51B
330
314
100
AcDbEntity
  8
用紙-GR2
 62
     6
370
    -2
100
AcDbLine
 10
-27.35908174454488
 20
64.23577651973531
 30
0.0
 11
-27.35908174454488
 21
77.28577651973527
 31
0.0
  0
LINE
  5
51C
330
314
100
AcDbEntity
  8
用紙-GR2
 62
     6
370
    -2
100
AcDbLine
 10
27.16373025578885
 20
61.7857765197353
 30
0.0
 11
27.16373025578885
 21
77.28577651973527
 31
0.0
  0
LINE
  5
51D
330
314
100
AcDbEntity
  8
用紙-GR2
 62
     6
370
    -2
100
AcDbLine
 10
-24.35908174454489
 20
75.78577651973526
 30
0.0
 11
24.16373025578885
 21
75.78577651973526
 31
0.0
  0
INSERT
  5
51E
330
314
100
AcDbEntity
  8
用紙-GR2
 62
     6
370
    -2
100
AcDbBlockReference
  2
FXTIP_ARROW_S
 10
-27.35908174454488
 20
75.78577651973526
 30
0.0
 41
3.0
 42
3.0
 43
3.0
 50
180.0
  0
INSERT
  5
51F
330
314
100
AcDbEntity
  8
用紙-GR2
 62
     6
370
    -2
100
AcDbBlockReference
  2
FXTIP_ARROW_E
 10
27.16373025578885
 20
75.78577651973526
 30
0.0
 41
3.0
 42
3.0
 43
3.0
  0
MTEXT
  5
520
330
314
100
AcDbEntity
  8
用紙-GR2
 62
     6
100
AcDbMText
 10
-0.0976757443780158
 20
77.28577651973527
 30
0.0
 40
2.0
 41
0.0
 71
     5
 72
     1
  1
\A1;54.52
  7
STYLE003
 73
     1
 44
1.0
  0
POINT
  5
521
330
314
100
AcDbEntity
  8
Defpoints
 62
     0
100
AcDbPoint
 10
-27.35908174454488
 20
63.2357765197353
 30
0.0
  0
POINT
  5
522
330
314
100
AcDbEntity
  8
Defpoints
 62
     0
100
AcDbPoint
 10
27.16373025578885
 20
60.78577651973531
 30
0.0
  0
POINT
  5
523
330
314
100
AcDbEntity
  8
Defpoints
 62
     0
100
AcDbPoint
 10
27.16373025578885
 20
75.78577651973526
 30
0.0
  0
ENDBLK
  5
316
330
314
100
AcDbEntity
  8
0
100
AcDbBlockEnd
  0
ENDSEC
  0
SECTION
  2
ENTITIES
  0
LINE
  5
261
330
1F
100
AcDbEntity
  8
用紙-GR2
  6
DASHDOT
 62
     6
370
    20
100
AcDbLine
 10
23.66373025578889
 20
57.28577651973529
 30
0.0
 11
23.66373025578889
 21
46.8357765197353
 31
0.0
  0
INSERT
  5
265
330
1F
100
AcDbEntity
  8
0
100
AcDbBlockReference
  2
BLKF028
 10
-68.98319815208481
 20
2.357825888720753
 30
0.0
 41
0.5
 42
0.5
 43
0.5
  0
LINE
  5
26A
330
1F
100
AcDbEntity
  8
用紙-GR2
  6
Continuous
 62
     7
370
    20
100
AcDbLine
 10
27.16373025578886
 20
60.74987813487306
 30
0.0
 11
27.16373025578886
 21
53.7857765197353
 31
0.0
  0
LINE
  5
26B
330
1F
100
AcDbEntity
  8
用紙-GR2
  6
Continuous
 62
     7
370
    20
100
AcDbLine
 10
25.16373025578886
 20
60.78577651973531
 30
0.0
 11
-0.8862697442110487
 21
60.78577651973531
 31
0.0
  0
LINE
  5
26C
330
1F
100
AcDbEntity
  8
用紙-GR2
  6
Continuous
 62
     7
370
    20
100
AcDbLine
 10
-27.35908174454488
 20
51.33577651973531
 30
0.0
 11
-27.35908174454488
 21
63.2357765197353
 31
0.0
  0
LINE
  5
26D
330
1F
100
AcDbEntity
  8
用紙-GR2
  6
Continuous
 62
     7
370
    20
100
AcDbLine
 10
-27.35908174454488
 20
63.2357765197353
 30
0.0
 11
-21.08626974421106
 21
63.23577651973536
 31
0.0
  0
LINE
  5
26E
330
1F
100
AcDbEntity
  8
用紙-GR2
  6
Continuous
 62
     7
370
    20
100
AcDbLine
 10
-20.88626974421105
 20
63.03577651973535
 30
0.0
 11
-20.88626974421105
 21
57.28577651973529
 31
0.0
  0
LINE
  5
26F
330
1F
100
AcDbEntity
  8
用紙-GR2
  6
DASHED
 62
     6
370
    20
100
AcDbLine
 10
-27.35908174454488
 20
62.78577651973529
 30
0.0
 11
-23.55908174454487
 21
62.78577651973529
 31
0.0
  0
LINE
  5
270
330
1F
100
AcDbEntity
  8
用紙-GR2
  6
DASHED
 62
     6
370
    20
100
AcDbLine
 10
-23.55908174454487
 20
62.37977651973531
 30
0.0
 11
-27.35908174454488
 21
62.37977651973531
 31
0.0
  0
LINE
  5
271
330
1F
100
AcDbEntity
  8
用紙-GR2
  6
Continuous
 62
     7
370
    20
100
AcDbLine
 10
-20.88626974421105
 20
62.28577651973529
 30
0.0
 11
-1.086269744211051
 21
62.28577651973529
 31
0.0
  0
LINE
  5
272
330
1F
100
AcDbEntity
  8
用紙-GR2
  6
DASHDOT
 62
     6
370
    20
100
AcDbLine
 10
23.66373025578889
 20
57.28577651973529
 30
0.0
 11
-29.41080814086723
 21
57.28577651973529
 31
0.0
  0
LINE
  5
273
330
1F
100
AcDbEntity
  8
用紙-GR2
  6
Continuous
 62
     7
370
    20
100
AcDbLine
 10
-0.8862697442110487
 20
52.48577651973536
 30
0.0
 11
-0.8862697442110487
 21
62.08577651973531
 31
0.0
  0
LINE
  5
274
330
1F
100
AcDbEntity
  8
用紙-GR2
  6
Continuous
 62
     7
370
    20
100
AcDbLine
 10
-27.35908174454488
 20
51.33577651973531
 30
0.0
 11
-21.08626974421106
 21
51.33577651973529
 31
0.0
  0
LINE
  5
275
330
1F
100
AcDbEntity
  8
用紙-GR2
  6
Continuous
 62
     7
370
    20
100
AcDbLine
 10
-20.88626974421105
 20
51.53577651973527
 30
0.0
 11
-20.88626974421105
 21
57.28577651973529
 31
0.0
  0
LINE
  5
276
330
1F
100
AcDbEntity
  8
用紙-GR2
  6
DASHED
 62
     6
370
    20
100
AcDbLine
 10
-27.35908174454488
 20
51.78577651973535
 30
0.0
 11
-23.55908174454464
 21
51.78577651973535
 31
0.0
  0
LINE
  5
277
330
1F
100
AcDbEntity
  8
用紙-GR2
  6
DASHED
 62
     6
370
    20
100
AcDbLine
 10
-23.55908174454487
 20
52.19177651973533
 30
0.0
 11
-27.35908174454488
 21
52.19177651973533
 31
0.0
  0
LINE
  5
278
330
1F
100
AcDbEntity
  8
用紙-GR2
  6
Continuous
 62
     7
370
    20
100
AcDbLine
 10
-20.88626974421105
 20
52.28577651973532
 30
0.0
 11
-1.086269744211051
 21
52.28577651973532
 31
0.0
  0
LINE
  5
279
330
1F
100
AcDbEntity
  8
用紙-GR2
  6
Continuous
 62
     7
370
    20
100
AcDbLine
 10
-1.086269744211051
 20
62.28577651973529
 30
0.0
 11
-0.8862697442110487
 21
62.08577651973531
 31
0.0
  0
LINE
  5
27A
330
1F
100
AcDbEntity
  8
用紙-GR2
  6
Continuous
 62
     7
370
    20
100
AcDbLine
 10
-0.8862697442111056
 20
52.4857765197353
 30
0.0
 11
-1.086269744211051
 21
52.28577651973532
 31
0.0
  0
LINE
  5
27B
330
1F
100
AcDbEntity
  8
用紙-GR2
  6
Continuous
 62
     7
370
    20
100
AcDbLine
 10
-21.08626974421106
 20
63.23577651973536
 30
0.0
 11
-20.88626974421105
 21
63.03577651973535
 31
0.0
  0
LINE
  5
27C
330
1F
100
AcDbEntity
  8
用紙-GR2
  6
Continuous
 62
     7
370
    20
100
AcDbLine
 10
-20.88626974421105
 20
51.53577651973527
 30
0.0
 11
-21.08626974421106
 21
51.33577651973529
 31
0.0
  0
LINE
  5
27D
330
1F
100
AcDbEntity
  8
用紙-GR2
  6
Continuous
 62
     6
370
    20
100
AcDbLine
 10
-1.086269744211051
 20
62.28577651973529
 30
0.0
 11
-1.086269744211051
 21
52.28577651973532
 31
0.0
  0
LINE
  5
27E
330
1F
100
AcDbEntity
  8
用紙-GR2
  6
Continuous
 62
     6
370
    20
100
AcDbLine
 10
-21.08626974421106
 20
63.23577651973536
 30
0.0
 11
-21.08626974421106
 21
51.33577651973529
 31
0.0
  0
LINE
  5
27F
330
1F
100
AcDbEntity
  8
用紙-GR2
  6
Continuous
 62
     6
370
    20
100
AcDbLine
 10
21.66373025578889
 20
46.8357765197353
 30
0.0
 11
25.66373025578886
 21
46.8357765197353
 31
0.0
  0
DIMENSION
  5
280
330
1F
100
AcDbEntity
  8
用紙-GR2
100
AcDbDimension
  2
*D27
 10
-37.35908174454488
 20
63.2357765197353
 30
0.0
 11
-38.85908174454489
 21
57.2857765197353
 31
0.0
 70
    33
 71
     5
 42
11.89999999999998
  3
FXDIMINFO
100
AcDbAlignedDimension
 13
-27.35908174454488
 23
51.33577651973531
 33
0.0
 14
-27.35908174454488
 24
63.2357765197353
 34
0.0
1001
ACAD
1000
DSTYLE
1002
{
1070
   140
1040
2.0
1002
}
  0
DIMENSION
  5
28D
330
1F
100
AcDbEntity
  8
用紙-GR2
100
AcDbDimension
  2
*D28
 10
-20.88626974421105
 20
70.82777622537594
 30
0.0
 11
-37.84789682330756
 21
70.82777622537594
 31
0.0
 70
   160
 71
     5
 42
6.472812000333824
  3
FXDIMINFO
100
AcDbAlignedDimension
 13
-27.35908174454488
 23
63.2357765197353
 33
0.0
 14
-20.88626974421105
 24
63.03577651973535
 34
0.0
 50
180.0
100
AcDbRotatedDimension
1001
ACAD
1000
DSTYLE
1002
{
1070
   140
1040
2.0
1070
   173
1070
     1
1070
   344
1005
48
1070
   343
1005
42
1002
}
  0
DIMENSION
  5
297
330
1F
100
AcDbEntity
  8
用紙-GR2
100
AcDbDimension
  2
*D29
 10
-0.8862697442110517
 20
70.84262135613693
 30
0.0
 11
-11.23088094649256
 21
70.84262135613693
 31
0.0
 70
   160
 71
     5
 42
20.0
  3
FXDIMINFO
100
AcDbAlignedDimension
 13
-20.88626974421105
 23
63.03577651973535
 33
0.0
 14
-0.8862697442110523
 24
62.08577651973531
 34
0.0
 50
180.0
100
AcDbRotatedDimension
1001
ACAD
1000
DSTYLE
1002
{
1070
   140
1040
2.0
1070
   271
1070
     0
1002
}
  0
DIMENSION
  5
2A0
330
1F
100
AcDbEntity
  8
用紙-GR2
100
AcDbDimension
  2
*D30
 10
27.16373025578885
 20
70.78577651973526
 30
0.0
 11
13.1387302557889
 21
72.28577651973527
 31
0.0
 70
    32
 71
     5
 42
28.0499999999999
  3
FXDIMINFO
100
AcDbAlignedDimension
 13
-0.8862697442110523
 23
62.08577651973531
 33
0.0
 14
27.16373025578885
 24
60.78577651973531
 34
0.0
 50
180.0
100
AcDbRotatedDimension
1001
ACAD
1000
DSTYLE
1002
{
1070
   140
1040
2.0
1070
   173
1070
     1
1070
   344
1005
48
1070
   343
1005
42
1002
}
  0
DIMENSION
  5
2A9
330
1F
100
AcDbEntity
  8
用紙-GR2
100
AcDbDimension
  2
*D31
 10
-11.96566678325627
 20
62.28577651973529
 30
0.0
 11
-13.46566678325628
 21
57.2857765197353
 31
0.0
 70
    33
 71
     5
 42
9.999999999999971
  3
FXDIMINFO
100
AcDbAlignedDimension
 13
-1.086269744211055
 23
52.28577651973532
 33
0.0
 14
-1.086269744211055
 24
62.28577651973529
 34
0.0
1001
ACAD
1000
DSTYLE
1002
{
1070
   140
1040
2.0
1002
}
  0
DIMENSION
  5
2B6
330
1F
100
AcDbEntity
  8
用紙-GR2
100
AcDbDimension
  2
*D32
 10
4.166986914689449
 20
60.78577651973532
 30
0.0
 11
2.666986914689439
 21
57.2857765197353
 31
0.0
 70
    33
 71
     5
 42
7.000000000000007
  3
FXDIMINFO
100
AcDbAlignedDimension
 13
27.66373025578885
 23
53.7857765197353
 33
0.0
 14
27.66373025578885
 24
60.78577651973531
 34
0.0
1001
ACAD
1000
DSTYLE
1002
{
1070
   140
1040
2.0
1002
}
  0
DIMENSION
  5
2C3
330
1F
100
AcDbEntity
  8
用紙-GR2
100
AcDbDimension
  2
*D33
 10
37.16373025578885
 20
57.28577651973525
 30
0.0
 11
35.66373025578884
 21
52.06077651973529
 31
0.0
 70
    32
 71
     5
 42
10.44999999999994
  3
FXDIMINFO
100
AcDbAlignedDimension
 13
25.66373025578885
 23
46.8357765197353
 33
0.0
 14
23.66373025578884
 24
57.28577651973525
 34
0.0
 50
270.0
100
AcDbRotatedDimension
1001
ACAD
1000
DSTYLE
1002
{
1070
   140
1040
2.0
1002
}
  0
DIMENSION
  5
2CF
330
1F
100
AcDbEntity
  8
用紙-GR2
100
AcDbDimension
  2
*D34
 10
32.16373025578885
 20
53.7857765197353
 30
0.0
 11
30.66373025578884
 21
50.31077651973531
 31
0.0
 70
    32
 71
     5
 42
6.949999999999995
  3
FXDIMINFO
100
AcDbAlignedDimension
 13
26.16373025578885
 23
46.8357765197353
 33
0.0
 14
27.16373025578885
 24
53.7857765197353
 34
0.0
 50
270.0
100
AcDbRotatedDimension
1001
ACAD
1000
DSTYLE
1002
{
1070
   140
1040
2.0
1002
}
  0
DIMENSION
  5
2DC
330
1F
100
AcDbEntity
  8
用紙-GR2
100
AcDbDimension
  2
*D35
 10
27.16373025578885
 20
65.78577651973531
 30
0.0
 11
35.68087311293171
 21
67.2857765197353
 31
0.0
 70
    32
 71
     5
 42
3.499999999999971
  3
FXDIMINFO
100
AcDbAlignedDimension
 13
23.66373025578888
 23
57.28577651973525
 33
0.0
 14
27.16373025578885
 24
60.78577651973531
 34
0.0
 50
180.0
100
AcDbRotatedDimension
1001
ACAD
1000
DSTYLE
1002
{
1070
   140
1040
2.0
1002
}
  0
DIMENSION
  5
2E8
330
1F
100
AcDbEntity
  8
用紙-GR2
100
AcDbDimension
  2
*D36
 10
-7.974633996768272
 20
57.28577651973529
 30
0.0
 11
14.24967548024531
 21
47.87172174419171
 31
0.0
 70
    34
 71
     5
 42
1.570796326794895
  3
FXDIMINFO
100
AcDb2LineAngularDimension
 13
23.66373025578888
 23
46.8357765197353
 33
0.0
 14
23.66373025578888
 24
57.28577651973529
 34
0.0
 15
23.66373025578884
 25
57.28577651973529
 35
0.0
 16
10.83487684476573
 26
49.87903454948685
 36
0.0
1001
ACAD
1000
DSTYLE
1002
{
1070
   140
1040
2.0
1070
   173
1070
     1
1070
   344
1005
42
1070
   343
1005
48
1002
}
  0
LINE
  5
2F1
330
1F
100
AcDbEntity
  8
用紙-GR2
  6
DASHDOT
 62
     6
370
    20
100
AcDbLine
 10
45.82107184304527
 20
57.28577651973529
 30
0.0
 11
59.82107184304528
 21
57.28577651973529
 31
0.0
  0
LINE
  5
2F2
330
1F
100
AcDbEntity
  8
用紙-GR2
  6
DASHDOT
 62
     6
370
    20
100
AcDbLine
 10
52.82107184304527
 20
64.2857765197353
 30
0.0
 11
52.82107184304527
 21
50.28577651973529
 31
0.0
  0
CIRCLE
  5
2F3
330
1F
100
AcDbEntity
  8
用紙-GR2
  6
Continuous
 62
     7
370
    20
100
AcDbCircle
 10
52.82107184304527
 20
57.28577651973529
 30
0.0
 40
3.499999999999986
  0
CIRCLE
  5
2F4
330
1F
100
AcDbEntity
  8
用紙-GR2
  6
Continuous
 62
     7
370
    20
100
AcDbCircle
 10
52.82107184304527
 20
57.28577651973529
 30
0.0
 40
5.950000000000045
  0
CIRCLE
  5
2F5
330
1F
100
AcDbEntity
  8
用紙-GR2
  6
Continuous
 62
     7
370
    20
100
AcDbCircle
 10
52.82107184304527
 20
57.28577651973529
 30
0.0
 40
4.999999999999986
  0
CIRCLE
  5
2F6
330
1F
100
AcDbEntity
  8
用紙-GR2
  6
Continuous
 62
     6
370
    20
100
AcDbCircle
 10
52.82107184304527
 20
57.28577651973529
 30
0.0
 40
4.799999999999967
  0
CIRCLE
  5
2F7
330
1F
100
AcDbEntity
  8
用紙-GR2
  6
Continuous
 62
     6
370
    20
100
AcDbCircle
 10
52.82107184304527
 20
57.28577651973529
 30
0.0
 40
5.75000000000003
  0
LINE
  5
2F8
330
1F
100
AcDbEntity
  8
用紙-GR2
  6
Continuous
 62
     7
370
    20
100
AcDbLine
 10
23.66373025578889
 20
57.28577651973525
 30
0.0
 11
27.16373025578886
 21
53.7857765197353
 31
0.0
  0
LINE
  5
2F9
330
1F
100
AcDbEntity
  8
用紙-GR2
  6
Continuous
 62
     7
370
    20
100
AcDbLine
 10
23.66373025578889
 20
57.28577651973525
 30
0.0
 11
20.16373025578889
 21
53.7857765197353
 31
0.0
  0
LINE
  5
2FA
330
1F
100
AcDbEntity
  8
用紙-GR2
  6
Continuous
 62
     7
370
    20
100
AcDbLine
 10
20.16373025578889
 20
53.7857765197353
 30
0.0
 11
-0.8862697442110487
 21
53.7857765197353
 31
0.0
  0
DIMENSION
  5
2FB
330
1F
100
AcDbEntity
  8
用紙-GR2
100
AcDbDimension
  2
*D37
 10
20.16373025578888
 20
53.7857765197353
 30
0.0
 11
16.19475770077528
 21
60.32461748879015
 31
0.0
 70
    34
 71
     5
 42
1.570796326794907
  3
FXDIMINFO
100
AcDb2LineAngularDimension
 13
26.52751271959436
 23
54.42199405592975
 33
0.0
 14
23.66373025578884
 24
57.28577651973525
 34
0.0
 15
23.66373025578888
 25
57.28577651973525
 35
0.0
 16
25.56418578530055
 26
50.19317992607239
 36
0.0
1001
ACAD
1000
DSTYLE
1002
{
1070
   140
1040
2.0
1070
   173
1070
     1
1070
   344
1005
42
1070
   343
1005
48
1002
}
  0
DIMENSION
  5
305
330
1F
100
AcDbEntity
  8
用紙-GR2
100
AcDbDimension
  2
*D38
 10
-32.35908174454488
 20
62.78577651973529
 30
0.0
 11
-33.85908174454489
 21
57.2857765197353
 31
0.0
 70
    33
 71
     5
 42
10.99999999999997
  3
FXDIMINFO
100
AcDbAlignedDimension
 13
-27.35908174454487
 23
51.78577651973532
 33
0.0
 14
-27.35908174454487
 24
62.78577651973529
 34
0.0
1001
ACAD
1000
DSTYLE
1002
{
1070
   140
1040
2.0
1002
}
  0
TEXT
  5
312
330
1F
100
AcDbEntity
  8
用紙-GR2
  6
Continuous
 62
     6
370
    20
100
AcDbText
 10
-30.02533148338363
 20
34.77156795415044
 30
0.0
 40
1.75
  1
(LEDヘッド接続部)
 50
90.0
 41
0.8571428571428571
  7
FX_VECTOR
100
AcDbText
  0
DIMENSION
  5
313
330
1F
100
AcDbEntity
  8
用紙-GR2
100
AcDbDimension
  2
*D39
 10
27.16373025578885
 20
75.78577651973526
 30
0.0
 11
-0.0976757443780158
 21
77.28577651973527
 31
0.0
 70
    32
 71
     5
 42
54.52281200033374
  3
FXDIMINFO
100
AcDbAlignedDimension
 13
-27.35908174454488
 23
63.2357765197353
 33
0.0
 14
27.16373025578885
 24
60.78577651973531
 34
0.0
 50
180.0
100
AcDbRotatedDimension
1001
ACAD
1000
DSTYLE
1002
{
1070
   140
1040
2.0
1070
   173
1070
     1
1070
   344
1005
48
1070
   343
1005
42
1002
}
  0
TEXT
  5
31F
330
1F
100
AcDbEntity
  8
用紙-GR2
  6
Continuous
 62
     6
370
    20
100
AcDbText
 10
50.17318917701671
 20
29.00531734379887
 30
0.0
 40
1.75
  1
180°=πrad
 41
0.8571428571428571
  7
FX_VECTOR
100
AcDbText
  0
LINE
  5
320
330
1F
100
AcDbEntity
  8
用紙-GR2
  6
Continuous
 62
     7
370
    20
100
AcDbLine
 10
53.22107184304527
 20
60.7357765197353
 30
0.0
 11
52.42107184304527
 21
60.73577651973525
 31
0.0
  0
LINE
  5
321
330
1F
100
AcDbEntity
  8
用紙-GR2
  6
Continuous
 62
     7
370
    20
100
AcDbLine
 10
53.3210718430452
 20
60.74987813487306
 30
0.0
 11
53.3210718430452
 21
60.24381641128511
 31
0.0
  0
LINE
  5
322
330
1F
100
AcDbEntity
  8
用紙-GR2
  6
Continuous
 62
     7
370
    20
100
AcDbLine
 10
52.32107184304521
 20
60.74987813487306
 30
0.0
 11
52.32107184304521
 21
60.24381641128511
 31
0.0
  0
LINE
  5
323
330
1F
100
AcDbEntity
  8
用紙-GR2
  6
Continuous
 62
     7
370
    20
100
AcDbLine
 10
53.3210718430452
 20
60.63577651973529
 30
0.0
 11
53.22107184304527
 21
60.7357765197353
 31
0.0
  0
LINE
  5
324
330
1F
100
AcDbEntity
  8
用紙-GR2
  6
Continuous
 62
     7
370
    20
100
AcDbLine
 10
52.42107184304527
 20
60.73577651973525
 30
0.0
 11
52.32107184304521
 21
60.63577651973529
 31
0.0
  0
LINE
  5
325
330
1F
100
AcDbEntity
  8
用紙-GR2
  6
Continuous
 62
     6
370
    20
100
AcDbLine
 10
52.32107184304521
 20
60.63577651973529
 30
0.0
 11
53.3210718430452
 21
60.63577651973529
 31
0.0
  0
CIRCLE
  5
326
330
1F
100
AcDbEntity
  8
用紙-GR2
  6
Continuous
 62
     7
370
    20
100
AcDbCircle
 10
52.82107184304527
 20
57.28577651973529
 30
0.0
 40
3.0
  0
LINE
  5
327
330
1F
100
AcDbEntity
  8
用紙-GR2
  6
Continuous
 62
     7
370
    20
100
AcDbLine
 10
27.16373025578886
 20
60.74987813487306
 30
0.0
 11
25.1637302557888
 21
60.74987813487306
 31
0.0
  0
LINE
  5
328
330
1F
100
AcDbEntity
  8
用紙-GR2
  6
Continuous
 62
     7
370
    20
100
AcDbLine
 10
25.1637302557888
 20
60.78577651973531
 30
0.0
 11
25.1637302557888
 21
60.749878134873
 31
0.0
  0
ENDSEC
  0
SECTION
  2
OBJECTS
  0
DICTIONARY
  5
C
330
0
100
AcDbDictionary
281
     1
  3
ACAD_GROUP
350
D
  3
ACAD_LAYOUT
350
1A
  3
ACAD_MLEADERSTYLE
350
32A
  3
ACAD_MLINESTYLE
350
17
  3
ACAD_PLOTSETTINGS
350
19
  3
ACAD_PLOTSTYLENAME
350
E
  3
ACAD_TABLESTYLE
350
329
  3
ACAD_VISUALSTYLE
350
2A
  3
AcDbVariableDictionary
350
32B
  0
DICTIONARY
  5
D
102
{ACAD_REACTORS
330
C
102
}
330
C
100
AcDbDictionary
281
     1
  0
DICTIONARY
  5
1A
102
{ACAD_REACTORS
330
C
102
}
330
C
100
AcDbDictionary
281
     1
  3
Layout1
350
1E
  3
Layout2
350
26
  3
Model
350
22
  0
DICTIONARY
  5
32A
102
{ACAD_REACTORS
330
C
102
}
330
C
100
AcDbDictionary
281
     1
  0
DICTIONARY
  5
17
102
{ACAD_REACTORS
330
C
102
}
330
C
100
AcDbDictionary
281
     1
  3
Standard
350
18
  0
DICTIONARY
  5
19
102
{ACAD_REACTORS
330
C
102
}
330
C
100
AcDbDictionary
281
     1
  0
ACDBDICTIONARYWDFLT
  5
E
102
{ACAD_REACTORS
330
C
102
}
330
C
100
AcDbDictionary
281
     1
  3
Normal
350
F
100
AcDbDictionaryWithDefault
340
F
  0
DICTIONARY
  5
329
102
{ACAD_REACTORS
330
C
102
}
330
C
100
AcDbDictionary
281
     1
  0
DICTIONARY
  5
2A
102
{ACAD_REACTORS
330
C
102
}
330
C
100
AcDbDictionary
281
     1
  3
2dWireframe
350
2F
  3
3D Hidden
350
31
  3
3dWireframe
350
30
  3
Basic
350
32
  3
Brighten
350
36
  3
ColorChange
350
3A
  3
Conceptual
350
34
  3
Dim
350
35
  3
Facepattern
350
39
  3
Flat
350
2B
  3
FlatWithEdges
350
2C
  3
Gouraud
350
2D
  3
GouraudWithEdges
350
2E
  3
Linepattern
350
38
  3
Realistic
350
33
  3
Thicken
350
37
  0
DICTIONARY
  5
32B
102
{ACAD_REACTORS
330
C
102
}
330
C
100
AcDbDictionary
281
     1
  3
PSOLHEIGHT
350
32D
  3
PSOLWIDTH
350
32C
  0
LAYOUT
  5
1E
102
{ACAD_REACTORS
330
1A
102
}
330
1A
100
AcDbPlotSettings
  1

  2
none_device
  4

  6

 40
0.0
 41
0.0
 42
0.0
 43
0.0
 44
0.0
 45
0.0
 46
0.0
 47
0.0
 48
0.0
 49
0.0
140
0.0
141
0.0
142
1.0
143
1.0
 70
   688
 72
     0
 73
     0
 74
     5
  7
monochrome.ctb
 75
    16
147
1.0
148
0.0
149
0.0
100
AcDbLayout
  1
Layout1
 70
     1
 71
     1
 10
0.0
 20
0.0
 11
420.0
 21
297.0
 12
0.0
 22
0.0
 32
0.0
 14
1.000000000000000E+20
 24
1.000000000000000E+20
 34
1.000000000000000E+20
 15
-1.000000000000000E+20
 25
-1.000000000000000E+20
 35
-1.000000000000000E+20
146
0.0
 13
0.0
 23
0.0
 33
0.0
 16
1.0
 26
0.0
 36
0.0
 17
0.0
 27
1.0
 37
0.0
 76
     0
330
1B
  0
LAYOUT
  5
26
102
{ACAD_REACTORS
330
1A
102
}
330
1A
100
AcDbPlotSettings
  1

  2
none_device
  4

  6

 40
0.0
 41
0.0
 42
0.0
 43
0.0
 44
0.0
 45
0.0
 46
0.0
 47
0.0
 48
0.0
 49
0.0
140
0.0
141
0.0
142
1.0
143
1.0
 70
   688
 72
     0
 73
     0
 74
     5
  7
monochrome.ctb
 75
    16
147
1.0
148
0.0
149
0.0
100
AcDbLayout
  1
Layout2
 70
     1
 71
     2
 10
0.0
 20
0.0
 11
0.0
 21
0.0
 12
0.0
 22
0.0
 32
0.0
 14
0.0
 24
0.0
 34
0.0
 15
0.0
 25
0.0
 35
0.0
146
0.0
 13
0.0
 23
0.0
 33
0.0
 16
1.0
 26
0.0
 36
0.0
 17
0.0
 27
1.0
 37
0.0
 76
     0
330
23
  0
LAYOUT
  5
22
102
{ACAD_REACTORS
330
1A
102
}
330
1A
100
AcDbPlotSettings
  1

  2
Adobe PDF
  4
A4
  6

 40
3.174999952316284
 41
3.174999952316284
 42
3.175003051757812
 43
3.17498779296875
 44
209.9733276367187
 45
297.0318298339843
 46
32.81
 47
0.0
 48
0.0
 49
0.0
140
0.0
141
0.0
142
1.0
143
0.3609453920023658
 70
 11956
 72
     1
 73
     1
 74
     1
  7
monochrome.ctb
 75
     0
147
2.770502192734588
148
41.13564630182452
149
-28.99292044457155
100
AcDbLayout
  1
Model
 70
     1
 71
     0
 10
0.0
 20
0.0
 11
297.0
 21
210.0
 12
0.0
 22
0.0
 32
0.0
 14
0.0
 24
0.0
 34
0.0
 15
297.0
 25
210.0
 35
0.0
146
0.0
 13
0.0
 23
0.0
 33
0.0
 16
1.0
 26
0.0
 36
0.0
 17
0.0
 27
1.0
 37
0.0
 76
     0
330
1F
331
29
  0
MLINESTYLE
  5
18
102
{ACAD_REACTORS
330
17
102
}
330
17
100
AcDbMlineStyle
  2
STANDARD
 70
     0
  3

 62
   256
 51
90.0
 52
90.0
 71
     2
 49
0.5
 62
   256
  6
BYLAYER
 49
-0.5
 62
   256
  6
BYLAYER
  0
ACDBPLACEHOLDER
  5
F
102
{ACAD_REACTORS
330
E
102
}
330
E
  0
VISUALSTYLE
  5
2F
102
{ACAD_REACTORS
330
2A
102
}
330
2A
100
AcDbVisualStyle
  2
2dWireframe
 70
     4
 71
     0
 72
     2
 73
     0
 90
        0
 40
-0.6
 41
-30.0
 62
     5
 63
     7
 74
     1
 91
        4
 64
     7
 65
   257
 75
     1
175
     1
 42
1.0
 92
        0
 66
   257
 43
1.0
 76
     1
 77
     6
 78
     2
 67
     7
 79
     5
170
     0
171
     0
290
     0
174
     0
 93
        1
 44
0.0
173
     0
291
     0
 45
0.0
1001
ACAD
1000
AcDbSavedByObjectVersion
1070
     0
  0
VISUALSTYLE
  5
31
102
{ACAD_REACTORS
330
2A
102
}
330
2A
100
AcDbVisualStyle
  2
3D Hidden
 70
     6
 71
     1
 72
     2
 73
     2
 90
        0
 40
-0.6
 41
-30.0
 62
     5
 63
     7
 74
     2
 91
        2
 64
     7
 65
   257
 75
     2
175
     1
 42
40.0
 92
        0
 66
   257
 43
1.0
 76
     1
 77
     6
 78
     2
 67
     7
 79
     3
170
     0
171
     0
290
     0
174
     0
 93
        1
 44
0.0
173
     0
291
     0
 45
0.0
1001
ACAD
1000
AcDbSavedByObjectVersion
1070
     0
  0
VISUALSTYLE
  5
30
102
{ACAD_REACTORS
330
2A
102
}
330
2A
100
AcDbVisualStyle
  2
3dWireframe
 70
     5
 71
     0
 72
     2
 73
     0
 90
        0
 40
-0.6
 41
-30.0
 62
     5
 63
     7
 74
     1
 91
        4
 64
     7
 65
   257
 75
     1
175
     1
 42
1.0
 92
        0
 66
   257
 43
1.0
 76
     1
 77
     6
 78
     2
 67
     7
 79
     5
170
     0
171
     0
290
     0
174
     0
 93
        1
 44
0.0
173
     0
291
     0
 45
0.0
1001
ACAD
1000
AcDbSavedByObjectVersion
1070
     0
  0
VISUALSTYLE
  5
32
102
{ACAD_REACTORS
330
2A
102
}
330
2A
100
AcDbVisualStyle
  2
Basic
 70
     7
 71
     1
 72
     0
 73
     1
 90
        0
 40
-0.6
 41
-30.0
 62
     5
 63
     7
 74
     0
 91
        4
 64
     7
 65
   257
 75
     1
175
     1
 42
1.0
 92
        8
 66
     7
 43
1.0
 76
     1
 77
     6
 78
     2
 67
     7
 79
     5
170
     0
171
     0
290
     0
174
     0
 93
        1
 44
0.0
173
     0
291
     1
 45
0.0
1001
ACAD
1000
AcDbSavedByObjectVersion
1070
     0
  0
VISUALSTYLE
  5
36
102
{ACAD_REACTORS
330
2A
102
}
330
2A
100
AcDbVisualStyle
  2
Brighten
 70
    12
 71
     2
 72
     2
 73
     0
 90
        0
 40
-0.6
 41
-30.0
 62
     5
 63
     7
 74
     1
 91
        4
 64
     7
 65
   257
 75
     1
175
     1
 42
1.0
 92
        8
 66
     7
 43
1.0
 76
     1
 77
     6
 78
     2
 67
     7
 79
     5
170
     0
171
     0
290
     0
174
     0
 93
        1
 44
50.0
173
     0
291
     1
 45
0.0
1001
ACAD
1000
AcDbSavedByObjectVersion
1070
     0
  0
VISUALSTYLE
  5
3A
102
{ACAD_REACTORS
330
2A
102
}
330
2A
100
AcDbVisualStyle
  2
ColorChange
 70
    16
 71
     2
 72
     2
 73
     3
 90
        0
 40
-0.6
 41
-30.0
 62
     5
 63
     8
 74
     1
 91
        4
 64
     7
 65
   257
 75
     1
175
     1
 42
1.0
 92
        8
 66
     8
 43
1.0
 76
     1
 77
     6
 78
     2
 67
     7
 79
     5
170
     0
171
     0
290
     0
174
     0
 93
        1
 44
0.0
173
     0
291
     1
 45
0.0
1001
ACAD
1000
AcDbSavedByObjectVersion
1070
     0
  0
VISUALSTYLE
  5
34
102
{ACAD_REACTORS
330
2A
102
}
330
2A
100
AcDbVisualStyle
  2
Conceptual
 70
     9
 71
     3
 72
     2
 73
     0
 90
        0
 40
-0.6
 41
-30.0
 62
     5
 63
     7
 74
     2
 91
        2
 64
     7
 65
   257
 75
     1
175
     1
 42
40.0
 92
        8
 66
     7
 43
1.0
 76
     1
 77
     6
 78
     2
 67
     7
 79
     3
170
     0
171
     0
290
     0
174
     0
 93
        1
 44
0.0
173
     0
291
     0
 45
0.0
1001
ACAD
1000
AcDbSavedByObjectVersion
1070
     0
  0
VISUALSTYLE
  5
35
102
{ACAD_REACTORS
330
2A
102
}
330
2A
100
AcDbVisualStyle
  2
Dim
 70
    11
 71
     2
 72
     2
 73
     0
 90
        0
 40
-0.6
 41
-30.0
 62
     5
 63
     7
 74
     1
 91
        4
 64
     7
 65
   257
 75
     1
175
     1
 42
1.0
 92
        8
 66
     7
 43
1.0
 76
     1
 77
     6
 78
     2
 67
     7
 79
     5
170
     0
171
     0
290
     0
174
     0
 93
        1
 44
-50.0
173
     0
291
     1
 45
0.0
1001
ACAD
1000
AcDbSavedByObjectVersion
1070
     0
  0
VISUALSTYLE
  5
39
102
{ACAD_REACTORS
330
2A
102
}
330
2A
100
AcDbVisualStyle
  2
Facepattern
 70
    15
 71
     2
 72
     2
 73
     0
 90
        0
 40
-0.6
 41
-30.0
 62
     5
 63
     7
 74
     1
 91
        4
 64
     7
 65
   257
 75
     1
175
     1
 42
1.0
 92
        8
 66
     7
 43
1.0
 76
     1
 77
     6
 78
     2
 67
     7
 79
     5
170
     0
171
     0
290
     0
174
     0
 93
        1
 44
0.0
173
     0
291
     1
 45
0.0
1001
ACAD
1000
AcDbSavedByObjectVersion
1070
     0
  0
VISUALSTYLE
  5
2B
102
{ACAD_REACTORS
330
2A
102
}
330
2A
100
AcDbVisualStyle
  2
Flat
 70
     0
 71
     2
 72
     1
 73
     1
 90
        2
 40
-0.6
 41
30.0
 62
     5
 63
     7
 74
     0
 91
        4
 64
     7
 65
   257
 75
     1
175
     1
 42
1.0
 92
        8
 66
     7
 43
1.0
 76
     1
 77
     6
 78
     2
 67
     7
 79
     5
170
     0
171
     0
290
     0
174
     0
 93
       13
 44
0.0
173
     0
291
     1
 45
0.0
1001
ACAD
1000
AcDbSavedByObjectVersion
1070
     0
  0
VISUALSTYLE
  5
2C
102
{ACAD_REACTORS
330
2A
102
}
330
2A
100
AcDbVisualStyle
  2
FlatWithEdges
 70
     1
 71
     2
 72
     1
 73
     1
 90
        2
 40
-0.6
 41
30.0
 62
     5
 63
     7
 74
     1
 91
        4
 64
     7
 65
   257
 75
     1
175
     1
 42
1.0
 92
        0
 66
   257
 43
1.0
 76
     1
 77
     6
 78
     2
 67
     7
 79
     5
170
     0
171
     0
290
     0
174
     0
 93
       13
 44
0.0
173
     0
291
     1
 45
0.0
1001
ACAD
1000
AcDbSavedByObjectVersion
1070
     0
  0
VISUALSTYLE
  5
2D
102
{ACAD_REACTORS
330
2A
102
}
330
2A
100
AcDbVisualStyle
  2
Gouraud
 70
     2
 71
     2
 72
     2
 73
     1
 90
        2
 40
-0.6
 41
30.0
 62
     5
 63
     7
 74
     0
 91
        4
 64
     7
 65
   257
 75
     1
175
     1
 42
1.0
 92
        0
 66
     7
 43
1.0
 76
     1
 77
     6
 78
     2
 67
     7
 79
     5
170
     0
171
     0
290
     0
174
     0
 93
       13
 44
0.0
173
     0
291
     1
 45
0.0
1001
ACAD
1000
AcDbSavedByObjectVersion
1070
     0
  0
VISUALSTYLE
  5
2E
102
{ACAD_REACTORS
330
2A
102
}
330
2A
100
AcDbVisualStyle
  2
GouraudWithEdges
 70
     3
 71
     2
 72
     2
 73
     1
 90
        2
 40
-0.6
 41
30.0
 62
     5
 63
     7
 74
     1
 91
        4
 64
     7
 65
   257
 75
     1
175
     1
 42
1.0
 92
        0
 66
   257
 43
1.0
 76
     1
 77
     6
 78
     2
 67
     7
 79
     5
170
     0
171
     0
290
     0
174
     0
 93
       13
 44
0.0
173
     0
291
     1
 45
0.0
1001
ACAD
1000
AcDbSavedByObjectVersion
1070
     0
  0
VISUALSTYLE
  5
38
102
{ACAD_REACTORS
330
2A
102
}
330
2A
100
AcDbVisualStyle
  2
Linepattern
 70
    14
 71
     2
 72
     2
 73
     0
 90
        0
 40
-0.6
 41
-30.0
 62
     5
 63
     7
 74
     1
 91
        4
 64
     7
 65
   257
 75
     7
175
     7
 42
1.0
 92
        8
 66
     7
 43
1.0
 76
     1
 77
     6
 78
     2
 67
     7
 79
     5
170
     0
171
     0
290
     0
174
     0
 93
        1
 44
0.0
173
     0
291
     1
 45
0.0
1001
ACAD
1000
AcDbSavedByObjectVersion
1070
     0
  0
VISUALSTYLE
  5
33
102
{ACAD_REACTORS
330
2A
102
}
330
2A
100
AcDbVisualStyle
  2
Realistic
 70
     8
 71
     2
 72
     2
 73
     0
 90
        0
 40
-0.6
 41
-30.0
 62
     5
 63
     7
 74
     1
 91
        0
 64
     7
 65
   257
 75
     1
175
     1
 42
1.0
 92
        8
 66
     8
 43
1.0
 76
     1
 77
     6
 78
     2
 67
     7
 79
     5
170
     0
171
     0
290
     0
174
     0
 93
       13
 44
0.0
173
     0
291
     0
 45
0.0
1001
ACAD
1000
AcDbSavedByObjectVersion
1070
     0
  0
VISUALSTYLE
  5
37
102
{ACAD_REACTORS
330
2A
102
}
330
2A
100
AcDbVisualStyle
  2
Thicken
 70
    13
 71
     2
 72
     2
 73
     0
 90
        0
 40
-0.6
 41
-30.0
 62
     5
 63
     7
 74
     1
 91
        4
 64
     7
 65
   257
 75
     1
175
     1
 42
1.0
 92
       12
 66
     7
 43
1.0
 76
     1
 77
     6
 78
     2
 67
     7
 79
     5
170
     0
171
     0
290
     0
174
     0
 93
        1
 44
0.0
173
     0
291
     1
 45
0.0
1001
ACAD
1000
AcDbSavedByObjectVersion
1070
     0
  0
DICTIONARYVAR
  5
32D
102
{ACAD_REACTORS
330
32B
102
}
330
32B
100
DictionaryVariables
280
     0
  1
80.000000
  0
DICTIONARYVAR
  5
32C
102
{ACAD_REACTORS
330
32B
102
}
330
32B
100
DictionaryVariables
280
     0
  1
5.000000
  0
ENDSEC
  0
EOF
