  0
SECTION
  2
HEADER
  9
$ACADVER
  1
AC1015
  9
$ACADMAINTVER
 70
    10
  9
$DWGCODEPAGE
  3
ANSI_932
  9
$INSBASE
 10
0.0
 20
0.0
 30
0.0
  9
$EXTMIN
 10
20.94628390160599
 20
207.2525688073389
 30
0.0
  9
$EXTMAX
 10
543.8710452418099
 20
358.1442895265684
 30
0.0
  9
$LIMMIN
 10
0.0
 20
0.0
  9
$LIMMAX
 10
297.0
 20
210.0
  9
$ORTHOMODE
 70
     0
  9
$REGENMODE
 70
     1
  9
$FILLMODE
 70
     1
  9
$QTEXTMODE
 70
     0
  9
$MIRRTEXT
 70
     1
  9
$LTSCALE
 40
1.0
  9
$ATTMODE
 70
     1
  9
$TEXTSIZE
 40
0.0
  9
$TRACEWID
 40
0.05
  9
$TEXTSTYLE
  7
STANDARD
  9
$CLAYER
  8
HD365_1_2
  9
$CELTYPE
  6
CONTINUOUS
  9
$CECOLOR
 62
   256
  9
$CELTSCALE
 40
1.0
  9
$DISPSILH
 70
     0
  9
$DIMSCALE
 40
1.0
  9
$DIMASZ
 40
0.18
  9
$DIMEXO
 40
0.0625
  9
$DIMDLI
 40
0.38
  9
$DIMRND
 40
0.0
  9
$DIMDLE
 40
0.0
  9
$DIMEXE
 40
0.18
  9
$DIMTP
 40
0.0
  9
$DIMTM
 40
0.0
  9
$DIMTXT
 40
0.18
  9
$DIMCEN
 40
0.09
  9
$DIMTSZ
 40
0.0
  9
$DIMTOL
 70
     0
  9
$DIMLIM
 70
     0
  9
$DIMTIH
 70
     1
  9
$DIMTOH
 70
     1
  9
$DIMSE1
 70
     0
  9
$DIMSE2
 70
     0
  9
$DIMTAD
 70
     0
  9
$DIMZIN
 70
     0
  9
$DIMBLK
  1

  9
$DIMASO
 70
     1
  9
$DIMSHO
 70
     1
  9
$DIMPOST
  1

  9
$DIMAPOST
  1

  9
$DIMALT
 70
     0
  9
$DIMALTD
 70
     2
  9
$DIMALTF
 40
25.4
  9
$DIMLFAC
 40
1.0
  9
$DIMTOFL
 70
     0
  9
$DIMTVP
 40
0.0
  9
$DIMTIX
 70
     0
  9
$DIMSOXD
 70
     0
  9
$DIMSAH
 70
     0
  9
$DIMBLK1
  1

  9
$DIMBLK2
  1

  9
$DIMSTYLE
  2
STANDARD
  9
$DIMCLRD
 70
     0
  9
$DIMCLRE
 70
     0
  9
$DIMCLRT
 70
     0
  9
$DIMTFAC
 40
1.0
  9
$DIMGAP
 40
0.09
  9
$DIMJUST
 70
     0
  9
$DIMSD1
 70
     0
  9
$DIMSD2
 70
     0
  9
$DIMTOLJ
 70
     1
  9
$DIMTZIN
 70
     0
  9
$DIMALTZ
 70
     0
  9
$DIMALTTZ
 70
     0
  9
$DIMUPT
 70
     0
  9
$DIMDEC
 70
     4
  9
$DIMTDEC
 70
     4
  9
$DIMALTU
 70
     2
  9
$DIMALTTD
 70
     2
  9
$DIMTXSTY
  7
STANDARD
  9
$DIMAUNIT
 70
     0
  9
$DIMADEC
 70
     0
  9
$DIMALTRND
 40
0.0
  9
$DIMAZIN
 70
     0
  9
$DIMDSEP
 70
    46
  9
$DIMATFIT
 70
     3
  9
$DIMFRAC
 70
     0
  9
$DIMLDRBLK
  1

  9
$DIMLUNIT
 70
     2
  9
$DIMLWD
 70
    -2
  9
$DIMLWE
 70
    -2
  9
$DIMTMOVE
 70
     0
  9
$LUNITS
 70
     2
  9
$LUPREC
 70
     4
  9
$SKETCHINC
 40
0.1
  9
$FILLETRAD
 40
0.0
  9
$AUNITS
 70
     0
  9
$AUPREC
 70
     0
  9
$MENU
  1
acad
  9
$ELEVATION
 40
0.0
  9
$PELEVATION
 40
0.0
  9
$THICKNESS
 40
0.0
  9
$LIMCHECK
 70
     0
  9
$CHAMFERA
 40
0.0
  9
$CHAMFERB
 40
0.0
  9
$CHAMFERC
 40
0.0
  9
$CHAMFERD
 40
0.0
  9
$SKPOLY
 70
     0
  9
$TDCREATE
 40
2311945.702129432
  9
$TDUCREATE
 40
2311945.327129433
  9
$TDUPDATE
 40
2456666.488241967
  9
$TDUUPDATE
 40
2456666.113241968
  9
$TDINDWG
 40
0.0002529977
  9
$TDUSRTIMER
 40
0.0002528241
  9
$USRTIMER
 70
     1
  9
$ANGBASE
 50
0.0
  9
$ANGDIR
 70
     0
  9
$PDMODE
 70
     0
  9
$PDSIZE
 40
0.0
  9
$PLINEWID
 40
0.0
  9
$SPLFRAME
 70
     0
  9
$SPLINETYPE
 70
     6
  9
$SPLINESEGS
 70
     8
  9
$HANDSEED
  5
309
  9
$SURFTAB1
 70
     6
  9
$SURFTAB2
 70
     6
  9
$SURFTYPE
 70
     6
  9
$SURFU
 70
     6
  9
$SURFV
 70
     6
  9
$UCSBASE
  2

  9
$UCSNAME
  2

  9
$UCSORG
 10
0.0
 20
0.0
 30
0.0
  9
$UCSXDIR
 10
1.0
 20
0.0
 30
0.0
  9
$UCSYDIR
 10
0.0
 20
1.0
 30
0.0
  9
$UCSORTHOREF
  2

  9
$UCSORTHOVIEW
 70
     0
  9
$UCSORGTOP
 10
0.0
 20
0.0
 30
0.0
  9
$UCSORGBOTTOM
 10
0.0
 20
0.0
 30
0.0
  9
$UCSORGLEFT
 10
0.0
 20
0.0
 30
0.0
  9
$UCSORGRIGHT
 10
0.0
 20
0.0
 30
0.0
  9
$UCSORGFRONT
 10
0.0
 20
0.0
 30
0.0
  9
$UCSORGBACK
 10
0.0
 20
0.0
 30
0.0
  9
$PUCSBASE
  2

  9
$PUCSNAME
  2

  9
$PUCSORG
 10
0.0
 20
0.0
 30
0.0
  9
$PUCSXDIR
 10
1.0
 20
0.0
 30
0.0
  9
$PUCSYDIR
 10
0.0
 20
1.0
 30
0.0
  9
$PUCSORTHOREF
  2

  9
$PUCSORTHOVIEW
 70
     0
  9
$PUCSORGTOP
 10
0.0
 20
0.0
 30
0.0
  9
$PUCSORGBOTTOM
 10
0.0
 20
0.0
 30
0.0
  9
$PUCSORGLEFT
 10
0.0
 20
0.0
 30
0.0
  9
$PUCSORGRIGHT
 10
0.0
 20
0.0
 30
0.0
  9
$PUCSORGFRONT
 10
0.0
 20
0.0
 30
0.0
  9
$PUCSORGBACK
 10
0.0
 20
0.0
 30
0.0
  9
$USERI1
 70
     0
  9
$USERI2
 70
     0
  9
$USERI3
 70
     0
  9
$USERI4
 70
     0
  9
$USERI5
 70
     0
  9
$USERR1
 40
0.0
  9
$USERR2
 40
0.0
  9
$USERR3
 40
0.0
  9
$USERR4
 40
0.0
  9
$USERR5
 40
0.0
  9
$WORLDVIEW
 70
     1
  9
$SHADEDGE
 70
     3
  9
$SHADEDIF
 70
    70
  9
$TILEMODE
 70
     1
  9
$MAXACTVP
 70
    16
  9
$PINSBASE
 10
0.0
 20
0.0
 30
0.0
  9
$PLIMCHECK
 70
     0
  9
$PEXTMIN
 10
1.000000000000000E+20
 20
1.000000000000000E+20
 30
1.000000000000000E+20
  9
$PEXTMAX
 10
-1.000000000000000E+20
 20
-1.000000000000000E+20
 30
-1.000000000000000E+20
  9
$PLIMMIN
 10
0.0
 20
0.0
  9
$PLIMMAX
 10
12.0
 20
9.0
  9
$UNITMODE
 70
     0
  9
$VISRETAIN
 70
     0
  9
$PLINEGEN
 70
     1
  9
$PSLTSCALE
 70
     0
  9
$TREEDEPTH
 70
  3020
  9
$CMLSTYLE
  2
STANDARD
  9
$CMLJUST
 70
     0
  9
$CMLSCALE
 40
1.0
  9
$PROXYGRAPHICS
 70
     1
  9
$MEASUREMENT
 70
     0
  9
$CELWEIGHT
370
    -1
  9
$ENDCAPS
280
     0
  9
$JOINSTYLE
280
     0
  9
$LWDISPLAY
290
     0
  9
$INSUNITS
 70
     0
  9
$HYPERLINKBASE
  1

  9
$STYLESHEET
  1

  9
$XEDIT
290
     1
  9
$CEPSNTYPE
380
     0
  9
$PSTYLEMODE
290
     1
  9
$FINGERPRINTGUID
  2
{DDCCFC96-4A89-46DC-8C9E-14D86C30BDCB}
  9
$VERSIONGUID
  2
{613898F1-F5DA-4D2B-BE09-5917E9B57A92}
  9
$EXTNAMES
290
     1
  9
$PSVPSCALE
 40
0.0
  9
$OLESTARTUP
290
     0
  0
ENDSEC
  0
SECTION
  2
CLASSES
  0
CLASS
  1
LWPOLYLINE
  2
AcDbPolyline
  3
AutoCAD 2000
 90
    32768
280
     0
281
     1
  0
CLASS
  1
IMAGE
  2
AcDbRasterImage
  3
ISM
 90
    32895
280
     0
281
     1
  0
CLASS
  1
OLE2FRAME
  2
AcDbOle2Frame
  3
AutoCAD 2000
 90
    32768
280
     0
281
     1
  0
CLASS
  1
HATCH
  2
AcDbHatch
  3
AutoCAD 2000
 90
    32768
280
     0
281
     1
  0
CLASS
  1
DICTIONARYVAR
  2
AcDbDictionaryVar
  3
AutoCAD 2000
 90
    32768
280
     0
281
     0
  0
CLASS
  1
RASTERVARIABLES
  2
AcDbRasterVariables
  3
ISM
 90
    32768
280
     0
281
     0
  0
CLASS
  1
IMAGEDEF
  2
AcDbRasterImageDef
  3
ISM
 90
    32768
280
     0
281
     0
  0
CLASS
  1
IMAGEDEF_REACTOR
  2
AcDbRasterImageDefReactor
  3
ISM
 90
    32769
280
     0
281
     0
  0
CLASS
  1
IDBUFFER
  2
AcDbIdBuffer
  3
AutoCAD 2000
 90
    32768
280
     0
281
     0
  0
CLASS
  1
SPATIAL_FILTER
  2
AcDbSpatialFilter
  3
AutoCAD 2000
 90
    32768
280
     0
281
     0
  0
CLASS
  1
XRECORD
  2
AcDbXrecord
  3
AutoCAD 2000
 90
    32768
280
     0
281
     0
  0
CLASS
  1
SORTENTSTABLE
  2
AcDbSortentsTable
  3
AutoCAD 2000
 90
    32768
280
     0
281
     0
  0
CLASS
  1
LAYER_INDEX
  2
AcDbLayerIndex
  3
AutoCAD 2000
 90
    32768
280
     0
281
     0
  0
CLASS
  1
SPATIAL_INDEX
  2
AcDbSpatialIndex
  3
AutoCAD 2000
 90
    32768
280
     0
281
     0
  0
CLASS
  1
OBJECT_PTR
  2
CAseDLPNTableRecord
  3
"ASE-LPNTableRecord"
 90
    32769
280
     0
281
     0
  0
CLASS
  1
LAYOUT
  2
AcDbLayout
  3
AutoCAD 2000
 90
        0
280
     0
281
     0
  0
CLASS
  1
PLOTSETTINGS
  2
AcDbPlotSettings
  3
AutoCAD 2000
 90
    32768
280
     0
281
     0
  0
CLASS
  1
ACDBDICTIONARYWDFLT
  2
AcDbDictionaryWithDefault
  3
AutoCAD 2000
 90
        0
280
     0
281
     0
  0
CLASS
  1
ACDBPLACEHOLDER
  2
AcDbPlaceHolder
  3
AutoCAD 2000
 90
        0
280
     0
281
     0
  0
CLASS
  1
VBA_PROJECT
  2
AcDbVbaProject
  3
"acadvba"
 90
    32768
280
     0
281
     0
  0
CLASS
  1
WIPEOUT
  2
AcDbWipeout
  3
WipeOut|AutoCAD Express Tool|expresstools@autodesk.com
 90
    32895
280
     0
281
     1
  0
CLASS
  1
WIPEOUTVARIABLES
  2
AcDbWipeoutVariables
  3
WipeOut|AutoCAD Express Tool|expresstools@autodesk.com
 90
    32768
280
     0
281
     0
  0
CLASS
  1
RTEXT
  2
RText
  3
RText|AutoCAD Express Tool|expresstools@autodesk.com
 90
    32768
280
     0
281
     1
  0
CLASS
  1
ARCALIGNEDTEXT
  2
AcDbArcAlignedText
  3
ATEXT|AutoCAD Express Tool|expresstools@autodesk.com
 90
    32768
280
     0
281
     1
  0
ENDSEC
  0
SECTION
  2
TABLES
  0
TABLE
  2
VPORT
  5
7
330
0
100
AcDbSymbolTable
 70
     2
  0
VPORT
  5
308
330
7
100
AcDbSymbolTableRecord
100
AcDbViewportTableRecord
  2
*Active
 70
     0
 10
0.0
 20
0.0
 11
1.0
 21
1.0
 12
257.4487720796603
 22
196.1321837488864
 13
0.0
 23
0.0
 14
1.0
 24
1.0
 15
0.0
 25
0.0
 16
0.0
 26
0.0
 36
1.0
 17
0.0
 27
0.0
 37
0.0
 40
466.237900607511
 41
2.119005328596802
 42
50.0
 43
0.0
 44
0.0
 50
0.0
 51
0.0
 71
     0
 72
   100
 73
     1
 74
     1
 75
     0
 76
     0
 77
     0
 78
     0
281
     0
 65
     1
110
0.0
120
0.0
130
0.0
111
1.0
121
0.0
131
0.0
112
0.0
122
1.0
132
0.0
 79
     0
146
0.0
  0
ENDTAB
  0
TABLE
  2
LTYPE
  5
4
330
0
100
AcDbSymbolTable
 70
     6
  0
LTYPE
  5
11
330
4
100
AcDbSymbolTableRecord
100
AcDbLinetypeTableRecord
  2
BYBLOCK
 70
     0
  3

 72
    65
 73
     0
 40
0.0
  0
LTYPE
  5
12
330
4
100
AcDbSymbolTableRecord
100
AcDbLinetypeTableRecord
  2
BYLAYER
 70
     0
  3

 72
    65
 73
     0
 40
0.0
  0
LTYPE
  5
13
330
4
100
AcDbSymbolTableRecord
100
AcDbLinetypeTableRecord
  2
CONTINUOUS
 70
     0
  3
Solid line
 72
    65
 73
     0
 40
0.0
  0
LTYPE
  5
1D
330
4
100
AcDbSymbolTableRecord
100
AcDbLinetypeTableRecord
  2
DASHED
 70
     0
  3
__ __ __ __ __ __ __ __ __ __ __ __ __ __ __
 72
    65
 73
     2
 40
4.0
 49
3.0
 74
     0
 49
-1.0
 74
     0
  0
LTYPE
  5
1E
330
4
100
AcDbSymbolTableRecord
100
AcDbLinetypeTableRecord
  2
HIDDEN
 70
     0
  3
_ _ _ _ _ _ _ _ _ _ _ _ _ _ _ _ _ _ _ _ _ _ _
 72
    65
 73
     2
 40
2.25
 49
0.25
 74
     0
 49
-2.0
 74
     0
  0
LTYPE
  5
1F
330
4
100
AcDbSymbolTableRecord
100
AcDbLinetypeTableRecord
  2
DOT
 70
     0
  3
...............................................
 72
    65
 73
     2
 40
4.0
 49
1.0
 74
     0
 49
-3.0
 74
     0
  0
LTYPE
  5
20
330
4
100
AcDbSymbolTableRecord
100
AcDbLinetypeTableRecord
  2
DASHDOT
 70
     0
  3
__ . __ . __ . __ . __ . __ . __ . __ . __ . __
 72
    65
 73
     4
 40
7.5
 49
6.0
 74
     0
 49
-0.5
 74
     0
 49
0.5
 74
     0
 49
-0.5
 74
     0
  0
LTYPE
  5
21
330
4
100
AcDbSymbolTableRecord
100
AcDbLinetypeTableRecord
  2
DIVIDE
 70
     0
  3
__ . . __ . . __ . . __ . . __ . . __ . . __
 72
    65
 73
     6
 40
8.5
 49
6.0
 74
     0
 49
-0.5
 74
     0
 49
0.5
 74
     0
 49
-0.5
 74
     0
 49
0.5
 74
     0
 49
-0.5
 74
     0
  0
ENDTAB
  0
TABLE
  2
LAYER
  5
2
330
0
100
AcDbSymbolTable
 70
     3
  0
LAYER
  5
14
330
2
100
AcDbSymbolTableRecord
100
AcDbLayerTableRecord
  2
0
 70
     0
 62
     7
  6
CONTINUOUS
370
    -3
390
2FF
  0
LAYER
  5
22
330
2
100
AcDbSymbolTableRecord
100
AcDbLayerTableRecord
  2
HD365_1_2
 70
     0
 62
     7
  6
CONTINUOUS
370
    -3
390
2FF
  0
LAYER
  5
23
330
2
100
AcDbSymbolTableRecord
100
AcDbLayerTableRecord
  2
未使用
 70
     0
 62
     7
  6
CONTINUOUS
370
    -3
390
2FF
  0
ENDTAB
  0
TABLE
  2
STYLE
  5
3
330
0
100
AcDbSymbolTable
 70
     3
  0
STYLE
  5
17
330
3
100
AcDbSymbolTableRecord
100
AcDbTextStyleTableRecord
  2
STANDARD
 70
     0
 40
0.0
 41
1.0
 50
0.0
 71
     0
 42
0.0
  3
txt
  4

  0
STYLE
  5
24
330
3
100
AcDbSymbolTableRecord
100
AcDbTextStyleTableRecord
  2
BIGFONT
 70
     0
 40
1.0
 41
1.0
 50
0.0
 71
     0
 42
0.0
  3
monotxt.shx
  4
bigfont
  0
STYLE
  5
25
330
3
100
AcDbSymbolTableRecord
100
AcDbTextStyleTableRecord
  2
ＭＳ_ゴシック
 70
     0
 40
0.0
 41
1.0
 50
0.0
 71
     0
 42
0.0
  3
MS Gothic.ttf
  4

1001
ACAD
1000
MS Gothic
1071
    32817
  0
ENDTAB
  0
TABLE
  2
VIEW
  5
5
330
0
100
AcDbSymbolTable
 70
     0
  0
ENDTAB
  0
TABLE
  2
UCS
  5
6
330
0
100
AcDbSymbolTable
 70
     0
  0
ENDTAB
  0
TABLE
  2
APPID
  5
8
330
0
100
AcDbSymbolTable
 70
     1
  0
APPID
  5
16
330
8
100
AcDbSymbolTableRecord
100
AcDbRegAppTableRecord
  2
ACAD
 70
     0
  0
ENDTAB
  0
TABLE
  2
DIMSTYLE
  5
9
330
0
100
AcDbSymbolTable
 70
     2
100
AcDbDimStyleTable
 71
     0
  0
DIMSTYLE
105
18
330
9
100
AcDbSymbolTableRecord
100
AcDbDimStyleTableRecord
  2
STANDARD
 70
     0
340
17
  0
DIMSTYLE
105
26
102
{ACAD_REACTORS
330
152
330
153
330
2F3
330
2F4
330
2F5
330
2F6
102
}
330
9
100
AcDbSymbolTableRecord
100
AcDbDimStyleTableRecord
  2
MARK2_DIMSTYLE
 70
     0
 41
2.0
 42
1.0
 43
10.0
 44
1.0
 73
     0
 77
     1
140
6.0
146
0.5
147
1.0
271
     2
340
25
341
27
342
27
  0
ENDTAB
  0
TABLE
  2
BLOCK_RECORD
  5
1
330
0
100
AcDbSymbolTable
 70
    26
  0
BLOCK_RECORD
  5
A
330
1
100
AcDbSymbolTableRecord
100
AcDbBlockTableRecord
  2
*MODEL_SPACE
340
302
  0
BLOCK_RECORD
  5
B
330
1
100
AcDbSymbolTableRecord
100
AcDbBlockTableRecord
  2
*PAPER_SPACE
340
303
  0
BLOCK_RECORD
  5
27
330
1
100
AcDbSymbolTableRecord
100
AcDbBlockTableRecord
  2
_OPEN
340
0
102
{BLKREFS
331
4C
331
4D
331
4E
331
4F
331
57
331
58
331
59
331
5A
331
62
331
63
331
64
331
65
331
6D
331
6E
331
6F
331
70
331
77
331
78
331
79
331
7A
331
82
331
83
331
84
331
85
331
8E
331
91
331
9B
331
9E
331
A8
331
AB
331
B5
331
B8
331
C2
331
C5
331
CF
331
D2
331
DB
331
DC
331
DD
331
DE
331
E7
331
EA
331
F3
331
F4
331
F5
331
F6
331
FF
331
102
331
10B
331
10C
331
10D
331
10E
331
117
331
11A
331
123
331
124
331
125
331
126
331
12F
331
132
102
}
  0
BLOCK_RECORD
  5
2D
330
1
100
AcDbSymbolTableRecord
100
AcDbBlockTableRecord
  2
_NONE
340
0
102
{BLKREFS
331
8F
331
92
331
9C
331
9F
331
A9
331
AC
331
B6
331
B9
331
C3
331
C6
331
D0
331
D3
331
E8
331
EB
331
100
331
103
331
118
331
11B
331
130
331
133
102
}
  0
BLOCK_RECORD
  5
30
330
1
100
AcDbSymbolTableRecord
100
AcDbBlockTableRecord
  2
BLKF044_$1$
340
0
102
{BLKREFS
331
13E
102
}
  0
BLOCK_RECORD
  5
36
330
1
100
AcDbSymbolTableRecord
100
AcDbBlockTableRecord
  2
BLKF045_$2$
340
0
102
{BLKREFS
331
13F
102
}
  0
BLOCK_RECORD
  5
3C
330
1
100
AcDbSymbolTableRecord
100
AcDbBlockTableRecord
  2
BLKF046_$3$
340
0
102
{BLKREFS
331
142
102
}
  0
BLOCK_RECORD
  5
42
330
1
100
AcDbSymbolTableRecord
100
AcDbBlockTableRecord
  2
BLKF047_$4$
340
0
102
{BLKREFS
331
143
102
}
  0
BLOCK_RECORD
  5
48
330
1
100
AcDbSymbolTableRecord
100
AcDbBlockTableRecord
  2
*D6
340
0
  0
BLOCK_RECORD
  5
53
330
1
100
AcDbSymbolTableRecord
100
AcDbBlockTableRecord
  2
*D7
340
0
  0
BLOCK_RECORD
  5
5E
330
1
100
AcDbSymbolTableRecord
100
AcDbBlockTableRecord
  2
*D8
340
0
  0
BLOCK_RECORD
  5
69
330
1
100
AcDbSymbolTableRecord
100
AcDbBlockTableRecord
  2
*D9
340
0
  0
BLOCK_RECORD
  5
74
330
1
100
AcDbSymbolTableRecord
100
AcDbBlockTableRecord
  2
*D10
340
0
  0
BLOCK_RECORD
  5
7E
330
1
100
AcDbSymbolTableRecord
100
AcDbBlockTableRecord
  2
*D11
340
0
  0
BLOCK_RECORD
  5
89
330
1
100
AcDbSymbolTableRecord
100
AcDbBlockTableRecord
  2
*D12
340
0
  0
BLOCK_RECORD
  5
96
330
1
100
AcDbSymbolTableRecord
100
AcDbBlockTableRecord
  2
*D13
340
0
  0
BLOCK_RECORD
  5
A3
330
1
100
AcDbSymbolTableRecord
100
AcDbBlockTableRecord
  2
*D14
340
0
  0
BLOCK_RECORD
  5
B0
330
1
100
AcDbSymbolTableRecord
100
AcDbBlockTableRecord
  2
*D15
340
0
  0
BLOCK_RECORD
  5
BD
330
1
100
AcDbSymbolTableRecord
100
AcDbBlockTableRecord
  2
*D16
340
0
  0
BLOCK_RECORD
  5
CA
330
1
100
AcDbSymbolTableRecord
100
AcDbBlockTableRecord
  2
*D17
340
0
  0
BLOCK_RECORD
  5
D7
330
1
100
AcDbSymbolTableRecord
100
AcDbBlockTableRecord
  2
*D18
340
0
  0
BLOCK_RECORD
  5
E2
330
1
100
AcDbSymbolTableRecord
100
AcDbBlockTableRecord
  2
*D19
340
0
  0
BLOCK_RECORD
  5
EF
330
1
100
AcDbSymbolTableRecord
100
AcDbBlockTableRecord
  2
*D20
340
0
  0
BLOCK_RECORD
  5
FA
330
1
100
AcDbSymbolTableRecord
100
AcDbBlockTableRecord
  2
*D21
340
0
  0
BLOCK_RECORD
  5
107
330
1
100
AcDbSymbolTableRecord
100
AcDbBlockTableRecord
  2
*D22
340
0
  0
BLOCK_RECORD
  5
112
330
1
100
AcDbSymbolTableRecord
100
AcDbBlockTableRecord
  2
*D23
340
0
  0
BLOCK_RECORD
  5
11F
330
1
100
AcDbSymbolTableRecord
100
AcDbBlockTableRecord
  2
*D24
340
0
  0
BLOCK_RECORD
  5
12A
330
1
100
AcDbSymbolTableRecord
100
AcDbBlockTableRecord
  2
*D25
340
0
  0
ENDTAB
  0
ENDSEC
  0
SECTION
  2
BLOCKS
  0
BLOCK
  5
D
330
A
100
AcDbEntity
  8
0
100
AcDbBlockBegin
  2
*MODEL_SPACE
 70
     0
 10
0.0
 20
0.0
 30
0.0
  3
*MODEL_SPACE
  1

  0
ENDBLK
  5
E
330
A
100
AcDbEntity
  8
0
100
AcDbBlockEnd
  0
BLOCK
  5
F
330
B
100
AcDbEntity
 67
     1
  8
0
100
AcDbBlockBegin
  2
*PAPER_SPACE
 70
     0
 10
0.0
 20
0.0
 30
0.0
  3
*PAPER_SPACE
  1

  0
ENDBLK
  5
10
330
B
100
AcDbEntity
 67
     1
  8
0
100
AcDbBlockEnd
  0
BLOCK
  5
28
330
27
100
AcDbEntity
  8
0
 62
     0
100
AcDbBlockBegin
  2
_OPEN
 70
     0
 10
0.0
 20
0.0
 30
0.0
  3
_OPEN
  1

  0
LINE
  5
29
330
27
100
AcDbEntity
  8
0
 62
     0
100
AcDbLine
 10
-1.0
 20
0.166666666667
 30
0.0
 11
0.0
 21
0.0
 31
0.0
  0
LINE
  5
2A
330
27
100
AcDbEntity
  8
0
 62
     0
100
AcDbLine
 10
-1.0
 20
-0.166666666667
 30
0.0
 11
0.0
 21
0.0
 31
0.0
  0
LINE
  5
2B
330
27
100
AcDbEntity
  8
0
 62
     0
100
AcDbLine
 10
0.0
 20
0.0
 30
0.0
 11
-1.0
 21
0.0
 31
0.0
  0
ENDBLK
  5
2C
330
27
100
AcDbEntity
  8
0
100
AcDbBlockEnd
  0
BLOCK
  5
2E
330
2D
100
AcDbEntity
  8
0
 62
     0
100
AcDbBlockBegin
  2
_NONE
 70
     0
 10
0.0
 20
0.0
 30
0.0
  3
_NONE
  1

  0
ENDBLK
  5
2F
330
2D
100
AcDbEntity
  8
0
100
AcDbBlockEnd
  0
BLOCK
  5
31
330
30
100
AcDbEntity
  8
0
100
AcDbBlockBegin
  2
BLKF044_$1$
 70
     0
 10
0.0
 20
0.0
 30
0.0
  3
BLKF044_$1$
  1

  0
ARC
  5
32
330
30
100
AcDbEntity
  8
HD365_1_2
  6
Continuous
 62
     7
100
AcDbCircle
 10
106.4477583132459
 20
309.252568807339
 30
0.0
 40
1.816666666667
100
AcDbArc
 50
326.601511532012
 51
33.398488467988
  0
ARC
  5
33
330
30
100
AcDbEntity
  8
HD365_1_2
  6
Continuous
 62
     7
100
AcDbCircle
 10
109.4810916465789
 20
307.2525688073389
 30
0.0
 40
1.816666666667
100
AcDbArc
 50
146.601511532012
 51
213.398488467989
  0
ARC
  5
34
330
30
100
AcDbEntity
  8
HD365_1_2
  6
Continuous
 62
     7
100
AcDbCircle
 10
106.4477583132459
 20
307.2525688073389
 30
0.0
 40
1.816666666667
100
AcDbArc
 50
326.601511532012
 51
33.398488467988
  0
ENDBLK
  5
35
330
30
100
AcDbEntity
  8
0
100
AcDbBlockEnd
  0
BLOCK
  5
37
330
36
100
AcDbEntity
  8
0
100
AcDbBlockBegin
  2
BLKF045_$2$
 70
     0
 10
0.0
 20
0.0
 30
0.0
  3
BLKF045_$2$
  1

  0
ARC
  5
38
330
36
100
AcDbEntity
  8
HD365_1_2
  6
Continuous
 62
     7
100
AcDbCircle
 10
112.481091646579
 20
307.2525688073389
 30
0.0
 40
1.816666666667
100
AcDbArc
 50
146.601511532012
 51
213.398488467989
  0
ARC
  5
39
330
36
100
AcDbEntity
  8
HD365_1_2
  6
Continuous
 62
     7
100
AcDbCircle
 10
109.447758313246
 20
309.252568807339
 30
0.0
 40
1.816666666667
100
AcDbArc
 50
326.601511532012
 51
33.398488467988
  0
ARC
  5
3A
330
36
100
AcDbEntity
  8
HD365_1_2
  6
Continuous
 62
     7
100
AcDbCircle
 10
112.481091646579
 20
309.252568807339
 30
0.0
 40
1.816666666667
100
AcDbArc
 50
146.601511532012
 51
213.398488467989
  0
ENDBLK
  5
3B
330
36
100
AcDbEntity
  8
0
100
AcDbBlockEnd
  0
BLOCK
  5
3D
330
3C
100
AcDbEntity
  8
0
100
AcDbBlockBegin
  2
BLKF046_$3$
 70
     0
 10
0.0
 20
0.0
 30
0.0
  3
BLKF046_$3$
  1

  0
ARC
  5
3E
330
3C
100
AcDbEntity
  8
HD365_1_2
  6
Continuous
 62
     7
100
AcDbCircle
 10
106.4477583132459
 20
243.2525688073389
 30
0.0
 40
1.816666666667
100
AcDbArc
 50
326.601511532012
 51
33.398488467988
  0
ARC
  5
3F
330
3C
100
AcDbEntity
  8
HD365_1_2
  6
Continuous
 62
     7
100
AcDbCircle
 10
109.4810916465789
 20
241.2525688073389
 30
0.0
 40
1.816666666667
100
AcDbArc
 50
146.601511532012
 51
213.398488467989
  0
ARC
  5
40
330
3C
100
AcDbEntity
  8
HD365_1_2
  6
Continuous
 62
     7
100
AcDbCircle
 10
106.4477583132459
 20
241.2525688073389
 30
0.0
 40
1.816666666667
100
AcDbArc
 50
326.601511532012
 51
33.398488467988
  0
ENDBLK
  5
41
330
3C
100
AcDbEntity
  8
0
100
AcDbBlockEnd
  0
BLOCK
  5
43
330
42
100
AcDbEntity
  8
0
100
AcDbBlockBegin
  2
BLKF047_$4$
 70
     0
 10
0.0
 20
0.0
 30
0.0
  3
BLKF047_$4$
  1

  0
ARC
  5
44
330
42
100
AcDbEntity
  8
HD365_1_2
  6
Continuous
 62
     7
100
AcDbCircle
 10
112.481091646579
 20
241.2525688073389
 30
0.0
 40
1.816666666667
100
AcDbArc
 50
146.601511532012
 51
213.398488467989
  0
ARC
  5
45
330
42
100
AcDbEntity
  8
HD365_1_2
  6
Continuous
 62
     7
100
AcDbCircle
 10
109.447758313246
 20
243.2525688073389
 30
0.0
 40
1.816666666667
100
AcDbArc
 50
326.601511532012
 51
33.398488467988
  0
ARC
  5
46
330
42
100
AcDbEntity
  8
HD365_1_2
  6
Continuous
 62
     7
100
AcDbCircle
 10
112.481091646579
 20
243.2525688073389
 30
0.0
 40
1.816666666667
100
AcDbArc
 50
146.601511532012
 51
213.398488467989
  0
ENDBLK
  5
47
330
42
100
AcDbEntity
  8
0
100
AcDbBlockEnd
  0
BLOCK
  5
49
330
48
100
AcDbEntity
  8
0
 62
     7
100
AcDbBlockBegin
  2
*D6
 70
     1
 10
0.0
 20
0.0
 30
0.0
  3
*D6
  1

  0
LINE
  5
4A
330
48
100
AcDbEntity
  8
HD365_1_2
  6
Continuous
 62
     7
100
AcDbLine
 10
51.426912044287
 20
238.2525688073389
 30
0.0
 11
51.426912044287
 21
222.2525688073389
 31
0.0
  0
LINE
  5
4B
330
48
100
AcDbEntity
  8
HD365_1_2
  6
Continuous
 62
     7
100
AcDbLine
 10
81.426912044287
 20
238.2525688073389
 30
0.0
 11
81.426912044287
 21
222.2525688073389
 31
0.0
  0
INSERT
  5
4C
330
48
100
AcDbEntity
  8
HD365_1_2
  6
Continuous
 62
     7
100
AcDbBlockReference
  2
_OPEN
 10
51.426912044287
 20
224.2525688073389
 30
0.0
 41
4.0
 42
4.0
 50
180.0
  0
INSERT
  5
4D
330
48
100
AcDbEntity
  8
HD365_1_2
  6
Continuous
 62
     7
100
AcDbBlockReference
  2
_OPEN
 10
81.426912044287
 20
224.2525688073389
 30
0.0
 41
4.0
 42
4.0
  0
INSERT
  5
4E
330
48
100
AcDbEntity
  8
HD365_1_2
  6
Continuous
 62
     7
100
AcDbBlockReference
  2
_OPEN
 10
51.426912044287
 20
224.2525688073389
 30
0.0
 41
4.0
 42
4.0
 50
180.0
  0
INSERT
  5
4F
330
48
100
AcDbEntity
  8
HD365_1_2
  6
Continuous
 62
     7
100
AcDbBlockReference
  2
_OPEN
 10
81.426912044287
 20
224.2525688073389
 30
0.0
 41
4.0
 42
4.0
  0
LINE
  5
50
330
48
100
AcDbEntity
  8
HD365_1_2
  6
Continuous
 62
     7
100
AcDbLine
 10
51.426912044287
 20
224.2525688073389
 30
0.0
 11
81.426912044287
 21
224.2525688073389
 31
0.0
  0
TEXT
  5
51
330
48
100
AcDbEntity
  8
HD365_1_2
 62
     7
100
AcDbText
 10
57.33523751457042
 20
226.2525688073389
 30
0.0
 40
6.0
  1
φ30
 41
1.033333333332999
  7
ＭＳ_ゴシック
 72
     1
 11
65.39209030644599
 21
226.2525688073389
 31
0.0
100
AcDbText
  0
ENDBLK
  5
52
330
48
100
AcDbEntity
  8
0
100
AcDbBlockEnd
  0
BLOCK
  5
54
330
53
100
AcDbEntity
  8
0
 62
     7
100
AcDbBlockBegin
  2
*D7
 70
     1
 10
0.0
 20
0.0
 30
0.0
  3
*D7
  1

  0
LINE
  5
55
330
53
100
AcDbEntity
  8
HD365_1_2
  6
Continuous
 62
     7
100
AcDbLine
 10
49.548386179643
 20
239.2525688073389
 30
0.0
 11
29.426912044287
 21
239.2525688073389
 31
0.0
  0
LINE
  5
56
330
53
100
AcDbEntity
  8
HD365_1_2
  6
Continuous
 62
     7
100
AcDbLine
 10
50.42691204428701
 20
258.252568807339
 30
0.0
 11
29.426912044287
 21
258.252568807339
 31
0.0
  0
INSERT
  5
57
330
53
100
AcDbEntity
  8
HD365_1_2
  6
Continuous
 62
     7
100
AcDbBlockReference
  2
_OPEN
 10
31.426912044287
 20
239.2525688073389
 30
0.0
 41
4.0
 42
4.0
 50
270.0
  0
INSERT
  5
58
330
53
100
AcDbEntity
  8
HD365_1_2
  6
Continuous
 62
     7
100
AcDbBlockReference
  2
_OPEN
 10
31.426912044287
 20
258.252568807339
 30
0.0
 41
4.0
 42
4.0
 50
90.0
  0
INSERT
  5
59
330
53
100
AcDbEntity
  8
HD365_1_2
  6
Continuous
 62
     7
100
AcDbBlockReference
  2
_OPEN
 10
31.426912044287
 20
239.2525688073389
 30
0.0
 41
4.0
 42
4.0
 50
270.0
  0
INSERT
  5
5A
330
53
100
AcDbEntity
  8
HD365_1_2
  6
Continuous
 62
     7
100
AcDbBlockReference
  2
_OPEN
 10
31.426912044287
 20
258.252568807339
 30
0.0
 41
4.0
 42
4.0
 50
90.0
  0
LINE
  5
5B
330
53
100
AcDbEntity
  8
HD365_1_2
  6
Continuous
 62
     7
100
AcDbLine
 10
31.426912044287
 20
239.2525688073389
 30
0.0
 11
31.426912044287
 21
258.252568807339
 31
0.0
  0
TEXT
  5
5C
330
53
100
AcDbEntity
  8
HD365_1_2
 62
     7
100
AcDbText
 10
29.426912044287
 20
244.7241424114011
 30
0.0
 40
6.0
  1
19
 50
90.0
 41
1.033333333332999
  7
ＭＳ_ゴシック
 72
     1
 11
29.426912044287
 21
248.7525688073389
 31
0.0
100
AcDbText
  0
ENDBLK
  5
5D
330
53
100
AcDbEntity
  8
0
100
AcDbBlockEnd
  0
BLOCK
  5
5F
330
5E
100
AcDbEntity
  8
0
 62
     7
100
AcDbBlockBegin
  2
*D8
 70
     1
 10
0.0
 20
0.0
 30
0.0
  3
*D8
  1

  0
LINE
  5
60
330
5E
100
AcDbEntity
  8
HD365_1_2
  6
Continuous
 62
     7
100
AcDbLine
 10
373.869325076696
 20
237.2525688073399
 30
0.0
 11
373.869325076696
 21
207.2525688073389
 31
0.0
  0
LINE
  5
61
330
5E
100
AcDbEntity
  8
HD365_1_2
  6
Continuous
 62
     7
100
AcDbLine
 10
453.869325076696
 20
232.2525688073389
 30
0.0
 11
453.869325076696
 21
207.2525688073389
 31
0.0
  0
INSERT
  5
62
330
5E
100
AcDbEntity
  8
HD365_1_2
  6
Continuous
 62
     7
100
AcDbBlockReference
  2
_OPEN
 10
373.869325076696
 20
209.2525688073389
 30
0.0
 41
4.0
 42
4.0
 50
180.0
  0
INSERT
  5
63
330
5E
100
AcDbEntity
  8
HD365_1_2
  6
Continuous
 62
     7
100
AcDbBlockReference
  2
_OPEN
 10
453.869325076696
 20
209.2525688073389
 30
0.0
 41
4.0
 42
4.0
  0
INSERT
  5
64
330
5E
100
AcDbEntity
  8
HD365_1_2
  6
Continuous
 62
     7
100
AcDbBlockReference
  2
_OPEN
 10
373.869325076696
 20
209.2525688073389
 30
0.0
 41
4.0
 42
4.0
 50
180.0
  0
INSERT
  5
65
330
5E
100
AcDbEntity
  8
HD365_1_2
  6
Continuous
 62
     7
100
AcDbBlockReference
  2
_OPEN
 10
453.869325076696
 20
209.2525688073389
 30
0.0
 41
4.0
 42
4.0
  0
LINE
  5
66
330
5E
100
AcDbEntity
  8
HD365_1_2
  6
Continuous
 62
     7
100
AcDbLine
 10
373.869325076696
 20
209.2525688073389
 30
0.0
 11
453.869325076696
 21
209.2525688073389
 31
0.0
  0
TEXT
  5
67
330
5E
100
AcDbEntity
  8
HD365_1_2
 62
     7
100
AcDbText
 10
409.8408986807582
 20
211.2525688073389
 30
0.0
 40
6.0
  1
80
 41
1.033333333332999
  7
ＭＳ_ゴシック
 72
     1
 11
413.869325076696
 21
211.2525688073389
 31
0.0
100
AcDbText
  0
ENDBLK
  5
68
330
5E
100
AcDbEntity
  8
0
100
AcDbBlockEnd
  0
BLOCK
  5
6A
330
69
100
AcDbEntity
  8
0
 62
     7
100
AcDbBlockBegin
  2
*D9
 70
     1
 10
0.0
 20
0.0
 30
0.0
  3
*D9
  1

  0
LINE
  5
6B
330
69
100
AcDbEntity
  8
HD365_1_2
  6
Continuous
 62
     7
100
AcDbLine
 10
391.8693250766959
 20
248.2525688073389
 30
0.0
 11
391.8693250766959
 21
260.252568807339
 31
0.0
  0
LINE
  5
6C
330
69
100
AcDbEntity
  8
HD365_1_2
  6
Continuous
 62
     7
100
AcDbLine
 10
416.869325076696
 20
252.2525688073389
 30
0.0
 11
416.869325076696
 21
260.252568807339
 31
0.0
  0
INSERT
  5
6D
330
69
100
AcDbEntity
  8
HD365_1_2
  6
Continuous
 62
     7
100
AcDbBlockReference
  2
_OPEN
 10
391.8693250766959
 20
258.252568807339
 30
0.0
 41
4.0
 42
4.0
 50
180.0
  0
INSERT
  5
6E
330
69
100
AcDbEntity
  8
HD365_1_2
  6
Continuous
 62
     7
100
AcDbBlockReference
  2
_OPEN
 10
416.869325076696
 20
258.252568807339
 30
0.0
 41
4.0
 42
4.0
  0
INSERT
  5
6F
330
69
100
AcDbEntity
  8
HD365_1_2
  6
Continuous
 62
     7
100
AcDbBlockReference
  2
_OPEN
 10
391.8693250766959
 20
258.252568807339
 30
0.0
 41
4.0
 42
4.0
 50
180.0
  0
INSERT
  5
70
330
69
100
AcDbEntity
  8
HD365_1_2
  6
Continuous
 62
     7
100
AcDbBlockReference
  2
_OPEN
 10
416.869325076696
 20
258.252568807339
 30
0.0
 41
4.0
 42
4.0
  0
LINE
  5
71
330
69
100
AcDbEntity
  8
HD365_1_2
  6
Continuous
 62
     7
100
AcDbLine
 10
391.8693250766959
 20
258.252568807339
 30
0.0
 11
416.869325076696
 21
258.252568807339
 31
0.0
  0
TEXT
  5
72
330
69
100
AcDbEntity
  8
HD365_1_2
 62
     7
100
AcDbText
 10
400.3408986807581
 20
260.252568807339
 30
0.0
 40
6.0
  1
25
 41
1.033333333332999
  7
ＭＳ_ゴシック
 72
     1
 11
404.369325076696
 21
260.252568807339
 31
0.0
100
AcDbText
  0
ENDBLK
  5
73
330
69
100
AcDbEntity
  8
0
100
AcDbBlockEnd
  0
BLOCK
  5
75
330
74
100
AcDbEntity
  8
0
 62
     7
100
AcDbBlockBegin
  2
*D10
 70
     1
 10
0.0
 20
0.0
 30
0.0
  3
*D10
  1

  0
LINE
  5
76
330
74
100
AcDbEntity
  8
HD365_1_2
  6
Continuous
 62
     7
100
AcDbLine
 10
453.869325076696
 20
252.2525688073389
 30
0.0
 11
453.869325076696
 21
260.252568807339
 31
0.0
  0
INSERT
  5
77
330
74
100
AcDbEntity
  8
HD365_1_2
  6
Continuous
 62
     7
100
AcDbBlockReference
  2
_OPEN
 10
416.869325076696
 20
258.252568807339
 30
0.0
 41
4.0
 42
4.0
 50
180.0
  0
INSERT
  5
78
330
74
100
AcDbEntity
  8
HD365_1_2
  6
Continuous
 62
     7
100
AcDbBlockReference
  2
_OPEN
 10
453.869325076696
 20
258.252568807339
 30
0.0
 41
4.0
 42
4.0
  0
INSERT
  5
79
330
74
100
AcDbEntity
  8
HD365_1_2
  6
Continuous
 62
     7
100
AcDbBlockReference
  2
_OPEN
 10
416.869325076696
 20
258.252568807339
 30
0.0
 41
4.0
 42
4.0
 50
180.0
  0
INSERT
  5
7A
330
74
100
AcDbEntity
  8
HD365_1_2
  6
Continuous
 62
     7
100
AcDbBlockReference
  2
_OPEN
 10
453.869325076696
 20
258.252568807339
 30
0.0
 41
4.0
 42
4.0
  0
LINE
  5
7B
330
74
100
AcDbEntity
  8
HD365_1_2
  6
Continuous
 62
     7
100
AcDbLine
 10
416.869325076696
 20
258.252568807339
 30
0.0
 11
453.869325076696
 21
258.252568807339
 31
0.0
  0
TEXT
  5
7C
330
74
100
AcDbEntity
  8
HD365_1_2
 62
     7
100
AcDbText
 10
431.3408986807582
 20
260.252568807339
 30
0.0
 40
6.0
  1
37
 41
1.033333333332999
  7
ＭＳ_ゴシック
 72
     1
 11
435.3693250766959
 21
260.252568807339
 31
0.0
100
AcDbText
  0
ENDBLK
  5
7D
330
74
100
AcDbEntity
  8
0
100
AcDbBlockEnd
  0
BLOCK
  5
7F
330
7E
100
AcDbEntity
  8
0
 62
     7
100
AcDbBlockBegin
  2
*D11
 70
     1
 10
0.0
 20
0.0
 30
0.0
  3
*D11
  1

  0
LINE
  5
80
330
7E
100
AcDbEntity
  8
HD365_1_2
  6
Continuous
 62
     7
100
AcDbLine
 10
373.869325076696
 20
247.2525688073389
 30
0.0
 11
373.869325076696
 21
260.252568807339
 31
0.0
  0
LINE
  5
81
330
7E
100
AcDbEntity
  8
HD365_1_2
  6
Continuous
 62
     7
100
AcDbLine
 10
383.8693250766959
 20
247.2525688073389
 30
0.0
 11
383.8693250766959
 21
260.252568807339
 31
0.0
  0
INSERT
  5
82
330
7E
100
AcDbEntity
  8
HD365_1_2
  6
Continuous
 62
     7
100
AcDbBlockReference
  2
_OPEN
 10
373.869325076696
 20
258.252568807339
 30
0.0
 41
4.0
 42
4.0
 50
180.0
  0
INSERT
  5
83
330
7E
100
AcDbEntity
  8
HD365_1_2
  6
Continuous
 62
     7
100
AcDbBlockReference
  2
_OPEN
 10
383.8693250766959
 20
258.252568807339
 30
0.0
 41
4.0
 42
4.0
  0
INSERT
  5
84
330
7E
100
AcDbEntity
  8
HD365_1_2
  6
Continuous
 62
     7
100
AcDbBlockReference
  2
_OPEN
 10
373.869325076696
 20
258.252568807339
 30
0.0
 41
4.0
 42
4.0
 50
180.0
  0
INSERT
  5
85
330
7E
100
AcDbEntity
  8
HD365_1_2
  6
Continuous
 62
     7
100
AcDbBlockReference
  2
_OPEN
 10
383.8693250766959
 20
258.252568807339
 30
0.0
 41
4.0
 42
4.0
  0
LINE
  5
86
330
7E
100
AcDbEntity
  8
HD365_1_2
  6
Continuous
 62
     7
100
AcDbLine
 10
373.869325076696
 20
258.252568807339
 30
0.0
 11
383.8693250766959
 21
258.252568807339
 31
0.0
  0
TEXT
  5
87
330
7E
100
AcDbEntity
  8
HD365_1_2
 62
     7
100
AcDbText
 10
374.2920164882382
 20
260.252568807339
 30
0.0
 40
6.0
  1
10
 41
1.033333333332999
  7
ＭＳ_ゴシック
 72
     1
 11
378.320442884176
 21
260.252568807339
 31
0.0
100
AcDbText
  0
ENDBLK
  5
88
330
7E
100
AcDbEntity
  8
0
100
AcDbBlockEnd
  0
BLOCK
  5
8A
330
89
100
AcDbEntity
  8
0
 62
     7
100
AcDbBlockBegin
  2
*D12
 70
     1
 10
0.0
 20
0.0
 30
0.0
  3
*D12
  1

  0
LINE
  5
8B
330
89
100
AcDbEntity
  8
HD365_1_2
  6
Continuous
 62
     7
100
AcDbLine
 10
327.8693250766959
 20
239.2525688073389
 30
0.0
 11
350.869325076696
 21
239.2525688073389
 31
0.0
  0
LINE
  5
8C
330
89
100
AcDbEntity
  8
HD365_1_2
  6
Continuous
 62
     7
100
AcDbLine
 10
327.8693250766959
 20
245.2525688073389
 30
0.0
 11
350.869325076696
 21
245.2525688073389
 31
0.0
  0
LINE
  5
8D
330
89
100
AcDbEntity
  8
HD365_1_2
  6
Continuous
 62
     7
100
AcDbLine
 10
348.869325076696
 20
239.2525688073389
 30
0.0
 11
348.869325076696
 21
245.2525688073389
 31
0.0
  0
INSERT
  5
8E
330
89
100
AcDbEntity
  8
HD365_1_2
  6
Continuous
 62
     7
100
AcDbBlockReference
  2
_OPEN
 10
348.869325076696
 20
239.2525688073389
 30
0.0
 41
4.0
 42
4.0
 50
90.0
  0
INSERT
  5
8F
330
89
100
AcDbEntity
  8
HD365_1_2
  6
Continuous
 62
     7
100
AcDbBlockReference
  2
_NONE
 10
348.869325076696
 20
232.711694149603
 30
0.0
 41
4.0
 42
4.0
 50
270.0
  0
LINE
  5
90
330
89
100
AcDbEntity
  8
HD365_1_2
  6
Continuous
 62
     7
100
AcDbLine
 10
348.869325076696
 20
239.2525688073389
 30
0.0
 11
348.869325076696
 21
232.711694149603
 31
0.0
  0
INSERT
  5
91
330
89
100
AcDbEntity
  8
HD365_1_2
  6
Continuous
 62
     7
100
AcDbBlockReference
  2
_OPEN
 10
348.869325076696
 20
245.2525688073389
 30
0.0
 41
4.0
 42
4.0
 50
270.0
  0
INSERT
  5
92
330
89
100
AcDbEntity
  8
HD365_1_2
  6
Continuous
 62
     7
100
AcDbBlockReference
  2
_NONE
 10
348.869325076696
 20
259.3216420715279
 30
0.0
 41
4.0
 42
4.0
 50
90.0
  0
LINE
  5
93
330
89
100
AcDbEntity
  8
HD365_1_2
  6
Continuous
 62
     7
100
AcDbLine
 10
348.869325076696
 20
245.2525688073389
 30
0.0
 11
348.869325076696
 21
259.3216420715279
 31
0.0
  0
TEXT
  5
94
330
89
100
AcDbEntity
  8
HD365_1_2
 62
     7
100
AcDbText
 10
346.869325076696
 20
245.1672896195256
 30
0.0
 40
6.0
  1
φ6
 50
90.0
 41
1.033333333332999
  7
ＭＳ_ゴシック
 72
     2
 11
346.869325076696
 21
257.2525688073389
 31
0.0
100
AcDbText
  0
ENDBLK
  5
95
330
89
100
AcDbEntity
  8
0
100
AcDbBlockEnd
  0
BLOCK
  5
97
330
96
100
AcDbEntity
  8
0
 62
     7
100
AcDbBlockBegin
  2
*D13
 70
     1
 10
0.0
 20
0.0
 30
0.0
  3
*D13
  1

  0
LINE
  5
98
330
96
100
AcDbEntity
  8
HD365_1_2
  6
Continuous
 62
     7
100
AcDbLine
 10
321.869325076696
 20
232.2525688073389
 30
0.0
 11
321.869325076696
 21
217.2525688073389
 31
0.0
  0
LINE
  5
99
330
96
100
AcDbEntity
  8
HD365_1_2
  6
Continuous
 62
     7
100
AcDbLine
 10
329.8693250766959
 20
232.2525688073389
 30
0.0
 11
329.8693250766959
 21
217.2525688073389
 31
0.0
  0
LINE
  5
9A
330
96
100
AcDbEntity
  8
HD365_1_2
  6
Continuous
 62
     7
100
AcDbLine
 10
321.869325076696
 20
219.2525688073389
 30
0.0
 11
329.8693250766959
 21
219.2525688073389
 31
0.0
  0
INSERT
  5
9B
330
96
100
AcDbEntity
  8
HD365_1_2
  6
Continuous
 62
     7
100
AcDbBlockReference
  2
_OPEN
 10
321.869325076696
 20
219.2525688073389
 30
0.0
 41
4.0
 42
4.0
  0
INSERT
  5
9C
330
96
100
AcDbEntity
  8
HD365_1_2
  6
Continuous
 62
     7
100
AcDbBlockReference
  2
_NONE
 10
309.869325076696
 20
219.2525688073389
 30
0.0
 41
4.0
 42
4.0
 50
180.0
  0
LINE
  5
9D
330
96
100
AcDbEntity
  8
HD365_1_2
  6
Continuous
 62
     7
100
AcDbLine
 10
321.869325076696
 20
219.2525688073389
 30
0.0
 11
309.869325076696
 21
219.2525688073389
 31
0.0
  0
INSERT
  5
9E
330
96
100
AcDbEntity
  8
HD365_1_2
  6
Continuous
 62
     7
100
AcDbBlockReference
  2
_OPEN
 10
329.8693250766959
 20
219.2525688073389
 30
0.0
 41
4.0
 42
4.0
 50
180.0
  0
INSERT
  5
9F
330
96
100
AcDbEntity
  8
HD365_1_2
  6
Continuous
 62
     7
100
AcDbBlockReference
  2
_NONE
 10
344.553236046447
 20
219.2525688073389
 30
0.0
 41
4.0
 42
4.0
  0
LINE
  5
A0
330
96
100
AcDbEntity
  8
HD365_1_2
  6
Continuous
 62
     7
100
AcDbLine
 10
329.8693250766959
 20
219.2525688073389
 30
0.0
 11
344.553236046447
 21
219.2525688073389
 31
0.0
  0
TEXT
  5
A1
330
96
100
AcDbEntity
  8
HD365_1_2
 62
     7
100
AcDbText
 10
338.4146748912962
 20
221.2525688073389
 30
0.0
 40
6.0
  1
8
 41
1.033333333332999
  7
ＭＳ_ゴシック
 72
     2
 11
342.443101287234
 21
221.2525688073389
 31
0.0
100
AcDbText
  0
ENDBLK
  5
A2
330
96
100
AcDbEntity
  8
0
100
AcDbBlockEnd
  0
BLOCK
  5
A4
330
A3
100
AcDbEntity
  8
0
 62
     7
100
AcDbBlockBegin
  2
*D14
 70
     1
 10
0.0
 20
0.0
 30
0.0
  3
*D14
  1

  0
LINE
  5
A5
330
A3
100
AcDbEntity
  8
HD365_1_2
  6
Continuous
 62
     7
100
AcDbLine
 10
317.869325076696
 20
232.2525688073389
 30
0.0
 11
317.869325076696
 21
207.2525688073389
 31
0.0
  0
LINE
  5
A6
330
A3
100
AcDbEntity
  8
HD365_1_2
  6
Continuous
 62
     7
100
AcDbLine
 10
333.8693250766959
 20
232.2525688073389
 30
0.0
 11
333.8693250766959
 21
207.2525688073389
 31
0.0
  0
LINE
  5
A7
330
A3
100
AcDbEntity
  8
HD365_1_2
  6
Continuous
 62
     7
100
AcDbLine
 10
317.869325076696
 20
209.2525688073389
 30
0.0
 11
333.8693250766959
 21
209.2525688073389
 31
0.0
  0
INSERT
  5
A8
330
A3
100
AcDbEntity
  8
HD365_1_2
  6
Continuous
 62
     7
100
AcDbBlockReference
  2
_OPEN
 10
317.869325076696
 20
209.2525688073389
 30
0.0
 41
4.0
 42
4.0
  0
INSERT
  5
A9
330
A3
100
AcDbEntity
  8
HD365_1_2
  6
Continuous
 62
     7
100
AcDbBlockReference
  2
_NONE
 10
305.8693250766959
 20
209.2525688073389
 30
0.0
 41
4.0
 42
4.0
 50
180.0
  0
LINE
  5
AA
330
A3
100
AcDbEntity
  8
HD365_1_2
  6
Continuous
 62
     7
100
AcDbLine
 10
317.869325076696
 20
209.2525688073389
 30
0.0
 11
305.8693250766959
 21
209.2525688073389
 31
0.0
  0
INSERT
  5
AB
330
A3
100
AcDbEntity
  8
HD365_1_2
  6
Continuous
 62
     7
100
AcDbBlockReference
  2
_OPEN
 10
333.8693250766959
 20
209.2525688073389
 30
0.0
 41
4.0
 42
4.0
 50
180.0
  0
INSERT
  5
AC
330
A3
100
AcDbEntity
  8
HD365_1_2
  6
Continuous
 62
     7
100
AcDbBlockReference
  2
_NONE
 10
348.6313894977509
 20
209.2525688073389
 30
0.0
 41
4.0
 42
4.0
  0
LINE
  5
AD
330
A3
100
AcDbEntity
  8
HD365_1_2
  6
Continuous
 62
     7
100
AcDbLine
 10
333.8693250766959
 20
209.2525688073389
 30
0.0
 11
348.6313894977509
 21
209.2525688073389
 31
0.0
  0
TEXT
  5
AE
330
A3
100
AcDbEntity
  8
HD365_1_2
 62
     7
100
AcDbText
 10
338.0053003547934
 20
211.2525688073389
 30
0.0
 40
6.0
  1
16
 41
1.033333333332999
  7
ＭＳ_ゴシック
 72
     2
 11
346.0621531466689
 21
211.2525688073389
 31
0.0
100
AcDbText
  0
ENDBLK
  5
AF
330
A3
100
AcDbEntity
  8
0
100
AcDbBlockEnd
  0
BLOCK
  5
B1
330
B0
100
AcDbEntity
  8
0
 62
     7
100
AcDbBlockBegin
  2
*D15
 70
     1
 10
0.0
 20
0.0
 30
0.0
  3
*D15
  1

  0
LINE
  5
B2
330
B0
100
AcDbEntity
  8
HD365_1_2
  6
Continuous
 62
     7
100
AcDbLine
 10
315.869325076696
 20
234.252568807339
 30
0.0
 11
300.869325076696
 21
234.252568807339
 31
0.0
  0
LINE
  5
B3
330
B0
100
AcDbEntity
  8
HD365_1_2
  6
Continuous
 62
     7
100
AcDbLine
 10
313.1663526790449
 20
242.2525688073389
 30
0.0
 11
300.869325076696
 21
242.2525688073389
 31
0.0
  0
LINE
  5
B4
330
B0
100
AcDbEntity
  8
HD365_1_2
  6
Continuous
 62
     7
100
AcDbLine
 10
302.8693250766959
 20
234.252568807339
 30
0.0
 11
302.8693250766959
 21
242.2525688073389
 31
0.0
  0
INSERT
  5
B5
330
B0
100
AcDbEntity
  8
HD365_1_2
  6
Continuous
 62
     7
100
AcDbBlockReference
  2
_OPEN
 10
302.8693250766959
 20
234.252568807339
 30
0.0
 41
4.0
 42
4.0
 50
90.0
  0
INSERT
  5
B6
330
B0
100
AcDbEntity
  8
HD365_1_2
  6
Continuous
 62
     7
100
AcDbBlockReference
  2
_NONE
 10
302.8693250766959
 20
223.401788790428
 30
0.0
 41
4.0
 42
4.0
 50
270.0
  0
LINE
  5
B7
330
B0
100
AcDbEntity
  8
HD365_1_2
  6
Continuous
 62
     7
100
AcDbLine
 10
302.8693250766959
 20
234.252568807339
 30
0.0
 11
302.8693250766959
 21
223.401788790428
 31
0.0
  0
INSERT
  5
B8
330
B0
100
AcDbEntity
  8
HD365_1_2
  6
Continuous
 62
     7
100
AcDbBlockReference
  2
_OPEN
 10
302.8693250766959
 20
242.2525688073389
 30
0.0
 41
4.0
 42
4.0
 50
270.0
  0
INSERT
  5
B9
330
B0
100
AcDbEntity
  8
HD365_1_2
  6
Continuous
 62
     7
100
AcDbBlockReference
  2
_NONE
 10
302.8693250766959
 20
254.2525688073389
 30
0.0
 41
4.0
 42
4.0
 50
90.0
  0
LINE
  5
BA
330
B0
100
AcDbEntity
  8
HD365_1_2
  6
Continuous
 62
     7
100
AcDbLine
 10
302.8693250766959
 20
242.2525688073389
 30
0.0
 11
302.8693250766959
 21
254.2525688073389
 31
0.0
  0
TEXT
  5
BB
330
B0
100
AcDbEntity
  8
HD365_1_2
 62
     7
100
AcDbText
 10
300.869325076696
 20
225.746382967331
 30
0.0
 40
6.0
  1
8
 50
90.0
 41
1.033333333332999
  7
ＭＳ_ゴシック
100
AcDbText
  0
ENDBLK
  5
BC
330
B0
100
AcDbEntity
  8
0
100
AcDbBlockEnd
  0
BLOCK
  5
BE
330
BD
100
AcDbEntity
  8
0
 62
     7
100
AcDbBlockBegin
  2
*D16
 70
     1
 10
0.0
 20
0.0
 30
0.0
  3
*D16
  1

  0
LINE
  5
BF
330
BD
100
AcDbEntity
  8
HD365_1_2
  6
Continuous
 62
     7
100
AcDbLine
 10
315.869325076696
 20
234.252568807339
 30
0.0
 11
290.869325076696
 21
234.252568807339
 31
0.0
  0
LINE
  5
C0
330
BD
100
AcDbEntity
  8
HD365_1_2
  6
Continuous
 62
     7
100
AcDbLine
 10
319.869325076696
 20
246.2525688073389
 30
0.0
 11
290.869325076696
 21
246.2525688073389
 31
0.0
  0
LINE
  5
C1
330
BD
100
AcDbEntity
  8
HD365_1_2
  6
Continuous
 62
     7
100
AcDbLine
 10
292.869325076696
 20
234.252568807339
 30
0.0
 11
292.869325076696
 21
246.2525688073389
 31
0.0
  0
INSERT
  5
C2
330
BD
100
AcDbEntity
  8
HD365_1_2
  6
Continuous
 62
     7
100
AcDbBlockReference
  2
_OPEN
 10
292.869325076696
 20
234.252568807339
 30
0.0
 41
4.0
 42
4.0
 50
90.0
  0
INSERT
  5
C3
330
BD
100
AcDbEntity
  8
HD365_1_2
  6
Continuous
 62
     7
100
AcDbBlockReference
  2
_NONE
 10
292.869325076696
 20
222.463951119667
 30
0.0
 41
4.0
 42
4.0
 50
270.0
  0
LINE
  5
C4
330
BD
100
AcDbEntity
  8
HD365_1_2
  6
Continuous
 62
     7
100
AcDbLine
 10
292.869325076696
 20
234.252568807339
 30
0.0
 11
292.869325076696
 21
222.463951119667
 31
0.0
  0
INSERT
  5
C5
330
BD
100
AcDbEntity
  8
HD365_1_2
  6
Continuous
 62
     7
100
AcDbBlockReference
  2
_OPEN
 10
292.869325076696
 20
246.2525688073389
 30
0.0
 41
4.0
 42
4.0
 50
270.0
  0
INSERT
  5
C6
330
BD
100
AcDbEntity
  8
HD365_1_2
  6
Continuous
 62
     7
100
AcDbBlockReference
  2
_NONE
 10
292.869325076696
 20
258.252568807339
 30
0.0
 41
4.0
 42
4.0
 50
90.0
  0
LINE
  5
C7
330
BD
100
AcDbEntity
  8
HD365_1_2
  6
Continuous
 62
     7
100
AcDbLine
 10
292.869325076696
 20
246.2525688073389
 30
0.0
 11
292.869325076696
 21
258.252568807339
 31
0.0
  0
TEXT
  5
C8
330
BD
100
AcDbEntity
  8
HD365_1_2
 62
     7
100
AcDbText
 10
290.869325076696
 20
222.463951119667
 30
0.0
 40
6.0
  1
12
 50
90.0
 41
1.033333333332999
  7
ＭＳ_ゴシック
100
AcDbText
  0
ENDBLK
  5
C9
330
BD
100
AcDbEntity
  8
0
100
AcDbBlockEnd
  0
BLOCK
  5
CB
330
CA
100
AcDbEntity
  8
0
 62
     7
100
AcDbBlockBegin
  2
*D17
 70
     1
 10
0.0
 20
0.0
 30
0.0
  3
*D17
  1

  0
LINE
  5
CC
330
CA
100
AcDbEntity
  8
HD365_1_2
  6
Continuous
 62
     7
100
AcDbLine
 10
315.869325076696
 20
234.252568807339
 30
0.0
 11
280.8693250766959
 21
234.252568807339
 31
0.0
  0
LINE
  5
CD
330
CA
100
AcDbEntity
  8
HD365_1_2
  6
Continuous
 62
     7
100
AcDbLine
 10
315.869325076696
 20
250.2525688073389
 30
0.0
 11
280.8693250766959
 21
250.2525688073389
 31
0.0
  0
LINE
  5
CE
330
CA
100
AcDbEntity
  8
HD365_1_2
  6
Continuous
 62
     7
100
AcDbLine
 10
282.869325076696
 20
234.252568807339
 30
0.0
 11
282.869325076696
 21
250.2525688073389
 31
0.0
  0
INSERT
  5
CF
330
CA
100
AcDbEntity
  8
HD365_1_2
  6
Continuous
 62
     7
100
AcDbBlockReference
  2
_OPEN
 10
282.869325076696
 20
234.252568807339
 30
0.0
 41
4.0
 42
4.0
 50
90.0
  0
INSERT
  5
D0
330
CA
100
AcDbEntity
  8
HD365_1_2
  6
Continuous
 62
     7
100
AcDbBlockReference
  2
_NONE
 10
282.869325076696
 20
222.229491701977
 30
0.0
 41
4.0
 42
4.0
 50
270.0
  0
LINE
  5
D1
330
CA
100
AcDbEntity
  8
HD365_1_2
  6
Continuous
 62
     7
100
AcDbLine
 10
282.869325076696
 20
234.252568807339
 30
0.0
 11
282.869325076696
 21
222.229491701977
 31
0.0
  0
INSERT
  5
D2
330
CA
100
AcDbEntity
  8
HD365_1_2
  6
Continuous
 62
     7
100
AcDbBlockReference
  2
_OPEN
 10
282.869325076696
 20
250.2525688073389
 30
0.0
 41
4.0
 42
4.0
 50
270.0
  0
INSERT
  5
D3
330
CA
100
AcDbEntity
  8
HD365_1_2
  6
Continuous
 62
     7
100
AcDbBlockReference
  2
_NONE
 10
282.869325076696
 20
262.252568807339
 30
0.0
 41
4.0
 42
4.0
 50
90.0
  0
LINE
  5
D4
330
CA
100
AcDbEntity
  8
HD365_1_2
  6
Continuous
 62
     7
100
AcDbLine
 10
282.869325076696
 20
250.2525688073389
 30
0.0
 11
282.869325076696
 21
262.252568807339
 31
0.0
  0
TEXT
  5
D5
330
CA
100
AcDbEntity
  8
HD365_1_2
 62
     7
100
AcDbText
 10
280.8693250766959
 20
222.229491701977
 30
0.0
 40
6.0
  1
16
 50
90.0
 41
1.033333333332999
  7
ＭＳ_ゴシック
100
AcDbText
  0
ENDBLK
  5
D6
330
CA
100
AcDbEntity
  8
0
100
AcDbBlockEnd
  0
BLOCK
  5
D8
330
D7
100
AcDbEntity
  8
0
 62
     7
100
AcDbBlockBegin
  2
*D18
 70
     1
 10
0.0
 20
0.0
 30
0.0
  3
*D18
  1

  0
LINE
  5
D9
330
D7
100
AcDbEntity
  8
HD365_1_2
  6
Continuous
 62
     7
100
AcDbLine
 10
484.8710452418099
 20
247.552568807339
 30
0.0
 11
484.8710452418099
 21
260.252568807339
 31
0.0
  0
LINE
  5
DA
330
D7
100
AcDbEntity
  8
HD365_1_2
  6
Continuous
 62
     7
100
AcDbLine
 10
521.87104524181
 20
248.2525688073389
 30
0.0
 11
521.87104524181
 21
260.252568807339
 31
0.0
  0
INSERT
  5
DB
330
D7
100
AcDbEntity
  8
HD365_1_2
  6
Continuous
 62
     7
100
AcDbBlockReference
  2
_OPEN
 10
484.8710452418099
 20
258.252568807339
 30
0.0
 41
4.0
 42
4.0
 50
180.0
  0
INSERT
  5
DC
330
D7
100
AcDbEntity
  8
HD365_1_2
  6
Continuous
 62
     7
100
AcDbBlockReference
  2
_OPEN
 10
521.87104524181
 20
258.252568807339
 30
0.0
 41
4.0
 42
4.0
 50
360.0
  0
INSERT
  5
DD
330
D7
100
AcDbEntity
  8
HD365_1_2
  6
Continuous
 62
     7
100
AcDbBlockReference
  2
_OPEN
 10
484.8710452418099
 20
258.252568807339
 30
0.0
 41
4.0
 42
4.0
 50
180.0
  0
INSERT
  5
DE
330
D7
100
AcDbEntity
  8
HD365_1_2
  6
Continuous
 62
     7
100
AcDbBlockReference
  2
_OPEN
 10
521.87104524181
 20
258.252568807339
 30
0.0
 41
4.0
 42
4.0
 50
360.0
  0
LINE
  5
DF
330
D7
100
AcDbEntity
  8
HD365_1_2
  6
Continuous
 62
     7
100
AcDbLine
 10
484.8710452418099
 20
258.252568807339
 30
0.0
 11
521.87104524181
 21
258.252568807339
 31
0.0
  0
TEXT
  5
E0
330
D7
100
AcDbEntity
  8
HD365_1_2
 62
     7
100
AcDbText
 10
499.3426188458721
 20
260.252568807339
 30
0.0
 40
6.0
  1
37
 41
1.033333333332999
  7
ＭＳ_ゴシック
 72
     1
 11
503.37104524181
 21
260.252568807339
 31
0.0
100
AcDbText
  0
ENDBLK
  5
E1
330
D7
100
AcDbEntity
  8
0
100
AcDbBlockEnd
  0
BLOCK
  5
E3
330
E2
100
AcDbEntity
  8
0
 62
     7
100
AcDbBlockBegin
  2
*D19
 70
     1
 10
0.0
 20
0.0
 30
0.0
  3
*D19
  1

  0
LINE
  5
E4
330
E2
100
AcDbEntity
  8
HD365_1_2
  6
Continuous
 62
     7
100
AcDbLine
 10
510.39604524181
 20
222.2525688073389
 30
0.0
 11
510.39604524181
 21
207.2525688073389
 31
0.0
  0
LINE
  5
E5
330
E2
100
AcDbEntity
  8
HD365_1_2
  6
Continuous
 62
     7
100
AcDbLine
 10
519.34604524181
 20
222.2525688073389
 30
0.0
 11
519.34604524181
 21
207.2525688073389
 31
0.0
  0
LINE
  5
E6
330
E2
100
AcDbEntity
  8
HD365_1_2
  6
Continuous
 62
     7
100
AcDbLine
 10
510.39604524181
 20
209.2525688073389
 30
0.0
 11
519.34604524181
 21
209.2525688073389
 31
0.0
  0
INSERT
  5
E7
330
E2
100
AcDbEntity
  8
HD365_1_2
  6
Continuous
 62
     7
100
AcDbBlockReference
  2
_OPEN
 10
510.39604524181
 20
209.2525688073389
 30
0.0
 41
4.0
 42
4.0
  0
INSERT
  5
E8
330
E2
100
AcDbEntity
  8
HD365_1_2
  6
Continuous
 62
     7
100
AcDbBlockReference
  2
_NONE
 10
478.755625003181
 20
209.2525688073389
 30
0.0
 41
4.0
 42
4.0
 50
180.0
  0
LINE
  5
E9
330
E2
100
AcDbEntity
  8
HD365_1_2
  6
Continuous
 62
     7
100
AcDbLine
 10
510.39604524181
 20
209.2525688073389
 30
0.0
 11
478.755625003181
 21
209.2525688073389
 31
0.0
  0
INSERT
  5
EA
330
E2
100
AcDbEntity
  8
HD365_1_2
  6
Continuous
 62
     7
100
AcDbBlockReference
  2
_OPEN
 10
519.34604524181
 20
209.2525688073389
 30
0.0
 41
4.0
 42
4.0
 50
180.0
  0
INSERT
  5
EB
330
E2
100
AcDbEntity
  8
HD365_1_2
  6
Continuous
 62
     7
100
AcDbBlockReference
  2
_NONE
 10
531.3460452418099
 20
209.2525688073389
 30
0.0
 41
4.0
 42
4.0
  0
LINE
  5
EC
330
E2
100
AcDbEntity
  8
HD365_1_2
  6
Continuous
 62
     7
100
AcDbLine
 10
519.34604524181
 20
209.2525688073389
 30
0.0
 11
531.3460452418099
 21
209.2525688073389
 31
0.0
  0
TEXT
  5
ED
330
E2
100
AcDbEntity
  8
HD365_1_2
 62
     7
100
AcDbText
 10
478.755625003181
 20
211.2525688073389
 30
0.0
 40
6.0
  1
(φ8.9)
 41
1.033333333332999
  7
ＭＳ_ゴシック
100
AcDbText
  0
ENDBLK
  5
EE
330
E2
100
AcDbEntity
  8
0
100
AcDbBlockEnd
  0
BLOCK
  5
F0
330
EF
100
AcDbEntity
  8
0
 62
     7
100
AcDbBlockBegin
  2
*D20
 70
     1
 10
0.0
 20
0.0
 30
0.0
  3
*D20
  1

  0
LINE
  5
F1
330
EF
100
AcDbEntity
  8
HD365_1_2
  6
Continuous
 62
     7
100
AcDbLine
 10
521.3460452418099
 20
224.2525688073389
 30
0.0
 11
543.8710452418099
 21
224.2525688073389
 31
0.0
  0
LINE
  5
F2
330
EF
100
AcDbEntity
  8
HD365_1_2
  6
Continuous
 62
     7
100
AcDbLine
 10
516.8710452418099
 20
247.2525688073389
 30
0.0
 11
543.8710452418099
 21
247.2525688073389
 31
0.0
  0
INSERT
  5
F3
330
EF
100
AcDbEntity
  8
HD365_1_2
  6
Continuous
 62
     7
100
AcDbBlockReference
  2
_OPEN
 10
541.8710452418099
 20
224.2525688073389
 30
0.0
 41
4.0
 42
4.0
 50
270.0
  0
INSERT
  5
F4
330
EF
100
AcDbEntity
  8
HD365_1_2
  6
Continuous
 62
     7
100
AcDbBlockReference
  2
_OPEN
 10
541.8710452418099
 20
247.2525688073389
 30
0.0
 41
4.0
 42
4.0
 50
90.0
  0
INSERT
  5
F5
330
EF
100
AcDbEntity
  8
HD365_1_2
  6
Continuous
 62
     7
100
AcDbBlockReference
  2
_OPEN
 10
541.8710452418099
 20
224.2525688073389
 30
0.0
 41
4.0
 42
4.0
 50
270.0
  0
INSERT
  5
F6
330
EF
100
AcDbEntity
  8
HD365_1_2
  6
Continuous
 62
     7
100
AcDbBlockReference
  2
_OPEN
 10
541.8710452418099
 20
247.2525688073389
 30
0.0
 41
4.0
 42
4.0
 50
90.0
  0
LINE
  5
F7
330
EF
100
AcDbEntity
  8
HD365_1_2
  6
Continuous
 62
     7
100
AcDbLine
 10
541.8710452418099
 20
224.2525688073389
 30
0.0
 11
541.8710452418099
 21
247.2525688073389
 31
0.0
  0
TEXT
  5
F8
330
EF
100
AcDbEntity
  8
HD365_1_2
 62
     7
100
AcDbText
 10
539.8710452418099
 20
227.6957160154633
 30
0.0
 40
6.0
  1
(23)
 50
90.0
 41
1.033333333332999
  7
ＭＳ_ゴシック
 72
     1
 11
539.8710452418099
 21
235.7525688073389
 31
0.0
100
AcDbText
  0
ENDBLK
  5
F9
330
EF
100
AcDbEntity
  8
0
100
AcDbBlockEnd
  0
BLOCK
  5
FB
330
FA
100
AcDbEntity
  8
0
 62
     7
100
AcDbBlockBegin
  2
*D21
 70
     1
 10
0.0
 20
0.0
 30
0.0
  3
*D21
  1

  0
LINE
  5
FC
330
FA
100
AcDbEntity
  8
HD365_1_2
  6
Continuous
 62
     7
100
AcDbLine
 10
516.8710452418099
 20
301.2525688073389
 30
0.0
 11
543.8710452418099
 21
301.2525688073389
 31
0.0
  0
LINE
  5
FD
330
FA
100
AcDbEntity
  8
HD365_1_2
  6
Continuous
 62
     7
100
AcDbLine
 10
516.8710452418099
 20
315.252568807339
 30
0.0
 11
543.8710452418099
 21
315.252568807339
 31
0.0
  0
LINE
  5
FE
330
FA
100
AcDbEntity
  8
HD365_1_2
  6
Continuous
 62
     7
100
AcDbLine
 10
541.8710452418099
 20
301.2525688073389
 30
0.0
 11
541.8710452418099
 21
315.252568807339
 31
0.0
  0
INSERT
  5
FF
330
FA
100
AcDbEntity
  8
HD365_1_2
  6
Continuous
 62
     7
100
AcDbBlockReference
  2
_OPEN
 10
541.8710452418099
 20
301.2525688073389
 30
0.0
 41
4.0
 42
4.0
 50
90.0
  0
INSERT
  5
100
330
FA
100
AcDbEntity
  8
HD365_1_2
  6
Continuous
 62
     7
100
AcDbBlockReference
  2
_NONE
 10
541.8710452418099
 20
278.3168603446199
 30
0.0
 41
4.0
 42
4.0
 50
270.0
  0
LINE
  5
101
330
FA
100
AcDbEntity
  8
HD365_1_2
  6
Continuous
 62
     7
100
AcDbLine
 10
541.8710452418099
 20
301.2525688073389
 30
0.0
 11
541.8710452418099
 21
278.3168603446199
 31
0.0
  0
INSERT
  5
102
330
FA
100
AcDbEntity
  8
HD365_1_2
  6
Continuous
 62
     7
100
AcDbBlockReference
  2
_OPEN
 10
541.8710452418099
 20
315.252568807339
 30
0.0
 41
4.0
 42
4.0
 50
270.0
  0
INSERT
  5
103
330
FA
100
AcDbEntity
  8
HD365_1_2
  6
Continuous
 62
     7
100
AcDbBlockReference
  2
_NONE
 10
541.8710452418099
 20
327.252568807339
 30
0.0
 41
4.0
 42
4.0
 50
90.0
  0
LINE
  5
104
330
FA
100
AcDbEntity
  8
HD365_1_2
  6
Continuous
 62
     7
100
AcDbLine
 10
541.8710452418099
 20
315.252568807339
 30
0.0
 11
541.8710452418099
 21
327.252568807339
 31
0.0
  0
TEXT
  5
105
330
FA
100
AcDbEntity
  8
HD365_1_2
 62
     7
100
AcDbText
 10
539.8710452418099
 20
281.5446890448459
 30
0.0
 40
6.0
  1
(14)
 50
90.0
 41
1.033333333332999
  7
ＭＳ_ゴシック
100
AcDbText
  0
ENDBLK
  5
106
330
FA
100
AcDbEntity
  8
0
100
AcDbBlockEnd
  0
BLOCK
  5
108
330
107
100
AcDbEntity
  8
0
 62
     7
100
AcDbBlockBegin
  2
*D22
 70
     1
 10
0.0
 20
0.0
 30
0.0
  3
*D22
  1

  0
LINE
  5
109
330
107
100
AcDbEntity
  8
HD365_1_2
  6
Continuous
 62
     7
100
AcDbLine
 10
144.893719513672
 20
247.552568807339
 30
0.0
 11
144.893719513672
 21
260.252568807339
 31
0.0
  0
LINE
  5
10A
330
107
100
AcDbEntity
  8
HD365_1_2
  6
Continuous
 62
     7
100
AcDbLine
 10
181.8937195136719
 20
248.2525688073389
 30
0.0
 11
181.8937195136719
 21
260.252568807339
 31
0.0
  0
INSERT
  5
10B
330
107
100
AcDbEntity
  8
HD365_1_2
  6
Continuous
 62
     7
100
AcDbBlockReference
  2
_OPEN
 10
144.893719513672
 20
258.252568807339
 30
0.0
 41
4.0
 42
4.0
 50
180.0
  0
INSERT
  5
10C
330
107
100
AcDbEntity
  8
HD365_1_2
  6
Continuous
 62
     7
100
AcDbBlockReference
  2
_OPEN
 10
181.8937195136719
 20
258.252568807339
 30
0.0
 41
4.0
 42
4.0
 50
360.0
  0
INSERT
  5
10D
330
107
100
AcDbEntity
  8
HD365_1_2
  6
Continuous
 62
     7
100
AcDbBlockReference
  2
_OPEN
 10
144.893719513672
 20
258.252568807339
 30
0.0
 41
4.0
 42
4.0
 50
180.0
  0
INSERT
  5
10E
330
107
100
AcDbEntity
  8
HD365_1_2
  6
Continuous
 62
     7
100
AcDbBlockReference
  2
_OPEN
 10
181.8937195136719
 20
258.252568807339
 30
0.0
 41
4.0
 42
4.0
 50
360.0
  0
LINE
  5
10F
330
107
100
AcDbEntity
  8
HD365_1_2
  6
Continuous
 62
     7
100
AcDbLine
 10
144.893719513672
 20
258.252568807339
 30
0.0
 11
181.8937195136719
 21
258.252568807339
 31
0.0
  0
TEXT
  5
110
330
107
100
AcDbEntity
  8
HD365_1_2
 62
     7
100
AcDbText
 10
159.3652931177342
 20
260.252568807339
 30
0.0
 40
6.0
  1
37
 41
1.033333333332999
  7
ＭＳ_ゴシック
 72
     1
 11
163.393719513672
 21
260.252568807339
 31
0.0
100
AcDbText
  0
ENDBLK
  5
111
330
107
100
AcDbEntity
  8
0
100
AcDbBlockEnd
  0
BLOCK
  5
113
330
112
100
AcDbEntity
  8
0
 62
     7
100
AcDbBlockBegin
  2
*D23
 70
     1
 10
0.0
 20
0.0
 30
0.0
  3
*D23
  1

  0
LINE
  5
114
330
112
100
AcDbEntity
  8
HD365_1_2
  6
Continuous
 62
     7
100
AcDbLine
 10
170.418719513672
 20
222.2525688073389
 30
0.0
 11
170.418719513672
 21
207.2525688073389
 31
0.0
  0
LINE
  5
115
330
112
100
AcDbEntity
  8
HD365_1_2
  6
Continuous
 62
     7
100
AcDbLine
 10
179.3687195136719
 20
222.2525688073389
 30
0.0
 11
179.3687195136719
 21
207.2525688073389
 31
0.0
  0
LINE
  5
116
330
112
100
AcDbEntity
  8
HD365_1_2
  6
Continuous
 62
     7
100
AcDbLine
 10
170.418719513672
 20
209.2525688073389
 30
0.0
 11
179.3687195136719
 21
209.2525688073389
 31
0.0
  0
INSERT
  5
117
330
112
100
AcDbEntity
  8
HD365_1_2
  6
Continuous
 62
     7
100
AcDbBlockReference
  2
_OPEN
 10
170.418719513672
 20
209.2525688073389
 30
0.0
 41
4.0
 42
4.0
  0
INSERT
  5
118
330
112
100
AcDbEntity
  8
HD365_1_2
  6
Continuous
 62
     7
100
AcDbBlockReference
  2
_NONE
 10
138.7782992750429
 20
209.2525688073389
 30
0.0
 41
4.0
 42
4.0
 50
180.0
  0
LINE
  5
119
330
112
100
AcDbEntity
  8
HD365_1_2
  6
Continuous
 62
     7
100
AcDbLine
 10
170.418719513672
 20
209.2525688073389
 30
0.0
 11
138.7782992750429
 21
209.2525688073389
 31
0.0
  0
INSERT
  5
11A
330
112
100
AcDbEntity
  8
HD365_1_2
  6
Continuous
 62
     7
100
AcDbBlockReference
  2
_OPEN
 10
179.3687195136719
 20
209.2525688073389
 30
0.0
 41
4.0
 42
4.0
 50
180.0
  0
INSERT
  5
11B
330
112
100
AcDbEntity
  8
HD365_1_2
  6
Continuous
 62
     7
100
AcDbBlockReference
  2
_NONE
 10
191.3687195136719
 20
209.2525688073389
 30
0.0
 41
4.0
 42
4.0
  0
LINE
  5
11C
330
112
100
AcDbEntity
  8
HD365_1_2
  6
Continuous
 62
     7
100
AcDbLine
 10
179.3687195136719
 20
209.2525688073389
 30
0.0
 11
191.3687195136719
 21
209.2525688073389
 31
0.0
  0
TEXT
  5
11D
330
112
100
AcDbEntity
  8
HD365_1_2
 62
     7
100
AcDbText
 10
138.7782992750429
 20
211.2525688073389
 30
0.0
 40
6.0
  1
(φ8.9)
 41
1.033333333332999
  7
ＭＳ_ゴシック
100
AcDbText
  0
ENDBLK
  5
11E
330
112
100
AcDbEntity
  8
0
100
AcDbBlockEnd
  0
BLOCK
  5
120
330
11F
100
AcDbEntity
  8
0
 62
     7
100
AcDbBlockBegin
  2
*D24
 70
     1
 10
0.0
 20
0.0
 30
0.0
  3
*D24
  1

  0
LINE
  5
121
330
11F
100
AcDbEntity
  8
HD365_1_2
  6
Continuous
 62
     7
100
AcDbLine
 10
181.3687195136719
 20
224.2525688073389
 30
0.0
 11
203.8937195136719
 21
224.2525688073389
 31
0.0
  0
LINE
  5
122
330
11F
100
AcDbEntity
  8
HD365_1_2
  6
Continuous
 62
     7
100
AcDbLine
 10
176.8937195136719
 20
247.2525688073389
 30
0.0
 11
203.8937195136719
 21
247.2525688073389
 31
0.0
  0
INSERT
  5
123
330
11F
100
AcDbEntity
  8
HD365_1_2
  6
Continuous
 62
     7
100
AcDbBlockReference
  2
_OPEN
 10
201.8937195136719
 20
224.2525688073389
 30
0.0
 41
4.0
 42
4.0
 50
270.0
  0
INSERT
  5
124
330
11F
100
AcDbEntity
  8
HD365_1_2
  6
Continuous
 62
     7
100
AcDbBlockReference
  2
_OPEN
 10
201.8937195136719
 20
247.2525688073389
 30
0.0
 41
4.0
 42
4.0
 50
90.0
  0
INSERT
  5
125
330
11F
100
AcDbEntity
  8
HD365_1_2
  6
Continuous
 62
     7
100
AcDbBlockReference
  2
_OPEN
 10
201.8937195136719
 20
224.2525688073389
 30
0.0
 41
4.0
 42
4.0
 50
270.0
  0
INSERT
  5
126
330
11F
100
AcDbEntity
  8
HD365_1_2
  6
Continuous
 62
     7
100
AcDbBlockReference
  2
_OPEN
 10
201.8937195136719
 20
247.2525688073389
 30
0.0
 41
4.0
 42
4.0
 50
90.0
  0
LINE
  5
127
330
11F
100
AcDbEntity
  8
HD365_1_2
  6
Continuous
 62
     7
100
AcDbLine
 10
201.8937195136719
 20
224.2525688073389
 30
0.0
 11
201.8937195136719
 21
247.2525688073389
 31
0.0
  0
TEXT
  5
128
330
11F
100
AcDbEntity
  8
HD365_1_2
 62
     7
100
AcDbText
 10
199.8937195136719
 20
227.6957160154633
 30
0.0
 40
6.0
  1
(23)
 50
90.0
 41
1.033333333332999
  7
ＭＳ_ゴシック
 72
     1
 11
199.8937195136719
 21
235.7525688073389
 31
0.0
100
AcDbText
  0
ENDBLK
  5
129
330
11F
100
AcDbEntity
  8
0
100
AcDbBlockEnd
  0
BLOCK
  5
12B
330
12A
100
AcDbEntity
  8
0
 62
     7
100
AcDbBlockBegin
  2
*D25
 70
     1
 10
0.0
 20
0.0
 30
0.0
  3
*D25
  1

  0
LINE
  5
12C
330
12A
100
AcDbEntity
  8
HD365_1_2
  6
Continuous
 62
     7
100
AcDbLine
 10
176.8937195136719
 20
301.2525688073389
 30
0.0
 11
203.8937195136719
 21
301.2525688073389
 31
0.0
  0
LINE
  5
12D
330
12A
100
AcDbEntity
  8
HD365_1_2
  6
Continuous
 62
     7
100
AcDbLine
 10
176.8937195136719
 20
315.252568807339
 30
0.0
 11
203.8937195136719
 21
315.252568807339
 31
0.0
  0
LINE
  5
12E
330
12A
100
AcDbEntity
  8
HD365_1_2
  6
Continuous
 62
     7
100
AcDbLine
 10
201.8937195136719
 20
301.2525688073389
 30
0.0
 11
201.8937195136719
 21
315.252568807339
 31
0.0
  0
INSERT
  5
12F
330
12A
100
AcDbEntity
  8
HD365_1_2
  6
Continuous
 62
     7
100
AcDbBlockReference
  2
_OPEN
 10
201.8937195136719
 20
301.2525688073389
 30
0.0
 41
4.0
 42
4.0
 50
90.0
  0
INSERT
  5
130
330
12A
100
AcDbEntity
  8
HD365_1_2
  6
Continuous
 62
     7
100
AcDbBlockReference
  2
_NONE
 10
201.8937195136719
 20
278.3168603446199
 30
0.0
 41
4.0
 42
4.0
 50
270.0
  0
LINE
  5
131
330
12A
100
AcDbEntity
  8
HD365_1_2
  6
Continuous
 62
     7
100
AcDbLine
 10
201.8937195136719
 20
301.2525688073389
 30
0.0
 11
201.8937195136719
 21
278.3168603446199
 31
0.0
  0
INSERT
  5
132
330
12A
100
AcDbEntity
  8
HD365_1_2
  6
Continuous
 62
     7
100
AcDbBlockReference
  2
_OPEN
 10
201.8937195136719
 20
315.252568807339
 30
0.0
 41
4.0
 42
4.0
 50
270.0
  0
INSERT
  5
133
330
12A
100
AcDbEntity
  8
HD365_1_2
  6
Continuous
 62
     7
100
AcDbBlockReference
  2
_NONE
 10
201.8937195136719
 20
327.252568807339
 30
0.0
 41
4.0
 42
4.0
 50
90.0
  0
LINE
  5
134
330
12A
100
AcDbEntity
  8
HD365_1_2
  6
Continuous
 62
     7
100
AcDbLine
 10
201.8937195136719
 20
315.252568807339
 30
0.0
 11
201.8937195136719
 21
327.252568807339
 31
0.0
  0
TEXT
  5
135
330
12A
100
AcDbEntity
  8
HD365_1_2
 62
     7
100
AcDbText
 10
199.8937195136719
 20
281.5446890448459
 30
0.0
 40
6.0
  1
(14)
 50
90.0
 41
1.033333333332999
  7
ＭＳ_ゴシック
100
AcDbText
  0
ENDBLK
  5
136
330
12A
100
AcDbEntity
  8
0
100
AcDbBlockEnd
  0
ENDSEC
  0
SECTION
  2
ENTITIES
  0
TEXT
  5
137
330
A
100
AcDbEntity
  8
HD365_1_2
 62
     7
100
AcDbText
 10
20.94628390160599
 20
344.7432742981419
 30
0.0
 40
12.0
  1
HD-365S
 41
1.033333333332999
  7
ＭＳ_ゴシック
100
AcDbText
  0
LINE
  5
138
330
A
100
AcDbEntity
  8
HD365_1_2
  6
Continuous
 62
     7
100
AcDbLine
 10
110.964424979913
 20
310.252568807339
 30
0.0
 11
144.893719513672
 21
310.252568807339
 31
0.0
  0
LINE
  5
139
330
A
100
AcDbEntity
  8
HD365_1_2
  6
Continuous
 62
     7
100
AcDbLine
 10
110.964424979913
 20
306.252568807339
 30
0.0
 11
144.893719513672
 21
306.252568807339
 31
0.0
  0
LINE
  5
13A
330
A
100
AcDbEntity
  8
HD365_1_2
  6
Continuous
 62
     7
100
AcDbLine
 10
110.964424979913
 20
244.2525688073389
 30
0.0
 11
144.893719513672
 21
244.2525688073389
 31
0.0
  0
LINE
  5
13B
330
A
100
AcDbEntity
  8
HD365_1_2
  6
Continuous
 62
     7
100
AcDbLine
 10
110.964424979913
 20
240.2525688073389
 30
0.0
 11
144.893719513672
 21
240.2525688073389
 31
0.0
  0
LINE
  5
13C
330
A
100
AcDbEntity
  8
HD365_1_2
  6
Continuous
 62
     7
100
AcDbLine
 10
81.426912044287
 20
310.252568807339
 30
0.0
 11
107.964424979913
 21
310.252568807339
 31
0.0
  0
LINE
  5
13D
330
A
100
AcDbEntity
  8
HD365_1_2
  6
Continuous
 62
     7
100
AcDbLine
 10
81.426912044287
 20
306.252568807339
 30
0.0
 11
107.753161714362
 21
306.252568807339
 31
0.0
  0
INSERT
  5
13E
330
A
100
AcDbEntity
  8
0
  6
Continuous
 62
    96
100
AcDbBlockReference
  2
BLKF044_$1$
 10
0.0
 20
0.0
 30
0.0
  0
INSERT
  5
13F
330
A
100
AcDbEntity
  8
0
  6
Continuous
 62
    96
100
AcDbBlockReference
  2
BLKF045_$2$
 10
0.0
 20
0.0
 30
0.0
  0
LINE
  5
140
330
A
100
AcDbEntity
  8
HD365_1_2
  6
Continuous
 62
     7
100
AcDbLine
 10
81.426912044287
 20
244.2525688073389
 30
0.0
 11
107.964424979913
 21
244.2525688073389
 31
0.0
  0
LINE
  5
141
330
A
100
AcDbEntity
  8
HD365_1_2
  6
Continuous
 62
     7
100
AcDbLine
 10
81.426912044287
 20
240.2525688073389
 30
0.0
 11
107.753161714362
 21
240.2525688073389
 31
0.0
  0
INSERT
  5
142
330
A
100
AcDbEntity
  8
0
  6
Continuous
 62
    96
100
AcDbBlockReference
  2
BLKF046_$3$
 10
0.0
 20
0.0
 30
0.0
  0
INSERT
  5
143
330
A
100
AcDbEntity
  8
0
  6
Continuous
 62
    96
100
AcDbBlockReference
  2
BLKF047_$4$
 10
0.0
 20
0.0
 30
0.0
  0
CIRCLE
  5
144
330
A
100
AcDbEntity
  8
HD365_1_2
  6
Continuous
 62
     7
100
AcDbCircle
 10
66.426912044287
 20
308.252568807339
 30
0.0
 40
15.0
  0
CIRCLE
  5
145
330
A
100
AcDbEntity
  8
HD365_1_2
  6
Continuous
 62
     7
100
AcDbCircle
 10
66.426912044287
 20
308.252568807339
 30
0.0
 40
14.0
  0
CIRCLE
  5
146
330
A
100
AcDbEntity
  8
HD365_1_2
  6
Continuous
 62
     7
100
AcDbCircle
 10
66.426912044287
 20
308.252568807339
 30
0.0
 40
0.5
  0
LINE
  5
147
330
A
100
AcDbEntity
  8
HD365_1_2
  6
Continuous
 62
     7
100
AcDbLine
 10
80.42691204428701
 20
258.252568807339
 30
0.0
 11
52.42691204428701
 21
258.252568807339
 31
0.0
  0
LINE
  5
148
330
A
100
AcDbEntity
  8
HD365_1_2
  6
Continuous
 62
     7
100
AcDbLine
 10
51.426912044287
 20
240.2525688073389
 30
0.0
 11
51.426912044287
 21
257.2525688073389
 31
0.0
  0
LINE
  5
149
330
A
100
AcDbEntity
  8
HD365_1_2
  6
Continuous
 62
     7
100
AcDbLine
 10
52.42691204428701
 20
258.252568807339
 30
0.0
 11
51.426912044287
 21
257.2525688073389
 31
0.0
  0
LINE
  5
14A
330
A
100
AcDbEntity
  8
HD365_1_2
  6
Continuous
 62
     7
100
AcDbLine
 10
81.426912044287
 20
240.2525688073389
 30
0.0
 11
51.426912044287
 21
240.2525688073389
 31
0.0
  0
LINE
  5
14B
330
A
100
AcDbEntity
  8
HD365_1_2
  6
Continuous
 62
     7
100
AcDbLine
 10
81.426912044287
 20
240.2525688073389
 30
0.0
 11
81.426912044287
 21
257.2525688073389
 31
0.0
  0
LINE
  5
14C
330
A
100
AcDbEntity
  8
HD365_1_2
  6
Continuous
 62
     7
100
AcDbLine
 10
80.42691204428701
 20
258.252568807339
 30
0.0
 11
81.426912044287
 21
257.2525688073389
 31
0.0
  0
LINE
  5
14D
330
A
100
AcDbEntity
  8
HD365_1_2
  6
Continuous
 62
     7
100
AcDbLine
 10
81.326912044287
 20
240.2525688073389
 30
0.0
 11
51.548386179643
 21
240.2525688073389
 31
0.0
  0
LINE
  5
14E
330
A
100
AcDbEntity
  8
HD365_1_2
  6
Continuous
 62
     7
100
AcDbLine
 10
81.326912044287
 20
239.2525688073389
 30
0.0
 11
51.548386179643
 21
239.2525688073389
 31
0.0
  0
LINE
  5
14F
330
A
100
AcDbEntity
  8
HD365_1_2
  6
Continuous
 62
     7
100
AcDbLine
 10
81.326912044287
 20
239.2525688073389
 30
0.0
 11
81.326912044287
 21
240.2525688073389
 31
0.0
  0
LINE
  5
150
330
A
100
AcDbEntity
  8
HD365_1_2
  6
Continuous
 62
     7
100
AcDbLine
 10
81.426912044287
 20
257.2525688073389
 30
0.0
 11
51.426912044287
 21
257.2525688073389
 31
0.0
  0
LINE
  5
151
330
A
100
AcDbEntity
  8
HD365_1_2
  6
Continuous
 62
     7
100
AcDbLine
 10
51.526912044287
 20
239.2525688073389
 30
0.0
 11
51.526912044287
 21
240.2525688073389
 31
0.0
  0
DIMENSION
  5
152
330
A
100
AcDbEntity
  8
HD365_1_2
  6
Continuous
 62
     7
100
AcDbDimension
  2
*D6
 10
81.426912044287
 20
224.2525688073389
 30
0.0
 11
65.39209030644599
 21
226.2525688073389
 31
0.0
 71
     5
 42
-1.0
  3
MARK2_DIMSTYLE
100
AcDbAlignedDimension
 13
51.426912044287
 23
240.2525688073389
 33
0.0
 14
81.426912044287
 24
240.2525688073389
 34
0.0
100
AcDbRotatedDimension
1001
ACAD
1000
DSTYLE
1002
{
1070
    41
1040
4.0
1002
}
  0
DIMENSION
  5
153
330
A
100
AcDbEntity
  8
HD365_1_2
  6
Continuous
 62
     7
100
AcDbDimension
  2
*D7
 10
31.426912044287
 20
258.252568807339
 30
0.0
 11
29.426912044287
 21
248.7525688073389
 31
0.0
 71
     5
 42
-1.0
  3
MARK2_DIMSTYLE
100
AcDbAlignedDimension
 13
51.548386179643
 23
239.2525688073389
 33
0.0
 14
52.42691204428701
 24
258.252568807339
 34
0.0
 50
90.0
100
AcDbRotatedDimension
1001
ACAD
1000
DSTYLE
1002
{
1070
    41
1040
4.0
1002
}
  0
LEADER
  5
154
330
A
100
AcDbEntity
  8
HD365_1_2
  6
Continuous
 62
     7
100
AcDbLeader
  3
MARK2_DIMSTYLE
 73
     0
 74
     0
 40
8.0
 41
84.0
 76
     3
 10
66.426912044287
 20
308.752568807339
 30
0.0
 10
90.926912044287
 20
333.252568807339
 30
0.0
 10
96.313103707191
 20
333.252568807339
 30
0.0
340
155
  0
MTEXT
  5
155
330
A
100
AcDbEntity
  8
HD365_1_2
 62
     7
100
AcDbMText
 10
177.20944829098
 20
335.252568807339
 30
0.0
 40
6.0
 41
88.2
 71
     9
 72
     5
  1
\W1.034;Sensing Diameter: 1mm
  7
ＭＳ_ゴシック
 73
     1
 44
1.0
  0
LINE
  5
1C0
330
A
100
AcDbEntity
  8
HD365_1_2
  6
Continuous
 62
     7
100
AcDbLine
 10
144.893719513672
 20
244.2525688073389
 30
0.0
 11
144.893719513672
 21
240.2525688073389
 31
0.0
  0
LINE
  5
1C1
330
A
100
AcDbEntity
  8
HD365_1_2
  6
Continuous
 62
     7
100
AcDbLine
 10
145.0937195136719
 20
245.7525688073389
 30
0.0
 11
146.193719513672
 21
245.7525688073389
 31
0.0
  0
ARC
  5
1C2
330
A
100
AcDbEntity
  8
HD365_1_2
  6
Continuous
 62
     7
100
AcDbCircle
 10
146.193719513672
 20
245.5525688073399
 30
0.0
 40
0.2
100
AcDbArc
 50
0.0
 51
90.0
  0
LINE
  5
1C3
330
A
100
AcDbEntity
  8
HD365_1_2
  6
Continuous
 62
     7
100
AcDbLine
 10
146.393719513672
 20
245.552568807339
 30
0.0
 11
146.393719513672
 21
238.952568807339
 31
0.0
  0
ARC
  5
1C4
330
A
100
AcDbEntity
  8
HD365_1_2
  6
Continuous
 62
     7
100
AcDbCircle
 10
146.193719513672
 20
238.952568807339
 30
0.0
 40
0.2
100
AcDbArc
 50
270.0
 51
0.0
  0
LINE
  5
1C5
330
A
100
AcDbEntity
  8
HD365_1_2
  6
Continuous
 62
     7
100
AcDbLine
 10
146.193719513672
 20
238.7525688073389
 30
0.0
 11
145.0937195136719
 21
238.7525688073389
 31
0.0
  0
ARC
  5
1C6
330
A
100
AcDbEntity
  8
HD365_1_2
  6
Continuous
 62
     7
100
AcDbCircle
 10
145.0937195136719
 20
238.952568807339
 30
0.0
 40
0.2
100
AcDbArc
 50
180.0
 51
270.0
  0
LINE
  5
1C7
330
A
100
AcDbEntity
  8
HD365_1_2
  6
Continuous
 62
     7
100
AcDbLine
 10
144.893719513672
 20
238.952568807339
 30
0.0
 11
144.893719513672
 21
245.552568807339
 31
0.0
  0
ARC
  5
1C8
330
A
100
AcDbEntity
  8
HD365_1_2
  6
Continuous
 62
     7
100
AcDbCircle
 10
145.0937195136719
 20
245.552568807339
 30
0.0
 40
0.2
100
AcDbArc
 50
90.0
 51
180.0
  0
LINE
  5
1C9
330
A
100
AcDbEntity
  8
HD365_1_2
  6
Continuous
 62
     7
100
AcDbLine
 10
155.393719513672
 20
246.752568807339
 30
0.0
 11
155.393719513672
 21
236.7525688073389
 31
0.0
  0
LINE
  5
1CA
330
A
100
AcDbEntity
  8
HD365_1_2
  6
Continuous
 62
     7
100
AcDbLine
 10
156.392090848096
 20
235.6955190168009
 30
0.0
 11
169.393719513672
 21
234.952568807339
 31
0.0
  0
LINE
  5
1CB
330
A
100
AcDbEntity
  8
HD365_1_2
  6
Continuous
 62
     7
100
AcDbLine
 10
147.393719513672
 20
242.2525688073389
 30
0.0
 11
147.393719513672
 21
245.783338038109
 31
0.0
  0
ARC
  5
1CC
330
A
100
AcDbEntity
  8
HD365_1_2
  6
Continuous
 62
     7
100
AcDbCircle
 10
147.5937195136719
 20
245.783338038109
 30
0.0
 40
0.2
100
AcDbArc
 50
90.0
 51
180.0
  0
LINE
  5
1CD
330
A
100
AcDbEntity
  8
HD365_1_2
  6
Continuous
 62
     7
100
AcDbLine
 10
147.5937195136719
 20
245.983338038109
 30
0.0
 11
148.193719513672
 21
245.983338038109
 31
0.0
  0
ARC
  5
1CE
330
A
100
AcDbEntity
  8
HD365_1_2
  6
Continuous
 62
     7
100
AcDbCircle
 10
148.193719513672
 20
245.783338038109
 30
0.0
 40
0.2
100
AcDbArc
 50
0.0
 51
90.0
  0
LINE
  5
1CF
330
A
100
AcDbEntity
  8
HD365_1_2
  6
Continuous
 62
     7
100
AcDbLine
 10
148.393719513672
 20
245.783338038109
 30
0.0
 11
148.393719513672
 21
242.2525688073389
 31
0.0
  0
LINE
  5
1D0
330
A
100
AcDbEntity
  8
HD365_1_2
  6
Continuous
 62
     7
100
AcDbLine
 10
149.393719513672
 20
242.2525688073389
 30
0.0
 11
149.393719513672
 21
245.988466243237
 31
0.0
  0
ARC
  5
1D1
330
A
100
AcDbEntity
  8
HD365_1_2
  6
Continuous
 62
     7
100
AcDbCircle
 10
149.5937195136719
 20
245.988466243237
 30
0.0
 40
0.2
100
AcDbArc
 50
90.0
 51
180.0
  0
LINE
  5
1D2
330
A
100
AcDbEntity
  8
HD365_1_2
  6
Continuous
 62
     7
100
AcDbLine
 10
149.5937195136719
 20
246.188466243237
 30
0.0
 11
150.193719513672
 21
246.188466243237
 31
0.0
  0
ARC
  5
1D3
330
A
100
AcDbEntity
  8
HD365_1_2
  6
Continuous
 62
     7
100
AcDbCircle
 10
150.193719513672
 20
245.988466243237
 30
0.0
 40
0.2
100
AcDbArc
 50
0.0
 51
90.0
  0
LINE
  5
1D4
330
A
100
AcDbEntity
  8
HD365_1_2
  6
Continuous
 62
     7
100
AcDbLine
 10
150.393719513672
 20
245.988466243237
 30
0.0
 11
150.393719513672
 21
242.2525688073389
 31
0.0
  0
LINE
  5
1D5
330
A
100
AcDbEntity
  8
HD365_1_2
  6
Continuous
 62
     7
100
AcDbLine
 10
151.393719513672
 20
242.2525688073389
 30
0.0
 11
151.393719513672
 21
246.1935944483649
 31
0.0
  0
ARC
  5
1D6
330
A
100
AcDbEntity
  8
HD365_1_2
  6
Continuous
 62
     7
100
AcDbCircle
 10
151.593719513672
 20
246.1935944483649
 30
0.0
 40
0.2
100
AcDbArc
 50
90.0
 51
180.0
  0
LINE
  5
1D7
330
A
100
AcDbEntity
  8
HD365_1_2
  6
Continuous
 62
     7
100
AcDbLine
 10
151.593719513672
 20
246.3935944483649
 30
0.0
 11
152.193719513672
 21
246.3935944483649
 31
0.0
  0
ARC
  5
1D8
330
A
100
AcDbEntity
  8
HD365_1_2
  6
Continuous
 62
     7
100
AcDbCircle
 10
152.193719513672
 20
246.1935944483649
 30
0.0
 40
0.2
100
AcDbArc
 50
0.0
 51
90.0
  0
LINE
  5
1D9
330
A
100
AcDbEntity
  8
HD365_1_2
  6
Continuous
 62
     7
100
AcDbLine
 10
152.393719513672
 20
246.1935944483649
 30
0.0
 11
152.393719513672
 21
242.2525688073389
 31
0.0
  0
LINE
  5
1DA
330
A
100
AcDbEntity
  8
HD365_1_2
  6
Continuous
 62
     7
100
AcDbLine
 10
153.393719513672
 20
242.2525688073389
 30
0.0
 11
153.393719513672
 21
246.3987226534929
 31
0.0
  0
ARC
  5
1DB
330
A
100
AcDbEntity
  8
HD365_1_2
  6
Continuous
 62
     7
100
AcDbCircle
 10
153.5937195136719
 20
246.3987226534929
 30
0.0
 40
0.2
100
AcDbArc
 50
90.0
 51
180.0
  0
LINE
  5
1DC
330
A
100
AcDbEntity
  8
HD365_1_2
  6
Continuous
 62
     7
100
AcDbLine
 10
153.5937195136719
 20
246.598722653493
 30
0.0
 11
154.193719513672
 21
246.598722653493
 31
0.0
  0
ARC
  5
1DD
330
A
100
AcDbEntity
  8
HD365_1_2
  6
Continuous
 62
     7
100
AcDbCircle
 10
154.193719513672
 20
246.3987226534929
 30
0.0
 40
0.2
100
AcDbArc
 50
0.0
 51
90.0
  0
LINE
  5
1DE
330
A
100
AcDbEntity
  8
HD365_1_2
  6
Continuous
 62
     7
100
AcDbLine
 10
154.393719513672
 20
246.3987226534929
 30
0.0
 11
154.393719513672
 21
242.2525688073389
 31
0.0
  0
LINE
  5
1DF
330
A
100
AcDbEntity
  8
HD365_1_2
  6
Continuous
 62
     7
100
AcDbLine
 10
146.393719513672
 20
244.829491884263
 30
0.0
 11
147.393719513672
 21
244.932055986827
 31
0.0
  0
LINE
  5
1E0
330
A
100
AcDbEntity
  8
HD365_1_2
  6
Continuous
 62
     7
100
AcDbLine
 10
154.393719513672
 20
245.650004704775
 30
0.0
 11
155.393719513672
 21
245.7525688073389
 31
0.0
  0
LINE
  5
1E1
330
A
100
AcDbEntity
  8
HD365_1_2
  6
Continuous
 62
     7
100
AcDbLine
 10
152.393719513672
 20
245.4448764996469
 30
0.0
 11
153.393719513672
 21
245.5474406022109
 31
0.0
  0
LINE
  5
1E2
330
A
100
AcDbEntity
  8
HD365_1_2
  6
Continuous
 62
     7
100
AcDbLine
 10
150.393719513672
 20
245.239748294519
 30
0.0
 11
151.393719513672
 21
245.342312397083
 31
0.0
  0
LINE
  5
1E3
330
A
100
AcDbEntity
  8
HD365_1_2
  6
Continuous
 62
     7
100
AcDbLine
 10
148.393719513672
 20
245.034620089391
 30
0.0
 11
149.393719513672
 21
245.137184191955
 31
0.0
  0
LINE
  5
1E4
330
A
100
AcDbEntity
  8
HD365_1_2
  6
Continuous
 62
     7
100
AcDbLine
 10
147.393719513672
 20
242.2525688073389
 30
0.0
 11
147.393719513672
 21
238.72179957657
 31
0.0
  0
ARC
  5
1E5
330
A
100
AcDbEntity
  8
HD365_1_2
  6
Continuous
 62
     7
100
AcDbCircle
 10
147.5937195136719
 20
238.72179957657
 30
0.0
 40
0.2
100
AcDbArc
 50
180.0
 51
270.0
  0
LINE
  5
1E6
330
A
100
AcDbEntity
  8
HD365_1_2
  6
Continuous
 62
     7
100
AcDbLine
 10
147.5937195136719
 20
238.52179957657
 30
0.0
 11
148.193719513672
 21
238.52179957657
 31
0.0
  0
ARC
  5
1E7
330
A
100
AcDbEntity
  8
HD365_1_2
  6
Continuous
 62
     7
100
AcDbCircle
 10
148.193719513672
 20
238.72179957657
 30
0.0
 40
0.2
100
AcDbArc
 50
270.0
 51
0.0
  0
LINE
  5
1E8
330
A
100
AcDbEntity
  8
HD365_1_2
  6
Continuous
 62
     7
100
AcDbLine
 10
148.393719513672
 20
238.72179957657
 30
0.0
 11
148.393719513672
 21
242.2525688073389
 31
0.0
  0
LINE
  5
1E9
330
A
100
AcDbEntity
  8
HD365_1_2
  6
Continuous
 62
     7
100
AcDbLine
 10
149.393719513672
 20
242.2525688073389
 30
0.0
 11
149.393719513672
 21
238.5166713714419
 31
0.0
  0
ARC
  5
1EA
330
A
100
AcDbEntity
  8
HD365_1_2
  6
Continuous
 62
     7
100
AcDbCircle
 10
149.5937195136719
 20
238.5166713714419
 30
0.0
 40
0.2
100
AcDbArc
 50
180.0
 51
270.0
  0
LINE
  5
1EB
330
A
100
AcDbEntity
  8
HD365_1_2
  6
Continuous
 62
     7
100
AcDbLine
 10
149.5937195136719
 20
238.316671371442
 30
0.0
 11
150.193719513672
 21
238.316671371442
 31
0.0
  0
ARC
  5
1EC
330
A
100
AcDbEntity
  8
HD365_1_2
  6
Continuous
 62
     7
100
AcDbCircle
 10
150.193719513672
 20
238.5166713714419
 30
0.0
 40
0.2
100
AcDbArc
 50
270.0
 51
0.0
  0
LINE
  5
1ED
330
A
100
AcDbEntity
  8
HD365_1_2
  6
Continuous
 62
     7
100
AcDbLine
 10
150.393719513672
 20
238.5166713714419
 30
0.0
 11
150.393719513672
 21
242.2525688073389
 31
0.0
  0
LINE
  5
1EE
330
A
100
AcDbEntity
  8
HD365_1_2
  6
Continuous
 62
     7
100
AcDbLine
 10
151.393719513672
 20
242.2525688073389
 30
0.0
 11
151.393719513672
 21
238.3115431663139
 31
0.0
  0
ARC
  5
1EF
330
A
100
AcDbEntity
  8
HD365_1_2
  6
Continuous
 62
     7
100
AcDbCircle
 10
151.593719513672
 20
238.3115431663139
 30
0.0
 40
0.2
100
AcDbArc
 50
180.0
 51
270.0
  0
LINE
  5
1F0
330
A
100
AcDbEntity
  8
HD365_1_2
  6
Continuous
 62
     7
100
AcDbLine
 10
151.593719513672
 20
238.111543166314
 30
0.0
 11
152.193719513672
 21
238.111543166314
 31
0.0
  0
ARC
  5
1F1
330
A
100
AcDbEntity
  8
HD365_1_2
  6
Continuous
 62
     7
100
AcDbCircle
 10
152.193719513672
 20
238.3115431663139
 30
0.0
 40
0.2
100
AcDbArc
 50
270.0
 51
0.0
  0
LINE
  5
1F2
330
A
100
AcDbEntity
  8
HD365_1_2
  6
Continuous
 62
     7
100
AcDbLine
 10
152.393719513672
 20
238.3115431663139
 30
0.0
 11
152.393719513672
 21
242.2525688073389
 31
0.0
  0
LINE
  5
1F3
330
A
100
AcDbEntity
  8
HD365_1_2
  6
Continuous
 62
     7
100
AcDbLine
 10
153.393719513672
 20
242.2525688073389
 30
0.0
 11
153.393719513672
 21
238.1064149611859
 31
0.0
  0
ARC
  5
1F4
330
A
100
AcDbEntity
  8
HD365_1_2
  6
Continuous
 62
     7
100
AcDbCircle
 10
153.5937195136719
 20
238.1064149611859
 30
0.0
 40
0.2
100
AcDbArc
 50
180.0
 51
270.0
  0
LINE
  5
1F5
330
A
100
AcDbEntity
  8
HD365_1_2
  6
Continuous
 62
     7
100
AcDbLine
 10
153.5937195136719
 20
237.9064149611859
 30
0.0
 11
154.193719513672
 21
237.9064149611859
 31
0.0
  0
ARC
  5
1F6
330
A
100
AcDbEntity
  8
HD365_1_2
  6
Continuous
 62
     7
100
AcDbCircle
 10
154.193719513672
 20
238.1064149611859
 30
0.0
 40
0.2
100
AcDbArc
 50
270.0
 51
0.0
  0
LINE
  5
1F7
330
A
100
AcDbEntity
  8
HD365_1_2
  6
Continuous
 62
     7
100
AcDbLine
 10
154.393719513672
 20
238.1064149611859
 30
0.0
 11
154.393719513672
 21
242.2525688073389
 31
0.0
  0
LINE
  5
1F8
330
A
100
AcDbEntity
  8
HD365_1_2
  6
Continuous
 62
     7
100
AcDbLine
 10
146.393719513672
 20
239.675645730416
 30
0.0
 11
147.393719513672
 21
239.5730816278519
 31
0.0
  0
LINE
  5
1F9
330
A
100
AcDbEntity
  8
HD365_1_2
  6
Continuous
 62
     7
100
AcDbLine
 10
154.393719513672
 20
238.8551329099039
 30
0.0
 11
155.393719513672
 21
238.7525688073389
 31
0.0
  0
LINE
  5
1FA
330
A
100
AcDbEntity
  8
HD365_1_2
  6
Continuous
 62
     7
100
AcDbLine
 10
152.393719513672
 20
239.060261115032
 30
0.0
 11
153.393719513672
 21
238.957697012468
 31
0.0
  0
LINE
  5
1FB
330
A
100
AcDbEntity
  8
HD365_1_2
  6
Continuous
 62
     7
100
AcDbLine
 10
150.393719513672
 20
239.26538932016
 30
0.0
 11
151.393719513672
 21
239.1628252175959
 31
0.0
  0
LINE
  5
1FC
330
A
100
AcDbEntity
  8
HD365_1_2
  6
Continuous
 62
     7
100
AcDbLine
 10
148.393719513672
 20
239.470517525288
 30
0.0
 11
149.393719513672
 21
239.3679534227239
 31
0.0
  0
LINE
  5
1FD
330
A
100
AcDbEntity
  8
HD365_1_2
  6
Continuous
 62
     7
100
AcDbLine
 10
155.393719513672
 20
246.752568807339
 30
0.0
 11
174.8937195136719
 21
247.2525688073389
 31
0.0
  0
LINE
  5
1FE
330
A
100
AcDbEntity
  8
HD365_1_2
  6
Continuous
 62
     7
100
AcDbLine
 10
174.8937195136719
 20
247.2525688073389
 30
0.0
 11
180.896260813841
 21
246.823815857327
 31
0.0
  0
LINE
  5
1FF
330
A
100
AcDbEntity
  8
HD365_1_2
  6
Continuous
 62
     7
100
AcDbLine
 10
181.8937195136719
 20
246.2525688073389
 30
0.0
 11
181.8937195136719
 21
243.2525688073389
 31
0.0
  0
LINE
  5
200
330
A
100
AcDbEntity
  8
HD365_1_2
  6
Continuous
 62
     7
100
AcDbLine
 10
180.3937195136719
 20
241.717385048851
 30
0.0
 11
180.3937195136719
 21
230.2525688073389
 31
0.0
  0
LINE
  5
201
330
A
100
AcDbEntity
  8
HD365_1_2
  6
Continuous
 62
     7
100
AcDbLine
 10
169.393719513672
 20
230.2525688073389
 30
0.0
 11
180.3937195136719
 21
230.2525688073389
 31
0.0
  0
LINE
  5
202
330
A
100
AcDbEntity
  8
HD365_1_2
  6
Continuous
 62
     7
100
AcDbLine
 10
169.393719513672
 20
234.952568807339
 30
0.0
 11
169.393719513672
 21
230.2525688073389
 31
0.0
  0
LINE
  5
203
330
A
100
AcDbEntity
  8
HD365_1_2
  6
Continuous
 62
     7
100
AcDbLine
 10
155.393719513672
 20
243.2525688073389
 30
0.0
 11
181.8937195136719
 21
243.2525688073389
 31
0.0
  0
LINE
  5
204
330
A
100
AcDbEntity
  8
HD365_1_2
  6
Continuous
 62
     7
100
AcDbLine
 10
170.418719513672
 20
230.2525688073389
 30
0.0
 11
170.418719513672
 21
224.2525688073389
 31
0.0
  0
LINE
  5
205
330
A
100
AcDbEntity
  8
HD365_1_2
  6
Continuous
 62
     7
100
AcDbLine
 10
170.418719513672
 20
224.2525688073389
 30
0.0
 11
179.3687195136719
 21
224.2525688073389
 31
0.0
  0
LINE
  5
206
330
A
100
AcDbEntity
  8
HD365_1_2
  6
Continuous
 62
     7
100
AcDbLine
 10
179.3687195136719
 20
224.2525688073389
 30
0.0
 11
179.3687195136719
 21
230.2525688073389
 31
0.0
  0
LINE
  5
207
330
A
100
AcDbEntity
  8
HD365_1_2
  6
Continuous
 62
     7
100
AcDbLine
 10
180.8390193174459
 20
242.549435343189
 30
0.0
 11
181.8937195136719
 21
243.2525688073389
 31
0.0
  0
LINE
  5
208
330
A
100
AcDbEntity
  8
HD365_1_2
  6
Continuous
 62
     7
100
AcDbLine
 10
155.393719513672
 20
236.7525688073389
 30
0.0
 11
156.392090848096
 21
235.6955190168009
 31
0.0
  0
LINE
  5
209
330
A
100
AcDbEntity
  8
HD365_1_2
  6
Continuous
 62
     7
100
AcDbLine
 10
180.896260813841
 20
246.823815857327
 30
0.0
 11
181.8937195136719
 21
246.2525688073389
 31
0.0
  0
ARC
  5
20A
330
A
100
AcDbEntity
  8
HD365_1_2
  6
Continuous
 62
     7
100
AcDbCircle
 10
181.3937195136719
 20
241.717385048851
 30
0.0
 40
1.0
100
AcDbArc
 50
123.690067525979
 51
180.0
  0
LINE
  5
20B
330
A
100
AcDbEntity
  8
HD365_1_2
  6
Continuous
 62
     7
100
AcDbLine
 10
144.893719513672
 20
310.252568807339
 30
0.0
 11
144.893719513672
 21
306.252568807339
 31
0.0
  0
ARC
  5
20C
330
A
100
AcDbEntity
  8
HD365_1_2
  6
Continuous
 62
     7
100
AcDbCircle
 10
174.8937195136719
 20
308.252568807339
 30
0.0
 40
7.0
100
AcDbArc
 50
270.0
 51
90.0
  0
LINE
  5
20D
330
A
100
AcDbEntity
  8
HD365_1_2
  6
Continuous
 62
     7
100
AcDbLine
 10
145.0937195136719
 20
311.7525688073389
 30
0.0
 11
146.193719513672
 21
311.7525688073389
 31
0.0
  0
ARC
  5
20E
330
A
100
AcDbEntity
  8
HD365_1_2
  6
Continuous
 62
     7
100
AcDbCircle
 10
146.193719513672
 20
311.5525688073389
 30
0.0
 40
0.2
100
AcDbArc
 50
0.0
 51
90.0
  0
LINE
  5
20F
330
A
100
AcDbEntity
  8
HD365_1_2
  6
Continuous
 62
     7
100
AcDbLine
 10
146.393719513672
 20
311.5525688073389
 30
0.0
 11
146.393719513672
 21
304.9525688073389
 31
0.0
  0
ARC
  5
210
330
A
100
AcDbEntity
  8
HD365_1_2
  6
Continuous
 62
     7
100
AcDbCircle
 10
146.193719513672
 20
304.9525688073389
 30
0.0
 40
0.2
100
AcDbArc
 50
270.0
 51
0.0
  0
LINE
  5
211
330
A
100
AcDbEntity
  8
HD365_1_2
  6
Continuous
 62
     7
100
AcDbLine
 10
146.193719513672
 20
304.752568807339
 30
0.0
 11
145.0937195136719
 21
304.752568807339
 31
0.0
  0
ARC
  5
212
330
A
100
AcDbEntity
  8
HD365_1_2
  6
Continuous
 62
     7
100
AcDbCircle
 10
145.0937195136719
 20
304.9525688073389
 30
0.0
 40
0.2
100
AcDbArc
 50
180.0
 51
270.0
  0
LINE
  5
213
330
A
100
AcDbEntity
  8
HD365_1_2
  6
Continuous
 62
     7
100
AcDbLine
 10
144.893719513672
 20
304.9525688073389
 30
0.0
 11
144.893719513672
 21
311.5525688073389
 31
0.0
  0
ARC
  5
214
330
A
100
AcDbEntity
  8
HD365_1_2
  6
Continuous
 62
     7
100
AcDbCircle
 10
145.0937195136719
 20
311.5525688073389
 30
0.0
 40
0.2
100
AcDbArc
 50
90.0
 51
180.0
  0
LINE
  5
215
330
A
100
AcDbEntity
  8
HD365_1_2
  6
Continuous
 62
     7
100
AcDbLine
 10
155.393719513672
 20
312.752568807339
 30
0.0
 11
155.393719513672
 21
303.752568807339
 31
0.0
  0
LINE
  5
216
330
A
100
AcDbEntity
  8
HD365_1_2
  6
Continuous
 62
     7
100
AcDbLine
 10
155.393719513672
 20
303.752568807339
 30
0.0
 11
174.8937195136719
 21
301.2525688073389
 31
0.0
  0
LINE
  5
217
330
A
100
AcDbEntity
  8
HD365_1_2
  6
Continuous
 62
     7
100
AcDbLine
 10
147.393719513672
 20
308.252568807339
 30
0.0
 11
147.393719513672
 21
311.783338038109
 31
0.0
  0
ARC
  5
218
330
A
100
AcDbEntity
  8
HD365_1_2
  6
Continuous
 62
     7
100
AcDbCircle
 10
147.5937195136719
 20
311.783338038109
 30
0.0
 40
0.2
100
AcDbArc
 50
90.0
 51
180.0
  0
LINE
  5
219
330
A
100
AcDbEntity
  8
HD365_1_2
  6
Continuous
 62
     7
100
AcDbLine
 10
147.5937195136719
 20
311.983338038109
 30
0.0
 11
148.193719513672
 21
311.983338038109
 31
0.0
  0
ARC
  5
21A
330
A
100
AcDbEntity
  8
HD365_1_2
  6
Continuous
 62
     7
100
AcDbCircle
 10
148.193719513672
 20
311.783338038109
 30
0.0
 40
0.2
100
AcDbArc
 50
0.0
 51
90.0
  0
LINE
  5
21B
330
A
100
AcDbEntity
  8
HD365_1_2
  6
Continuous
 62
     7
100
AcDbLine
 10
148.393719513672
 20
311.783338038109
 30
0.0
 11
148.393719513672
 21
308.252568807339
 31
0.0
  0
LINE
  5
21C
330
A
100
AcDbEntity
  8
HD365_1_2
  6
Continuous
 62
     7
100
AcDbLine
 10
149.393719513672
 20
308.252568807339
 30
0.0
 11
149.393719513672
 21
311.9884662432369
 31
0.0
  0
ARC
  5
21D
330
A
100
AcDbEntity
  8
HD365_1_2
  6
Continuous
 62
     7
100
AcDbCircle
 10
149.5937195136719
 20
311.9884662432369
 30
0.0
 40
0.2
100
AcDbArc
 50
90.0
 51
180.0
  0
LINE
  5
21E
330
A
100
AcDbEntity
  8
HD365_1_2
  6
Continuous
 62
     7
100
AcDbLine
 10
149.5937195136719
 20
312.1884662432369
 30
0.0
 11
150.193719513672
 21
312.1884662432369
 31
0.0
  0
ARC
  5
21F
330
A
100
AcDbEntity
  8
HD365_1_2
  6
Continuous
 62
     7
100
AcDbCircle
 10
150.193719513672
 20
311.9884662432369
 30
0.0
 40
0.2
100
AcDbArc
 50
0.0
 51
90.0
  0
LINE
  5
220
330
A
100
AcDbEntity
  8
HD365_1_2
  6
Continuous
 62
     7
100
AcDbLine
 10
150.393719513672
 20
311.9884662432369
 30
0.0
 11
150.393719513672
 21
308.252568807339
 31
0.0
  0
LINE
  5
221
330
A
100
AcDbEntity
  8
HD365_1_2
  6
Continuous
 62
     7
100
AcDbLine
 10
151.393719513672
 20
308.252568807339
 30
0.0
 11
151.393719513672
 21
312.193594448365
 31
0.0
  0
ARC
  5
222
330
A
100
AcDbEntity
  8
HD365_1_2
  6
Continuous
 62
     7
100
AcDbCircle
 10
151.593719513672
 20
312.193594448365
 30
0.0
 40
0.2
100
AcDbArc
 50
90.0
 51
180.0
  0
LINE
  5
223
330
A
100
AcDbEntity
  8
HD365_1_2
  6
Continuous
 62
     7
100
AcDbLine
 10
151.593719513672
 20
312.3935944483649
 30
0.0
 11
152.193719513672
 21
312.3935944483649
 31
0.0
  0
ARC
  5
224
330
A
100
AcDbEntity
  8
HD365_1_2
  6
Continuous
 62
     7
100
AcDbCircle
 10
152.193719513672
 20
312.193594448365
 30
0.0
 40
0.2
100
AcDbArc
 50
0.0
 51
90.0
  0
LINE
  5
225
330
A
100
AcDbEntity
  8
HD365_1_2
  6
Continuous
 62
     7
100
AcDbLine
 10
152.393719513672
 20
312.193594448365
 30
0.0
 11
152.393719513672
 21
308.252568807339
 31
0.0
  0
LINE
  5
226
330
A
100
AcDbEntity
  8
HD365_1_2
  6
Continuous
 62
     7
100
AcDbLine
 10
153.393719513672
 20
308.252568807339
 30
0.0
 11
153.393719513672
 21
312.3987226534929
 31
0.0
  0
ARC
  5
227
330
A
100
AcDbEntity
  8
HD365_1_2
  6
Continuous
 62
     7
100
AcDbCircle
 10
153.5937195136719
 20
312.3987226534929
 30
0.0
 40
0.2
100
AcDbArc
 50
90.0
 51
180.0
  0
LINE
  5
228
330
A
100
AcDbEntity
  8
HD365_1_2
  6
Continuous
 62
     7
100
AcDbLine
 10
153.5937195136719
 20
312.5987226534929
 30
0.0
 11
154.193719513672
 21
312.5987226534929
 31
0.0
  0
ARC
  5
229
330
A
100
AcDbEntity
  8
HD365_1_2
  6
Continuous
 62
     7
100
AcDbCircle
 10
154.193719513672
 20
312.3987226534929
 30
0.0
 40
0.2
100
AcDbArc
 50
0.0
 51
90.0
  0
LINE
  5
22A
330
A
100
AcDbEntity
  8
HD365_1_2
  6
Continuous
 62
     7
100
AcDbLine
 10
154.393719513672
 20
312.3987226534929
 30
0.0
 11
154.393719513672
 21
308.252568807339
 31
0.0
  0
LINE
  5
22B
330
A
100
AcDbEntity
  8
HD365_1_2
  6
Continuous
 62
     7
100
AcDbLine
 10
146.393719513672
 20
310.829491884263
 30
0.0
 11
147.393719513672
 21
310.932055986827
 31
0.0
  0
LINE
  5
22C
330
A
100
AcDbEntity
  8
HD365_1_2
  6
Continuous
 62
     7
100
AcDbLine
 10
154.393719513672
 20
311.650004704775
 30
0.0
 11
155.393719513672
 21
311.7525688073389
 31
0.0
  0
LINE
  5
22D
330
A
100
AcDbEntity
  8
HD365_1_2
  6
Continuous
 62
     7
100
AcDbLine
 10
152.393719513672
 20
311.4448764996469
 30
0.0
 11
153.393719513672
 21
311.547440602211
 31
0.0
  0
LINE
  5
22E
330
A
100
AcDbEntity
  8
HD365_1_2
  6
Continuous
 62
     7
100
AcDbLine
 10
150.393719513672
 20
311.239748294519
 30
0.0
 11
151.393719513672
 21
311.342312397083
 31
0.0
  0
LINE
  5
22F
330
A
100
AcDbEntity
  8
HD365_1_2
  6
Continuous
 62
     7
100
AcDbLine
 10
148.393719513672
 20
311.0346200893909
 30
0.0
 11
149.393719513672
 21
311.1371841919549
 31
0.0
  0
LINE
  5
230
330
A
100
AcDbEntity
  8
HD365_1_2
  6
Continuous
 62
     7
100
AcDbLine
 10
147.393719513672
 20
308.252568807339
 30
0.0
 11
147.393719513672
 21
304.7217995765699
 31
0.0
  0
ARC
  5
231
330
A
100
AcDbEntity
  8
HD365_1_2
  6
Continuous
 62
     7
100
AcDbCircle
 10
147.5937195136719
 20
304.7217995765699
 30
0.0
 40
0.2
100
AcDbArc
 50
180.0
 51
270.0
  0
LINE
  5
232
330
A
100
AcDbEntity
  8
HD365_1_2
  6
Continuous
 62
     7
100
AcDbLine
 10
147.5937195136719
 20
304.52179957657
 30
0.0
 11
148.193719513672
 21
304.52179957657
 31
0.0
  0
ARC
  5
233
330
A
100
AcDbEntity
  8
HD365_1_2
  6
Continuous
 62
     7
100
AcDbCircle
 10
148.193719513672
 20
304.7217995765699
 30
0.0
 40
0.2
100
AcDbArc
 50
270.0
 51
0.0
  0
LINE
  5
234
330
A
100
AcDbEntity
  8
HD365_1_2
  6
Continuous
 62
     7
100
AcDbLine
 10
148.393719513672
 20
304.7217995765699
 30
0.0
 11
148.393719513672
 21
308.252568807339
 31
0.0
  0
LINE
  5
235
330
A
100
AcDbEntity
  8
HD365_1_2
  6
Continuous
 62
     7
100
AcDbLine
 10
149.393719513672
 20
308.252568807339
 30
0.0
 11
149.393719513672
 21
304.516671371442
 31
0.0
  0
ARC
  5
236
330
A
100
AcDbEntity
  8
HD365_1_2
  6
Continuous
 62
     7
100
AcDbCircle
 10
149.5937195136719
 20
304.516671371442
 30
0.0
 40
0.2
100
AcDbArc
 50
180.0
 51
270.0
  0
LINE
  5
237
330
A
100
AcDbEntity
  8
HD365_1_2
  6
Continuous
 62
     7
100
AcDbLine
 10
149.5937195136719
 20
304.316671371442
 30
0.0
 11
150.193719513672
 21
304.316671371442
 31
0.0
  0
ARC
  5
238
330
A
100
AcDbEntity
  8
HD365_1_2
  6
Continuous
 62
     7
100
AcDbCircle
 10
150.193719513672
 20
304.516671371442
 30
0.0
 40
0.2
100
AcDbArc
 50
270.0
 51
0.0
  0
LINE
  5
239
330
A
100
AcDbEntity
  8
HD365_1_2
  6
Continuous
 62
     7
100
AcDbLine
 10
150.393719513672
 20
304.516671371442
 30
0.0
 11
150.393719513672
 21
308.252568807339
 31
0.0
  0
LINE
  5
23A
330
A
100
AcDbEntity
  8
HD365_1_2
  6
Continuous
 62
     7
100
AcDbLine
 10
151.393719513672
 20
308.252568807339
 30
0.0
 11
151.393719513672
 21
304.311543166314
 31
0.0
  0
ARC
  5
23B
330
A
100
AcDbEntity
  8
HD365_1_2
  6
Continuous
 62
     7
100
AcDbCircle
 10
151.593719513672
 20
304.311543166314
 30
0.0
 40
0.2
100
AcDbArc
 50
180.0
 51
270.0
  0
LINE
  5
23C
330
A
100
AcDbEntity
  8
HD365_1_2
  6
Continuous
 62
     7
100
AcDbLine
 10
151.593719513672
 20
304.1115431663139
 30
0.0
 11
152.193719513672
 21
304.1115431663139
 31
0.0
  0
ARC
  5
23D
330
A
100
AcDbEntity
  8
HD365_1_2
  6
Continuous
 62
     7
100
AcDbCircle
 10
152.193719513672
 20
304.311543166314
 30
0.0
 40
0.2
100
AcDbArc
 50
270.0
 51
0.0
  0
LINE
  5
23E
330
A
100
AcDbEntity
  8
HD365_1_2
  6
Continuous
 62
     7
100
AcDbLine
 10
152.393719513672
 20
304.311543166314
 30
0.0
 11
152.393719513672
 21
308.252568807339
 31
0.0
  0
LINE
  5
23F
330
A
100
AcDbEntity
  8
HD365_1_2
  6
Continuous
 62
     7
100
AcDbLine
 10
153.393719513672
 20
308.252568807339
 30
0.0
 11
153.393719513672
 21
304.1064149611859
 31
0.0
  0
ARC
  5
240
330
A
100
AcDbEntity
  8
HD365_1_2
  6
Continuous
 62
     7
100
AcDbCircle
 10
153.5937195136719
 20
304.106414961185
 30
0.0
 40
0.2
100
AcDbArc
 50
180.0
 51
270.0
  0
LINE
  5
241
330
A
100
AcDbEntity
  8
HD365_1_2
  6
Continuous
 62
     7
100
AcDbLine
 10
153.5937195136719
 20
303.9064149611859
 30
0.0
 11
154.193719513672
 21
303.9064149611859
 31
0.0
  0
ARC
  5
242
330
A
100
AcDbEntity
  8
HD365_1_2
  6
Continuous
 62
     7
100
AcDbCircle
 10
154.193719513672
 20
304.1064149611859
 30
0.0
 40
0.2
100
AcDbArc
 50
270.0
 51
0.0
  0
LINE
  5
243
330
A
100
AcDbEntity
  8
HD365_1_2
  6
Continuous
 62
     7
100
AcDbLine
 10
154.393719513672
 20
304.1064149611859
 30
0.0
 11
154.393719513672
 21
308.252568807339
 31
0.0
  0
LINE
  5
244
330
A
100
AcDbEntity
  8
HD365_1_2
  6
Continuous
 62
     7
100
AcDbLine
 10
146.393719513672
 20
305.6756457304159
 30
0.0
 11
147.393719513672
 21
305.5730816278519
 31
0.0
  0
LINE
  5
245
330
A
100
AcDbEntity
  8
HD365_1_2
  6
Continuous
 62
     7
100
AcDbLine
 10
154.393719513672
 20
304.855132909903
 30
0.0
 11
155.393719513672
 21
304.752568807339
 31
0.0
  0
LINE
  5
246
330
A
100
AcDbEntity
  8
HD365_1_2
  6
Continuous
 62
     7
100
AcDbLine
 10
152.393719513672
 20
305.060261115032
 30
0.0
 11
153.393719513672
 21
304.9576970124679
 31
0.0
  0
LINE
  5
247
330
A
100
AcDbEntity
  8
HD365_1_2
  6
Continuous
 62
     7
100
AcDbLine
 10
150.393719513672
 20
305.26538932016
 30
0.0
 11
151.393719513672
 21
305.162825217596
 31
0.0
  0
LINE
  5
248
330
A
100
AcDbEntity
  8
HD365_1_2
  6
Continuous
 62
     7
100
AcDbLine
 10
148.393719513672
 20
305.470517525288
 30
0.0
 11
149.393719513672
 21
305.367953422724
 31
0.0
  0
LINE
  5
249
330
A
100
AcDbEntity
  8
HD365_1_2
  6
Continuous
 62
     7
100
AcDbLine
 10
155.393719513672
 20
312.752568807339
 30
0.0
 11
174.8937195136719
 21
315.252568807339
 31
0.0
  0
DIMENSION
  5
2F3
330
A
100
AcDbEntity
  8
HD365_1_2
  6
Continuous
 62
     7
100
AcDbDimension
  2
*D22
 10
181.8937195136719
 20
258.252568807339
 30
0.0
 11
163.393719513672
 21
260.252568807339
 31
0.0
 71
     5
 42
-1.0
  3
MARK2_DIMSTYLE
100
AcDbAlignedDimension
 13
144.893719513672
 23
245.552568807339
 33
0.0
 14
181.8937195136719
 24
246.2525688073389
 34
0.0
100
AcDbRotatedDimension
1001
ACAD
1000
DSTYLE
1002
{
1070
    41
1040
4.0
1002
}
  0
DIMENSION
  5
2F4
330
A
100
AcDbEntity
  8
HD365_1_2
  6
Continuous
 62
     7
100
AcDbDimension
  2
*D23
 10
179.3687195136719
 20
209.2525688073389
 30
0.0
 11
145.778299275043
 21
211.2525688073389
 31
0.0
 71
     5
 42
-1.0
  3
MARK2_DIMSTYLE
100
AcDbAlignedDimension
 13
170.418719513672
 23
224.2525688073389
 33
0.0
 14
179.3687195136719
 24
224.2525688073389
 34
0.0
100
AcDbRotatedDimension
1001
ACAD
1000
DSTYLE
1002
{
1070
    41
1040
4.0
1002
}
  0
DIMENSION
  5
2F5
330
A
100
AcDbEntity
  8
HD365_1_2
  6
Continuous
 62
     7
100
AcDbDimension
  2
*D24
 10
201.8937195136719
 20
247.2525688073389
 30
0.0
 11
199.8937195136719
 21
235.7525688073389
 31
0.0
 71
     5
 42
-1.0
  3
MARK2_DIMSTYLE
100
AcDbAlignedDimension
 13
179.3687195136719
 23
224.2525688073389
 33
0.0
 14
174.8937195136719
 24
247.2525688073389
 34
0.0
 50
90.0
100
AcDbRotatedDimension
1001
ACAD
1000
DSTYLE
1002
{
1070
    41
1040
4.0
1002
}
  0
DIMENSION
  5
2F6
330
A
100
AcDbEntity
  8
HD365_1_2
  6
Continuous
 62
     7
100
AcDbDimension
  2
*D25
 10
201.8937195136719
 20
315.252568807339
 30
0.0
 11
199.8937195136719
 21
285.544689044846
 31
0.0
 71
     5
 42
-1.0
  3
MARK2_DIMSTYLE
100
AcDbAlignedDimension
 13
174.8937195136719
 23
301.2525688073389
 33
0.0
 14
174.8937195136719
 24
315.252568807339
 34
0.0
 50
90.0
100
AcDbRotatedDimension
1001
ACAD
1000
DSTYLE
1002
{
1070
    41
1040
4.0
1002
}
  0
TEXT
  5
2F7
330
A
100
AcDbEntity
  8
HD365_1_2
 62
     7
100
AcDbText
 10
80.52721478847312
 20
283.294573543367
 30
0.0
 40
6.0
  1
Cable Length: Approx. 1m
 41
1.033333333332999
  7
ＭＳ_ゴシック
 72
     2
 11
177.20944829098
 21
283.294573543367
 31
0.0
100
AcDbText
  0
ENDSEC
  0
SECTION
  2
OBJECTS
  0
DICTIONARY
  5
19
330
0
100
AcDbDictionary
281
     1
  3
ACAD_GROUP
350
1A
  3
ACAD_LAYOUT
350
300
  3
ACAD_MLINESTYLE
350
1B
  3
ACAD_PLOTSETTINGS
350
301
  3
ACAD_PLOTSTYLENAME
350
2FE
  0
DICTIONARY
  5
1A
102
{ACAD_REACTORS
330
19
102
}
330
19
100
AcDbDictionary
281
     1
  0
DICTIONARY
  5
300
102
{ACAD_REACTORS
330
19
102
}
330
19
100
AcDbDictionary
281
     1
  3
Model
350
302
  3
ﾚｲｱｳﾄ1
350
303
  0
DICTIONARY
  5
1B
102
{ACAD_REACTORS
330
19
102
}
330
19
100
AcDbDictionary
281
     1
  3
STANDARD
350
1C
  0
DICTIONARY
  5
301
102
{ACAD_REACTORS
330
19
102
}
330
19
100
AcDbDictionary
281
     1
  0
ACDBDICTIONARYWDFLT
  5
2FE
102
{ACAD_REACTORS
330
19
102
}
330
19
100
AcDbDictionary
281
     1
  3
Normal
350
2FF
100
AcDbDictionaryWithDefault
340
2FF
  0
LAYOUT
  5
302
102
{ACAD_REACTORS
330
300
102
}
330
300
100
AcDbPlotSettings
  1

  2
\\HCTD010A\RICOH imagio MP C4500 RPCS
  4

  6

 40
0.0
 41
0.0
 42
0.0
 43
0.0
 44
0.0
 45
0.0
 46
0.0
 47
0.0
 48
0.0
 49
0.0
140
0.0
141
0.0
142
1.0
143
1.0
 70
  1712
 72
     0
 73
     0
 74
     0
  7

 75
     0
147
1.0
148
0.0
149
0.0
100
AcDbLayout
  1
Model
 70
     1
 71
     0
 10
0.0
 20
0.0
 11
12.0
 21
9.0
 12
0.0
 22
0.0
 32
0.0
 14
0.0
 24
0.0
 34
0.0
 15
0.0
 25
0.0
 35
0.0
146
0.0
 13
0.0
 23
0.0
 33
0.0
 16
1.0
 26
0.0
 36
0.0
 17
0.0
 27
1.0
 37
0.0
 76
     0
330
A
  0
LAYOUT
  5
303
102
{ACAD_REACTORS
330
300
102
}
330
300
100
AcDbPlotSettings
  1

  2
\\HCTD010A\RICOH imagio MP C4500 RPCS
  4

  6

 40
0.0
 41
0.0
 42
0.0
 43
0.0
 44
0.0
 45
0.0
 46
0.0
 47
0.0
 48
0.0
 49
0.0
140
0.0
141
0.0
142
1.0
143
1.0
 70
   688
 72
     0
 73
     0
 74
     5
  7

 75
    16
147
1.0
148
0.0
149
0.0
100
AcDbLayout
  1
ﾚｲｱｳﾄ1
 70
     0
 71
     1
 10
0.0
 20
0.0
 11
12.0
 21
9.0
 12
0.0
 22
0.0
 32
0.0
 14
1.000000000000000E+20
 24
1.000000000000000E+20
 34
1.000000000000000E+20
 15
-1.000000000000000E+20
 25
-1.000000000000000E+20
 35
-1.000000000000000E+20
146
0.0
 13
0.0
 23
0.0
 33
0.0
 16
1.0
 26
0.0
 36
0.0
 17
0.0
 27
1.0
 37
0.0
 76
     0
330
B
  0
MLINESTYLE
  5
1C
102
{ACAD_REACTORS
330
1B
102
}
330
1B
100
AcDbMlineStyle
  2
STANDARD
 70
     0
  3

 62
     0
 51
90.0
 52
90.0
 71
     2
 49
0.5
 62
   256
  6
BYLAYER
 49
-0.5
 62
   256
  6
BYLAYER
  0
ACDBPLACEHOLDER
  5
2FF
102
{ACAD_REACTORS
330
2FE
102
}
330
2FE
  0
ENDSEC
  0
EOF
