  0
SECTION
  2
HEADER
  9
$ACADVER
  1
AC1015
  9
$ACADMAINTVER
 70
    10
  9
$DWGCODEPAGE
  3
ANSI_932
  9
$INSBASE
 10
0.0
 20
0.0
 30
0.0
  9
$EXTMIN
 10
25.70511187266035
 20
27.71449623501307
 30
0.0
  9
$EXTMAX
 10
335.1707660554865
 20
143.0063117634379
 30
0.0
  9
$LIMMIN
 10
0.0
 20
0.0
  9
$LIMMAX
 10
297.0
 20
210.0
  9
$ORTHOMODE
 70
     0
  9
$REGENMODE
 70
     1
  9
$FILLMODE
 70
     1
  9
$QTEXTMODE
 70
     0
  9
$MIRRTEXT
 70
     1
  9
$LTSCALE
 40
1.0
  9
$ATTMODE
 70
     1
  9
$TEXTSIZE
 40
0.2
  9
$TRACEWID
 40
1.0
  9
$TEXTSTYLE
  7
STYLE003
  9
$CLAYER
  8
0
  9
$CELTYPE
  6
ByLayer
  9
$CECOLOR
 62
   256
  9
$CELTSCALE
 40
1.0
  9
$DISPSILH
 70
     0
  9
$DIMSCALE
 40
1.0
  9
$DIMASZ
 40
3.0
  9
$DIMEXO
 40
1.0
  9
$DIMDLI
 40
10.0
  9
$DIMRND
 40
0.0
  9
$DIMDLE
 40
3.0
  9
$DIMEXE
 40
1.5
  9
$DIMTP
 40
0.0
  9
$DIMTM
 40
0.0
  9
$DIMTXT
 40
3.5
  9
$DIMCEN
 40
2.5
  9
$DIMTSZ
 40
0.0
  9
$DIMTOL
 70
     0
  9
$DIMLIM
 70
     0
  9
$DIMTIH
 70
     0
  9
$DIMTOH
 70
     0
  9
$DIMSE1
 70
     0
  9
$DIMSE2
 70
     0
  9
$DIMTAD
 70
     1
  9
$DIMZIN
 70
     8
  9
$DIMBLK
  1

  9
$DIMASO
 70
     1
  9
$DIMSHO
 70
     1
  9
$DIMPOST
  1

  9
$DIMAPOST
  1

  9
$DIMALT
 70
     0
  9
$DIMALTD
 70
     3
  9
$DIMALTF
 40
0.03937
  9
$DIMLFAC
 40
1.0
  9
$DIMTOFL
 70
     1
  9
$DIMTVP
 40
0.0
  9
$DIMTIX
 70
     0
  9
$DIMSOXD
 70
     0
  9
$DIMSAH
 70
     1
  9
$DIMBLK1
  1
FXTIP_ARROW_S
  9
$DIMBLK2
  1
FXTIP_ARROW_E
  9
$DIMSTYLE
  2
FXDIMINFO
  9
$DIMCLRD
 70
     6
  9
$DIMCLRE
 70
     6
  9
$DIMCLRT
 70
     6
  9
$DIMTFAC
 40
1.0
  9
$DIMGAP
 40
0.5
  9
$DIMJUST
 70
     0
  9
$DIMSD1
 70
     0
  9
$DIMSD2
 70
     0
  9
$DIMTOLJ
 70
     1
  9
$DIMTZIN
 70
     8
  9
$DIMALTZ
 70
     0
  9
$DIMALTTZ
 70
     0
  9
$DIMUPT
 70
     0
  9
$DIMDEC
 70
     2
  9
$DIMTDEC
 70
     2
  9
$DIMALTU
 70
     2
  9
$DIMALTTD
 70
     3
  9
$DIMTXSTY
  7
STYLE003
  9
$DIMAUNIT
 70
     0
  9
$DIMADEC
 70
     2
  9
$DIMALTRND
 40
0.0
  9
$DIMAZIN
 70
     0
  9
$DIMDSEP
 70
    46
  9
$DIMATFIT
 70
     3
  9
$DIMFRAC
 70
     0
  9
$DIMLDRBLK
  1
FXTIP_ARROW_S
  9
$DIMLUNIT
 70
     2
  9
$DIMLWD
 70
    -2
  9
$DIMLWE
 70
    -2
  9
$DIMTMOVE
 70
     0
  9
$LUNITS
 70
     2
  9
$LUPREC
 70
     4
  9
$SKETCHINC
 40
1.0
  9
$FILLETRAD
 40
10.0
  9
$AUNITS
 70
     0
  9
$AUPREC
 70
     0
  9
$MENU
  1
.
  9
$ELEVATION
 40
0.0
  9
$PELEVATION
 40
0.0
  9
$THICKNESS
 40
0.0
  9
$LIMCHECK
 70
     0
  9
$CHAMFERA
 40
10.0
  9
$CHAMFERB
 40
10.0
  9
$CHAMFERC
 40
20.0
  9
$CHAMFERD
 40
0.0
  9
$SKPOLY
 70
     0
  9
$TDCREATE
 40
2456646.690845995
  9
$TDUCREATE
 40
2456646.315845995
  9
$TDUPDATE
 40
2456888.751800196
  9
$TDUUPDATE
 40
2456888.376800197
  9
$TDINDWG
 40
0.0013104167
  9
$TDUSRTIMER
 40
0.0013102315
  9
$USRTIMER
 70
     1
  9
$ANGBASE
 50
0.0
  9
$ANGDIR
 70
     0
  9
$PDMODE
 70
     0
  9
$PDSIZE
 40
0.0
  9
$PLINEWID
 40
0.0
  9
$SPLFRAME
 70
     0
  9
$SPLINETYPE
 70
     6
  9
$SPLINESEGS
 70
     8
  9
$HANDSEED
  5
796
  9
$SURFTAB1
 70
     6
  9
$SURFTAB2
 70
     6
  9
$SURFTYPE
 70
     6
  9
$SURFU
 70
     6
  9
$SURFV
 70
     6
  9
$UCSBASE
  2

  9
$UCSNAME
  2

  9
$UCSORG
 10
0.0
 20
0.0
 30
0.0
  9
$UCSXDIR
 10
1.0
 20
0.0
 30
0.0
  9
$UCSYDIR
 10
0.0
 20
1.0
 30
0.0
  9
$UCSORTHOREF
  2

  9
$UCSORTHOVIEW
 70
     0
  9
$UCSORGTOP
 10
0.0
 20
0.0
 30
0.0
  9
$UCSORGBOTTOM
 10
0.0
 20
0.0
 30
0.0
  9
$UCSORGLEFT
 10
0.0
 20
0.0
 30
0.0
  9
$UCSORGRIGHT
 10
0.0
 20
0.0
 30
0.0
  9
$UCSORGFRONT
 10
0.0
 20
0.0
 30
0.0
  9
$UCSORGBACK
 10
0.0
 20
0.0
 30
0.0
  9
$PUCSBASE
  2

  9
$PUCSNAME
  2

  9
$PUCSORG
 10
0.0
 20
0.0
 30
0.0
  9
$PUCSXDIR
 10
1.0
 20
0.0
 30
0.0
  9
$PUCSYDIR
 10
0.0
 20
1.0
 30
0.0
  9
$PUCSORTHOREF
  2

  9
$PUCSORTHOVIEW
 70
     0
  9
$PUCSORGTOP
 10
0.0
 20
0.0
 30
0.0
  9
$PUCSORGBOTTOM
 10
0.0
 20
0.0
 30
0.0
  9
$PUCSORGLEFT
 10
0.0
 20
0.0
 30
0.0
  9
$PUCSORGRIGHT
 10
0.0
 20
0.0
 30
0.0
  9
$PUCSORGFRONT
 10
0.0
 20
0.0
 30
0.0
  9
$PUCSORGBACK
 10
0.0
 20
0.0
 30
0.0
  9
$USERI1
 70
     0
  9
$USERI2
 70
     0
  9
$USERI3
 70
     0
  9
$USERI4
 70
     0
  9
$USERI5
 70
     0
  9
$USERR1
 40
0.0
  9
$USERR2
 40
0.0
  9
$USERR3
 40
0.0
  9
$USERR4
 40
0.0
  9
$USERR5
 40
0.0
  9
$WORLDVIEW
 70
     1
  9
$SHADEDGE
 70
     3
  9
$SHADEDIF
 70
    70
  9
$TILEMODE
 70
     1
  9
$MAXACTVP
 70
    64
  9
$PINSBASE
 10
0.0
 20
0.0
 30
0.0
  9
$PLIMCHECK
 70
     0
  9
$PEXTMIN
 10
1.000000000000000E+20
 20
1.000000000000000E+20
 30
1.000000000000000E+20
  9
$PEXTMAX
 10
-1.000000000000000E+20
 20
-1.000000000000000E+20
 30
-1.000000000000000E+20
  9
$PLIMMIN
 10
0.0
 20
0.0
  9
$PLIMMAX
 10
420.0
 20
297.0
  9
$UNITMODE
 70
     0
  9
$VISRETAIN
 70
     1
  9
$PLINEGEN
 70
     0
  9
$PSLTSCALE
 70
     1
  9
$TREEDEPTH
 70
  3020
  9
$CMLSTYLE
  2
Standard
  9
$CMLJUST
 70
     0
  9
$CMLSCALE
 40
20.0
  9
$PROXYGRAPHICS
 70
     1
  9
$MEASUREMENT
 70
     1
  9
$CELWEIGHT
370
    -1
  9
$ENDCAPS
280
     0
  9
$JOINSTYLE
280
     0
  9
$LWDISPLAY
290
     0
  9
$INSUNITS
 70
     4
  9
$HYPERLINKBASE
  1

  9
$STYLESHEET
  1

  9
$XEDIT
290
     1
  9
$CEPSNTYPE
380
     0
  9
$PSTYLEMODE
290
     1
  9
$FINGERPRINTGUID
  2
{87131D80-156D-4E75-87C7-45CD6C45D6B9}
  9
$VERSIONGUID
  2
{BB3C4C0F-A957-476A-BD96-11BD3B8D4AD6}
  9
$EXTNAMES
290
     1
  9
$PSVPSCALE
 40
0.0
  9
$OLESTARTUP
290
     0
  0
ENDSEC
  0
SECTION
  2
CLASSES
  0
CLASS
  1
ACDBDICTIONARYWDFLT
  2
AcDbDictionaryWithDefault
  3
AutoCAD 2000
 90
        0
280
     0
281
     0
  0
CLASS
  1
VISUALSTYLE
  2
AcDbVisualStyle
  3
ObjectDBX Classes
 90
     4095
280
     0
281
     0
  0
CLASS
  1
DICTIONARYVAR
  2
AcDbDictionaryVar
  3
AutoCAD 2000
 90
        0
280
     0
281
     0
  0
CLASS
  1
ACDBPLACEHOLDER
  2
AcDbPlaceHolder
  3
AutoCAD 2000
 90
        0
280
     0
281
     0
  0
CLASS
  1
LAYOUT
  2
AcDbLayout
  3
AutoCAD 2000
 90
        0
280
     0
281
     0
  0
ENDSEC
  0
SECTION
  2
TABLES
  0
TABLE
  2
VPORT
  5
8
330
0
100
AcDbSymbolTable
 70
     3
  0
VPORT
  5
795
330
8
100
AcDbSymbolTableRecord
100
AcDbViewportTableRecord
  2
*Active
 70
     0
 10
0.0
 20
0.0
 11
1.0
 21
1.0
 12
196.2633626537929
 22
133.7906889470887
 13
0.0
 23
0.0
 14
10.0
 24
10.0
 15
10.0
 25
10.0
 16
0.0
 26
0.0
 36
1.0
 17
0.0
 27
0.0
 37
0.0
 40
339.8245639168876
 41
1.505226480836237
 42
50.0
 43
0.0
 44
0.0
 50
0.0
 51
0.0
 71
     0
 72
   100
 73
     1
 74
     3
 75
     0
 76
     0
 77
     0
 78
     0
281
     0
 65
     1
110
0.0
120
0.0
130
0.0
111
1.0
121
0.0
131
0.0
112
0.0
122
1.0
132
0.0
 79
     0
146
0.0
  0
ENDTAB
  0
TABLE
  2
LTYPE
  5
5
330
0
100
AcDbSymbolTable
 70
     3
  0
LTYPE
  5
14
330
5
100
AcDbSymbolTableRecord
100
AcDbLinetypeTableRecord
  2
ByBlock
 70
     0
  3

 72
    65
 73
     0
 40
0.0
  0
LTYPE
  5
15
330
5
100
AcDbSymbolTableRecord
100
AcDbLinetypeTableRecord
  2
ByLayer
 70
     0
  3

 72
    65
 73
     0
 40
0.0
  0
LTYPE
  5
16
330
5
100
AcDbSymbolTableRecord
100
AcDbLinetypeTableRecord
  2
Continuous
 70
     0
  3
Continuous ___________________________________
 72
    65
 73
     0
 40
0.0
  0
LTYPE
  5
3B
330
5
100
AcDbSymbolTableRecord
100
AcDbLinetypeTableRecord
  2
DASHDOT
 70
     0
  3
Dash dot __ . __ . __ . __ . __ . __ . __ . __
 72
    65
 73
     4
 40
25.3
 49
12.7
 74
     0
 49
-6.299999999999998
 74
     0
 49
0.0
 74
     0
 49
-6.299999999999998
 74
     0
  0
LTYPE
  5
1E8
330
5
100
AcDbSymbolTableRecord
100
AcDbLinetypeTableRecord
  2
DASH_DOT
 70
     0
  3

 72
    65
 73
     4
 40
0.5
 49
0.2
 74
     0
 49
-0.1
 74
     0
 49
0.1
 74
     0
 49
-0.1
 74
     0
  0
ENDTAB
  0
TABLE
  2
LAYER
  5
2
330
0
100
AcDbSymbolTable
 70
     4
  0
LAYER
  5
10
330
2
100
AcDbSymbolTableRecord
100
AcDbLayerTableRecord
  2
0
 70
     0
 62
     7
  6
Continuous
370
    -3
390
F
  0
LAYER
  5
AA
330
2
100
AcDbSymbolTableRecord
100
AcDbLayerTableRecord
  2
Defpoints
 70
     0
 62
     7
  6
Continuous
290
     0
370
    -3
390
F
  0
LAYER
  5
AB
330
2
100
AcDbSymbolTableRecord
100
AcDbLayerTableRecord
  2
LAYER004
 70
     0
 62
     7
  6
Continuous
370
    -3
390
F
  0
LAYER
  5
260
330
2
100
AcDbSymbolTableRecord
100
AcDbLayerTableRecord
  2
用紙-GR2
 70
     0
 62
     7
  6
Continuous
370
    -3
390
F
  0
ENDTAB
  0
TABLE
  2
STYLE
  5
3
330
0
100
AcDbSymbolTable
 70
     3
  0
STYLE
  5
11
330
3
100
AcDbSymbolTableRecord
100
AcDbTextStyleTableRecord
  2
Standard
 70
     0
 40
0.0
 41
1.0
 50
0.0
 71
     0
 42
2.5
  3
txt
  4

  0
STYLE
  5
41
330
3
100
AcDbSymbolTableRecord
100
AcDbTextStyleTableRecord
  2
FX_VECTOR
 70
     0
 40
0.0
 41
1.0
 50
0.0
 71
     0
 42
0.2
  3
MONOTXT.SHX
  4
BigFont.shx
  0
STYLE
  5
A9
330
3
100
AcDbSymbolTableRecord
100
AcDbTextStyleTableRecord
  2
STYLE003
 70
     0
 40
0.0
 41
1.0
 50
0.0
 71
     0
 42
0.2
  3

  4

1001
ACAD
1000
ＭＳ 明朝
1071
    32785
  0
ENDTAB
  0
TABLE
  2
VIEW
  5
6
330
0
100
AcDbSymbolTable
 70
     0
  0
ENDTAB
  0
TABLE
  2
UCS
  5
7
330
0
100
AcDbSymbolTable
 70
     0
  0
ENDTAB
  0
TABLE
  2
APPID
  5
9
330
0
100
AcDbSymbolTable
 70
     1
  0
APPID
  5
12
330
9
100
AcDbSymbolTableRecord
100
AcDbRegAppTableRecord
  2
ACAD
 70
     0
  0
ENDTAB
  0
TABLE
  2
DIMSTYLE
  5
A
330
0
100
AcDbSymbolTable
 70
     2
100
AcDbDimStyleTable
 71
     0
  0
DIMSTYLE
105
27
330
A
100
AcDbSymbolTableRecord
100
AcDbDimStyleTableRecord
  2
ISO-25
 70
     0
 41
2.5
 42
0.625
 43
3.75
 44
1.25
 73
     0
 74
     0
 77
     1
 78
     8
140
2.5
141
2.5
143
0.03937007874016
147
0.625
171
     3
172
     1
271
     2
272
     2
274
     3
278
    44
283
     0
284
     8
340
11
  0
DIMSTYLE
105
A8
102
{ACAD_REACTORS
330
40B
330
415
330
41E
330
428
330
442
330
44C
102
}
330
A
100
AcDbSymbolTableRecord
100
AcDbDimStyleTableRecord
  2
FXDIMINFO
 70
     0
 41
3.0
 42
1.0
 43
10.0
 44
1.5
 46
3.0
 73
     0
 74
     0
 77
     1
 78
     8
140
3.5
141
2.5
143
0.03937
147
0.5
171
     3
172
     1
173
     1
176
     6
177
     6
178
     6
179
     2
271
     2
272
     2
274
     3
284
     8
340
A9
341
42
343
42
344
48
  0
ENDTAB
  0
TABLE
  2
BLOCK_RECORD
  5
1
330
0
100
AcDbSymbolTable
 70
    59
  0
BLOCK_RECORD
  5
1F
330
1
100
AcDbSymbolTableRecord
100
AcDbBlockTableRecord
  2
*Model_Space
340
22
  0
BLOCK_RECORD
  5
1B
330
1
100
AcDbSymbolTableRecord
100
AcDbBlockTableRecord
  2
*Paper_Space
340
1E
  0
BLOCK_RECORD
  5
23
330
1
100
AcDbSymbolTableRecord
100
AcDbBlockTableRecord
  2
*Paper_Space0
340
26
  0
BLOCK_RECORD
  5
42
330
1
100
AcDbSymbolTableRecord
100
AcDbBlockTableRecord
  2
FXTIP_ARROW_S
340
0
102
{BLKREFS
331
411
331
41B
331
424
331
42E
331
448
331
452
331
466
331
4CD
331
4D7
331
4E1
331
4EB
331
4F4
331
513
331
51C
331
63D
331
647
331
651
331
66B
331
67E
331
69E
331
6F9
331
704
331
70E
331
723
331
72C
331
735
331
73E
331
747
331
750
331
761
331
76A
331
773
331
77C
331
785
331
78E
102
}
  0
BLOCK_RECORD
  5
48
330
1
100
AcDbSymbolTableRecord
100
AcDbBlockTableRecord
  2
FXTIP_ARROW_E
340
0
102
{BLKREFS
331
412
331
41C
331
425
331
42F
331
449
331
453
331
4CE
331
4D8
331
4E2
331
4EC
331
504
331
514
331
51D
331
63E
331
648
331
652
331
66C
331
69F
331
6FA
331
705
331
70F
331
724
331
72D
331
736
331
73F
331
748
331
751
331
762
331
76B
331
774
331
77D
331
786
331
78F
102
}
  0
BLOCK_RECORD
  5
4E
330
1
100
AcDbSymbolTableRecord
100
AcDbBlockTableRecord
  2
FXTIP_BLACKDOT_S
340
0
102
{BLKREFS
331
437
331
43F
331
45B
331
472
331
50B
331
65A
331
662
331
674
331
686
102
}
  0
BLOCK_RECORD
  5
54
330
1
100
AcDbSymbolTableRecord
100
AcDbBlockTableRecord
  2
FXTIP_BLACKDOT_E
340
0
  0
BLOCK_RECORD
  5
5A
330
1
100
AcDbSymbolTableRecord
100
AcDbBlockTableRecord
  2
FXTIP_TRIANGLE_S
340
0
  0
BLOCK_RECORD
  5
61
330
1
100
AcDbSymbolTableRecord
100
AcDbBlockTableRecord
  2
FXTIP_TRIANGLE_E
340
0
  0
BLOCK_RECORD
  5
68
330
1
100
AcDbSymbolTableRecord
100
AcDbBlockTableRecord
  2
FXTIP_ARCHITECT_S
340
0
  0
BLOCK_RECORD
  5
6E
330
1
100
AcDbSymbolTableRecord
100
AcDbBlockTableRecord
  2
FXTIP_ARCHITECT_E
340
0
  0
BLOCK_RECORD
  5
74
330
1
100
AcDbSymbolTableRecord
100
AcDbBlockTableRecord
  2
FXTIP_CIVIL_S
340
0
  0
BLOCK_RECORD
  5
7A
330
1
100
AcDbSymbolTableRecord
100
AcDbBlockTableRecord
  2
FXTIP_CIVIL_E
340
0
  0
BLOCK_RECORD
  5
80
330
1
100
AcDbSymbolTableRecord
100
AcDbBlockTableRecord
  2
FXTIP_WHITEDOT_S
340
0
  0
BLOCK_RECORD
  5
85
330
1
100
AcDbSymbolTableRecord
100
AcDbBlockTableRecord
  2
FXTIP_WHITEDOT_E
340
0
  0
BLOCK_RECORD
  5
8A
330
1
100
AcDbSymbolTableRecord
100
AcDbBlockTableRecord
  2
FXTIP_UPARROW_S
340
0
  0
BLOCK_RECORD
  5
8F
330
1
100
AcDbSymbolTableRecord
100
AcDbBlockTableRecord
  2
FXTIP_UPARROW_E
340
0
  0
BLOCK_RECORD
  5
94
330
1
100
AcDbSymbolTableRecord
100
AcDbBlockTableRecord
  2
FXTIP_DOWNARROW_S
340
0
  0
BLOCK_RECORD
  5
99
330
1
100
AcDbSymbolTableRecord
100
AcDbBlockTableRecord
  2
FXTIP_DOWNARROW_E
340
0
  0
BLOCK_RECORD
  5
9E
330
1
100
AcDbSymbolTableRecord
100
AcDbBlockTableRecord
  2
FXTIP_BLACKTRIANGLE_S
340
0
  0
BLOCK_RECORD
  5
A3
330
1
100
AcDbSymbolTableRecord
100
AcDbBlockTableRecord
  2
FXTIP_BLACKTRIANGLE_E
340
0
  0
BLOCK_RECORD
  5
1A9
330
1
100
AcDbSymbolTableRecord
100
AcDbBlockTableRecord
  2
BLKF021
340
0
102
{BLKREFS
331
1AC
102
}
  0
BLOCK_RECORD
  5
1AF
330
1
100
AcDbSymbolTableRecord
100
AcDbBlockTableRecord
  2
FXDIM022
340
0
102
{BLKREFS
331
1B2
102
}
  0
BLOCK_RECORD
  5
1B7
330
1
100
AcDbSymbolTableRecord
100
AcDbBlockTableRecord
  2
BLKF023
340
0
102
{BLKREFS
331
1BA
102
}
  0
BLOCK_RECORD
  5
1CF
330
1
100
AcDbSymbolTableRecord
100
AcDbBlockTableRecord
  2
BLKF024
340
0
102
{BLKREFS
331
1D2
102
}
  0
BLOCK_RECORD
  5
1DE
330
1
100
AcDbSymbolTableRecord
100
AcDbBlockTableRecord
  2
BLKF025
340
0
102
{BLKREFS
331
1E1
102
}
  0
BLOCK_RECORD
  5
20E
330
1
100
AcDbSymbolTableRecord
100
AcDbBlockTableRecord
  2
BLKF026
340
0
102
{BLKREFS
331
211
102
}
  0
BLOCK_RECORD
  5
250
330
1
100
AcDbSymbolTableRecord
100
AcDbBlockTableRecord
  2
BLKF027
340
0
102
{BLKREFS
331
253
102
}
  0
BLOCK_RECORD
  5
40C
330
1
100
AcDbSymbolTableRecord
100
AcDbBlockTableRecord
  2
*D26
340
0
  0
BLOCK_RECORD
  5
416
330
1
100
AcDbSymbolTableRecord
100
AcDbBlockTableRecord
  2
*D27
340
0
  0
BLOCK_RECORD
  5
41F
330
1
100
AcDbSymbolTableRecord
100
AcDbBlockTableRecord
  2
*D28
340
0
  0
BLOCK_RECORD
  5
429
330
1
100
AcDbSymbolTableRecord
100
AcDbBlockTableRecord
  2
*D29
340
0
  0
BLOCK_RECORD
  5
432
330
1
100
AcDbSymbolTableRecord
100
AcDbBlockTableRecord
  2
FXDIM032
340
0
102
{BLKREFS
331
435
102
}
  0
BLOCK_RECORD
  5
43A
330
1
100
AcDbSymbolTableRecord
100
AcDbBlockTableRecord
  2
FXDIM033
340
0
102
{BLKREFS
331
43D
102
}
  0
BLOCK_RECORD
  5
443
330
1
100
AcDbSymbolTableRecord
100
AcDbBlockTableRecord
  2
*D32
340
0
  0
BLOCK_RECORD
  5
44D
330
1
100
AcDbSymbolTableRecord
100
AcDbBlockTableRecord
  2
*D33
340
0
  0
BLOCK_RECORD
  5
456
330
1
100
AcDbSymbolTableRecord
100
AcDbBlockTableRecord
  2
FXDIM036
340
0
102
{BLKREFS
331
459
102
}
  0
BLOCK_RECORD
  5
461
330
1
100
AcDbSymbolTableRecord
100
AcDbBlockTableRecord
  2
FXDIM037
340
0
102
{BLKREFS
331
464
102
}
  0
BLOCK_RECORD
  5
46D
330
1
100
AcDbSymbolTableRecord
100
AcDbBlockTableRecord
  2
FXDIM038
340
0
102
{BLKREFS
331
470
102
}
  0
BLOCK_RECORD
  5
4C8
330
1
100
AcDbSymbolTableRecord
100
AcDbBlockTableRecord
  2
*D37
340
0
  0
BLOCK_RECORD
  5
4D2
330
1
100
AcDbSymbolTableRecord
100
AcDbBlockTableRecord
  2
*D38
340
0
  0
BLOCK_RECORD
  5
4DC
330
1
100
AcDbSymbolTableRecord
100
AcDbBlockTableRecord
  2
*D39
340
0
  0
BLOCK_RECORD
  5
4E6
330
1
100
AcDbSymbolTableRecord
100
AcDbBlockTableRecord
  2
*D40
340
0
  0
BLOCK_RECORD
  5
4EF
330
1
100
AcDbSymbolTableRecord
100
AcDbBlockTableRecord
  2
FXDIM043
340
0
102
{BLKREFS
331
4F2
102
}
  0
BLOCK_RECORD
  5
4FC
330
1
100
AcDbSymbolTableRecord
100
AcDbBlockTableRecord
  2
*D42
340
0
  0
BLOCK_RECORD
  5
506
330
1
100
AcDbSymbolTableRecord
100
AcDbBlockTableRecord
  2
*D43
340
0
  0
BLOCK_RECORD
  5
50E
330
1
100
AcDbSymbolTableRecord
100
AcDbBlockTableRecord
  2
*D44
340
0
  0
BLOCK_RECORD
  5
517
330
1
100
AcDbSymbolTableRecord
100
AcDbBlockTableRecord
  2
*D45
340
0
  0
BLOCK_RECORD
  5
638
330
1
100
AcDbSymbolTableRecord
100
AcDbBlockTableRecord
  2
*D46
340
0
  0
BLOCK_RECORD
  5
642
330
1
100
AcDbSymbolTableRecord
100
AcDbBlockTableRecord
  2
*D47
340
0
  0
BLOCK_RECORD
  5
64C
330
1
100
AcDbSymbolTableRecord
100
AcDbBlockTableRecord
  2
*D48
340
0
  0
BLOCK_RECORD
  5
655
330
1
100
AcDbSymbolTableRecord
100
AcDbBlockTableRecord
  2
FXDIM051
340
0
102
{BLKREFS
331
658
102
}
  0
BLOCK_RECORD
  5
65D
330
1
100
AcDbSymbolTableRecord
100
AcDbBlockTableRecord
  2
FXDIM052
340
0
102
{BLKREFS
331
660
102
}
  0
BLOCK_RECORD
  5
666
330
1
100
AcDbSymbolTableRecord
100
AcDbBlockTableRecord
  2
*D51
340
0
  0
BLOCK_RECORD
  5
66F
330
1
100
AcDbSymbolTableRecord
100
AcDbBlockTableRecord
  2
FXDIM054
340
0
102
{BLKREFS
331
672
102
}
  0
BLOCK_RECORD
  5
679
330
1
100
AcDbSymbolTableRecord
100
AcDbBlockTableRecord
  2
FXDIM055
340
0
102
{BLKREFS
331
67C
102
}
  0
BLOCK_RECORD
  5
681
330
1
100
AcDbSymbolTableRecord
100
AcDbBlockTableRecord
  2
FXDIM056
340
0
102
{BLKREFS
331
684
102
}
  0
BLOCK_RECORD
  5
699
330
1
100
AcDbSymbolTableRecord
100
AcDbBlockTableRecord
  2
*D55
340
0
  0
BLOCK_RECORD
  5
6F4
330
1
100
AcDbSymbolTableRecord
100
AcDbBlockTableRecord
  2
*D56
340
0
  0
BLOCK_RECORD
  5
6FF
330
1
100
AcDbSymbolTableRecord
100
AcDbBlockTableRecord
  2
*D57
340
0
  0
BLOCK_RECORD
  5
709
330
1
100
AcDbSymbolTableRecord
100
AcDbBlockTableRecord
  2
*D58
340
0
  0
ENDTAB
  0
ENDSEC
  0
SECTION
  2
BLOCKS
  0
BLOCK
  5
20
330
1F
100
AcDbEntity
  8
0
100
AcDbBlockBegin
  2
*Model_Space
 70
     0
 10
0.0
 20
0.0
 30
0.0
  3
*Model_Space
  1

  0
ENDBLK
  5
21
330
1F
100
AcDbEntity
  8
0
100
AcDbBlockEnd
  0
BLOCK
  5
1C
330
1B
100
AcDbEntity
 67
     1
  8
0
100
AcDbBlockBegin
  2
*Paper_Space
 70
     0
 10
0.0
 20
0.0
 30
0.0
  3
*Paper_Space
  1

  0
ENDBLK
  5
1D
330
1B
100
AcDbEntity
 67
     1
  8
0
100
AcDbBlockEnd
  0
BLOCK
  5
24
330
23
100
AcDbEntity
  8
0
100
AcDbBlockBegin
  2
*Paper_Space0
 70
     0
 10
0.0
 20
0.0
 30
0.0
  3
*Paper_Space0
  1

  0
ENDBLK
  5
25
330
23
100
AcDbEntity
  8
0
100
AcDbBlockEnd
  0
BLOCK
  5
43
330
42
100
AcDbEntity
  8
0
100
AcDbBlockBegin
  2
FXTIP_ARROW_S
 70
     0
 10
0.0
 20
0.0
 30
0.0
  3
FXTIP_ARROW_S
  1

  0
LINE
  5
45
330
42
100
AcDbEntity
  8
0
  6
Continuous
 62
     0
370
    -2
100
AcDbLine
 10
0.0
 20
0.0
 30
0.0
 11
-1.0
 21
0.0000000000000001
 31
0.0
  0
LINE
  5
46
330
42
100
AcDbEntity
  8
0
  6
Continuous
 62
     0
370
    -2
100
AcDbLine
 10
0.0
 20
0.0
 30
0.0
 11
-0.9659258262890684
 21
-0.2588190451025206
 31
0.0
  0
LINE
  5
47
330
42
100
AcDbEntity
  8
0
  6
Continuous
 62
     0
370
    -2
100
AcDbLine
 10
0.0
 20
0.0
 30
0.0
 11
-0.9659258262890684
 21
0.2588190451025209
 31
0.0
  0
ENDBLK
  5
44
330
42
100
AcDbEntity
  8
0
100
AcDbBlockEnd
  0
BLOCK
  5
49
330
48
100
AcDbEntity
  8
0
100
AcDbBlockBegin
  2
FXTIP_ARROW_E
 70
     0
 10
0.0
 20
0.0
 30
0.0
  3
FXTIP_ARROW_E
  1

  0
LINE
  5
4B
330
48
100
AcDbEntity
  8
0
  6
Continuous
 62
     0
370
    -2
100
AcDbLine
 10
0.0
 20
0.0
 30
0.0
 11
-1.0
 21
0.0
 31
0.0
  0
LINE
  5
4C
330
48
100
AcDbEntity
  8
0
  6
Continuous
 62
     0
370
    -2
100
AcDbLine
 10
0.0
 20
0.0
 30
0.0
 11
-0.9659258262890684
 21
0.2588190451025207
 31
0.0
  0
LINE
  5
4D
330
48
100
AcDbEntity
  8
0
  6
Continuous
 62
     0
370
    -2
100
AcDbLine
 10
0.0
 20
0.0
 30
0.0
 11
-0.9659258262890684
 21
-0.2588190451025207
 31
0.0
  0
ENDBLK
  5
4A
330
48
100
AcDbEntity
  8
0
100
AcDbBlockEnd
  0
BLOCK
  5
4F
330
4E
100
AcDbEntity
  8
0
100
AcDbBlockBegin
  2
FXTIP_BLACKDOT_S
 70
     0
 10
0.0
 20
0.0
 30
0.0
  3
FXTIP_BLACKDOT_S
  1

  0
LINE
  5
51
330
4E
100
AcDbEntity
  8
0
  6
Continuous
 62
     0
370
    -2
100
AcDbLine
 10
0.0
 20
0.0
 30
0.0
 11
-1.0
 21
0.0000000000000001
 31
0.0
  0
LWPOLYLINE
  5
52
330
4E
100
AcDbEntity
  8
0
  6
Continuous
 62
     0
370
    -2
100
AcDbPolyline
 90
        2
 70
     1
 43
0.5
 10
-0.25
 20
0.0
 42
1.0
 10
0.25
 20
0.0
 42
1.0
  0
CIRCLE
  5
53
330
4E
100
AcDbEntity
  8
0
  6
Continuous
 62
     0
370
    -2
100
AcDbCircle
 10
0.0
 20
0.0
 30
0.0
 40
0.5
  0
ENDBLK
  5
50
330
4E
100
AcDbEntity
  8
0
100
AcDbBlockEnd
  0
BLOCK
  5
55
330
54
100
AcDbEntity
  8
0
100
AcDbBlockBegin
  2
FXTIP_BLACKDOT_E
 70
     0
 10
0.0
 20
0.0
 30
0.0
  3
FXTIP_BLACKDOT_E
  1

  0
LINE
  5
57
330
54
100
AcDbEntity
  8
0
  6
Continuous
 62
     0
370
    -2
100
AcDbLine
 10
0.0
 20
0.0
 30
0.0
 11
-1.0
 21
0.0
 31
0.0
  0
LWPOLYLINE
  5
58
330
54
100
AcDbEntity
  8
0
  6
Continuous
 62
     0
370
    -2
100
AcDbPolyline
 90
        2
 70
     1
 43
0.5
 10
-0.25
 20
0.0
 42
1.0
 10
0.25
 20
0.0
 42
1.0
  0
CIRCLE
  5
59
330
54
100
AcDbEntity
  8
0
  6
Continuous
 62
     0
370
    -2
100
AcDbCircle
 10
0.0
 20
0.0
 30
0.0
 40
0.5
  0
ENDBLK
  5
56
330
54
100
AcDbEntity
  8
0
100
AcDbBlockEnd
  0
BLOCK
  5
5B
330
5A
100
AcDbEntity
  8
0
100
AcDbBlockBegin
  2
FXTIP_TRIANGLE_S
 70
     0
 10
0.0
 20
0.0
 30
0.0
  3
FXTIP_TRIANGLE_S
  1

  0
LINE
  5
5D
330
5A
100
AcDbEntity
  8
0
  6
Continuous
 62
     0
370
    -2
100
AcDbLine
 10
0.0
 20
0.0
 30
0.0
 11
-1.0
 21
0.0000000000000001
 31
0.0
  0
LINE
  5
5E
330
5A
100
AcDbEntity
  8
0
  6
Continuous
 62
     0
370
    -2
100
AcDbLine
 10
0.0
 20
0.0
 30
0.0
 11
-0.9659258262890684
 21
-0.2588190451025206
 31
0.0
  0
LINE
  5
5F
330
5A
100
AcDbEntity
  8
0
  6
Continuous
 62
     0
370
    -2
100
AcDbLine
 10
0.0
 20
0.0
 30
0.0
 11
-0.9659258262890684
 21
0.2588190451025209
 31
0.0
  0
LINE
  5
60
330
5A
100
AcDbEntity
  8
0
  6
Continuous
 62
     0
370
    -2
100
AcDbLine
 10
-0.9659258262890684
 20
-0.2588190451025206
 30
0.0
 11
-0.9659258262890684
 21
0.2588190451025209
 31
0.0
  0
ENDBLK
  5
5C
330
5A
100
AcDbEntity
  8
0
100
AcDbBlockEnd
  0
BLOCK
  5
62
330
61
100
AcDbEntity
  8
0
100
AcDbBlockBegin
  2
FXTIP_TRIANGLE_E
 70
     0
 10
0.0
 20
0.0
 30
0.0
  3
FXTIP_TRIANGLE_E
  1

  0
LINE
  5
64
330
61
100
AcDbEntity
  8
0
  6
Continuous
 62
     0
370
    -2
100
AcDbLine
 10
0.0
 20
0.0
 30
0.0
 11
-1.0
 21
0.0
 31
0.0
  0
LINE
  5
65
330
61
100
AcDbEntity
  8
0
  6
Continuous
 62
     0
370
    -2
100
AcDbLine
 10
0.0
 20
0.0
 30
0.0
 11
-0.9659258262890684
 21
0.2588190451025207
 31
0.0
  0
LINE
  5
66
330
61
100
AcDbEntity
  8
0
  6
Continuous
 62
     0
370
    -2
100
AcDbLine
 10
0.0
 20
0.0
 30
0.0
 11
-0.9659258262890684
 21
-0.2588190451025207
 31
0.0
  0
LINE
  5
67
330
61
100
AcDbEntity
  8
0
  6
Continuous
 62
     0
370
    -2
100
AcDbLine
 10
-0.9659258262890684
 20
0.2588190451025207
 30
0.0
 11
-0.9659258262890684
 21
-0.2588190451025207
 31
0.0
  0
ENDBLK
  5
63
330
61
100
AcDbEntity
  8
0
100
AcDbBlockEnd
  0
BLOCK
  5
69
330
68
100
AcDbEntity
  8
0
100
AcDbBlockBegin
  2
FXTIP_ARCHITECT_S
 70
     0
 10
0.0
 20
0.0
 30
0.0
  3
FXTIP_ARCHITECT_S
  1

  0
LINE
  5
6B
330
68
100
AcDbEntity
  8
0
  6
Continuous
 62
     0
370
    -2
100
AcDbLine
 10
0.0
 20
0.0
 30
0.0
 11
-1.0
 21
0.0000000000000001
 31
0.0
  0
LINE
  5
6C
330
68
100
AcDbEntity
  8
0
  6
Continuous
 62
     0
370
    -2
100
AcDbLine
 10
0.0
 20
0.0
 30
0.0
 11
-0.7071067811865476
 21
-0.7071067811865474
 31
0.0
  0
LINE
  5
6D
330
68
100
AcDbEntity
  8
0
  6
Continuous
 62
     0
370
    -2
100
AcDbLine
 10
0.0
 20
0.0
 30
0.0
 11
0.7071067811865476
 21
0.7071067811865474
 31
0.0
  0
ENDBLK
  5
6A
330
68
100
AcDbEntity
  8
0
100
AcDbBlockEnd
  0
BLOCK
  5
6F
330
6E
100
AcDbEntity
  8
0
100
AcDbBlockBegin
  2
FXTIP_ARCHITECT_E
 70
     0
 10
0.0
 20
0.0
 30
0.0
  3
FXTIP_ARCHITECT_E
  1

  0
LINE
  5
71
330
6E
100
AcDbEntity
  8
0
  6
Continuous
 62
     0
370
    -2
100
AcDbLine
 10
0.0
 20
0.0
 30
0.0
 11
-1.0
 21
0.0
 31
0.0
  0
LINE
  5
72
330
6E
100
AcDbEntity
  8
0
  6
Continuous
 62
     0
370
    -2
100
AcDbLine
 10
0.0
 20
0.0
 30
0.0
 11
0.7071067811865475
 21
0.7071067811865475
 31
0.0
  0
LINE
  5
73
330
6E
100
AcDbEntity
  8
0
  6
Continuous
 62
     0
370
    -2
100
AcDbLine
 10
0.0
 20
0.0
 30
0.0
 11
-0.7071067811865475
 21
-0.7071067811865475
 31
0.0
  0
ENDBLK
  5
70
330
6E
100
AcDbEntity
  8
0
100
AcDbBlockEnd
  0
BLOCK
  5
75
330
74
100
AcDbEntity
  8
0
100
AcDbBlockBegin
  2
FXTIP_CIVIL_S
 70
     0
 10
0.0
 20
0.0
 30
0.0
  3
FXTIP_CIVIL_S
  1

  0
LINE
  5
77
330
74
100
AcDbEntity
  8
0
  6
Continuous
 62
     0
370
    -2
100
AcDbLine
 10
0.0
 20
0.0
 30
0.0
 11
-1.0
 21
0.0000000000000001
 31
0.0
  0
LINE
  5
78
330
74
100
AcDbEntity
  8
0
  6
Continuous
 62
     0
370
    -2
100
AcDbLine
 10
0.0
 20
-0.0833333333333333
 30
0.0
 11
-1.0
 21
-0.0833333333333332
 31
0.0
  0
LINE
  5
79
330
74
100
AcDbEntity
  8
0
  6
Continuous
 62
     0
370
    -2
100
AcDbLine
 10
0.0
 20
-0.1666666666666667
 30
0.0
 11
-1.0
 21
-0.1666666666666666
 31
0.0
  0
ENDBLK
  5
76
330
74
100
AcDbEntity
  8
0
100
AcDbBlockEnd
  0
BLOCK
  5
7B
330
7A
100
AcDbEntity
  8
0
100
AcDbBlockBegin
  2
FXTIP_CIVIL_E
 70
     0
 10
0.0
 20
0.0
 30
0.0
  3
FXTIP_CIVIL_E
  1

  0
LINE
  5
7D
330
7A
100
AcDbEntity
  8
0
  6
Continuous
 62
     0
370
    -2
100
AcDbLine
 10
0.0
 20
0.0
 30
0.0
 11
-1.0
 21
0.0
 31
0.0
  0
LINE
  5
7E
330
7A
100
AcDbEntity
  8
0
  6
Continuous
 62
     0
370
    -2
100
AcDbLine
 10
0.0
 20
0.0833333333333333
 30
0.0
 11
-1.0
 21
0.0833333333333333
 31
0.0
  0
LINE
  5
7F
330
7A
100
AcDbEntity
  8
0
  6
Continuous
 62
     0
370
    -2
100
AcDbLine
 10
0.0
 20
0.1666666666666667
 30
0.0
 11
-1.0
 21
0.1666666666666667
 31
0.0
  0
ENDBLK
  5
7C
330
7A
100
AcDbEntity
  8
0
100
AcDbBlockEnd
  0
BLOCK
  5
81
330
80
100
AcDbEntity
  8
0
100
AcDbBlockBegin
  2
FXTIP_WHITEDOT_S
 70
     0
 10
0.0
 20
0.0
 30
0.0
  3
FXTIP_WHITEDOT_S
  1

  0
LINE
  5
83
330
80
100
AcDbEntity
  8
0
  6
Continuous
 62
     0
370
    -2
100
AcDbLine
 10
0.0
 20
0.0
 30
0.0
 11
-1.0
 21
0.0000000000000001
 31
0.0
  0
CIRCLE
  5
84
330
80
100
AcDbEntity
  8
0
  6
Continuous
 62
     0
370
    -2
100
AcDbCircle
 10
0.0
 20
0.0
 30
0.0
 40
0.5
  0
ENDBLK
  5
82
330
80
100
AcDbEntity
  8
0
100
AcDbBlockEnd
  0
BLOCK
  5
86
330
85
100
AcDbEntity
  8
0
100
AcDbBlockBegin
  2
FXTIP_WHITEDOT_E
 70
     0
 10
0.0
 20
0.0
 30
0.0
  3
FXTIP_WHITEDOT_E
  1

  0
LINE
  5
88
330
85
100
AcDbEntity
  8
0
  6
Continuous
 62
     0
370
    -2
100
AcDbLine
 10
0.0
 20
0.0
 30
0.0
 11
-1.0
 21
0.0
 31
0.0
  0
CIRCLE
  5
89
330
85
100
AcDbEntity
  8
0
  6
Continuous
 62
     0
370
    -2
100
AcDbCircle
 10
0.0
 20
0.0
 30
0.0
 40
0.5
  0
ENDBLK
  5
87
330
85
100
AcDbEntity
  8
0
100
AcDbBlockEnd
  0
BLOCK
  5
8B
330
8A
100
AcDbEntity
  8
0
100
AcDbBlockBegin
  2
FXTIP_UPARROW_S
 70
     0
 10
0.0
 20
0.0
 30
0.0
  3
FXTIP_UPARROW_S
  1

  0
LINE
  5
8D
330
8A
100
AcDbEntity
  8
0
  6
Continuous
 62
     0
370
    -2
100
AcDbLine
 10
0.0
 20
0.0
 30
0.0
 11
-1.0
 21
0.0000000000000001
 31
0.0
  0
LINE
  5
8E
330
8A
100
AcDbEntity
  8
0
  6
Continuous
 62
     0
370
    -2
100
AcDbLine
 10
0.0
 20
0.0
 30
0.0
 11
-0.9659258262890684
 21
-0.2588190451025206
 31
0.0
  0
ENDBLK
  5
8C
330
8A
100
AcDbEntity
  8
0
100
AcDbBlockEnd
  0
BLOCK
  5
90
330
8F
100
AcDbEntity
  8
0
100
AcDbBlockBegin
  2
FXTIP_UPARROW_E
 70
     0
 10
0.0
 20
0.0
 30
0.0
  3
FXTIP_UPARROW_E
  1

  0
LINE
  5
92
330
8F
100
AcDbEntity
  8
0
  6
Continuous
 62
     0
370
    -2
100
AcDbLine
 10
0.0
 20
0.0
 30
0.0
 11
-1.0
 21
0.0
 31
0.0
  0
LINE
  5
93
330
8F
100
AcDbEntity
  8
0
  6
Continuous
 62
     0
370
    -2
100
AcDbLine
 10
0.0
 20
0.0
 30
0.0
 11
-0.9659258262890684
 21
0.2588190451025207
 31
0.0
  0
ENDBLK
  5
91
330
8F
100
AcDbEntity
  8
0
100
AcDbBlockEnd
  0
BLOCK
  5
95
330
94
100
AcDbEntity
  8
0
100
AcDbBlockBegin
  2
FXTIP_DOWNARROW_S
 70
     0
 10
0.0
 20
0.0
 30
0.0
  3
FXTIP_DOWNARROW_S
  1

  0
LINE
  5
97
330
94
100
AcDbEntity
  8
0
  6
Continuous
 62
     0
370
    -2
100
AcDbLine
 10
0.0
 20
0.0
 30
0.0
 11
-1.0
 21
0.0000000000000001
 31
0.0
  0
LINE
  5
98
330
94
100
AcDbEntity
  8
0
  6
Continuous
 62
     0
370
    -2
100
AcDbLine
 10
0.0
 20
0.0
 30
0.0
 11
-0.9659258262890684
 21
0.2588190451025209
 31
0.0
  0
ENDBLK
  5
96
330
94
100
AcDbEntity
  8
0
100
AcDbBlockEnd
  0
BLOCK
  5
9A
330
99
100
AcDbEntity
  8
0
100
AcDbBlockBegin
  2
FXTIP_DOWNARROW_E
 70
     0
 10
0.0
 20
0.0
 30
0.0
  3
FXTIP_DOWNARROW_E
  1

  0
LINE
  5
9C
330
99
100
AcDbEntity
  8
0
  6
Continuous
 62
     0
370
    -2
100
AcDbLine
 10
0.0
 20
0.0
 30
0.0
 11
-1.0
 21
0.0
 31
0.0
  0
LINE
  5
9D
330
99
100
AcDbEntity
  8
0
  6
Continuous
 62
     0
370
    -2
100
AcDbLine
 10
0.0
 20
0.0
 30
0.0
 11
-0.9659258262890684
 21
-0.2588190451025207
 31
0.0
  0
ENDBLK
  5
9B
330
99
100
AcDbEntity
  8
0
100
AcDbBlockEnd
  0
BLOCK
  5
9F
330
9E
100
AcDbEntity
  8
0
100
AcDbBlockBegin
  2
FXTIP_BLACKTRIANGLE_S
 70
     0
 10
0.0
 20
0.0
 30
0.0
  3
FXTIP_BLACKTRIANGLE_S
  1

  0
LINE
  5
A1
330
9E
100
AcDbEntity
  8
0
  6
Continuous
 62
     0
370
    -2
100
AcDbLine
 10
0.0
 20
0.0
 30
0.0
 11
-1.0
 21
0.0000000000000001
 31
0.0
  0
SOLID
  5
A2
330
9E
100
AcDbEntity
  8
0
  6
Continuous
 62
     0
370
    -2
100
AcDbTrace
 10
0.0
 20
0.0
 30
0.0
 11
-0.9659258262890684
 21
-0.2588190451025206
 31
0.0
 12
-0.9659258262890684
 22
0.2588190451025209
 32
0.0
 13
-0.9659258262890684
 23
0.2588190451025209
 33
0.0
  0
ENDBLK
  5
A0
330
9E
100
AcDbEntity
  8
0
100
AcDbBlockEnd
  0
BLOCK
  5
A4
330
A3
100
AcDbEntity
  8
0
100
AcDbBlockBegin
  2
FXTIP_BLACKTRIANGLE_E
 70
     0
 10
0.0
 20
0.0
 30
0.0
  3
FXTIP_BLACKTRIANGLE_E
  1

  0
LINE
  5
A6
330
A3
100
AcDbEntity
  8
0
  6
Continuous
 62
     0
370
    -2
100
AcDbLine
 10
0.0
 20
0.0
 30
0.0
 11
-1.0
 21
0.0
 31
0.0
  0
SOLID
  5
A7
330
A3
100
AcDbEntity
  8
0
  6
Continuous
 62
     0
370
    -2
100
AcDbTrace
 10
0.0
 20
0.0
 30
0.0
 11
-0.9659258262890684
 21
0.2588190451025207
 31
0.0
 12
-0.9659258262890684
 22
-0.2588190451025207
 32
0.0
 13
-0.9659258262890684
 23
-0.2588190451025207
 33
0.0
  0
ENDBLK
  5
A5
330
A3
100
AcDbEntity
  8
0
100
AcDbBlockEnd
  0
BLOCK
  5
1AA
330
1A9
100
AcDbEntity
  8
0
100
AcDbBlockBegin
  2
BLKF021
 70
     0
 10
0.0
 20
0.0
 30
0.0
  3
BLKF021
  1

  0
TEXT
  5
1AD
330
1A9
100
AcDbEntity
  8
LAYER004
  6
Continuous
 62
     6
370
    20
100
AcDbText
 10
193.6679992675781
 20
188.8809204101561
 30
0.0
 40
2.299999952316284
  1
 
 41
0.5217391619835557
  7
FX_VECTOR
100
AcDbText
  0
TEXT
  5
1AE
330
1A9
100
AcDbEntity
  8
LAYER004
  6
Continuous
 62
     6
370
    20
100
AcDbText
 10
241.8339996337889
 20
188.8809204101561
 30
0.0
 40
2.299999952316284
  1
 
 41
0.5217391619835557
  7
FX_VECTOR
100
AcDbText
  0
INSERT
  5
1B2
330
1A9
100
AcDbEntity
  8
0
100
AcDbBlockReference
  2
FXDIM022
 10
0.0
 20
0.0
 30
0.0
  0
ENDBLK
  5
1AB
330
1A9
100
AcDbEntity
  8
0
100
AcDbBlockEnd
  0
BLOCK
  5
1B0
330
1AF
100
AcDbEntity
  8
0
100
AcDbBlockBegin
  2
FXDIM022
 70
     0
 10
0.0
 20
0.0
 30
0.0
  3
FXDIM022
  1

  0
TEXT
  5
1B3
330
1AF
100
AcDbEntity
  8
LAYER004
  6
Continuous
 62
     6
370
    20
100
AcDbText
 10
184.4885314704908
 20
188.6425079106235
 30
0.0
 40
2.200000047683714
  1
 
 50
0.0000000099999999
 41
0.5454545553065528
  7
FX_VECTOR
100
AcDbText
  0
LINE
  5
1B4
330
1AF
100
AcDbEntity
  8
LAYER004
  6
Continuous
 62
     6
370
    20
100
AcDbLine
 10
185.0885254983104
 20
191.8425053757654
 30
0.0
 11
182.9885254989454
 21
188.2051986795044
 31
0.0
  0
LINE
  5
1B5
330
1AF
100
AcDbEntity
  8
LAYER004
  6
Continuous
 62
     6
370
    20
100
AcDbLine
 10
182.9885254989454
 20
188.2051986795044
 30
0.0
 11
187.1885254989453
 21
188.2051986802373
 31
0.0
  0
LINE
  5
1B6
330
1AF
100
AcDbEntity
  8
LAYER004
  6
Continuous
 62
     6
370
    20
100
AcDbLine
 10
187.1885254989453
 20
188.2051986802373
 30
0.0
 11
185.0885254983104
 21
191.8425053757654
 31
0.0
  0
ENDBLK
  5
1B1
330
1AF
100
AcDbEntity
  8
0
100
AcDbBlockEnd
  0
BLOCK
  5
1B8
330
1B7
100
AcDbEntity
  8
0
100
AcDbBlockBegin
  2
BLKF023
 70
     0
 10
0.0
 20
0.0
 30
0.0
  3
BLKF023
  1

  0
LINE
  5
1BB
330
1B7
100
AcDbEntity
  8
LAYER004
  6
Continuous
 62
     7
370
    20
100
AcDbLine
 10
18.47867977292269
 20
198.9797160754094
 30
0.0
 11
133.4665303663903
 21
198.9797160754094
 31
0.0
  0
LINE
  5
1BC
330
1B7
100
AcDbEntity
  8
LAYER004
  6
Continuous
 62
     7
370
    20
100
AcDbLine
 10
133.4665303663903
 20
198.9797160754094
 30
0.0
 11
133.4665303663903
 21
178.3368977228819
 31
0.0
  0
LINE
  5
1BD
330
1B7
100
AcDbEntity
  8
LAYER004
  6
Continuous
 62
     7
370
    20
100
AcDbLine
 10
133.4665303663903
 20
178.3368977228819
 30
0.0
 11
18.47867977292268
 21
178.3368977228819
 31
0.0
  0
LINE
  5
1BE
330
1B7
100
AcDbEntity
  8
LAYER004
  6
Continuous
 62
     7
370
    20
100
AcDbLine
 10
18.47867977292268
 20
178.3368977228819
 30
0.0
 11
18.47867977292269
 21
198.9797160754094
 31
0.0
  0
LINE
  5
1BF
330
1B7
100
AcDbEntity
  8
LAYER004
  6
Continuous
 62
     7
370
    20
100
AcDbLine
 10
17.72867977292269
 20
199.7297160754095
 30
0.0
 11
134.2165303663903
 21
199.7297160754095
 31
0.0
  0
LINE
  5
1C0
330
1B7
100
AcDbEntity
  8
LAYER004
  6
Continuous
 62
     7
370
    20
100
AcDbLine
 10
134.2165303663903
 20
199.7297160754095
 30
0.0
 11
134.2165303663903
 21
177.5868977228818
 31
0.0
  0
LINE
  5
1C1
330
1B7
100
AcDbEntity
  8
LAYER004
  6
Continuous
 62
     7
370
    20
100
AcDbLine
 10
134.2165303663903
 20
177.5868977228818
 30
0.0
 11
17.72867977292269
 21
177.5868977228818
 31
0.0
  0
LINE
  5
1C2
330
1B7
100
AcDbEntity
  8
LAYER004
  6
Continuous
 62
     7
370
    20
100
AcDbLine
 10
17.72867977292269
 20
177.5868977228818
 30
0.0
 11
17.72867977292269
 21
199.7297160754095
 31
0.0
  0
TEXT
  5
1C3
330
1B7
100
AcDbEntity
  8
LAYER004
  6
Continuous
 62
     7
370
    20
100
AcDbText
 10
19.22414588928223
 20
194.9769134521483
 30
0.0
 40
3.0
  1
　
 41
0.9000000158945717
  7
FX_VECTOR
100
AcDbText
  0
TEXT
  5
1C4
330
1B7
100
AcDbEntity
  8
LAYER004
  6
Continuous
 62
     7
370
    20
100
AcDbText
 10
21.92414665222166
 20
194.3809661865234
 30
0.0
 40
2.299999952316284
  1
Confidential
 41
0.8999999896339746
  7
FX_VECTOR
100
AcDbText
  0
TEXT
  5
1C5
330
1B7
100
AcDbEntity
  8
LAYER004
  6
Continuous
 62
     7
370
    20
100
AcDbText
 10
46.76414489746092
 20
194.9769134521483
 30
0.0
 40
2.299999952316284
  1
　
 41
0.8999999896339746
  7
FX_VECTOR
100
AcDbText
  0
TEXT
  5
1C6
330
1B7
100
AcDbEntity
  8
LAYER004
  6
Continuous
 62
     7
370
    20
100
AcDbText
 10
48.83414840698242
 20
194.3809661865234
 30
0.0
 40
2.299999952316284
  1
Information
 41
0.8999999896339746
  7
FX_VECTOR
100
AcDbText
  0
TEXT
  5
1C7
330
1B7
100
AcDbEntity
  8
LAYER004
  6
Continuous
 62
     7
370
    20
100
AcDbText
 10
71.60414886474609
 20
194.3809661865234
 30
0.0
 40
2.5
  1
　　機密情報
 41
0.9
  7
FX_VECTOR
100
AcDbText
  0
TEXT
  5
1C8
330
1B7
100
AcDbEntity
  8
LAYER004
  6
Continuous
 62
     7
370
    20
100
AcDbText
 10
19.22414588928223
 20
190.8836669921875
 30
0.0
 40
2.099999904632567
  1
This material and any attachment contain information that is privileged confidentialor exempt
 41
0.5714286200854266
  7
FX_VECTOR
100
AcDbText
  0
TEXT
  5
1C9
330
1B7
100
AcDbEntity
  8
LAYER004
  6
Continuous
 62
     7
370
    20
100
AcDbText
 10
39.38414764404297
 20
188.7769165039061
 30
0.0
 40
2.0
  1
 
 41
0.899999976158142
  7
FX_VECTOR
100
AcDbText
  0
TEXT
  5
1CA
330
1B7
100
AcDbEntity
  8
LAYER004
  6
Continuous
 62
     7
370
    20
100
AcDbText
 10
19.22414588928223
 20
187.5641021728514
 30
0.0
 40
2.099999904632567
  1
form disclosure under application or copying of this information is strictly prohibited.
 41
0.5714286200854266
  7
FX_VECTOR
100
AcDbText
  0
TEXT
  5
1CB
330
1B7
100
AcDbEntity
  8
LAYER004
  6
Continuous
 62
     7
370
    20
100
AcDbText
 10
19.22414588928223
 20
183.8472442626953
 30
0.0
 40
2.299999952316284
  1
本資料は、
 41
0.7826086911452065
  7
FX_VECTOR
100
AcDbText
  0
TEXT
  5
1CC
330
1B7
100
AcDbEntity
  8
LAYER004
  6
Continuous
 62
     7
370
    20
100
AcDbText
 10
27.77736091613769
 20
183.8472442626953
 30
0.0
 40
2.200000047683714
  1
HOYA CANDEO OPTRONICS
 41
0.6363636117336186
  7
FX_VECTOR
100
AcDbText
  0
TEXT
  5
1CD
330
1B7
100
AcDbEntity
  8
LAYER004
  6
Continuous
 62
     7
370
    20
100
AcDbText
 10
57.83607864379883
 20
183.8472442626953
 30
0.0
 40
2.299999952316284
  1
株式会社の財産的情報を含んでおりますので、
 41
0.7826086911452065
  7
FX_VECTOR
100
AcDbText
  0
TEXT
  5
1CE
330
1B7
100
AcDbEntity
  8
LAYER004
  6
Continuous
 62
     7
370
    20
100
AcDbText
 10
19.22414588928223
 20
180.7472534179688
 30
0.0
 40
2.299999952316284
  1
許可なく第三者に開示したり内容の全部又は一部を複写する事を御遠慮下さい。
 41
0.7826086911452065
  7
FX_VECTOR
100
AcDbText
  0
ENDBLK
  5
1B9
330
1B7
100
AcDbEntity
  8
0
100
AcDbBlockEnd
  0
BLOCK
  5
1D0
330
1CF
100
AcDbEntity
  8
0
100
AcDbBlockBegin
  2
BLKF024
 70
     0
 10
0.0
 20
0.0
 30
0.0
  3
BLKF024
  1

  0
TEXT
  5
1D3
330
1CF
100
AcDbEntity
  8
LAYER004
  6
Continuous
 62
     7
370
    20
100
AcDbText
 10
221.4999999999999
 20
32.75690078735352
 30
0.0
 40
2.0
  1
2011.09.12
 41
0.8000000119209291
  7
FX_VECTOR
100
AcDbText
  0
TEXT
  5
1D4
330
1CF
100
AcDbEntity
  8
LAYER004
  6
Continuous
 62
     7
370
    20
100
AcDbText
 10
203.076477050781
 20
28.45743370056151
 30
0.0
 40
2.5
  1
元図番
 41
1.438202285766601
  7
FX_VECTOR
100
AcDbText
  0
TEXT
  5
1D5
330
1CF
100
AcDbEntity
  8
LAYER004
  6
Continuous
 62
     7
370
    20
100
AcDbText
 10
274.4500122070312
 20
13.14485645294189
 30
0.0
 40
2.0
  1
1/1
 41
0.6000000238418579
  7
FX_VECTOR
100
AcDbText
  0
TEXT
  5
1D6
330
1CF
100
AcDbEntity
  8
LAYER004
  6
Continuous
 62
     7
370
    20
100
AcDbText
 10
275.0499877929688
 20
21.38633155822753
 30
0.0
 40
2.0
  1
A4
 41
0.6000000238418579
  7
FX_VECTOR
100
AcDbText
  0
TEXT
  5
1D7
330
1CF
100
AcDbEntity
  8
LAYER004
  6
Continuous
 62
     7
370
    20
100
AcDbText
 10
122.5
 20
28.22083282470703
 30
0.0
 40
3.299999952316282
  1
JIS B 0419-cH(ISO2768-2)
 41
0.7449494816310404
  7
FX_VECTOR
100
AcDbText
  0
TEXT
  5
1D8
330
1CF
100
AcDbEntity
  8
LAYER004
  6
Continuous
 62
     7
370
    20
100
AcDbText
 10
148.4974822998045
 20
34.64977264404296
 30
0.0
 40
3.299999952316282
  1
**
 41
0.8484848462955135
  7
FX_VECTOR
100
AcDbText
  0
TEXT
  5
1D9
330
1CF
100
AcDbEntity
  8
LAYER004
  6
Continuous
 62
     7
370
    20
100
AcDbText
 10
148.3046112060546
 20
41.13259506225586
 30
0.0
 40
3.299999952316282
  1
**
 41
0.8484848462955135
  7
FX_VECTOR
100
AcDbText
  0
TEXT
  5
1DA
330
1CF
100
AcDbEntity
  8
LAYER004
  6
Continuous
 62
     7
370
    20
100
AcDbText
 10
204.3000030517577
 20
41.21905136108398
 30
0.0
 40
3.0
  1
1:2
 41
0.9333333174387611
  7
FX_VECTOR
100
AcDbText
  0
TEXT
  5
1DB
330
1CF
100
AcDbEntity
  8
LAYER004
  6
Continuous
 62
     6
370
    20
100
AcDbText
 10
5.59656810760498
 20
13.62403011322021
 30
0.0
 40
1.799999952316284
  1
****
 41
0.7777777851363761
  7
FX_VECTOR
100
AcDbText
  0
TEXT
  5
1DC
330
1CF
100
AcDbEntity
  8
LAYER004
  6
Continuous
 62
     6
370
    20
100
AcDbText
 10
5.59656810760498
 20
10.22377681732176
 30
0.0
 40
1.799999952316284
  1
%%%U%%%
 41
0.7777777851363761
  7
FX_VECTOR
100
AcDbText
  0
ENDBLK
  5
1D1
330
1CF
100
AcDbEntity
  8
0
100
AcDbBlockEnd
  0
BLOCK
  5
1DF
330
1DE
100
AcDbEntity
  8
0
100
AcDbBlockBegin
  2
BLKF025
 70
     0
 10
0.0
 20
0.0
 30
0.0
  3
BLKF025
  1

  0
LINE
  5
1E2
330
1DE
100
AcDbEntity
  8
LAYER004
  6
Continuous
 62
     7
370
    20
100
AcDbLine
 10
217.1958087157903
 20
37.67999678925763
 30
0.0
 11
214.6958087157903
 21
37.17999678925764
 31
0.0
  0
LINE
  5
1E3
330
1DE
100
AcDbEntity
  8
LAYER004
  6
Continuous
 62
     7
370
    20
100
AcDbLine
 10
217.1958087157903
 20
37.67999678925763
 30
0.0
 11
217.1958087157903
 21
34.67999678925764
 31
0.0
  0
CIRCLE
  5
1E4
330
1DE
100
AcDbEntity
  8
LAYER004
  6
Continuous
 62
     7
370
    20
100
AcDbCircle
 10
212.1958087157902
 20
36.14231643089117
 30
0.0
 40
1.414213562373104
  0
CIRCLE
  5
1E5
330
1DE
100
AcDbEntity
  8
LAYER004
  6
Continuous
 62
     7
370
    20
100
AcDbCircle
 10
212.1958087157902
 20
36.14231643089117
 30
0.0
 40
1.0
  0
LINE
  5
1E6
330
1DE
100
AcDbEntity
  8
LAYER004
  6
Continuous
 62
     7
370
    20
100
AcDbLine
 10
214.6958087157903
 20
37.17999678925764
 30
0.0
 11
214.6958087157903
 21
35.17999678925765
 31
0.0
  0
LINE
  5
1E7
330
1DE
100
AcDbEntity
  8
LAYER004
  6
Continuous
 62
     7
370
    20
100
AcDbLine
 10
217.1958087157903
 20
34.67999678925764
 30
0.0
 11
214.6958087157903
 21
35.17999678925765
 31
0.0
  0
LINE
  5
1E9
330
1DE
100
AcDbEntity
  8
LAYER004
  6
DASH_DOT
 62
     7
370
    20
100
AcDbLine
 10
212.1958087157902
 20
38.05663829568981
 30
0.0
 11
212.1958087157902
 21
34.23222723368709
 31
0.0
  0
LINE
  5
1EA
330
1DE
100
AcDbEntity
  8
LAYER004
  6
DASH_DOT
 62
     7
370
    20
100
AcDbLine
 10
210.353895244483
 20
36.14231643089117
 30
0.0
 11
217.6001474700413
 21
36.14231643089117
 31
0.0
  0
TEXT
  5
1EB
330
1DE
100
AcDbEntity
  8
LAYER004
  6
Continuous
 62
     7
370
    20
100
AcDbText
 10
20.80375289916992
 20
14.9008617401123
 30
0.0
 40
2.299999952316284
  1
仕様書番号
 41
0.8999999896339746
  7
FX_VECTOR
100
AcDbText
  0
TEXT
  5
1EC
330
1DE
100
AcDbEntity
  8
LAYER004
  6
Continuous
 62
     7
370
    20
100
AcDbText
 10
20.30875205993651
 20
10.75086212158201
 30
0.0
 40
1.799999952316284
  1
Spec.No
 41
0.9000000264909539
  7
FX_VECTOR
100
AcDbText
  0
TEXT
  5
1ED
330
1DE
100
AcDbEntity
  8
LAYER004
  6
Continuous
 62
     7
370
    20
100
AcDbText
 10
196.0196838378905
 20
14.39006233215332
 30
0.0
 40
2.299999952316284
  1
図番
 41
0.8000000310980761
  7
FX_VECTOR
100
AcDbText
  0
TEXT
  5
1EE
330
1DE
100
AcDbEntity
  8
LAYER004
  6
Continuous
 62
     7
370
    20
100
AcDbText
 10
196.0196838378905
 20
10.89006233215332
 30
0.0
 40
1.799999952316284
  1
DWG＿No
 41
0.6666667108182566
  7
FX_VECTOR
100
AcDbText
  0
TEXT
  5
1EF
330
1DE
100
AcDbEntity
  8
LAYER004
  6
Continuous
 62
     7
370
    20
100
AcDbText
 10
196.0196838378905
 20
22.61516952514648
 30
0.0
 40
2.299999952316284
  1
図名
 41
0.8000000310980761
  7
FX_VECTOR
100
AcDbText
  0
TEXT
  5
1F0
330
1DE
100
AcDbEntity
  8
LAYER004
  6
Continuous
 62
     7
370
    20
100
AcDbText
 10
196.0196838378905
 20
19.11516952514648
 30
0.0
 40
1.799999952316284
  1
DWG＿Name
 41
0.6666667108182566
  7
FX_VECTOR
100
AcDbText
  0
TEXT
  5
1F1
330
1DE
100
AcDbEntity
  8
LAYER004
  6
Continuous
 62
     7
370
    20
100
AcDbText
 10
266.5531921386719
 20
14.26356601715088
 30
0.0
 40
2.0
  1
ページ
 41
0.899999976158142
  7
FX_VECTOR
100
AcDbText
  0
TEXT
  5
1F2
330
1DE
100
AcDbEntity
  8
LAYER004
  6
Continuous
 62
     7
370
    20
100
AcDbText
 10
266.8500061035155
 20
10.96356582641602
 30
0.0
 40
1.799999952316284
  1
Page
 41
0.6666667108182566
  7
FX_VECTOR
100
AcDbText
  0
TEXT
  5
1F3
330
1DE
100
AcDbEntity
  8
LAYER004
  6
Continuous
 62
     7
370
    20
100
AcDbText
 10
267.3749694824219
 20
42.81801223754881
 30
0.0
 40
2.299999952316284
  1
作成
 41
0.8999999896339746
  7
FX_VECTOR
100
AcDbText
  0
TEXT
  5
1F4
330
1DE
100
AcDbEntity
  8
LAYER004
  6
Continuous
 62
     7
370
    20
100
AcDbText
 10
267.3749694824219
 20
40.32801055908203
 30
0.0
 40
1.799999952316284
  1
Drawn
 41
0.6666667108182566
  7
FX_VECTOR
100
AcDbText
  0
TEXT
  5
1F5
330
1DE
100
AcDbEntity
  8
LAYER004
  6
Continuous
 62
     7
370
    20
100
AcDbText
 10
254.3677062988281
 20
42.49589920043945
 30
0.0
 40
2.299999952316284
  1
設計
 41
0.8999999896339746
  7
FX_VECTOR
100
AcDbText
  0
TEXT
  5
1F6
330
1DE
100
AcDbEntity
  8
LAYER004
  6
Continuous
 62
     7
370
    20
100
AcDbText
 10
254.3677062988281
 20
40.00589752197265
 30
0.0
 40
1.799999952316284
  1
Designed
 41
0.6666667108182566
  7
FX_VECTOR
100
AcDbText
  0
TEXT
  5
1F7
330
1DE
100
AcDbEntity
  8
LAYER004
  6
Continuous
 62
     7
370
    20
100
AcDbText
 10
241.364273071289
 20
42.84443283081055
 30
0.0
 40
2.299999952316284
  1
検図
 41
0.8999999896339746
  7
FX_VECTOR
100
AcDbText
  0
TEXT
  5
1F8
330
1DE
100
AcDbEntity
  8
LAYER004
  6
Continuous
 62
     7
370
    20
100
AcDbText
 10
241.364273071289
 20
40.35443115234374
 30
0.0
 40
1.799999952316284
  1
Checked
 41
0.6666667108182566
  7
FX_VECTOR
100
AcDbText
  0
TEXT
  5
1F9
330
1DE
100
AcDbEntity
  8
LAYER004
  6
Continuous
 62
     7
370
    20
100
AcDbText
 10
219.3719635009764
 20
42.79372787475586
 30
0.0
 40
2.299999952316284
  1
承認 - 日付
 41
0.8999999896339746
  7
FX_VECTOR
100
AcDbText
  0
TEXT
  5
1FA
330
1DE
100
AcDbEntity
  8
LAYER004
  6
Continuous
 62
     7
370
    20
100
AcDbText
 10
219.3719635009764
 20
40.30373001098633
 30
0.0
 40
1.799999952316284
  1
Approval - Date
 41
0.6666667108182566
  7
FX_VECTOR
100
AcDbText
  0
TEXT
  5
1FB
330
1DE
100
AcDbEntity
  8
LAYER004
  6
Continuous
 62
     7
370
    20
100
AcDbText
 10
200.313034057617
 20
35.14861297607422
 30
0.0
 40
2.0
  1
第三角法
  7
FX_VECTOR
100
AcDbText
  0
TEXT
  5
1FC
330
1DE
100
AcDbEntity
  8
LAYER004
  6
Continuous
 62
     7
370
    20
100
AcDbText
 10
266.5531921386719
 20
22.50294303894043
 30
0.0
 40
2.0
  1
サイズ
 41
0.899999976158142
  7
FX_VECTOR
100
AcDbText
  0
TEXT
  5
1FD
330
1DE
100
AcDbEntity
  8
LAYER004
  6
Continuous
 62
     7
370
    20
100
AcDbText
 10
266.8500061035155
 20
19.20294380187987
 30
0.0
 40
1.799999952316284
  1
Size
 41
0.6666667108182566
  7
FX_VECTOR
100
AcDbText
  0
TEXT
  5
1FE
330
1DE
100
AcDbEntity
  8
LAYER004
  6
Continuous
 62
     7
370
    20
100
AcDbText
 10
227.0676727294921
 20
37.45894241333008
 30
0.0
 40
2.0
  1
岸根
 41
1.325000047683715
  7
FX_VECTOR
100
AcDbText
  0
TEXT
  5
1FF
330
1DE
100
AcDbEntity
  8
LAYER004
  6
Continuous
 62
     7
370
    20
100
AcDbText
 10
244.1469268798828
 20
37.45894241333008
 30
0.0
 40
2.0
  1
紫藤
 41
1.325000047683715
  7
FX_VECTOR
100
AcDbText
  0
TEXT
  5
200
330
1DE
100
AcDbEntity
  8
LAYER004
  6
Continuous
 62
     7
370
    20
100
AcDbText
 10
257.0972595214844
 20
37.45894241333008
 30
0.0
 40
2.0
  1
岸根
 41
1.325000047683715
  7
FX_VECTOR
100
AcDbText
  0
TEXT
  5
201
330
1DE
100
AcDbEntity
  8
LAYER004
  6
Continuous
 62
     7
370
    20
100
AcDbText
 10
270.0841064453125
 20
37.45894241333008
 30
0.0
 40
2.0
  1
岸根
 41
1.325000047683715
  7
FX_VECTOR
100
AcDbText
  0
TEXT
  5
202
330
1DE
100
AcDbEntity
  8
LAYER004
  6
Continuous
 62
     7
370
    20
100
AcDbText
 10
110.9876480102539
 20
42.91971206665039
 30
0.0
 40
2.299999952316284
  1
材質
 41
0.8999999896339746
  7
FX_VECTOR
100
AcDbText
  0
TEXT
  5
203
330
1DE
100
AcDbEntity
  8
LAYER004
  6
Continuous
 62
     7
370
    20
100
AcDbText
 10
110.9876480102539
 20
39.79286193847656
 30
0.0
 40
1.799999952316284
  1
Material
 41
0.6666667108182566
  7
FX_VECTOR
100
AcDbText
  0
TEXT
  5
204
330
1DE
100
AcDbEntity
  8
LAYER004
  6
Continuous
 62
     7
370
    20
100
AcDbText
 10
110.9876480102539
 20
36.3911018371582
 30
0.0
 40
2.299999952316284
  1
処理
 41
0.8999999896339746
  7
FX_VECTOR
100
AcDbText
  0
TEXT
  5
205
330
1DE
100
AcDbEntity
  8
LAYER004
  6
Continuous
 62
     7
370
    20
100
AcDbText
 10
110.9876480102539
 20
33.26425170898438
 30
0.0
 40
1.799999952316284
  1
Treatment
 41
0.6666667108182566
  7
FX_VECTOR
100
AcDbText
  0
TEXT
  5
206
330
1DE
100
AcDbEntity
  8
LAYER004
  6
Continuous
 62
     7
370
    20
100
AcDbText
 10
110.9876480102539
 20
29.89969444274901
 30
0.0
 40
2.299999952316284
  1
公差
 41
0.8999999896339746
  7
FX_VECTOR
100
AcDbText
  0
TEXT
  5
207
330
1DE
100
AcDbEntity
  8
LAYER004
  6
Continuous
 62
     7
370
    20
100
AcDbText
 10
110.9876480102539
 20
26.77284240722656
 30
0.0
 40
1.799999952316284
  1
Tolerance
 41
0.6666667108182566
  7
FX_VECTOR
100
AcDbText
  0
TEXT
  5
208
330
1DE
100
AcDbEntity
  8
LAYER004
  6
Continuous
 62
     7
370
    20
100
AcDbText
 10
181.9535369873046
 20
42.90362167358398
 30
0.0
 40
2.299999952316284
  1
尺度
 41
0.8999999896339746
  7
FX_VECTOR
100
AcDbText
  0
TEXT
  5
209
330
1DE
100
AcDbEntity
  8
LAYER004
  6
Continuous
 62
     7
370
    20
100
AcDbText
 10
181.9535369873046
 20
39.77677154541014
 30
0.0
 40
1.799999952316284
  1
Scale
 41
0.6666667108182566
  7
FX_VECTOR
100
AcDbText
  0
TEXT
  5
20A
330
1DE
100
AcDbEntity
  8
LAYER004
  6
Continuous
 62
     7
370
    20
100
AcDbText
 10
181.9535369873046
 20
36.41714477539061
 30
0.0
 40
2.299999952316284
  1
投影法
 41
0.8999999896339746
  7
FX_VECTOR
100
AcDbText
  0
TEXT
  5
20B
330
1DE
100
AcDbEntity
  8
LAYER004
  6
Continuous
 62
     7
370
    20
100
AcDbText
 10
181.9535369873046
 20
33.2902946472168
 30
0.0
 40
1.799999952316284
  1
Projection
 41
0.6666667108182566
  7
FX_VECTOR
100
AcDbText
  0
TEXT
  5
20C
330
1DE
100
AcDbEntity
  8
LAYER004
  6
Continuous
 62
     7
370
    20
100
AcDbText
 10
181.9535369873046
 20
30.07779121398926
 30
0.0
 40
2.299999952316284
  1
元図番
 41
0.8999999896339746
  7
FX_VECTOR
100
AcDbText
  0
TEXT
  5
20D
330
1DE
100
AcDbEntity
  8
LAYER004
  6
Continuous
 62
     7
370
    20
100
AcDbText
 10
181.9535369873046
 20
26.95093727111816
 30
0.0
 40
1.799999952316284
  1
Origin DWG-No
 41
0.6666667108182566
  7
FX_VECTOR
100
AcDbText
  0
ENDBLK
  5
1E0
330
1DE
100
AcDbEntity
  8
0
100
AcDbBlockEnd
  0
BLOCK
  5
20F
330
20E
100
AcDbEntity
  8
0
100
AcDbBlockBegin
  2
BLKF026
 70
     0
 10
0.0
 20
0.0
 30
0.0
  3
BLKF026
  1

  0
LINE
  5
212
330
20E
100
AcDbEntity
  8
LAYER004
  6
Continuous
 62
   161
370
    20
100
AcDbLine
 10
70.5000000000001
 20
10.0
 30
0.0
 11
70.5000000000001
 21
18.5
 31
0.0
  0
LINE
  5
213
330
20E
100
AcDbEntity
  8
LAYER004
  6
Continuous
 62
     7
370
    20
100
AcDbLine
 10
34.50000000000007
 20
10.00000000000007
 30
0.0
 11
34.50000000000005
 21
18.5
 31
0.0
  0
LINE
  5
214
330
20E
100
AcDbEntity
  8
LAYER004
  6
Continuous
 62
   161
370
    20
100
AcDbLine
 10
17.50000000000006
 20
18.5
 30
0.0
 11
70.5000000000001
 21
18.5
 31
0.0
  0
LINE
  5
215
330
20E
100
AcDbEntity
  8
LAYER004
  6
Continuous
 62
     7
370
    20
100
AcDbLine
 10
17.50000000000006
 20
9.999999999999991
 30
0.0
 11
70.5000000000001
 21
10.0
 31
0.0
  0
LINE
  5
216
330
20E
100
AcDbEntity
  8
LAYER004
  6
Continuous
 62
   161
370
    20
100
AcDbLine
 10
218.5
 20
46.0
 30
0.0
 11
218.5
 21
26.50000000000002
 31
0.0
  0
LINE
  5
217
330
20E
100
AcDbEntity
  8
LAYER004
  6
Continuous
 62
     7
370
    20
100
AcDbLine
 10
207.5000000000001
 20
26.50000000000001
 30
0.0
 11
207.5000000000001
 21
10.0
 31
0.0
  0
LINE
  5
218
330
20E
100
AcDbEntity
  8
LAYER004
  6
Continuous
 62
     7
370
    20
100
AcDbLine
 10
198.5000000000001
 20
26.50000000000001
 30
0.0
 11
198.5000000000001
 21
46.0
 31
0.0
  0
LINE
  5
219
330
20E
100
AcDbEntity
  8
LAYER004
  6
Continuous
 62
   161
370
    20
100
AcDbLine
 10
195.5
 20
26.50000000000001
 30
0.0
 11
195.5
 21
10.0
 31
0.0
  0
LINE
  5
21A
330
20E
100
AcDbEntity
  8
LAYER004
  6
Continuous
 62
     7
370
    20
100
AcDbLine
 10
240.5
 20
46.0
 30
0.0
 11
240.5
 21
26.50000000000003
 31
0.0
  0
LINE
  5
21B
330
20E
100
AcDbEntity
  8
LAYER004
  6
Continuous
 62
     7
370
    20
100
AcDbLine
 10
195.5
 20
18.25000000000001
 30
0.0
 11
279.4999999999999
 21
18.25000000000003
 31
0.0
  0
LINE
  5
21C
330
20E
100
AcDbEntity
  8
LAYER004
  6
Continuous
 62
     7
370
    20
100
AcDbLine
 10
218.5
 20
36.0
 30
0.0
 11
279.4999999999999
 21
36.00000000000003
 31
0.0
  0
LINE
  5
21D
330
20E
100
AcDbEntity
  8
LAYER004
  6
Continuous
 62
     7
370
    20
100
AcDbLine
 10
279.4999999999999
 20
10.00000000000005
 30
0.0
 11
110.5000000000001
 21
9.999999999999962
 31
0.0
  0
LINE
  5
21E
330
20E
100
AcDbEntity
  8
LAYER004
  6
Continuous
 62
   161
370
    20
100
AcDbLine
 10
110.5000000000001
 20
26.49999999999996
 30
0.0
 11
279.4999999999999
 21
26.50000000000005
 31
0.0
  0
LINE
  5
21F
330
20E
100
AcDbEntity
  8
LAYER004
  6
Continuous
 62
   161
370
    20
100
AcDbLine
 10
110.5000000000001
 20
46.0
 30
0.0
 11
279.4999999999999
 21
46.0
 31
0.0
  0
LINE
  5
220
330
20E
100
AcDbEntity
  8
LAYER004
  6
Continuous
 62
     7
370
    20
100
AcDbLine
 10
279.4999999999999
 20
46.0
 30
0.0
 11
279.4999999999999
 21
10.00000000000005
 31
0.0
  0
LINE
  5
221
330
20E
100
AcDbEntity
  8
LAYER004
  6
Continuous
 62
     7
370
    20
100
AcDbLine
 10
253.5000000000001
 20
46.0
 30
0.0
 11
253.5000000000001
 21
26.50000000000003
 31
0.0
  0
LINE
  5
222
330
20E
100
AcDbEntity
  8
LAYER004
  6
Continuous
 62
     7
370
    20
100
AcDbLine
 10
266.5
 20
46.0
 30
0.0
 11
266.5
 21
26.50000000000003
 31
0.0
  0
LINE
  5
223
330
20E
100
AcDbEntity
  8
LAYER004
  6
Continuous
 62
   161
370
    20
100
AcDbLine
 10
265.5
 20
26.50000000000003
 30
0.0
 11
265.5
 21
10.00000000000005
 31
0.0
  0
LINE
  5
224
330
20E
100
AcDbEntity
  8
LAYER004
  6
Continuous
 62
     7
370
    20
100
AcDbLine
 10
273.0
 20
26.50000000000003
 30
0.0
 11
273.0
 21
10.00000000000005
 31
0.0
  0
LINE
  5
225
330
20E
100
AcDbEntity
  8
LAYER004
  6
Continuous
 62
   161
370
    20
100
AcDbLine
 10
181.4999999999999
 20
46.0
 30
0.0
 11
181.4999999999999
 21
26.5
 31
0.0
  0
LINE
  5
226
330
20E
100
AcDbEntity
  8
LAYER004
  6
Continuous
 62
   161
370
    20
100
AcDbLine
 10
110.5000000000001
 20
9.999999999999962
 30
0.0
 11
110.5000000000001
 21
46.0
 31
0.0
  0
LINE
  5
227
330
20E
100
AcDbEntity
  8
LAYER004
  6
Continuous
 62
     7
370
    20
100
AcDbLine
 10
122.5
 20
46.0
 30
0.0
 11
122.5
 21
26.49999999999996
 31
0.0
  0
LINE
  5
228
330
20E
100
AcDbEntity
  8
LAYER004
  6
Continuous
 62
   161
370
    20
100
AcDbLine
 10
17.5
 20
200.0
 30
0.0
 11
279.4999999999999
 21
200.0
 31
0.0
  0
LINE
  5
229
330
20E
100
AcDbEntity
  8
LAYER004
  6
Continuous
 62
   161
370
    20
100
AcDbLine
 10
279.4999999999999
 20
200.0
 30
0.0
 11
279.4999999999999
 21
10.0
 31
0.0
  0
LINE
  5
22A
330
20E
100
AcDbEntity
  8
LAYER004
  6
Continuous
 62
   161
370
    20
100
AcDbLine
 10
279.4999999999999
 20
9.999999999999996
 30
0.0
 11
17.50000000000002
 21
9.999999999999962
 31
0.0
  0
LINE
  5
22B
330
20E
100
AcDbEntity
  8
LAYER004
  6
Continuous
 62
   161
370
    20
100
AcDbLine
 10
17.50000000000002
 20
9.999999999999962
 30
0.0
 11
17.5
 21
200.0
 31
0.0
  0
LINE
  5
22C
330
20E
100
AcDbEntity
  8
LAYER004
  6
Continuous
 62
     7
370
    20
100
AcDbLine
 10
61.16700000000001
 20
200.0
 30
0.0
 11
61.16700000000001
 21
205.0
 31
0.0
  0
LINE
  5
22D
330
20E
100
AcDbEntity
  8
LAYER004
  6
Continuous
 62
     7
370
    20
100
AcDbLine
 10
104.834
 20
200.0
 30
0.0
 11
104.834
 21
205.0
 31
0.0
  0
LINE
  5
22E
330
20E
100
AcDbEntity
  8
LAYER004
  6
Continuous
 62
     7
370
    20
100
AcDbLine
 10
148.501
 20
200.0
 30
0.0
 11
148.501
 21
205.0
 31
0.0
  0
LINE
  5
22F
330
20E
100
AcDbEntity
  8
LAYER004
  6
Continuous
 62
     7
370
    20
100
AcDbLine
 10
192.168
 20
200.0
 30
0.0
 11
192.168
 21
205.0
 31
0.0
  0
LINE
  5
230
330
20E
100
AcDbEntity
  8
LAYER004
  6
Continuous
 62
     7
370
    20
100
AcDbLine
 10
235.835
 20
200.0
 30
0.0
 11
235.835
 21
205.0
 31
0.0
  0
LINE
  5
231
330
20E
100
AcDbEntity
  8
LAYER004
  6
Continuous
 62
     7
370
    20
100
AcDbLine
 10
279.4999999999999
 20
152.5
 30
0.0
 11
284.5
 21
152.5
 31
0.0
  0
LINE
  5
232
330
20E
100
AcDbEntity
  8
LAYER004
  6
Continuous
 62
     7
370
    20
100
AcDbLine
 10
279.4999999999999
 20
105.0
 30
0.0
 11
284.5
 21
105.0
 31
0.0
  0
LINE
  5
233
330
20E
100
AcDbEntity
  8
LAYER004
  6
Continuous
 62
     7
370
    20
100
AcDbLine
 10
279.4999999999999
 20
57.5
 30
0.0
 11
284.5
 21
57.5
 31
0.0
  0
LINE
  5
234
330
20E
100
AcDbEntity
  8
LAYER004
  6
Continuous
 62
     7
370
    20
100
AcDbLine
 10
17.50200000000007
 20
152.4999999999999
 30
0.0
 11
12.50200000000007
 21
152.5
 31
0.0
  0
LINE
  5
235
330
20E
100
AcDbEntity
  8
LAYER004
  6
Continuous
 62
     7
370
    20
100
AcDbLine
 10
17.50200000000007
 20
104.9999999999997
 30
0.0
 11
12.50200000000007
 21
105.0
 31
0.0
  0
LINE
  5
236
330
20E
100
AcDbEntity
  8
LAYER004
  6
Continuous
 62
     7
370
    20
100
AcDbLine
 10
17.5020000000001
 20
57.49999999999996
 30
0.0
 11
12.5020000000001
 21
57.49999999999996
 31
0.0
  0
LINE
  5
237
330
20E
100
AcDbEntity
  8
LAYER004
  6
Continuous
 62
     7
370
    20
100
AcDbLine
 10
235.835
 20
10.00000000000007
 30
0.0
 11
235.835
 21
5.000000000000071
 31
0.0
  0
LINE
  5
238
330
20E
100
AcDbEntity
  8
LAYER004
  6
Continuous
 62
     7
370
    20
100
AcDbLine
 10
192.168
 20
10.00000000000003
 30
0.0
 11
192.168
 21
5.000000000000036
 31
0.0
  0
LINE
  5
239
330
20E
100
AcDbEntity
  8
LAYER004
  6
Continuous
 62
     7
370
    20
100
AcDbLine
 10
148.501
 20
10.00000000000003
 30
0.0
 11
148.501
 21
5.000000000000036
 31
0.0
  0
LINE
  5
23A
330
20E
100
AcDbEntity
  8
LAYER004
  6
Continuous
 62
     7
370
    20
100
AcDbLine
 10
61.16700000000004
 20
10.0
 30
0.0
 11
61.16700000000003
 21
5.0
 31
0.0
  0
LINE
  5
23B
330
20E
100
AcDbEntity
  8
LAYER004
  6
Continuous
 62
     7
370
    20
100
AcDbLine
 10
104.834
 20
10.00000000000003
 30
0.0
 11
104.834
 21
5.000000000000036
 31
0.0
  0
TEXT
  5
23C
330
20E
100
AcDbEntity
  8
LAYER004
  6
Continuous
 62
   161
370
    20
100
AcDbText
 10
280.4542846679688
 20
174.75
 30
0.0
 40
3.0
  1
A
 41
0.8571429252624509
  7
FX_VECTOR
100
AcDbText
  0
TEXT
  5
23D
330
20E
100
AcDbEntity
  8
LAYER004
  6
Continuous
 62
   161
370
    20
100
AcDbText
 10
280.239990234375
 20
79.75
 30
0.0
 40
3.0
  1
C
  7
FX_VECTOR
100
AcDbText
  0
TEXT
  5
23E
330
20E
100
AcDbEntity
  8
LAYER004
  6
Continuous
 62
   161
370
    20
100
AcDbText
 10
280.1685791015625
 20
32.25
 30
0.0
 40
3.0
  1
D
 41
1.047619104385374
  7
FX_VECTOR
100
AcDbText
  0
TEXT
  5
23F
330
20E
100
AcDbEntity
  8
LAYER004
  6
Continuous
 62
   161
370
    20
100
AcDbText
 10
280.1685791015625
 20
127.2499999999999
 30
0.0
 40
3.0
  1
B
 41
1.047619104385374
  7
FX_VECTOR
100
AcDbText
  0
TEXT
  5
240
330
20E
100
AcDbEntity
  8
LAYER004
  6
Continuous
 62
   161
370
    20
100
AcDbText
 10
256.167999267578
 20
200.8999938964842
 30
0.0
 40
3.0
  1
6
  7
FX_VECTOR
100
AcDbText
  0
TEXT
  5
241
330
20E
100
AcDbEntity
  8
LAYER004
  6
Continuous
 62
   161
370
    20
100
AcDbText
 10
168.833999633789
 20
200.8999938964842
 30
0.0
 40
3.0
  1
4
  7
FX_VECTOR
100
AcDbText
  0
TEXT
  5
242
330
20E
100
AcDbEntity
  8
LAYER004
  6
Continuous
 62
   161
370
    20
100
AcDbText
 10
38.11871337890625
 20
200.8999938964842
 30
0.0
 40
3.0
  1
1
 41
0.809523820877075
  7
FX_VECTOR
100
AcDbText
  0
TEXT
  5
243
330
20E
100
AcDbEntity
  8
LAYER004
  6
Continuous
 62
   161
370
    20
100
AcDbText
 10
81.57142639160156
 20
200.8999938964842
 30
0.0
 40
3.0
  1
2
 41
0.9523809750874836
  7
FX_VECTOR
100
AcDbText
  0
TEXT
  5
244
330
20E
100
AcDbEntity
  8
LAYER004
  6
Continuous
 62
   161
370
    20
100
AcDbText
 10
125.2384262084961
 20
200.8999938964842
 30
0.0
 40
3.0
  1
3
 41
0.9523809750874836
  7
FX_VECTOR
100
AcDbText
  0
TEXT
  5
245
330
20E
100
AcDbEntity
  8
LAYER004
  6
Continuous
 62
   161
370
    20
100
AcDbText
 10
212.5724334716796
 20
200.8999938964842
 30
0.0
 40
3.0
  1
5
 41
0.9523809750874836
  7
FX_VECTOR
100
AcDbText
  0
TEXT
  5
246
330
20E
100
AcDbEntity
  8
LAYER004
  6
Continuous
 62
   161
370
    20
100
AcDbText
 10
38.11871337890625
 20
6.099999904632567
 30
0.0
 40
3.0
  1
1
 41
0.809523820877075
  7
FX_VECTOR
100
AcDbText
  0
TEXT
  5
247
330
20E
100
AcDbEntity
  8
LAYER004
  6
Continuous
 62
   161
370
    20
100
AcDbText
 10
81.57142639160156
 20
6.099999904632567
 30
0.0
 40
3.0
  1
2
 41
0.9523809750874836
  7
FX_VECTOR
100
AcDbText
  0
TEXT
  5
248
330
20E
100
AcDbEntity
  8
LAYER004
  6
Continuous
 62
   161
370
    20
100
AcDbText
 10
125.2384262084961
 20
6.099999904632567
 30
0.0
 40
3.0
  1
3
 41
0.9523809750874836
  7
FX_VECTOR
100
AcDbText
  0
TEXT
  5
249
330
20E
100
AcDbEntity
  8
LAYER004
  6
Continuous
 62
   161
370
    20
100
AcDbText
 10
168.833999633789
 20
6.099999904632567
 30
0.0
 40
3.0
  1
4
  7
FX_VECTOR
100
AcDbText
  0
TEXT
  5
24A
330
20E
100
AcDbEntity
  8
LAYER004
  6
Continuous
 62
   161
370
    20
100
AcDbText
 10
212.5724334716796
 20
6.099999904632567
 30
0.0
 40
3.0
  1
5
 41
0.9523809750874836
  7
FX_VECTOR
100
AcDbText
  0
TEXT
  5
24B
330
20E
100
AcDbEntity
  8
LAYER004
  6
Continuous
 62
   161
370
    20
100
AcDbText
 10
256.167999267578
 20
6.099999904632567
 30
0.0
 40
3.0
  1
6
  7
FX_VECTOR
100
AcDbText
  0
TEXT
  5
24C
330
20E
100
AcDbEntity
  8
LAYER004
  6
Continuous
 62
   161
370
    20
100
AcDbText
 10
13.97428607940674
 20
174.75
 30
0.0
 40
3.0
  1
A
 41
0.8571429252624509
  7
FX_VECTOR
100
AcDbText
  0
TEXT
  5
24D
330
20E
100
AcDbEntity
  8
LAYER004
  6
Continuous
 62
   161
370
    20
100
AcDbText
 10
13.68857097625731
 20
127.2499999999999
 30
0.0
 40
3.0
  1
B
 41
1.047619104385374
  7
FX_VECTOR
100
AcDbText
  0
TEXT
  5
24E
330
20E
100
AcDbEntity
  8
LAYER004
  6
Continuous
 62
   161
370
    20
100
AcDbText
 10
13.76000022888184
 20
79.75
 30
0.0
 40
3.0
  1
C
  7
FX_VECTOR
100
AcDbText
  0
TEXT
  5
24F
330
20E
100
AcDbEntity
  8
LAYER004
  6
Continuous
 62
   161
370
    20
100
AcDbText
 10
13.68857097625731
 20
32.25
 30
0.0
 40
3.0
  1
D
 41
1.047619104385374
  7
FX_VECTOR
100
AcDbText
  0
ENDBLK
  5
210
330
20E
100
AcDbEntity
  8
0
100
AcDbBlockEnd
  0
BLOCK
  5
251
330
250
100
AcDbEntity
  8
0
100
AcDbBlockBegin
  2
BLKF027
 70
     0
 10
0.0
 20
0.0
 30
0.0
  3
BLKF027
  1

  0
LINE
  5
254
330
250
100
AcDbEntity
  8
LAYER004
  6
Continuous
 62
     7
370
    20
100
AcDbLine
 10
177.168
 20
200.0000028302204
 30
0.0
 11
279.4999828890983
 21
200.0000028302204
 31
0.0
  0
LINE
  5
255
330
250
100
AcDbEntity
  8
LAYER004
  6
Continuous
 62
   161
370
    20
100
AcDbLine
 10
279.4999828890983
 20
187.5
 30
0.0
 11
177.168
 21
187.5
 31
0.0
  0
LINE
  5
256
330
250
100
AcDbEntity
  8
LAYER004
  6
Continuous
 62
   161
370
    20
100
AcDbLine
 10
177.168
 20
187.5
 30
0.0
 11
177.168
 21
200.0000028302204
 31
0.0
  0
LINE
  5
257
330
250
100
AcDbEntity
  8
LAYER004
  6
Continuous
 62
     7
370
    20
100
AcDbLine
 10
177.168
 20
192.4999999999999
 30
0.0
 11
279.4999828890983
 21
192.4999999999999
 31
0.0
  0
LINE
  5
258
330
250
100
AcDbEntity
  8
LAYER004
  6
Continuous
 62
     7
370
    20
100
AcDbLine
 10
192.168
 20
187.5
 30
0.0
 11
192.168
 21
200.0000028302204
 31
0.0
  0
LINE
  5
259
330
250
100
AcDbEntity
  8
LAYER004
  6
Continuous
 62
     7
370
    20
100
AcDbLine
 10
207.168
 20
200.0000028302204
 30
0.0
 11
207.168
 21
187.5
 31
0.0
  0
TEXT
  5
25A
330
250
100
AcDbEntity
  8
LAYER004
  6
Continuous
 62
     7
370
    20
100
AcDbText
 10
238.7339935302734
 20
196.4786682128906
 30
0.0
 40
2.299999952316284
  1
改訂内容
  7
FX_VECTOR
100
AcDbText
  0
TEXT
  5
25B
330
250
100
AcDbEntity
  8
LAYER004
  6
Continuous
 62
     7
370
    20
100
AcDbText
 10
232.9340057373046
 20
193.6854553222655
 30
0.0
 40
1.600000023841858
  1
Revision note
  7
FX_VECTOR
100
AcDbText
  0
TEXT
  5
25C
330
250
100
AcDbEntity
  8
LAYER004
  6
Continuous
 62
     7
370
    20
100
AcDbText
 10
196.2272186279296
 20
196.4786682128906
 30
0.0
 40
2.299999952316284
  1
改訂日
  7
FX_VECTOR
100
AcDbText
  0
TEXT
  5
25D
330
250
100
AcDbEntity
  8
LAYER004
  6
Continuous
 62
     7
370
    20
100
AcDbText
 10
196.4772186279296
 20
193.6854553222655
 30
0.0
 40
1.600000023841858
  1
Date
  7
FX_VECTOR
100
AcDbText
  0
TEXT
  5
25E
330
250
100
AcDbEntity
  8
LAYER004
  6
Continuous
 62
     7
370
    20
100
AcDbText
 10
180.0540313720703
 20
196.4786682128906
 30
0.0
 40
2.299999952316284
  1
改訂番号
  7
FX_VECTOR
100
AcDbText
  0
TEXT
  5
25F
330
250
100
AcDbEntity
  8
LAYER004
  6
Continuous
 62
     7
370
    20
100
AcDbText
 10
179.8679962158203
 20
193.6854553222655
 30
0.0
 40
1.600000023841858
  1
Rev.No
  7
FX_VECTOR
100
AcDbText
  0
ENDBLK
  5
252
330
250
100
AcDbEntity
  8
0
100
AcDbBlockEnd
  0
BLOCK
  5
40D
330
40C
100
AcDbEntity
  8
0
100
AcDbBlockBegin
  2
*D26
 70
     1
 10
0.0
 20
0.0
 30
0.0
  3
*D26
  1

  0
LINE
  5
767
330
40C
100
AcDbEntity
  8
用紙-GR2
 62
     6
370
    -2
100
AcDbLine
 10
98.53302202761096
 20
118.6544961419822
 30
0.0
 11
98.53302202761096
 21
139.6063117634379
 31
0.0
  0
LINE
  5
768
330
40C
100
AcDbEntity
  8
用紙-GR2
 62
     6
370
    -2
100
AcDbLine
 10
193.5330220276109
 20
130.4033432391723
 30
0.0
 11
193.5330220276109
 21
139.6063117634379
 31
0.0
  0
LINE
  5
769
330
40C
100
AcDbEntity
  8
用紙-GR2
 62
     6
370
    -2
100
AcDbLine
 10
101.5330220276109
 20
138.1063117634379
 30
0.0
 11
190.5330220276109
 21
138.1063117634379
 31
0.0
  0
INSERT
  5
76A
330
40C
100
AcDbEntity
  8
用紙-GR2
 62
     6
370
    -2
100
AcDbBlockReference
  2
FXTIP_ARROW_S
 10
98.53302202761096
 20
138.1063117634379
 30
0.0
 41
3.0
 42
3.0
 43
3.0
 50
180.0
  0
INSERT
  5
76B
330
40C
100
AcDbEntity
  8
用紙-GR2
 62
     6
370
    -2
100
AcDbBlockReference
  2
FXTIP_ARROW_E
 10
193.5330220276109
 20
138.1063117634379
 30
0.0
 41
3.0
 42
3.0
 43
3.0
  0
MTEXT
  5
76C
330
40C
100
AcDbEntity
  8
用紙-GR2
 62
     6
100
AcDbMText
 10
146.0330220276109
 20
140.3563117634379
 30
0.0
 40
3.5
 41
0.0
 71
     5
 72
     1
  1
\A1;95
  7
STYLE003
 73
     1
 44
1.0
  0
POINT
  5
76D
330
40C
100
AcDbEntity
  8
Defpoints
 62
     0
100
AcDbPoint
 10
98.53302202761096
 20
117.6544961419822
 30
0.0
  0
POINT
  5
76E
330
40C
100
AcDbEntity
  8
Defpoints
 62
     0
100
AcDbPoint
 10
193.5330220276109
 20
129.4033432391723
 30
0.0
  0
POINT
  5
76F
330
40C
100
AcDbEntity
  8
Defpoints
 62
     0
100
AcDbPoint
 10
193.5330220276109
 20
138.1063117634379
 30
0.0
  0
ENDBLK
  5
40E
330
40C
100
AcDbEntity
  8
0
100
AcDbBlockEnd
  0
BLOCK
  5
417
330
416
100
AcDbEntity
  8
0
100
AcDbBlockBegin
  2
*D27
 70
     1
 10
0.0
 20
0.0
 30
0.0
  3
*D27
  1

  0
LINE
  5
75E
330
416
100
AcDbEntity
  8
用紙-GR2
 62
     6
370
    -2
100
AcDbLine
 10
193.5330220276109
 20
130.4033432391723
 30
0.0
 11
193.5330220276109
 21
139.6063117634379
 31
0.0
  0
LINE
  5
75F
330
416
100
AcDbEntity
  8
用紙-GR2
 62
     6
370
    -2
100
AcDbLine
 10
253.5330220276112
 20
127.9033432391723
 30
0.0
 11
253.5330220276112
 21
139.6063117634379
 31
0.0
  0
LINE
  5
760
330
416
100
AcDbEntity
  8
用紙-GR2
 62
     6
370
    -2
100
AcDbLine
 10
196.5330220276109
 20
138.1063117634379
 30
0.0
 11
250.5330220276113
 21
138.1063117634379
 31
0.0
  0
INSERT
  5
761
330
416
100
AcDbEntity
  8
用紙-GR2
 62
     6
370
    -2
100
AcDbBlockReference
  2
FXTIP_ARROW_S
 10
193.5330220276109
 20
138.1063117634379
 30
0.0
 41
3.0
 42
3.0
 43
3.0
 50
180.0
  0
INSERT
  5
762
330
416
100
AcDbEntity
  8
用紙-GR2
 62
     6
370
    -2
100
AcDbBlockReference
  2
FXTIP_ARROW_E
 10
253.5330220276112
 20
138.1063117634379
 30
0.0
 41
3.0
 42
3.0
 43
3.0
  0
MTEXT
  5
763
330
416
100
AcDbEntity
  8
用紙-GR2
 62
     6
100
AcDbMText
 10
223.5330220276111
 20
140.3563117634379
 30
0.0
 40
3.5
 41
0.0
 71
     5
 72
     1
  1
\A1;60
  7
STYLE003
 73
     1
 44
1.0
  0
POINT
  5
764
330
416
100
AcDbEntity
  8
Defpoints
 62
     0
100
AcDbPoint
 10
193.5330220276109
 20
129.4033432391723
 30
0.0
  0
POINT
  5
765
330
416
100
AcDbEntity
  8
Defpoints
 62
     0
100
AcDbPoint
 10
253.5330220276112
 20
126.9033432391723
 30
0.0
  0
POINT
  5
766
330
416
100
AcDbEntity
  8
Defpoints
 62
     0
100
AcDbPoint
 10
253.5330220276112
 20
138.1063117634379
 30
0.0
  0
ENDBLK
  5
418
330
416
100
AcDbEntity
  8
0
100
AcDbBlockEnd
  0
BLOCK
  5
420
330
41F
100
AcDbEntity
  8
0
100
AcDbBlockBegin
  2
*D28
 70
     1
 10
0.0
 20
0.0
 30
0.0
  3
*D28
  1

  0
LINE
  5
78B
330
41F
100
AcDbEntity
  8
用紙-GR2
 62
     6
370
    -2
100
AcDbLine
 10
313.5330220276113
 20
95.40334323917189
 30
0.0
 11
329.5244891276662
 21
95.40334323917189
 31
0.0
  0
LINE
  5
78C
330
41F
100
AcDbEntity
  8
用紙-GR2
 62
     6
370
    -2
100
AcDbLine
 10
313.5330220276116
 20
130.4033432391718
 30
0.0
 11
329.5244891276663
 21
130.4033432391718
 31
0.0
  0
LINE
  5
78D
330
41F
100
AcDbEntity
  8
用紙-GR2
 62
     6
370
    -2
100
AcDbLine
 10
328.0244891276662
 20
98.4033432391719
 30
0.0
 11
328.0244891276662
 21
127.4033432391718
 31
0.0
  0
INSERT
  5
78E
330
41F
100
AcDbEntity
  8
用紙-GR2
 62
     6
370
    -2
100
AcDbBlockReference
  2
FXTIP_ARROW_S
 10
328.0244891276662
 20
95.40334323917189
 30
0.0
 41
3.0
 42
3.0
 43
3.0
 50
270.0
  0
INSERT
  5
78F
330
41F
100
AcDbEntity
  8
用紙-GR2
 62
     6
370
    -2
100
AcDbBlockReference
  2
FXTIP_ARROW_E
 10
328.0244891276663
 20
130.4033432391718
 30
0.0
 41
3.0
 42
3.0
 43
3.0
 50
90.0
  0
MTEXT
  5
790
330
41F
100
AcDbEntity
  8
用紙-GR2
 62
     6
100
AcDbMText
 10
325.7744891276662
 20
112.9033432391719
 30
0.0
 40
3.5
 41
0.0
 71
     5
 72
     1
  1
\A1;35
  7
STYLE003
 11
0.0000000000000001
 21
1.0
 31
0.0
 73
     1
 44
1.0
  0
POINT
  5
791
330
41F
100
AcDbEntity
  8
Defpoints
 62
     0
100
AcDbPoint
 10
312.5330220276113
 20
95.40334323917189
 30
0.0
  0
POINT
  5
792
330
41F
100
AcDbEntity
  8
Defpoints
 62
     0
100
AcDbPoint
 10
312.5330220276115
 20
130.4033432391718
 30
0.0
  0
POINT
  5
793
330
41F
100
AcDbEntity
  8
Defpoints
 62
     0
100
AcDbPoint
 10
328.0244891276663
 20
130.4033432391718
 30
0.0
  0
ENDBLK
  5
421
330
41F
100
AcDbEntity
  8
0
100
AcDbBlockEnd
  0
BLOCK
  5
42A
330
429
100
AcDbEntity
  8
0
100
AcDbBlockBegin
  2
*D29
 70
     1
 10
0.0
 20
0.0
 30
0.0
  3
*D29
  1

  0
LINE
  5
782
330
429
100
AcDbEntity
  8
用紙-GR2
 62
     6
370
    -2
100
AcDbLine
 10
278.5330220276112
 20
95.40334323917186
 30
0.0
 11
278.5330220276112
 21
82.88865862384295
 31
0.0
  0
LINE
  5
783
330
429
100
AcDbEntity
  8
用紙-GR2
 62
     6
370
    -2
100
AcDbLine
 10
313.5330220276111
 20
95.40334323917186
 30
0.0
 11
313.5330220276111
 21
82.88865862384295
 31
0.0
  0
LINE
  5
784
330
429
100
AcDbEntity
  8
用紙-GR2
 62
     6
370
    -2
100
AcDbLine
 10
281.5330220276113
 20
84.38865862384295
 30
0.0
 11
310.5330220276111
 21
84.38865862384295
 31
0.0
  0
INSERT
  5
785
330
429
100
AcDbEntity
  8
用紙-GR2
 62
     6
370
    -2
100
AcDbBlockReference
  2
FXTIP_ARROW_S
 10
278.5330220276112
 20
84.38865862384295
 30
0.0
 41
3.0
 42
3.0
 43
3.0
 50
180.0
  0
INSERT
  5
786
330
429
100
AcDbEntity
  8
用紙-GR2
 62
     6
370
    -2
100
AcDbBlockReference
  2
FXTIP_ARROW_E
 10
313.5330220276111
 20
84.38865862384295
 30
0.0
 41
3.0
 42
3.0
 43
3.0
  0
MTEXT
  5
787
330
429
100
AcDbEntity
  8
用紙-GR2
 62
     6
100
AcDbMText
 10
296.0330220276111
 20
86.63865862384295
 30
0.0
 40
3.5
 41
0.0
 71
     5
 72
     1
  1
\A1;35
  7
STYLE003
 73
     1
 44
1.0
  0
POINT
  5
788
330
429
100
AcDbEntity
  8
Defpoints
 62
     0
100
AcDbPoint
 10
278.5330220276112
 20
96.40334323917187
 30
0.0
  0
POINT
  5
789
330
429
100
AcDbEntity
  8
Defpoints
 62
     0
100
AcDbPoint
 10
313.5330220276111
 20
96.40334323917187
 30
0.0
  0
POINT
  5
78A
330
429
100
AcDbEntity
  8
Defpoints
 62
     0
100
AcDbPoint
 10
313.5330220276111
 20
84.38865862384295
 30
0.0
  0
ENDBLK
  5
42B
330
429
100
AcDbEntity
  8
0
100
AcDbBlockEnd
  0
BLOCK
  5
433
330
432
100
AcDbEntity
  8
0
100
AcDbBlockBegin
  2
FXDIM032
 70
     0
 10
0.0
 20
0.0
 30
0.0
  3
FXDIM032
  1

  0
LINE
  5
436
330
432
100
AcDbEntity
  8
用紙-GR2
  6
Continuous
 62
     6
370
    20
100
AcDbLine
 10
-211.7777151040414
 20
100.7039456865179
 30
0.0
 11
-213.8386724635354
 21
84.41256846385122
 31
0.0
  0
INSERT
  5
437
330
432
100
AcDbEntity
  8
用紙-GR2
  6
Continuous
 62
     6
370
    20
100
AcDbBlockReference
  2
FXTIP_BLACKDOT_S
 10
-211.7777151040414
 20
100.7039456865179
 30
0.0
 50
82.79003815438413
  0
LINE
  5
438
330
432
100
AcDbEntity
  8
用紙-GR2
  6
Continuous
 62
     6
370
    20
100
AcDbLine
 10
-213.8386724635354
 20
84.41256846385122
 30
0.0
 11
-224.2122384086504
 21
84.41256846385122
 31
0.0
  0
TEXT
  5
439
330
432
100
AcDbEntity
  8
用紙-GR2
  6
Continuous
 62
     6
370
    20
100
AcDbText
 10
-222.0254567536133
 20
84.91256584320153
 30
0.0
 40
2.5
  1
排気口
 50
0.0000000100000079
 41
0.8
  7
FX_VECTOR
100
AcDbText
  0
ENDBLK
  5
434
330
432
100
AcDbEntity
  8
0
100
AcDbBlockEnd
  0
BLOCK
  5
43B
330
43A
100
AcDbEntity
  8
0
100
AcDbBlockBegin
  2
FXDIM033
 70
     0
 10
0.0
 20
0.0
 30
0.0
  3
FXDIM033
  1

  0
LINE
  5
43E
330
43A
100
AcDbEntity
  8
用紙-GR2
  6
Continuous
 62
     6
370
    20
100
AcDbLine
 10
-173.0160328610509
 20
102.0790829723003
 30
0.0
 11
-175.2388369905678
 21
84.21726407439676
 31
0.0
  0
INSERT
  5
43F
330
43A
100
AcDbEntity
  8
用紙-GR2
  6
Continuous
 62
     6
370
    20
100
AcDbBlockReference
  2
FXTIP_BLACKDOT_S
 10
-173.0160328610509
 20
102.0790829723003
 30
0.0
 50
82.90632707221293
  0
LINE
  5
440
330
43A
100
AcDbEntity
  8
用紙-GR2
  6
Continuous
 62
     6
370
    20
100
AcDbLine
 10
-175.2388369905678
 20
84.21726407439676
 30
0.0
 11
-203.006648422023
 21
84.21726407439676
 31
0.0
  0
TEXT
  5
441
330
43A
100
AcDbEntity
  8
用紙-GR2
  6
Continuous
 62
     6
370
    20
100
AcDbText
 10
-200.1227409222505
 20
84.71726629127266
 30
0.0
 40
2.5
  1
電源ケーブル/コネクタ
 50
0.0000000100000079
 41
0.8
  7
FX_VECTOR
100
AcDbText
  0
ENDBLK
  5
43C
330
43A
100
AcDbEntity
  8
0
100
AcDbBlockEnd
  0
BLOCK
  5
444
330
443
100
AcDbEntity
  8
0
100
AcDbBlockBegin
  2
*D32
 70
     1
 10
0.0
 20
0.0
 30
0.0
  3
*D32
  1

  0
LINE
  5
779
330
443
100
AcDbEntity
  8
用紙-GR2
 62
     6
370
    -2
100
AcDbLine
 10
235.5330220276113
 20
49.73517215582423
 30
0.0
 11
225.5085496194623
 21
49.73517215582423
 31
0.0
  0
LINE
  5
77A
330
443
100
AcDbEntity
  8
用紙-GR2
 62
     6
370
    -2
100
AcDbLine
 10
235.5330220276108
 20
69.73517215582422
 30
0.0
 11
225.5085496194623
 21
69.73517215582422
 31
0.0
  0
LINE
  5
77B
330
443
100
AcDbEntity
  8
用紙-GR2
 62
     6
370
    -2
100
AcDbLine
 10
227.0085496194623
 20
52.73517215582423
 30
0.0
 11
227.0085496194623
 21
66.73517215582421
 31
0.0
  0
INSERT
  5
77C
330
443
100
AcDbEntity
  8
用紙-GR2
 62
     6
370
    -2
100
AcDbBlockReference
  2
FXTIP_ARROW_S
 10
227.0085496194623
 20
49.73517215582423
 30
0.0
 41
3.0
 42
3.0
 43
3.0
 50
270.0
  0
INSERT
  5
77D
330
443
100
AcDbEntity
  8
用紙-GR2
 62
     6
370
    -2
100
AcDbBlockReference
  2
FXTIP_ARROW_E
 10
227.0085496194623
 20
69.73517215582422
 30
0.0
 41
3.0
 42
3.0
 43
3.0
 50
90.0
  0
MTEXT
  5
77E
330
443
100
AcDbEntity
  8
用紙-GR2
 62
     6
100
AcDbMText
 10
224.7585496194623
 20
59.73517215582425
 30
0.0
 40
3.5
 41
0.0
 71
     5
 72
     1
  1
\A1;20
  7
STYLE003
 11
0.0000000000000001
 21
1.0
 31
0.0
 73
     1
 44
1.0
  0
POINT
  5
77F
330
443
100
AcDbEntity
  8
Defpoints
 62
     0
100
AcDbPoint
 10
236.5330220276113
 20
49.73517215582423
 30
0.0
  0
POINT
  5
780
330
443
100
AcDbEntity
  8
Defpoints
 62
     0
100
AcDbPoint
 10
236.5330220276109
 20
69.73517215582422
 30
0.0
  0
POINT
  5
781
330
443
100
AcDbEntity
  8
Defpoints
 62
     0
100
AcDbPoint
 10
227.0085496194623
 20
69.73517215582422
 30
0.0
  0
ENDBLK
  5
445
330
443
100
AcDbEntity
  8
0
100
AcDbBlockEnd
  0
BLOCK
  5
44E
330
44D
100
AcDbEntity
  8
0
100
AcDbBlockBegin
  2
*D33
 70
     1
 10
0.0
 20
0.0
 30
0.0
  3
*D33
  1

  0
LINE
  5
770
330
44D
100
AcDbEntity
  8
用紙-GR2
 62
     6
370
    -2
100
AcDbLine
 10
239.5330220276114
 20
45.73517215582424
 30
0.0
 11
239.5330220276114
 21
32.95733413012091
 31
0.0
  0
LINE
  5
771
330
44D
100
AcDbEntity
  8
用紙-GR2
 62
     6
370
    -2
100
AcDbLine
 10
253.5330220276112
 20
44.73517215582444
 30
0.0
 11
253.5330220276112
 21
32.95733413012091
 31
0.0
  0
LINE
  5
772
330
44D
100
AcDbEntity
  8
用紙-GR2
 62
     6
370
    -2
100
AcDbLine
 10
242.5330220276114
 20
34.45733413012091
 30
0.0
 11
250.5330220276113
 21
34.45733413012091
 31
0.0
  0
INSERT
  5
773
330
44D
100
AcDbEntity
  8
用紙-GR2
 62
     6
370
    -2
100
AcDbBlockReference
  2
FXTIP_ARROW_S
 10
239.5330220276114
 20
34.45733413012091
 30
0.0
 41
3.0
 42
3.0
 43
3.0
 50
180.0
  0
INSERT
  5
774
330
44D
100
AcDbEntity
  8
用紙-GR2
 62
     6
370
    -2
100
AcDbBlockReference
  2
FXTIP_ARROW_E
 10
253.5330220276112
 20
34.45733413012091
 30
0.0
 41
3.0
 42
3.0
 43
3.0
  0
MTEXT
  5
775
330
44D
100
AcDbEntity
  8
用紙-GR2
 62
     6
100
AcDbMText
 10
246.5330220276114
 20
36.70733413012091
 30
0.0
 40
3.5
 41
0.0
 71
     5
 72
     1
  1
\A1;14
  7
STYLE003
 73
     1
 44
1.0
  0
POINT
  5
776
330
44D
100
AcDbEntity
  8
Defpoints
 62
     0
100
AcDbPoint
 10
239.5330220276114
 20
46.73517215582424
 30
0.0
  0
POINT
  5
777
330
44D
100
AcDbEntity
  8
Defpoints
 62
     0
100
AcDbPoint
 10
253.5330220276112
 20
45.73517215582444
 30
0.0
  0
POINT
  5
778
330
44D
100
AcDbEntity
  8
Defpoints
 62
     0
100
AcDbPoint
 10
253.5330220276112
 20
34.45733413012091
 30
0.0
  0
ENDBLK
  5
44F
330
44D
100
AcDbEntity
  8
0
100
AcDbBlockEnd
  0
BLOCK
  5
457
330
456
100
AcDbEntity
  8
0
100
AcDbBlockBegin
  2
FXDIM036
 70
     0
 10
0.0
 20
0.0
 30
0.0
  3
FXDIM036
  1

  0
LINE
  5
45A
330
456
100
AcDbEntity
  8
用紙-GR2
  6
Continuous
 62
     6
370
    20
100
AcDbLine
 10
-77.89572813916295
 20
98.50159932049812
 30
0.0
 11
-75.7814074611597
 21
85.13016089251626
 31
0.0
  0
INSERT
  5
45B
330
456
100
AcDbEntity
  8
用紙-GR2
  6
Continuous
 62
     6
370
    20
100
AcDbBlockReference
  2
FXTIP_BLACKDOT_S
 10
-77.89572813916295
 20
98.50159932049812
 30
0.0
 50
98.98533939812944
  0
LINE
  5
45C
330
456
100
AcDbEntity
  8
用紙-GR2
  6
Continuous
 62
     6
370
    20
100
AcDbLine
 10
-75.7814074611597
 20
85.13016089251626
 30
0.0
 11
-64.29045955206635
 21
85.13016089251626
 31
0.0
  0
TEXT
  5
45D
330
456
100
AcDbEntity
  8
用紙-GR2
  6
Continuous
 62
     6
370
    20
100
AcDbText
 10
-73.03594254165929
 20
85.6301551824403
 30
0.0
 40
2.5
  1
排気口
 50
0.0000000099999999
 41
0.8
  7
FX_VECTOR
100
AcDbText
  0
ENDBLK
  5
458
330
456
100
AcDbEntity
  8
0
100
AcDbBlockEnd
  0
BLOCK
  5
462
330
461
100
AcDbEntity
  8
0
100
AcDbBlockBegin
  2
FXDIM037
 70
     0
 10
0.0
 20
0.0
 30
0.0
  3
FXDIM037
  1

  0
LINE
  5
465
330
461
100
AcDbEntity
  8
用紙-GR2
  6
Continuous
 62
     6
370
    20
100
AcDbLine
 10
-79.73507363168903
 20
75.76060867457572
 30
0.0
 11
-87.30378086403961
 21
85.02824210565291
 31
0.0
  0
INSERT
  5
466
330
461
100
AcDbEntity
  8
用紙-GR2
  6
Continuous
 62
     6
370
    20
100
AcDbBlockReference
  2
FXTIP_ARROW_S
 10
-79.73507363168903
 20
75.76060867457572
 30
0.0
 41
3.0
 42
3.0
 50
309.2378860821722
  0
LINE
  5
467
330
461
100
AcDbEntity
  8
用紙-GR2
  6
Continuous
 62
     6
370
    20
100
AcDbLine
 10
-87.30378086403961
 20
85.02824210565291
 30
0.0
 11
-114.6607907309597
 21
85.02824210565291
 31
0.0
  0
TEXT
  5
468
330
461
100
AcDbEntity
  8
用紙-GR2
  6
Continuous
 62
     6
370
    20
100
AcDbText
 10
-112.9822775316035
 20
85.52824287468506
 30
0.0
 40
2.5
  1
2-M4深さ4（固定用）
 41
0.8
  7
FX_VECTOR
100
AcDbText
  0
ENDBLK
  5
463
330
461
100
AcDbEntity
  8
0
100
AcDbBlockEnd
  0
BLOCK
  5
46E
330
46D
100
AcDbEntity
  8
0
100
AcDbBlockBegin
  2
FXDIM038
 70
     0
 10
0.0
 20
0.0
 30
0.0
  3
FXDIM038
  1

  0
LINE
  5
471
330
46D
100
AcDbEntity
  8
用紙-GR2
  6
Continuous
 62
     6
370
    20
100
AcDbLine
 10
-38.08788887017643
 20
104.275375567907
 30
0.0
 11
-22.47387250813264
 21
84.63193562856154
 31
0.0
  0
INSERT
  5
472
330
46D
100
AcDbEntity
  8
用紙-GR2
  6
Continuous
 62
     6
370
    20
100
AcDbBlockReference
  2
FXTIP_BLACKDOT_S
 10
-38.08788887017643
 20
104.275375567907
 30
0.0
 50
128.4801982483429
  0
LINE
  5
473
330
46D
100
AcDbEntity
  8
用紙-GR2
  6
Continuous
 62
     6
370
    20
100
AcDbLine
 10
-22.47387250813264
 20
84.63193562856154
 30
0.0
 11
-11.2040784403671
 21
84.63193562856154
 31
0.0
  0
TEXT
  5
474
330
46D
100
AcDbEntity
  8
用紙-GR2
  6
Continuous
 62
     6
370
    20
100
AcDbText
 10
-20.83896940196252
 20
85.13193521605177
 30
0.0
 40
2.5
  1
光出射口
 50
0.0000000099999999
 41
0.8
  7
FX_VECTOR
100
AcDbText
  0
ENDBLK
  5
46F
330
46D
100
AcDbEntity
  8
0
100
AcDbBlockEnd
  0
BLOCK
  5
4C9
330
4C8
100
AcDbEntity
  8
0
100
AcDbBlockBegin
  2
*D37
 70
     1
 10
0.0
 20
0.0
 30
0.0
  3
*D37
  1

  0
TEXT
  5
4CB
330
4C8
100
AcDbEntity
  8
用紙-GR2
  6
Continuous
 62
     6
370
    20
100
AcDbText
 10
258.9211039023824
 20
158.0689058425233
 30
0.0
 40
2.200000047683714
  1
32
 50
90.0
 41
0.9090908893868947
 51
15.0
  7
FX_VECTOR
100
AcDbText
  0
LINE
  5
4CC
330
4C8
100
AcDbEntity
  8
用紙-GR2
  6
Continuous
 62
     6
370
    20
100
AcDbLine
 10
259.4210957288847
 20
148.7534865149549
 30
0.0
 11
259.4210957288847
 21
171.3843210269773
 31
0.0
  0
INSERT
  5
4CD
330
4C8
100
AcDbEntity
  8
用紙-GR2
  6
Continuous
 62
     6
370
    20
100
AcDbBlockReference
  2
FXTIP_ARROW_S
 10
259.4210957288847
 20
148.7534865149549
 30
0.0
 41
3.0
 42
3.0
 50
270.0
  0
INSERT
  5
4CE
330
4C8
100
AcDbEntity
  8
用紙-GR2
  6
Continuous
 62
     6
370
    20
100
AcDbBlockReference
  2
FXTIP_ARROW_E
 10
259.4210957288847
 20
171.3843210269773
 30
0.0
 41
3.0
 42
3.0
 50
90.0
  0
LINE
  5
4CF
330
4C8
100
AcDbEntity
  8
用紙-GR2
  6
Continuous
 62
     6
370
    20
100
AcDbLine
 10
248.0445811582123
 20
148.7534865149549
 30
0.0
 11
260.9210957653049
 21
148.7534865149549
 31
0.0
  0
LINE
  5
4D0
330
4C8
100
AcDbEntity
  8
用紙-GR2
  6
Continuous
 62
     6
370
    20
100
AcDbLine
 10
248.0445811582123
 20
171.3843210269776
 30
0.0
 11
260.9210957653049
 21
171.3843210269773
 31
0.0
  0
ENDBLK
  5
4CA
330
4C8
100
AcDbEntity
  8
0
100
AcDbBlockEnd
  0
BLOCK
  5
4D3
330
4D2
100
AcDbEntity
  8
0
100
AcDbBlockBegin
  2
*D38
 70
     1
 10
0.0
 20
0.0
 30
0.0
  3
*D38
  1

  0
TEXT
  5
4D5
330
4D2
100
AcDbEntity
  8
用紙-GR2
  6
Continuous
 62
     6
370
    20
100
AcDbText
 10
234.4364041297403
 20
140.4138157691324
 30
0.0
 40
2.200000047683714
  1
32
 50
0.0000000099999999
 41
0.9090908893868947
 51
15.0
  7
FX_VECTOR
100
AcDbText
  0
LINE
  5
4D6
330
4D2
100
AcDbEntity
  8
用紙-GR2
  6
Continuous
 62
     6
370
    20
100
AcDbLine
 10
225.1209602004101
 20
139.9137900968532
 30
0.0
 11
247.7517947124328
 21
139.9137900968532
 31
0.0
  0
INSERT
  5
4D7
330
4D2
100
AcDbEntity
  8
用紙-GR2
  6
Continuous
 62
     6
370
    20
100
AcDbBlockReference
  2
FXTIP_ARROW_S
 10
225.1209602004101
 20
139.9137900968532
 30
0.0
 41
3.0
 42
3.0
 50
180.0
  0
INSERT
  5
4D8
330
4D2
100
AcDbEntity
  8
用紙-GR2
  6
Continuous
 62
     6
370
    20
100
AcDbBlockReference
  2
FXTIP_ARROW_E
 10
247.7517947124328
 20
139.9137900968532
 30
0.0
 41
3.0
 42
3.0
 50
360.0
  0
LINE
  5
4D9
330
4D2
100
AcDbEntity
  8
用紙-GR2
  6
Continuous
 62
     6
370
    20
100
AcDbLine
 10
225.1209602004101
 20
148.4607000691753
 30
0.0
 11
225.1209602004101
 21
138.4137900604326
 31
0.0
  0
LINE
  5
4DA
330
4D2
100
AcDbEntity
  8
用紙-GR2
  6
Continuous
 62
     6
370
    20
100
AcDbLine
 10
247.7517947124328
 20
148.4607000691753
 30
0.0
 11
247.7517947124325
 21
138.4137900604326
 31
0.0
  0
ENDBLK
  5
4D4
330
4D2
100
AcDbEntity
  8
0
100
AcDbBlockEnd
  0
BLOCK
  5
4DD
330
4DC
100
AcDbEntity
  8
0
100
AcDbBlockBegin
  2
*D39
 70
     1
 10
0.0
 20
0.0
 30
0.0
  3
*D39
  1

  0
TEXT
  5
4DF
330
4DC
100
AcDbEntity
  8
用紙-GR2
  6
Continuous
 62
     6
370
    20
100
AcDbText
 10
143.2150337618513
 20
158.0689058425233
 30
0.0
 40
2.5
  1
26
 50
90.0
 41
0.8
 51
15.0
  7
FX_VECTOR
100
AcDbText
  0
LINE
  5
4E0
330
4DC
100
AcDbEntity
  8
用紙-GR2
  6
Continuous
 62
     6
370
    20
100
AcDbLine
 10
143.71503757995
 20
150.8751272504577
 30
0.0
 11
143.715037579951
 21
169.2626802914765
 31
0.0
  0
INSERT
  5
4E1
330
4DC
100
AcDbEntity
  8
用紙-GR2
  6
Continuous
 62
     6
370
    20
100
AcDbBlockReference
  2
FXTIP_ARROW_S
 10
143.71503757995
 20
150.8751272504577
 30
0.0
 41
3.0
 42
3.0
 50
270.0
  0
INSERT
  5
4E2
330
4DC
100
AcDbEntity
  8
用紙-GR2
  6
Continuous
 62
     6
370
    20
100
AcDbBlockReference
  2
FXTIP_ARROW_E
 10
143.715037579951
 20
169.2626802914765
 30
0.0
 41
3.0
 42
3.0
 50
90.0
  0
LINE
  5
4E3
330
4DC
100
AcDbEntity
  8
用紙-GR2
  6
Continuous
 62
     6
370
    20
100
AcDbLine
 10
151.8145653066878
 20
150.8751272504573
 30
0.0
 11
142.2150375435298
 21
150.8751272504577
 31
0.0
  0
LINE
  5
4E4
330
4DC
100
AcDbEntity
  8
用紙-GR2
  6
Continuous
 62
     6
370
    20
100
AcDbLine
 10
151.814565306688
 20
169.2626802914761
 30
0.0
 11
142.2150375435306
 21
169.2626802914767
 31
0.0
  0
ENDBLK
  5
4DE
330
4DC
100
AcDbEntity
  8
0
100
AcDbBlockEnd
  0
BLOCK
  5
4E7
330
4E6
100
AcDbEntity
  8
0
100
AcDbBlockBegin
  2
*D40
 70
     1
 10
0.0
 20
0.0
 30
0.0
  3
*D40
  1

  0
TEXT
  5
4E9
330
4E6
100
AcDbEntity
  8
用紙-GR2
  6
Continuous
 62
     6
370
    20
100
AcDbText
 10
161.0691571485204
 20
140.3301837923048
 30
0.0
 40
2.5
  1
26
 50
0.0000000099999999
 41
0.8
 51
15.0
  7
FX_VECTOR
100
AcDbText
  0
LINE
  5
4EA
330
4E6
100
AcDbEntity
  8
用紙-GR2
  6
Continuous
 62
     6
370
    20
100
AcDbLine
 10
153.8753856987193
 20
139.8301764204906
 30
0.0
 11
172.2629387397365
 21
139.8301764204906
 31
0.0
  0
INSERT
  5
4EB
330
4E6
100
AcDbEntity
  8
用紙-GR2
  6
Continuous
 62
     6
370
    20
100
AcDbBlockReference
  2
FXTIP_ARROW_S
 10
153.8753856987193
 20
139.8301764204906
 30
0.0
 41
3.0
 42
3.0
 50
180.0
  0
INSERT
  5
4EC
330
4E6
100
AcDbEntity
  8
用紙-GR2
  6
Continuous
 62
     6
370
    20
100
AcDbBlockReference
  2
FXTIP_ARROW_E
 10
172.2629387397365
 20
139.8301764204906
 30
0.0
 41
3.0
 42
3.0
 50
360.0
  0
LINE
  5
4ED
330
4E6
100
AcDbEntity
  8
用紙-GR2
  6
Continuous
 62
     6
370
    20
100
AcDbLine
 10
153.8753856987193
 20
148.8143068584261
 30
0.0
 11
153.8753856987193
 21
138.33017638407
 31
0.0
  0
LINE
  5
4EE
330
4E6
100
AcDbEntity
  8
用紙-GR2
  6
Continuous
 62
     6
370
    20
100
AcDbLine
 10
172.2629387397365
 20
148.8143068584256
 30
0.0
 11
172.2629387397365
 21
138.33017638407
 31
0.0
  0
ENDBLK
  5
4E8
330
4E6
100
AcDbEntity
  8
0
100
AcDbBlockEnd
  0
BLOCK
  5
4F0
330
4EF
100
AcDbEntity
  8
0
100
AcDbBlockBegin
  2
FXDIM043
 70
     0
 10
0.0
 20
0.0
 30
0.0
  3
FXDIM043
  1

  0
LINE
  5
4F3
330
4EF
100
AcDbEntity
  8
用紙-GR2
  6
Continuous
 62
     6
370
    20
100
AcDbLine
 10
153.8753856987193
 20
170.3235006592275
 30
0.0
 11
150.2305582237364
 21
175.1760411869823
 31
0.0
  0
INSERT
  5
4F4
330
4EF
100
AcDbEntity
  8
用紙-GR2
  6
Continuous
 62
     6
370
    20
100
AcDbBlockReference
  2
FXTIP_ARROW_S
 10
153.8753856987193
 20
170.3235006592275
 30
0.0
 41
3.0
 42
3.0
 50
306.9108488191773
  0
LINE
  5
4F5
330
4EF
100
AcDbEntity
  8
用紙-GR2
  6
Continuous
 62
     6
370
    20
100
AcDbLine
 10
150.2305582237364
 20
175.1760411869823
 30
0.0
 11
138.6293056315434
 21
175.1760411869823
 31
0.0
  0
TEXT
  5
4F6
330
4EF
100
AcDbEntity
  8
用紙-GR2
  6
Continuous
 62
     6
370
    20
100
AcDbText
 10
140.429931208976
 20
175.676035576841
 30
0.0
 40
2.5
  1
4-%%c3
 50
0.0000000100000079
 41
0.8
 51
15.0
  7
FX_VECTOR
100
AcDbText
  0
ENDBLK
  5
4F1
330
4EF
100
AcDbEntity
  8
0
100
AcDbBlockEnd
  0
BLOCK
  5
4FD
330
4FC
100
AcDbEntity
  8
0
100
AcDbBlockBegin
  2
*D42
 70
     1
 10
0.0
 20
0.0
 30
0.0
  3
*D42
  1

  0
TEXT
  5
4FF
330
4FC
100
AcDbEntity
  8
用紙-GR2
  6
Continuous
 62
     6
370
    20
100
AcDbText
 10
182.1667649675124
 20
144.594864258503
 30
0.0
 40
2.5
  1
2.5
 41
0.8
 51
15.0
  7
FX_VECTOR
100
AcDbText
  0
LINE
  5
500
330
4FC
100
AcDbEntity
  8
用紙-GR2
  6
Continuous
 62
     6
370
    20
100
AcDbLine
 10
191.1667524625725
 20
144.0948636089749
 30
0.0
 11
192.9347864088243
 21
144.0948636089749
 31
0.0
  0
LINE
  5
501
330
4FC
100
AcDbEntity
  8
用紙-GR2
  6
Continuous
 62
     6
370
    20
100
AcDbLine
 10
191.1667524625725
 20
147.7534864906745
 30
0.0
 11
191.1667524625725
 21
142.5948635725544
 31
0.0
  0
LINE
  5
502
330
4FC
100
AcDbEntity
  8
用紙-GR2
  6
Continuous
 62
     6
370
    20
100
AcDbLine
 10
192.9347864088243
 20
147.7534864906745
 30
0.0
 11
192.9347864088243
 21
142.5948635725544
 31
0.0
  0
LINE
  5
503
330
4FC
100
AcDbEntity
  8
用紙-GR2
  6
Continuous
 62
     6
370
    20
100
AcDbLine
 10
179.1667521712096
 20
144.0948636089749
 30
0.0
 11
191.1667524625725
 21
144.0948636089749
 31
0.0
  0
INSERT
  5
504
330
4FC
100
AcDbEntity
  8
用紙-GR2
  6
Continuous
 62
     6
370
    20
100
AcDbBlockReference
  2
FXTIP_ARROW_E
 10
191.1667524625725
 20
144.0948636089749
 30
0.0
 41
3.0
 42
3.0
 50
360.0
  0
ENDBLK
  5
4FE
330
4FC
100
AcDbEntity
  8
0
100
AcDbBlockEnd
  0
BLOCK
  5
507
330
506
100
AcDbEntity
  8
0
100
AcDbBlockBegin
  2
*D43
 70
     1
 10
0.0
 20
0.0
 30
0.0
  3
*D43
  1

  0
TEXT
  5
509
330
506
100
AcDbEntity
  8
用紙-GR2
  6
Continuous
 62
     6
370
    20
100
AcDbText
 10
192.1633437182305
 20
139.6106142640282
 30
0.0
 40
2.5
  1
7.5
 41
0.8
 51
15.0
  7
FX_VECTOR
100
AcDbText
  0
LINE
  5
50A
330
506
100
AcDbEntity
  8
用紙-GR2
  6
Continuous
 62
     6
370
    20
100
AcDbLine
 10
192.9347864088243
 20
144.0948636089749
 30
0.0
 11
198.2388882475794
 21
144.0948636089749
 31
0.0
  0
INSERT
  5
50B
330
506
100
AcDbEntity
  8
用紙-GR2
  6
Continuous
 62
     6
370
    20
100
AcDbBlockReference
  2
FXTIP_BLACKDOT_S
 10
192.9347864088243
 20
144.0948636089749
 30
0.0
 50
180.0
  0
LINE
  5
50C
330
506
100
AcDbEntity
  8
用紙-GR2
  6
Continuous
 62
     6
370
    20
100
AcDbLine
 10
198.2388882475794
 20
153.05758832943
 30
0.0
 11
198.2388882475794
 21
142.5948635725544
 31
0.0
  0
ENDBLK
  5
508
330
506
100
AcDbEntity
  8
0
100
AcDbBlockEnd
  0
BLOCK
  5
50F
330
50E
100
AcDbEntity
  8
0
100
AcDbBlockBegin
  2
*D44
 70
     1
 10
0.0
 20
0.0
 30
0.0
  3
*D44
  1

  0
TEXT
  5
511
330
50E
100
AcDbEntity
  8
用紙-GR2
  6
Continuous
 62
     6
370
    20
100
AcDbText
 10
200.709906895056
 20
144.594864258503
 30
0.0
 40
2.5
  1
18.3
 41
0.8
 51
15.0
  7
FX_VECTOR
100
AcDbText
  0
LINE
  5
512
330
50E
100
AcDbEntity
  8
用紙-GR2
  6
Continuous
 62
     6
370
    20
100
AcDbLine
 10
198.2388882475794
 20
144.0948636089749
 30
0.0
 11
211.1808967343784
 21
144.0948636089749
 31
0.0
  0
INSERT
  5
513
330
50E
100
AcDbEntity
  8
用紙-GR2
  6
Continuous
 62
     6
370
    20
100
AcDbBlockReference
  2
FXTIP_ARROW_S
 10
198.2388882475794
 20
144.0948636089749
 30
0.0
 41
3.0
 42
3.0
 50
180.0
  0
INSERT
  5
514
330
50E
100
AcDbEntity
  8
用紙-GR2
  6
Continuous
 62
     6
370
    20
100
AcDbBlockReference
  2
FXTIP_ARROW_E
 10
211.1808967343784
 20
144.0948636089749
 30
0.0
 41
3.0
 42
3.0
 50
360.0
  0
LINE
  5
515
330
50E
100
AcDbEntity
  8
用紙-GR2
  6
Continuous
 62
     6
370
    20
100
AcDbLine
 10
211.1808967343784
 20
154.259851412881
 30
0.0
 11
211.1808967343784
 21
142.5948635725544
 31
0.0
  0
ENDBLK
  5
510
330
50E
100
AcDbEntity
  8
0
100
AcDbBlockEnd
  0
BLOCK
  5
518
330
517
100
AcDbEntity
  8
0
100
AcDbBlockBegin
  2
*D45
 70
     1
 10
0.0
 20
0.0
 30
0.0
  3
*D45
  1

  0
TEXT
  5
51A
330
517
100
AcDbEntity
  8
用紙-GR2
  6
Continuous
 62
     6
370
    20
100
AcDbText
 10
197.1738390025526
 20
135.793283940036
 30
0.0
 40
2.5
  1
28.3
 41
0.8
 51
15.0
  7
FX_VECTOR
100
AcDbText
  0
LINE
  5
51B
330
517
100
AcDbEntity
  8
用紙-GR2
  6
Continuous
 62
     6
370
    20
100
AcDbLine
 10
191.1667524625725
 20
135.2932841044574
 30
0.0
 11
211.1808967343784
 21
135.2932841044574
 31
0.0
  0
INSERT
  5
51C
330
517
100
AcDbEntity
  8
用紙-GR2
  6
Continuous
 62
     6
370
    20
100
AcDbBlockReference
  2
FXTIP_ARROW_S
 10
191.1667524625725
 20
135.2932841044574
 30
0.0
 41
3.0
 42
3.0
 50
180.0
  0
INSERT
  5
51D
330
517
100
AcDbEntity
  8
用紙-GR2
  6
Continuous
 62
     6
370
    20
100
AcDbBlockReference
  2
FXTIP_ARROW_E
 10
211.1808967343784
 20
135.2932841044574
 30
0.0
 41
3.0
 42
3.0
 50
360.0
  0
LINE
  5
51E
330
517
100
AcDbEntity
  8
用紙-GR2
  6
Continuous
 62
     6
370
    20
100
AcDbLine
 10
191.1667524625725
 20
147.7534864906745
 30
0.0
 11
191.1667524625725
 21
133.793284068037
 31
0.0
  0
LINE
  5
51F
330
517
100
AcDbEntity
  8
用紙-GR2
  6
Continuous
 62
     6
370
    20
100
AcDbLine
 10
211.1808967343784
 20
154.259851412881
 30
0.0
 11
211.1808967343784
 21
133.793284068037
 31
0.0
  0
TEXT
  5
520
330
517
100
AcDbEntity
  8
用紙-GR2
  6
Continuous
 62
     6
370
    20
100
AcDbText
 10
195.1738338227657
 20
135.793283940036
 30
0.0
 40
2.5
  1
(
 41
0.8
 51
15.0
  7
FX_VECTOR
100
AcDbText
  0
TEXT
  5
521
330
517
100
AcDbEntity
  8
用紙-GR2
  6
Continuous
 62
     6
370
    20
100
AcDbText
 10
205.1738441823395
 20
135.793283940036
 30
0.0
 40
2.5
  1
)
 41
0.8
 51
15.0
  7
FX_VECTOR
100
AcDbText
  0
ENDBLK
  5
519
330
517
100
AcDbEntity
  8
0
100
AcDbBlockEnd
  0
BLOCK
  5
639
330
638
100
AcDbEntity
  8
0
100
AcDbBlockBegin
  2
*D46
 70
     1
 10
0.0
 20
0.0
 30
0.0
  3
*D46
  1

  0
TEXT
  5
63B
330
638
100
AcDbEntity
  8
用紙-GR2
  6
Continuous
 62
     6
370
    20
100
AcDbText
 10
106.6698568686737
 20
123.518095326727
 30
0.0
 40
2.5
  1
ケーブル長（2000）
 41
0.8
  7
FX_VECTOR
100
AcDbText
  0
LINE
  5
63C
330
638
100
AcDbEntity
  8
用紙-GR2
  6
Continuous
 62
     6
370
    20
100
AcDbLine
 10
84.07721351240629
 20
123.0180958111656
 30
0.0
 11
151.2625034699734
 21
123.0180958111656
 31
0.0
  0
INSERT
  5
63D
330
638
100
AcDbEntity
  8
用紙-GR2
  6
Continuous
 62
     6
370
    20
100
AcDbBlockReference
  2
FXTIP_ARROW_S
 10
84.07721351240629
 20
123.0180958111656
 30
0.0
 41
3.0
 42
3.0
 50
180.0
  0
INSERT
  5
63E
330
638
100
AcDbEntity
  8
用紙-GR2
  6
Continuous
 62
     6
370
    20
100
AcDbBlockReference
  2
FXTIP_ARROW_E
 10
151.2625034699734
 20
123.0180958111656
 30
0.0
 41
3.0
 42
3.0
 50
360.0
  0
LINE
  5
63F
330
638
100
AcDbEntity
  8
用紙-GR2
  6
Continuous
 62
     6
370
    20
100
AcDbLine
 10
84.07721351240631
 20
109.5542941229595
 30
0.0
 11
84.07721351240631
 21
124.5180958475861
 31
0.0
  0
LINE
  5
640
330
638
100
AcDbEntity
  8
用紙-GR2
  6
Continuous
 62
     6
370
    20
100
AcDbLine
 10
151.2625034699736
 20
117.8632383218209
 30
0.0
 11
151.2625034699736
 21
124.5180958475861
 31
0.0
  0
ENDBLK
  5
63A
330
638
100
AcDbEntity
  8
0
100
AcDbBlockEnd
  0
BLOCK
  5
643
330
642
100
AcDbEntity
  8
0
100
AcDbBlockBegin
  2
*D47
 70
     1
 10
0.0
 20
0.0
 30
0.0
  3
*D47
  1

  0
TEXT
  5
645
330
642
100
AcDbEntity
  8
用紙-GR2
  6
Continuous
 62
     6
370
    20
100
AcDbText
 10
258.9211039023824
 20
103.1942212915488
 30
0.0
 40
2.5
  1
35
 50
90.0
 41
0.8
 51
15.0
  7
FX_VECTOR
100
AcDbText
  0
LINE
  5
646
330
642
100
AcDbEntity
  8
用紙-GR2
  6
Continuous
 62
     6
370
    20
100
AcDbLine
 10
259.4210957288846
 20
92.81797662851641
 30
0.0
 11
259.4210957288846
 21
117.570451876041
 31
0.0
  0
INSERT
  5
647
330
642
100
AcDbEntity
  8
用紙-GR2
  6
Continuous
 62
     6
370
    20
100
AcDbBlockReference
  2
FXTIP_ARROW_S
 10
259.4210957288846
 20
92.81797662851641
 30
0.0
 41
3.0
 42
3.0
 50
270.0
  0
INSERT
  5
648
330
642
100
AcDbEntity
  8
用紙-GR2
  6
Continuous
 62
     6
370
    20
100
AcDbBlockReference
  2
FXTIP_ARROW_E
 10
259.4210957288846
 20
117.570451876041
 30
0.0
 41
3.0
 42
3.0
 50
90.0
  0
LINE
  5
649
330
642
100
AcDbEntity
  8
用紙-GR2
  6
Continuous
 62
     6
370
    20
100
AcDbLine
 10
250.1852673064813
 20
92.81797662851635
 30
0.0
 11
260.9210957653049
 21
92.81797662851635
 31
0.0
  0
LINE
  5
64A
330
642
100
AcDbEntity
  8
用紙-GR2
  6
Continuous
 62
     6
370
    20
100
AcDbLine
 10
250.1852673064814
 20
117.570451876041
 30
0.0
 11
260.9210957653049
 21
117.570451876041
 31
0.0
  0
ENDBLK
  5
644
330
642
100
AcDbEntity
  8
0
100
AcDbBlockEnd
  0
BLOCK
  5
64D
330
64C
100
AcDbEntity
  8
0
100
AcDbBlockBegin
  2
*D48
 70
     1
 10
0.0
 20
0.0
 30
0.0
  3
*D48
  1

  0
TEXT
  5
64F
330
64C
100
AcDbEntity
  8
用紙-GR2
  6
Continuous
 62
     6
370
    20
100
AcDbText
 10
235.5162602145397
 20
85.52823747872459
 30
0.0
 40
2.5
  1
35
 50
0.0000000099999999
 41
0.8
 51
15.0
  7
FX_VECTOR
100
AcDbText
  0
LINE
  5
650
330
64C
100
AcDbEntity
  8
用紙-GR2
  6
Continuous
 62
     6
370
    20
100
AcDbLine
 10
225.1400056131769
 20
85.02824210565291
 30
0.0
 11
249.8924808607016
 21
85.02824210565291
 31
0.0
  0
INSERT
  5
651
330
64C
100
AcDbEntity
  8
用紙-GR2
  6
Continuous
 62
     6
370
    20
100
AcDbBlockReference
  2
FXTIP_ARROW_S
 10
225.1400056131769
 20
85.02824210565291
 30
0.0
 41
3.0
 42
3.0
 50
180.0
  0
INSERT
  5
652
330
64C
100
AcDbEntity
  8
用紙-GR2
  6
Continuous
 62
     6
370
    20
100
AcDbBlockReference
  2
FXTIP_ARROW_E
 10
249.8924808607016
 20
85.02824210565291
 30
0.0
 41
3.0
 42
3.0
 50
360.0
  0
LINE
  5
653
330
64C
100
AcDbEntity
  8
用紙-GR2
  6
Continuous
 62
     6
370
    20
100
AcDbLine
 10
225.1400056131769
 20
92.52519018273682
 30
0.0
 11
225.1400056131769
 21
83.5282420692325
 31
0.0
  0
LINE
  5
654
330
64C
100
AcDbEntity
  8
用紙-GR2
  6
Continuous
 62
     6
370
    20
100
AcDbLine
 10
249.8924808607016
 20
92.52519018273682
 30
0.0
 11
249.8924808607016
 21
83.5282420692325
 31
0.0
  0
ENDBLK
  5
64E
330
64C
100
AcDbEntity
  8
0
100
AcDbBlockEnd
  0
BLOCK
  5
656
330
655
100
AcDbEntity
  8
0
100
AcDbBlockBegin
  2
FXDIM051
 70
     0
 10
0.0
 20
0.0
 30
0.0
  3
FXDIM051
  1

  0
LINE
  5
659
330
655
100
AcDbEntity
  8
用紙-GR2
  6
Continuous
 62
     6
370
    20
100
AcDbLine
 10
50.85700261102017
 20
100.7039456865179
 30
0.0
 11
48.79604525152618
 21
84.41256846385122
 31
0.0
  0
INSERT
  5
65A
330
655
100
AcDbEntity
  8
用紙-GR2
  6
Continuous
 62
     6
370
    20
100
AcDbBlockReference
  2
FXTIP_BLACKDOT_S
 10
50.85700261102017
 20
100.7039456865179
 30
0.0
 50
82.79003815438413
  0
LINE
  5
65B
330
655
100
AcDbEntity
  8
用紙-GR2
  6
Continuous
 62
     6
370
    20
100
AcDbLine
 10
48.79604525152618
 20
84.41256846385122
 30
0.0
 11
38.42247930641128
 21
84.41256846385122
 31
0.0
  0
TEXT
  5
65C
330
655
100
AcDbEntity
  8
用紙-GR2
  6
Continuous
 62
     6
370
    20
100
AcDbText
 10
40.60926033246635
 20
84.91256584320153
 30
0.0
 40
2.5
  1
排気口
 50
0.0000000100000079
 41
0.8
  7
FX_VECTOR
100
AcDbText
  0
ENDBLK
  5
657
330
655
100
AcDbEntity
  8
0
100
AcDbBlockEnd
  0
BLOCK
  5
65E
330
65D
100
AcDbEntity
  8
0
100
AcDbBlockBegin
  2
FXDIM052
 70
     0
 10
0.0
 20
0.0
 30
0.0
  3
FXDIM052
  1

  0
LINE
  5
661
330
65D
100
AcDbEntity
  8
用紙-GR2
  6
Continuous
 62
     6
370
    20
100
AcDbLine
 10
89.61868485401081
 20
102.0790829723003
 30
0.0
 11
87.39588072449391
 21
84.21726407439676
 31
0.0
  0
INSERT
  5
662
330
65D
100
AcDbEntity
  8
用紙-GR2
  6
Continuous
 62
     6
370
    20
100
AcDbBlockReference
  2
FXTIP_BLACKDOT_S
 10
89.61868485401081
 20
102.0790829723003
 30
0.0
 50
82.90632707221289
  0
LINE
  5
663
330
65D
100
AcDbEntity
  8
用紙-GR2
  6
Continuous
 62
     6
370
    20
100
AcDbLine
 10
87.39588072449391
 20
84.21726407439676
 30
0.0
 11
59.62806929303864
 21
84.21726407439676
 31
0.0
  0
TEXT
  5
664
330
65D
100
AcDbEntity
  8
用紙-GR2
  6
Continuous
 62
     6
370
    20
100
AcDbText
 10
62.51196807041194
 20
84.71726629127266
 30
0.0
 40
2.5
  1
電源ケーブル/コネクタ
 50
0.0000000100000079
 41
0.8
  7
FX_VECTOR
100
AcDbText
  0
ENDBLK
  5
65F
330
65D
100
AcDbEntity
  8
0
100
AcDbBlockEnd
  0
BLOCK
  5
667
330
666
100
AcDbEntity
  8
0
100
AcDbBlockBegin
  2
*D51
 70
     1
 10
0.0
 20
0.0
 30
0.0
  3
*D51
  1

  0
TEXT
  5
669
330
666
100
AcDbEntity
  8
用紙-GR2
  6
Continuous
 62
     6
370
    20
100
AcDbText
 10
174.4368470878545
 20
65.59295537751669
 30
0.0
 40
2.5
  1
20
 50
90.0
 41
0.8
 51
15.0
  7
FX_VECTOR
100
AcDbText
  0
LINE
  5
66A
330
666
100
AcDbEntity
  8
用紙-GR2
  6
Continuous
 62
     6
370
    20
100
AcDbLine
 10
174.9368511304059
 20
60.52082593307956
 30
0.0
 11
174.9368511304059
 21
74.66509750309372
 31
0.0
  0
INSERT
  5
66B
330
666
100
AcDbEntity
  8
用紙-GR2
  6
Continuous
 62
     6
370
    20
100
AcDbBlockReference
  2
FXTIP_ARROW_S
 10
174.9368511304059
 20
60.52082593307956
 30
0.0
 41
3.0
 42
3.0
 50
270.0
  0
INSERT
  5
66C
330
666
100
AcDbEntity
  8
用紙-GR2
  6
Continuous
 62
     6
370
    20
100
AcDbBlockReference
  2
FXTIP_ARROW_E
 10
174.9368511304059
 20
74.66509750309372
 30
0.0
 41
3.0
 42
3.0
 50
90.0
  0
LINE
  5
66D
330
666
100
AcDbEntity
  8
用紙-GR2
  6
Continuous
 62
     6
370
    20
100
AcDbLine
 10
180.6726873212239
 20
60.52082593307956
 30
0.0
 11
173.4368510939854
 21
60.52082593307956
 31
0.0
  0
LINE
  5
66E
330
666
100
AcDbEntity
  8
用紙-GR2
  6
Continuous
 62
     6
370
    20
100
AcDbLine
 10
180.6726873212237
 20
74.6650975030937
 30
0.0
 11
173.4368510939854
 21
74.66509750309372
 31
0.0
  0
ENDBLK
  5
668
330
666
100
AcDbEntity
  8
0
100
AcDbBlockEnd
  0
BLOCK
  5
670
330
66F
100
AcDbEntity
  8
0
100
AcDbBlockBegin
  2
FXDIM054
 70
     0
 10
0.0
 20
0.0
 30
0.0
  3
FXDIM054
  1

  0
LINE
  5
673
330
66F
100
AcDbEntity
  8
用紙-GR2
  6
Continuous
 62
     6
370
    20
100
AcDbLine
 10
184.7389895758988
 20
98.50159932049812
 30
0.0
 11
186.853310253902
 21
85.13016089251626
 31
0.0
  0
INSERT
  5
674
330
66F
100
AcDbEntity
  8
用紙-GR2
  6
Continuous
 62
     6
370
    20
100
AcDbBlockReference
  2
FXTIP_BLACKDOT_S
 10
184.7389895758988
 20
98.50159932049812
 30
0.0
 50
98.98533939812937
  0
LINE
  5
675
330
66F
100
AcDbEntity
  8
用紙-GR2
  6
Continuous
 62
     6
370
    20
100
AcDbLine
 10
186.853310253902
 20
85.13016089251626
 30
0.0
 11
198.3442581629953
 21
85.13016089251626
 31
0.0
  0
TEXT
  5
676
330
66F
100
AcDbEntity
  8
用紙-GR2
  6
Continuous
 62
     6
370
    20
100
AcDbText
 10
189.5987664510034
 20
85.6301551824403
 30
0.0
 40
2.5
  1
排気口
 50
0.0000000099999999
 41
0.8
  7
FX_VECTOR
100
AcDbText
  0
ENDBLK
  5
671
330
66F
100
AcDbEntity
  8
0
100
AcDbBlockEnd
  0
BLOCK
  5
67A
330
679
100
AcDbEntity
  8
0
100
AcDbBlockBegin
  2
FXDIM055
 70
     0
 10
0.0
 20
0.0
 30
0.0
  3
FXDIM055
  1

  0
LINE
  5
67D
330
679
100
AcDbEntity
  8
用紙-GR2
  6
Continuous
 62
     6
370
    20
100
AcDbLine
 10
182.8996440833726
 20
75.76060867457572
 30
0.0
 11
175.3309368510221
 21
85.02824210565291
 31
0.0
  0
INSERT
  5
67E
330
679
100
AcDbEntity
  8
用紙-GR2
  6
Continuous
 62
     6
370
    20
100
AcDbBlockReference
  2
FXTIP_ARROW_S
 10
182.8996440833726
 20
75.76060867457572
 30
0.0
 41
3.0
 42
3.0
 50
309.2378860821723
  0
LINE
  5
67F
330
679
100
AcDbEntity
  8
用紙-GR2
  6
Continuous
 62
     6
370
    20
100
AcDbLine
 10
175.3309368510221
 20
85.02824210565291
 30
0.0
 11
147.973926984102
 21
85.02824210565291
 31
0.0
  0
TEXT
  5
680
330
679
100
AcDbEntity
  8
用紙-GR2
  6
Continuous
 62
     6
370
    20
100
AcDbText
 10
149.6524314610589
 20
85.52824287468506
 30
0.0
 40
2.5
  1
2-M4深さ4（固定用）
 41
0.8
  7
FX_VECTOR
100
AcDbText
  0
ENDBLK
  5
67B
330
679
100
AcDbEntity
  8
0
100
AcDbBlockEnd
  0
BLOCK
  5
682
330
681
100
AcDbEntity
  8
0
100
AcDbBlockBegin
  2
FXDIM056
 70
     0
 10
0.0
 20
0.0
 30
0.0
  3
FXDIM056
  1

  0
LINE
  5
685
330
681
100
AcDbEntity
  8
用紙-GR2
  6
Continuous
 62
     6
370
    20
100
AcDbLine
 10
238.3111768155284
 20
104.275375567907
 30
0.0
 11
253.9251931775721
 21
84.63193562856154
 31
0.0
  0
INSERT
  5
686
330
681
100
AcDbEntity
  8
用紙-GR2
  6
Continuous
 62
     6
370
    20
100
AcDbBlockReference
  2
FXTIP_BLACKDOT_S
 10
238.3111768155284
 20
104.275375567907
 30
0.0
 50
128.4801982483429
  0
LINE
  5
687
330
681
100
AcDbEntity
  8
用紙-GR2
  6
Continuous
 62
     6
370
    20
100
AcDbLine
 10
253.9251931775721
 20
84.63193562856154
 30
0.0
 11
265.1949872453377
 21
84.63193562856154
 31
0.0
  0
TEXT
  5
688
330
681
100
AcDbEntity
  8
用紙-GR2
  6
Continuous
 62
     6
370
    20
100
AcDbText
 10
255.5600953702373
 20
85.13193521605177
 30
0.0
 40
2.5
  1
光出射口
 50
0.0000000099999999
 41
0.8
  7
FX_VECTOR
100
AcDbText
  0
ENDBLK
  5
683
330
681
100
AcDbEntity
  8
0
100
AcDbBlockEnd
  0
BLOCK
  5
69A
330
699
100
AcDbEntity
  8
0
100
AcDbBlockBegin
  2
*D55
 70
     1
 10
0.0
 20
0.0
 30
0.0
  3
*D55
  1

  0
TEXT
  5
69C
330
699
100
AcDbEntity
  8
用紙-GR2
  6
Continuous
 62
     6
370
    20
100
AcDbText
 10
177.0715606559959
 20
123.518095326727
 30
0.0
 40
2.5
  1
84.3
 41
0.8
 51
15.0
  7
FX_VECTOR
100
AcDbText
  0
LINE
  5
69D
330
699
100
AcDbEntity
  8
用紙-GR2
  6
Continuous
 62
     6
370
    20
100
AcDbLine
 10
151.2625034699734
 20
123.0180958111656
 30
0.0
 11
210.8806081378189
 21
123.0180958111656
 31
0.0
  0
INSERT
  5
69E
330
699
100
AcDbEntity
  8
用紙-GR2
  6
Continuous
 62
     6
370
    20
100
AcDbBlockReference
  2
FXTIP_ARROW_S
 10
151.2625034699734
 20
123.0180958111656
 30
0.0
 41
3.0
 42
3.0
 50
180.0
  0
INSERT
  5
69F
330
699
100
AcDbEntity
  8
用紙-GR2
  6
Continuous
 62
     6
370
    20
100
AcDbBlockReference
  2
FXTIP_ARROW_E
 10
210.8806081378189
 20
123.0180958111656
 30
0.0
 41
3.0
 42
3.0
 50
360.0
  0
LINE
  5
6A0
330
699
100
AcDbEntity
  8
用紙-GR2
  6
Continuous
 62
     6
370
    20
100
AcDbLine
 10
151.2625034699736
 20
117.8632383218209
 30
0.0
 11
151.2625034699734
 21
124.5180958475861
 31
0.0
  0
LINE
  5
6A1
330
699
100
AcDbEntity
  8
用紙-GR2
  6
Continuous
 62
     6
370
    20
100
AcDbLine
 10
210.8806081378189
 20
111.0032666103641
 30
0.0
 11
210.8806081378189
 21
124.5180958475861
 31
0.0
  0
ENDBLK
  5
69B
330
699
100
AcDbEntity
  8
0
100
AcDbBlockEnd
  0
BLOCK
  5
6F5
330
6F4
100
AcDbEntity
  8
0
100
AcDbBlockBegin
  2
*D56
 70
     1
 10
0.0
 20
0.0
 30
0.0
  3
*D56
  1

  0
TEXT
  5
6F7
330
6F4
100
AcDbEntity
  8
用紙-GR2
  6
Continuous
 62
     6
370
    20
100
AcDbText
 10
218.5659880685334
 20
159.5689073964595
 30
0.0
 40
2.200000047683714
  1
14
 50
90.0
 41
0.9090908893868947
 51
15.0
  7
FX_VECTOR
100
AcDbText
  0
LINE
  5
6F8
330
6F4
100
AcDbEntity
  8
用紙-GR2
  6
Continuous
 62
     6
370
    20
100
AcDbLine
 10
219.0659947726913
 20
155.1184087214613
 30
0.0
 11
219.0659947726913
 21
165.0193988204712
 31
0.0
  0
INSERT
  5
6F9
330
6F4
100
AcDbEntity
  8
用紙-GR2
  6
Continuous
 62
     6
370
    20
100
AcDbBlockReference
  2
FXTIP_ARROW_S
 10
219.0659947726913
 20
155.1184087214613
 30
0.0
 41
3.0
 42
3.0
 50
270.0
  0
INSERT
  5
6FA
330
6F4
100
AcDbEntity
  8
用紙-GR2
  6
Continuous
 62
     6
370
    20
100
AcDbBlockReference
  2
FXTIP_ARROW_E
 10
219.0659947726913
 20
165.0193988204712
 30
0.0
 41
3.0
 42
3.0
 50
90.0
  0
LINE
  5
6FB
330
6F4
100
AcDbEntity
  8
用紙-GR2
  6
Continuous
 62
     6
370
    20
100
AcDbLine
 10
212.0394540429584
 20
155.1184087214613
 30
0.0
 11
220.5659948091116
 21
155.1184087214613
 31
0.0
  0
LINE
  5
6FC
330
6F4
100
AcDbEntity
  8
用紙-GR2
  6
Continuous
 62
     6
370
    20
100
AcDbLine
 10
212.0394540429584
 20
165.0193988204712
 30
0.0
 11
220.5659948091116
 21
165.0193988204712
 31
0.0
  0
TEXT
  5
6FD
330
6F4
100
AcDbEntity
  8
用紙-GR2
  6
Continuous
 62
     6
370
    20
100
AcDbText
 10
218.5659880685334
 20
157.5689042885873
 30
0.0
 40
2.200000047683714
  1
%%c
 50
90.0
 41
0.9090908893868947
 51
15.0
  7
FX_VECTOR
100
AcDbText
  0
ENDBLK
  5
6F6
330
6F4
100
AcDbEntity
  8
0
100
AcDbBlockEnd
  0
BLOCK
  5
700
330
6FF
100
AcDbEntity
  8
0
100
AcDbBlockBegin
  2
*D57
 70
     1
 10
0.0
 20
0.0
 30
0.0
  3
*D57
  1

  0
TEXT
  5
702
330
6FF
100
AcDbEntity
  8
用紙-GR2
  6
Continuous
 62
     6
370
    20
100
AcDbText
 10
185.3304051422161
 20
50.27007517079484
 30
0.0
 40
2.5
  1
10
 41
0.8
 51
15.0
  7
FX_VECTOR
100
AcDbText
  0
LINE
  5
703
330
6FF
100
AcDbEntity
  8
用紙-GR2
  6
Continuous
 62
     6
370
    20
100
AcDbLine
 10
183.7943280810063
 20
49.77007672781813
 30
0.0
 11
190.8664638660136
 21
49.77007672781813
 31
0.0
  0
INSERT
  5
704
330
6FF
100
AcDbEntity
  8
用紙-GR2
  6
Continuous
 62
     6
370
    20
100
AcDbBlockReference
  2
FXTIP_ARROW_S
 10
183.7943280810063
 20
49.77007672781813
 30
0.0
 41
3.0
 42
3.0
 50
180.0
  0
INSERT
  5
705
330
6FF
100
AcDbEntity
  8
用紙-GR2
  6
Continuous
 62
     6
370
    20
100
AcDbBlockReference
  2
FXTIP_ARROW_E
 10
190.8664638660136
 20
49.77007672781813
 30
0.0
 41
3.0
 42
3.0
 50
360.0
  0
LINE
  5
706
330
6FF
100
AcDbEntity
  8
用紙-GR2
  6
Continuous
 62
     6
370
    20
100
AcDbLine
 10
183.7943280810063
 20
57.39918517329718
 30
0.0
 11
183.7943280810063
 21
48.27007669139777
 31
0.0
  0
LINE
  5
707
330
6FF
100
AcDbEntity
  8
用紙-GR2
  6
Continuous
 62
     6
370
    20
100
AcDbLine
 10
190.8664638660136
 20
54.9239376485444
 30
0.0
 11
190.8664638660136
 21
48.27007669139777
 31
0.0
  0
ENDBLK
  5
701
330
6FF
100
AcDbEntity
  8
0
100
AcDbBlockEnd
  0
BLOCK
  5
70A
330
709
100
AcDbEntity
  8
0
100
AcDbBlockBegin
  2
*D58
 70
     1
 10
0.0
 20
0.0
 30
0.0
  3
*D58
  1

  0
TEXT
  5
70C
330
709
100
AcDbEntity
  8
用紙-GR2
  6
Continuous
 62
     6
370
    20
100
AcDbText
 10
196.8735408540155
 20
50.27007517079484
 30
0.0
 40
2.5
  1
28.3
 41
0.8
 51
15.0
  7
FX_VECTOR
100
AcDbText
  0
LINE
  5
70D
330
709
100
AcDbEntity
  8
用紙-GR2
  6
Continuous
 62
     6
370
    20
100
AcDbLine
 10
190.8664638660136
 20
49.77007672781813
 30
0.0
 11
210.8806081378189
 21
49.77007672781813
 31
0.0
  0
INSERT
  5
70E
330
709
100
AcDbEntity
  8
用紙-GR2
  6
Continuous
 62
     6
370
    20
100
AcDbBlockReference
  2
FXTIP_ARROW_S
 10
190.8664638660136
 20
49.77007672781813
 30
0.0
 41
3.0
 42
3.0
 50
180.0
  0
INSERT
  5
70F
330
709
100
AcDbEntity
  8
用紙-GR2
  6
Continuous
 62
     6
370
    20
100
AcDbBlockReference
  2
FXTIP_ARROW_E
 10
210.8806081378189
 20
49.77007672781813
 30
0.0
 41
3.0
 42
3.0
 50
360.0
  0
LINE
  5
710
330
709
100
AcDbEntity
  8
用紙-GR2
  6
Continuous
 62
     6
370
    20
100
AcDbLine
 10
210.8806081378189
 20
61.78390936000161
 30
0.0
 11
210.8806081378189
 21
48.27007669139776
 31
0.0
  0
TEXT
  5
711
330
709
100
AcDbEntity
  8
用紙-GR2
  6
Continuous
 62
     6
370
    20
100
AcDbText
 10
194.8735356742287
 20
50.27007517079484
 30
0.0
 40
2.5
  1
(
 41
0.8
 51
15.0
  7
FX_VECTOR
100
AcDbText
  0
TEXT
  5
712
330
709
100
AcDbEntity
  8
用紙-GR2
  6
Continuous
 62
     6
370
    20
100
AcDbText
 10
204.8735460338026
 20
50.27007517079484
 30
0.0
 40
2.5
  1
)
 41
0.8
 51
15.0
  7
FX_VECTOR
100
AcDbText
  0
ENDBLK
  5
70B
330
709
100
AcDbEntity
  8
0
100
AcDbBlockEnd
  0
ENDSEC
  0
SECTION
  2
ENTITIES
  0
LINE
  5
261
330
1F
100
AcDbEntity
  8
用紙-GR2
  6
Continuous
 62
     7
370
    20
100
AcDbLine
 10
249.5330220276113
 20
96.40334323917187
 30
0.0
 11
249.5330220276109
 21
129.4033432391718
 31
0.0
  0
ARC
  5
262
330
1F
100
AcDbEntity
  8
用紙-GR2
  6
Continuous
 62
     7
370
    20
100
AcDbCircle
 10
248.5330220276114
 20
96.40334323917187
 30
0.0
 40
1.0
100
AcDbArc
 50
270.0
 51
0.0
  0
LINE
  5
263
330
1F
100
AcDbEntity
  8
用紙-GR2
  6
Continuous
 62
     7
370
    20
100
AcDbLine
 10
197.5330220276113
 20
95.40334323917207
 30
0.0
 11
248.5330220276114
 21
95.40334323917189
 31
0.0
  0
LINE
  5
264
330
1F
100
AcDbEntity
  8
用紙-GR2
  6
Continuous
 62
     7
370
    20
100
AcDbLine
 10
237.5330220276113
 20
99.40334323917186
 30
0.0
 11
242.5330220276118
 21
99.40334323917186
 31
0.0
  0
ARC
  5
265
330
1F
100
AcDbEntity
  8
用紙-GR2
  6
Continuous
 62
     7
370
    20
100
AcDbCircle
 10
242.5330220276118
 20
100.4033432391718
 30
0.0
 40
1.0
100
AcDbArc
 50
270.0
 51
0.0
  0
LINE
  5
266
330
1F
100
AcDbEntity
  8
用紙-GR2
  6
Continuous
 62
     7
370
    20
100
AcDbLine
 10
197.5330220276108
 20
130.4033432391718
 30
0.0
 11
248.5330220276107
 21
130.4033432391718
 31
0.0
  0
ARC
  5
267
330
1F
100
AcDbEntity
  8
用紙-GR2
  6
Continuous
 62
     7
370
    20
100
AcDbCircle
 10
248.5330220276107
 20
129.4033432391718
 30
0.0
 40
1.0
100
AcDbArc
 50
0.0
 51
90.0
  0
LINE
  5
268
330
1F
100
AcDbEntity
  8
用紙-GR2
  6
Continuous
 62
     7
370
    20
100
AcDbLine
 10
237.5330220276113
 20
126.4033432391719
 30
0.0
 11
242.5330220276118
 21
126.4033432391719
 31
0.0
  0
ARC
  5
269
330
1F
100
AcDbEntity
  8
用紙-GR2
  6
Continuous
 62
     7
370
    20
100
AcDbCircle
 10
237.5330220276113
 20
125.4033432391718
 30
0.0
 40
1.0
100
AcDbArc
 50
90.0
 51
180.0
  0
LINE
  5
26A
330
1F
100
AcDbEntity
  8
用紙-GR2
  6
Continuous
 62
     7
370
    20
100
AcDbLine
 10
197.5330220276113
 20
95.40334323917207
 30
0.0
 11
197.5330220276113
 21
130.4033432391718
 31
0.0
  0
LINE
  5
26B
330
1F
100
AcDbEntity
  8
用紙-GR2
  6
DASHDOT
 62
     6
370
    20
100
AcDbLine
 10
256.4219127770268
 20
112.9033432391723
 30
0.0
 11
94.2181202276137
 21
112.9033432391723
 31
0.0
  0
LINE
  5
26C
330
1F
100
AcDbEntity
  8
用紙-GR2
  6
Continuous
 62
     7
370
    20
100
AcDbLine
 10
243.5330220276117
 20
125.4033432391718
 30
0.0
 11
243.5330220276117
 21
100.4033432391718
 31
0.0
  0
ARC
  5
26D
330
1F
100
AcDbEntity
  8
用紙-GR2
  6
Continuous
 62
     7
370
    20
100
AcDbCircle
 10
242.5330220276118
 20
125.4033432391718
 30
0.0
 40
1.0
100
AcDbArc
 50
0.0
 51
90.0
  0
LINE
  5
26E
330
1F
100
AcDbEntity
  8
用紙-GR2
  6
Continuous
 62
     7
370
    20
100
AcDbLine
 10
236.5330220276113
 20
125.4033432391718
 30
0.0
 11
236.5330220276113
 21
100.4033432391718
 31
0.0
  0
ARC
  5
26F
330
1F
100
AcDbEntity
  8
用紙-GR2
  6
Continuous
 62
     7
370
    20
100
AcDbCircle
 10
237.5330220276113
 20
100.4033432391718
 30
0.0
 40
1.0
100
AcDbArc
 50
180.0
 51
270.0
  0
LINE
  5
270
330
1F
100
AcDbEntity
  8
用紙-GR2
  6
Continuous
 62
     7
370
    20
100
AcDbLine
 10
236.5330220276119
 20
100.3233432391719
 30
0.0
 11
243.5330220276117
 21
100.3933432391718
 31
0.0
  0
LINE
  5
271
330
1F
100
AcDbEntity
  8
用紙-GR2
  6
Continuous
 62
     7
370
    20
100
AcDbLine
 10
236.5330220276119
 20
101.4833432391718
 30
0.0
 11
243.5330220276117
 21
101.4133432391718
 31
0.0
  0
LINE
  5
272
330
1F
100
AcDbEntity
  8
用紙-GR2
  6
Continuous
 62
     7
370
    20
100
AcDbLine
 10
236.5330220276119
 20
102.3233432391719
 30
0.0
 11
243.5330220276117
 21
102.3933432391718
 31
0.0
  0
LINE
  5
273
330
1F
100
AcDbEntity
  8
用紙-GR2
  6
Continuous
 62
     7
370
    20
100
AcDbLine
 10
236.5330220276119
 20
103.4833432391718
 30
0.0
 11
243.5330220276117
 21
103.4133432391718
 31
0.0
  0
LINE
  5
274
330
1F
100
AcDbEntity
  8
用紙-GR2
  6
Continuous
 62
     7
370
    20
100
AcDbLine
 10
236.5330220276119
 20
104.3233432391719
 30
0.0
 11
243.5330220276117
 21
104.3933432391718
 31
0.0
  0
LINE
  5
275
330
1F
100
AcDbEntity
  8
用紙-GR2
  6
Continuous
 62
     7
370
    20
100
AcDbLine
 10
236.5330220276119
 20
105.4833432391718
 30
0.0
 11
243.5330220276117
 21
105.4133432391718
 31
0.0
  0
LINE
  5
276
330
1F
100
AcDbEntity
  8
用紙-GR2
  6
Continuous
 62
     7
370
    20
100
AcDbLine
 10
236.5330220276119
 20
106.3233432391718
 30
0.0
 11
243.5330220276117
 21
106.3933432391718
 31
0.0
  0
LINE
  5
277
330
1F
100
AcDbEntity
  8
用紙-GR2
  6
Continuous
 62
     7
370
    20
100
AcDbLine
 10
236.5330220276119
 20
107.4833432391719
 30
0.0
 11
243.5330220276117
 21
107.4133432391717
 31
0.0
  0
LINE
  5
278
330
1F
100
AcDbEntity
  8
用紙-GR2
  6
Continuous
 62
     7
370
    20
100
AcDbLine
 10
236.5330220276119
 20
108.323343239172
 30
0.0
 11
243.5330220276117
 21
108.3933432391719
 31
0.0
  0
LINE
  5
279
330
1F
100
AcDbEntity
  8
用紙-GR2
  6
Continuous
 62
     7
370
    20
100
AcDbLine
 10
236.5330220276119
 20
109.4833432391718
 30
0.0
 11
243.5330220276117
 21
109.4133432391719
 31
0.0
  0
LINE
  5
27A
330
1F
100
AcDbEntity
  8
用紙-GR2
  6
Continuous
 62
     7
370
    20
100
AcDbLine
 10
236.5330220276119
 20
110.3233432391719
 30
0.0
 11
243.5330220276117
 21
110.3933432391718
 31
0.0
  0
LINE
  5
27B
330
1F
100
AcDbEntity
  8
用紙-GR2
  6
Continuous
 62
     7
370
    20
100
AcDbLine
 10
236.5330220276119
 20
111.4833432391718
 30
0.0
 11
243.5330220276117
 21
111.4133432391719
 31
0.0
  0
LINE
  5
27C
330
1F
100
AcDbEntity
  8
用紙-GR2
  6
Continuous
 62
     7
370
    20
100
AcDbLine
 10
236.5330220276119
 20
112.3233432391719
 30
0.0
 11
243.5330220276117
 21
112.3933432391719
 31
0.0
  0
LINE
  5
27D
330
1F
100
AcDbEntity
  8
用紙-GR2
  6
Continuous
 62
     7
370
    20
100
AcDbLine
 10
236.5330220276109
 20
113.4833432391717
 30
0.0
 11
243.5330220276117
 21
113.4133432391718
 31
0.0
  0
LINE
  5
27E
330
1F
100
AcDbEntity
  8
用紙-GR2
  6
Continuous
 62
     7
370
    20
100
AcDbLine
 10
236.5330220276109
 20
114.3233432391719
 30
0.0
 11
243.5330220276117
 21
114.3933432391718
 31
0.0
  0
LINE
  5
27F
330
1F
100
AcDbEntity
  8
用紙-GR2
  6
Continuous
 62
     7
370
    20
100
AcDbLine
 10
236.5330220276109
 20
115.4833432391717
 30
0.0
 11
243.5330220276117
 21
115.4133432391718
 31
0.0
  0
LINE
  5
280
330
1F
100
AcDbEntity
  8
用紙-GR2
  6
Continuous
 62
     7
370
    20
100
AcDbLine
 10
236.5330220276109
 20
116.3233432391719
 30
0.0
 11
243.5330220276117
 21
116.3933432391718
 31
0.0
  0
LINE
  5
281
330
1F
100
AcDbEntity
  8
用紙-GR2
  6
Continuous
 62
     7
370
    20
100
AcDbLine
 10
236.5330220276109
 20
117.4833432391717
 30
0.0
 11
243.5330220276117
 21
117.4133432391718
 31
0.0
  0
LINE
  5
282
330
1F
100
AcDbEntity
  8
用紙-GR2
  6
Continuous
 62
     7
370
    20
100
AcDbLine
 10
236.5330220276109
 20
118.3233432391718
 30
0.0
 11
243.5330220276117
 21
118.3933432391718
 31
0.0
  0
LINE
  5
283
330
1F
100
AcDbEntity
  8
用紙-GR2
  6
Continuous
 62
     7
370
    20
100
AcDbLine
 10
236.5330220276109
 20
119.4833432391717
 30
0.0
 11
243.5330220276117
 21
119.4133432391717
 31
0.0
  0
LINE
  5
284
330
1F
100
AcDbEntity
  8
用紙-GR2
  6
Continuous
 62
     7
370
    20
100
AcDbLine
 10
236.5330220276109
 20
120.3233432391718
 30
0.0
 11
243.5330220276117
 21
120.3933432391718
 31
0.0
  0
LINE
  5
285
330
1F
100
AcDbEntity
  8
用紙-GR2
  6
Continuous
 62
     7
370
    20
100
AcDbLine
 10
236.5330220276109
 20
121.4833432391718
 30
0.0
 11
243.5330220276117
 21
121.4133432391717
 31
0.0
  0
LINE
  5
286
330
1F
100
AcDbEntity
  8
用紙-GR2
  6
Continuous
 62
     7
370
    20
100
AcDbLine
 10
236.5330220276109
 20
122.323343239172
 30
0.0
 11
243.5330220276117
 21
122.3933432391719
 31
0.0
  0
LINE
  5
287
330
1F
100
AcDbEntity
  8
用紙-GR2
  6
Continuous
 62
     7
370
    20
100
AcDbLine
 10
236.5330220276109
 20
123.4833432391718
 30
0.0
 11
243.5330220276117
 21
123.4133432391718
 31
0.0
  0
LINE
  5
288
330
1F
100
AcDbEntity
  8
用紙-GR2
  6
Continuous
 62
     7
370
    20
100
AcDbLine
 10
236.5330220276109
 20
124.323343239172
 30
0.0
 11
243.5330220276117
 21
124.3933432391719
 31
0.0
  0
LINE
  5
289
330
1F
100
AcDbEntity
  8
用紙-GR2
  6
Continuous
 62
     7
370
    20
100
AcDbLine
 10
236.5362245942872
 20
125.4833112135051
 30
0.0
 11
243.5329720213607
 21
125.4133437392343
 31
0.0
  0
LINE
  5
28A
330
1F
100
AcDbEntity
  8
用紙-GR2
  6
Continuous
 62
     7
370
    20
100
AcDbLine
 10
237.1560641971773
 20
126.3295736608675
 30
0.0
 11
242.7224516730988
 21
126.3852375356266
 31
0.0
  0
LINE
  5
28B
330
1F
100
AcDbEntity
  8
用紙-GR2
  6
Continuous
 62
     7
370
    20
100
AcDbLine
 10
237.1560641971773
 20
99.47711281747709
 30
0.0
 11
242.7224516730988
 21
99.42144894271793
 31
0.0
  0
LINE
  5
28C
330
1F
100
AcDbEntity
  8
用紙-GR2
  6
Continuous
 62
     7
370
    20
100
AcDbLine
 10
193.5330220276113
 20
96.40334323917235
 30
0.0
 11
193.5330220276109
 21
129.4033432391723
 31
0.0
  0
ARC
  5
28D
330
1F
100
AcDbEntity
  8
用紙-GR2
  6
Continuous
 62
     7
370
    20
100
AcDbCircle
 10
194.5330220276113
 20
96.40334323917235
 30
0.0
 40
1.0
100
AcDbArc
 50
244.1581065505013
 51
270.0
  0
LINE
  5
28E
330
1F
100
AcDbEntity
  8
用紙-GR2
  6
Continuous
 62
     7
370
    20
100
AcDbLine
 10
197.5330220276113
 20
95.40334323917234
 30
0.0
 11
197.5330220276113
 21
130.4033432391723
 31
0.0
  0
LINE
  5
28F
330
1F
100
AcDbEntity
  8
用紙-GR2
  6
Continuous
 62
     7
370
    20
100
AcDbLine
 10
197.5330220276113
 20
95.40334323917234
 30
0.0
 11
194.5330220276113
 21
95.40334323917234
 31
0.0
  0
LINE
  5
290
330
1F
100
AcDbEntity
  8
用紙-GR2
  6
Continuous
 62
     7
370
    20
100
AcDbLine
 10
197.5330220276113
 20
130.4033432391723
 30
0.0
 11
194.5330220276109
 21
130.4033432391723
 31
0.0
  0
ARC
  5
291
330
1F
100
AcDbEntity
  8
用紙-GR2
  6
Continuous
 62
     7
370
    20
100
AcDbCircle
 10
194.5330220276109
 20
129.4033432391723
 30
0.0
 40
1.0
100
AcDbArc
 50
90.0
 51
115.8419720767732
  0
LINE
  5
292
330
1F
100
AcDbEntity
  8
用紙-GR2
  6
Continuous
 62
     7
370
    20
100
AcDbLine
 10
183.5330220276092
 20
106.9033432391721
 30
0.0
 11
183.5330220276092
 21
118.9033432391723
 31
0.0
  0
ARC
  5
293
330
1F
100
AcDbEntity
  8
用紙-GR2
  6
Continuous
 62
     7
370
    20
100
AcDbCircle
 10
184.5330220276091
 20
106.9033432391721
 30
0.0
 40
1.0
100
AcDbArc
 50
180.0
 51
270.0
  0
LINE
  5
294
330
1F
100
AcDbEntity
  8
用紙-GR2
  6
Continuous
 62
     7
370
    20
100
AcDbLine
 10
193.5330220276109
 20
105.903343239172
 30
0.0
 11
184.5330220276091
 21
105.903343239172
 31
0.0
  0
LINE
  5
295
330
1F
100
AcDbEntity
  8
用紙-GR2
  6
Continuous
 62
     7
370
    20
100
AcDbLine
 10
193.5330220276109
 20
119.9033432391723
 30
0.0
 11
184.5330220276091
 21
119.9033432391723
 31
0.0
  0
ARC
  5
296
330
1F
100
AcDbEntity
  8
用紙-GR2
  6
Continuous
 62
     7
370
    20
100
AcDbCircle
 10
184.5330220276091
 20
118.9033432391723
 30
0.0
 40
1.0
100
AcDbArc
 50
90.0
 51
180.0
  0
LINE
  5
297
330
1F
100
AcDbEntity
  8
用紙-GR2
  6
Continuous
 62
     7
370
    20
100
AcDbLine
 10
195.5330220276113
 20
99.65334323917256
 30
0.0
 11
193.5330220276113
 21
99.65334323917232
 31
0.0
  0
LINE
  5
298
330
1F
100
AcDbEntity
  8
用紙-GR2
  6
Continuous
 62
     7
370
    20
100
AcDbLine
 10
195.5330220276113
 20
95.40334323917234
 30
0.0
 11
195.5330220276113
 21
99.65334323917256
 31
0.0
  0
LINE
  5
299
330
1F
100
AcDbEntity
  8
用紙-GR2
  6
Continuous
 62
     7
370
    20
100
AcDbLine
 10
195.5330220276113
 20
126.1533432391721
 30
0.0
 11
193.5330220276113
 21
126.1533432391723
 31
0.0
  0
LINE
  5
29A
330
1F
100
AcDbEntity
  8
用紙-GR2
  6
Continuous
 62
     7
370
    20
100
AcDbLine
 10
195.5330220276113
 20
130.4033432391723
 30
0.0
 11
195.5330220276113
 21
126.1533432391721
 31
0.0
  0
LINE
  5
29B
330
1F
100
AcDbEntity
  8
用紙-GR2
  6
Continuous
 62
     7
370
    20
100
AcDbLine
 10
195.5330220276113
 20
99.30334294008554
 30
0.0
 11
195.5330220276113
 21
95.50334294008555
 31
0.0
  0
LINE
  5
29C
330
1F
100
AcDbEntity
  8
用紙-GR2
  6
Continuous
 62
     7
370
    20
100
AcDbLine
 10
193.7330220276113
 20
99.30334294008554
 30
0.0
 11
193.7330220276113
 21
95.50334294008555
 31
0.0
  0
LINE
  5
29D
330
1F
100
AcDbEntity
  8
用紙-GR2
  6
Continuous
 62
     7
370
    20
100
AcDbLine
 10
193.5330220276113
 20
99.10334294008576
 30
0.0
 11
193.5330220276113
 21
95.70334294008564
 31
0.0
  0
LINE
  5
29E
330
1F
100
AcDbEntity
  8
用紙-GR2
  6
Continuous
 62
     7
370
    20
100
AcDbLine
 10
193.7330220276113
 20
95.50334294008555
 30
0.0
 11
195.5330220276113
 21
95.50334294008555
 31
0.0
  0
LINE
  5
29F
330
1F
100
AcDbEntity
  8
用紙-GR2
  6
Continuous
 62
     7
370
    20
100
AcDbLine
 10
193.7330220276113
 20
95.50334294008555
 30
0.0
 11
193.5330220276113
 21
95.70334294008564
 31
0.0
  0
LINE
  5
2A0
330
1F
100
AcDbEntity
  8
用紙-GR2
  6
Continuous
 62
     7
370
    20
100
AcDbLine
 10
193.7330220276113
 20
99.30334294008554
 30
0.0
 11
195.5330220276113
 21
99.30334294008554
 31
0.0
  0
LINE
  5
2A1
330
1F
100
AcDbEntity
  8
用紙-GR2
  6
Continuous
 62
     7
370
    20
100
AcDbLine
 10
193.7330220276113
 20
99.30334294008554
 30
0.0
 11
193.5330220276113
 21
99.10334294008576
 31
0.0
  0
LINE
  5
2A2
330
1F
100
AcDbEntity
  8
用紙-GR2
  6
Continuous
 62
     7
370
    20
100
AcDbLine
 10
195.5330220276113
 20
130.3033429400854
 30
0.0
 11
195.5330220276113
 21
126.5033429400856
 31
0.0
  0
LINE
  5
2A3
330
1F
100
AcDbEntity
  8
用紙-GR2
  6
Continuous
 62
     7
370
    20
100
AcDbLine
 10
193.7330220276113
 20
130.3033429400854
 30
0.0
 11
193.7330220276113
 21
126.5033429400856
 31
0.0
  0
LINE
  5
2A4
330
1F
100
AcDbEntity
  8
用紙-GR2
  6
Continuous
 62
     7
370
    20
100
AcDbLine
 10
193.5330220276113
 20
130.1033429400856
 30
0.0
 11
193.5330220276113
 21
126.7033429400855
 31
0.0
  0
LINE
  5
2A5
330
1F
100
AcDbEntity
  8
用紙-GR2
  6
Continuous
 62
     7
370
    20
100
AcDbLine
 10
193.7330220276113
 20
126.5033429400856
 30
0.0
 11
195.5330220276113
 21
126.5033429400856
 31
0.0
  0
LINE
  5
2A6
330
1F
100
AcDbEntity
  8
用紙-GR2
  6
Continuous
 62
     7
370
    20
100
AcDbLine
 10
193.7330220276113
 20
126.5033429400856
 30
0.0
 11
193.5330220276113
 21
126.7033429400855
 31
0.0
  0
LINE
  5
2A7
330
1F
100
AcDbEntity
  8
用紙-GR2
  6
Continuous
 62
     7
370
    20
100
AcDbLine
 10
193.7330220276113
 20
130.3033429400854
 30
0.0
 11
195.5330220276113
 21
130.3033429400854
 31
0.0
  0
LINE
  5
2A8
330
1F
100
AcDbEntity
  8
用紙-GR2
  6
Continuous
 62
     7
370
    20
100
AcDbLine
 10
193.7330220276113
 20
130.3033429400854
 30
0.0
 11
193.5330220276113
 21
130.1033429400856
 31
0.0
  0
LINE
  5
2A9
330
1F
100
AcDbEntity
  8
用紙-GR2
  6
DASHDOT
 62
     6
370
    20
100
AcDbLine
 10
61.03302202761001
 20
90.62388660053853
 30
0.0
 11
61.03302202761001
 21
134.8030980794407
 31
0.0
  0
LINE
  5
2AA
330
1F
100
AcDbEntity
  8
用紙-GR2
  6
Continuous
 62
     7
370
    20
100
AcDbLine
 10
183.5330220276092
 20
109.9033432391722
 30
0.0
 11
156.9556717584213
 21
109.9033432391722
 31
0.0
  0
LINE
  5
2AB
330
1F
100
AcDbEntity
  8
用紙-GR2
  6
Continuous
 62
     7
370
    20
100
AcDbLine
 10
183.5330220276086
 20
115.9033432391724
 30
0.0
 11
160.4197733735595
 21
115.9033432391723
 31
0.0
  0
LINE
  5
2AC
330
1F
100
AcDbEntity
  8
用紙-GR2
  6
DASHDOT
 62
     6
370
    20
100
AcDbLine
 10
39.25831797101668
 20
112.9033432391723
 30
0.0
 11
82.76174569616756
 21
112.9033432391723
 31
0.0
  0
LINE
  5
2AD
330
1F
100
AcDbEntity
  8
用紙-GR2
  6
Continuous
 62
     7
370
    20
100
AcDbLine
 10
154.6462706816623
 20
109.9033432391728
 30
0.0
 11
141.5330220276113
 21
109.9033432391718
 31
0.0
  0
LINE
  5
2AE
330
1F
100
AcDbEntity
  8
用紙-GR2
  6
Continuous
 62
     7
370
    20
100
AcDbLine
 10
158.1103722968004
 20
115.9033432391724
 30
0.0
 11
141.5330220276108
 21
115.9033432391727
 31
0.0
  0
ARC
  5
2AF
330
1F
100
AcDbEntity
  8
用紙-GR2
  6
Continuous
 62
     7
370
    20
100
AcDbCircle
 10
141.0330220276109
 20
109.2436676070693
 30
0.0
 40
0.4999999999999154
100
AcDbArc
 50
279.5042986557264
 51
0.0
  0
ARC
  5
2B0
330
1F
100
AcDbEntity
  8
用紙-GR2
  6
Continuous
 62
     7
370
    20
100
AcDbCircle
 10
141.0330220276109
 20
116.5653246768953
 30
0.0
 40
0.4999999999999154
100
AcDbArc
 50
0.0
 51
80.49570134427357
  0
LINE
  5
2B1
330
1F
100
AcDbEntity
  8
用紙-GR2
  6
Continuous
 62
     7
370
    20
100
AcDbLine
 10
141.5330220276108
 20
109.2436676070693
 30
0.0
 11
141.5330220276108
 21
116.5653246768953
 31
0.0
  0
LINE
  5
2B2
330
1F
100
AcDbEntity
  8
用紙-GR2
  6
Continuous
 62
     7
370
    20
100
AcDbLine
 10
121.2991221361021
 20
106.0933432391731
 30
0.0
 11
119.3583440288612
 21
107.5542784987829
 31
0.0
  0
LINE
  5
2B3
330
1F
100
AcDbEntity
  8
用紙-GR2
  6
Continuous
 62
     7
370
    20
100
AcDbLine
 10
121.2991221361021
 20
106.0933432391731
 30
0.0
 11
125.9816666182
 21
106.0933432391731
 31
0.0
  0
LINE
  5
2B4
330
1F
100
AcDbEntity
  8
用紙-GR2
  6
Continuous
 62
     7
370
    20
100
AcDbLine
 10
116.1668426292331
 20
106.0933432391731
 30
0.0
 11
118.1076207364739
 21
107.5542784987829
 31
0.0
  0
LINE
  5
2B5
330
1F
100
AcDbEntity
  8
用紙-GR2
  6
Continuous
 62
     7
370
    20
100
AcDbLine
 10
114.7850038362498
 20
106.0933432391731
 30
0.0
 11
114.3015289368877
 21
105.5544961419826
 31
0.0
  0
LINE
  5
2B6
330
1F
100
AcDbEntity
  8
用紙-GR2
  6
Continuous
 62
     7
370
    20
100
AcDbLine
 10
114.7850038362498
 20
106.0933432391731
 30
0.0
 11
116.1668426292331
 21
106.0933432391731
 31
0.0
  0
LINE
  5
2B7
330
1F
100
AcDbEntity
  8
用紙-GR2
  6
Continuous
 62
     7
370
    20
100
AcDbLine
 10
118.1076207364739
 20
107.5542784987829
 30
0.0
 11
119.3583440288612
 21
107.5542784987829
 31
0.0
  0
LINE
  5
2B8
330
1F
100
AcDbEntity
  8
用紙-GR2
  6
Continuous
 62
     7
370
    20
100
AcDbLine
 10
121.2991221361021
 20
119.7156490447919
 30
0.0
 11
119.3583440288612
 21
118.2547137851816
 31
0.0
  0
LINE
  5
2B9
330
1F
100
AcDbEntity
  8
用紙-GR2
  6
Continuous
 62
     7
370
    20
100
AcDbLine
 10
121.2991221361021
 20
119.7156490447919
 30
0.0
 11
125.9816666182
 21
119.7156490447919
 31
0.0
  0
LINE
  5
2BA
330
1F
100
AcDbEntity
  8
用紙-GR2
  6
Continuous
 62
     7
370
    20
100
AcDbLine
 10
116.1668426292331
 20
119.7156490447919
 30
0.0
 11
118.1076207364739
 21
118.2547137851816
 31
0.0
  0
LINE
  5
2BB
330
1F
100
AcDbEntity
  8
用紙-GR2
  6
Continuous
 62
     7
370
    20
100
AcDbLine
 10
114.7850038362498
 20
119.7156490447919
 30
0.0
 11
114.3015289368877
 21
120.2544961419819
 31
0.0
  0
LINE
  5
2BC
330
1F
100
AcDbEntity
  8
用紙-GR2
  6
Continuous
 62
     7
370
    20
100
AcDbLine
 10
114.7850038362498
 20
119.7156490447919
 30
0.0
 11
116.1668426292331
 21
119.7156490447919
 31
0.0
  0
LINE
  5
2BD
330
1F
100
AcDbEntity
  8
用紙-GR2
  6
Continuous
 62
     7
370
    20
100
AcDbLine
 10
118.1076207364739
 20
118.2547137851816
 30
0.0
 11
119.3583440288612
 21
118.2547137851816
 31
0.0
  0
LINE
  5
2BE
330
1F
100
AcDbEntity
  8
用紙-GR2
  6
Continuous
 62
     7
370
    20
100
AcDbLine
 10
125.9816666182
 20
106.0933432391731
 30
0.0
 11
125.9816666182
 21
119.7156490447919
 31
0.0
  0
LINE
  5
2BF
330
1F
100
AcDbEntity
  8
用紙-GR2
  6
Continuous
 62
     7
370
    20
100
AcDbLine
 10
114.7850038362498
 20
106.0933432391731
 30
0.0
 11
114.7850038362498
 21
119.7156490447919
 31
0.0
  0
LINE
  5
2C0
330
1F
100
AcDbEntity
  8
用紙-GR2
  6
Continuous
 62
     7
370
    20
100
AcDbLine
 10
116.1668426292331
 20
106.0933432391731
 30
0.0
 11
116.1668426292331
 21
119.7156490447919
 31
0.0
  0
LINE
  5
2C1
330
1F
100
AcDbEntity
  8
用紙-GR2
  6
Continuous
 62
     7
370
    20
100
AcDbLine
 10
118.1076207364739
 20
107.5542784987829
 30
0.0
 11
118.1076207364739
 21
118.2547137851816
 31
0.0
  0
LINE
  5
2C2
330
1F
100
AcDbEntity
  8
用紙-GR2
  6
Continuous
 62
     7
370
    20
100
AcDbLine
 10
119.3583440288612
 20
107.5542784987829
 30
0.0
 11
119.3583440288612
 21
118.2547137851816
 31
0.0
  0
LINE
  5
2C3
330
1F
100
AcDbEntity
  8
用紙-GR2
  6
Continuous
 62
     7
370
    20
100
AcDbLine
 10
121.2991221361021
 20
106.0933432391731
 30
0.0
 11
121.2991221361021
 21
119.7156490447919
 31
0.0
  0
LINE
  5
2C4
330
1F
100
AcDbEntity
  8
用紙-GR2
  6
Continuous
 62
     7
370
    20
100
AcDbLine
 10
125.9816666182
 20
118.6890201902893
 30
0.0
 11
141.1155828286899
 21
117.0584612848697
 31
0.0
  0
LINE
  5
2C5
330
1F
100
AcDbEntity
  8
用紙-GR2
  6
Continuous
 62
     7
370
    20
100
AcDbLine
 10
125.9816666182
 20
107.1199720936751
 30
0.0
 11
141.1155828286899
 21
108.7505309990948
 31
0.0
  0
LINE
  5
2C6
330
1F
100
AcDbEntity
  8
用紙-GR2
  6
Continuous
 62
     7
370
    20
100
AcDbLine
 10
109.1032064120863
 20
106.0933432391731
 30
0.0
 11
109.9951452774588
 21
106.0933432391731
 31
0.0
  0
LINE
  5
2C7
330
1F
100
AcDbEntity
  8
用紙-GR2
  6
Continuous
 62
     7
370
    20
100
AcDbLine
 10
109.1032064120863
 20
106.0933432391731
 30
0.0
 11
108.6197315127237
 21
105.5544961419826
 31
0.0
  0
LINE
  5
2C8
330
1F
100
AcDbEntity
  8
用紙-GR2
  6
Continuous
 62
     7
370
    20
100
AcDbLine
 10
109.9951452774588
 20
106.0933432391731
 30
0.0
 11
110.478620176822
 21
105.5544961419826
 31
0.0
  0
LINE
  5
2C9
330
1F
100
AcDbEntity
  8
用紙-GR2
  6
Continuous
 62
     7
370
    20
100
AcDbLine
 10
103.361964762194
 20
106.0933432391731
 30
0.0
 11
103.8454396615561
 21
105.5544961419826
 31
0.0
  0
LINE
  5
2CA
330
1F
100
AcDbEntity
  8
用紙-GR2
  6
Continuous
 62
     7
370
    20
100
AcDbLine
 10
103.8454396615561
 20
105.5544961419826
 30
0.0
 11
108.6197315127237
 21
105.5544961419826
 31
0.0
  0
LINE
  5
2CB
330
1F
100
AcDbEntity
  8
用紙-GR2
  6
Continuous
 62
     7
370
    20
100
AcDbLine
 10
99.31287890284965
 20
108.1544961419818
 30
0.0
 11
98.53302202761096
 21
108.1544961419818
 31
0.0
  0
LINE
  5
2CC
330
1F
100
AcDbEntity
  8
用紙-GR2
  6
Continuous
 62
     7
370
    20
100
AcDbLine
 10
99.31287890284965
 20
106.0933432391731
 30
0.0
 11
103.361964762194
 21
106.0933432391731
 31
0.0
  0
LINE
  5
2CD
330
1F
100
AcDbEntity
  8
用紙-GR2
  6
Continuous
 62
     7
370
    20
100
AcDbLine
 10
109.1032064120863
 20
119.7156490447919
 30
0.0
 11
109.9951452774588
 21
119.7156490447919
 31
0.0
  0
LINE
  5
2CE
330
1F
100
AcDbEntity
  8
用紙-GR2
  6
Continuous
 62
     7
370
    20
100
AcDbLine
 10
109.1032064120863
 20
119.7156490447919
 30
0.0
 11
108.6197315127237
 21
120.2544961419819
 31
0.0
  0
LINE
  5
2CF
330
1F
100
AcDbEntity
  8
用紙-GR2
  6
Continuous
 62
     7
370
    20
100
AcDbLine
 10
109.9951452774588
 20
119.7156490447919
 30
0.0
 11
110.478620176822
 21
120.2544961419819
 31
0.0
  0
LINE
  5
2D0
330
1F
100
AcDbEntity
  8
用紙-GR2
  6
Continuous
 62
     7
370
    20
100
AcDbLine
 10
103.361964762194
 20
119.7156490447919
 30
0.0
 11
103.8454396615561
 21
120.2544961419819
 31
0.0
  0
LINE
  5
2D1
330
1F
100
AcDbEntity
  8
用紙-GR2
  6
Continuous
 62
     7
370
    20
100
AcDbLine
 10
103.8454396615561
 20
120.2544961419819
 30
0.0
 11
108.6197315127237
 21
120.2544961419819
 31
0.0
  0
LINE
  5
2D2
330
1F
100
AcDbEntity
  8
用紙-GR2
  6
Continuous
 62
     7
370
    20
100
AcDbLine
 10
99.31287890284965
 20
117.6544961419822
 30
0.0
 11
98.53302202761096
 21
117.6544961419822
 31
0.0
  0
LINE
  5
2D3
330
1F
100
AcDbEntity
  8
用紙-GR2
  6
Continuous
 62
     7
370
    20
100
AcDbLine
 10
99.31287890284965
 20
119.7156490447919
 30
0.0
 11
103.361964762194
 21
119.7156490447919
 31
0.0
  0
LINE
  5
2D4
330
1F
100
AcDbEntity
  8
用紙-GR2
  6
Continuous
 62
     7
370
    20
100
AcDbLine
 10
98.53302202761096
 20
108.1544961419818
 30
0.0
 11
98.53302202761096
 21
117.6544961419822
 31
0.0
  0
LINE
  5
2D5
330
1F
100
AcDbEntity
  8
用紙-GR2
  6
Continuous
 62
     7
370
    20
100
AcDbLine
 10
103.361964762194
 20
106.0933432391731
 30
0.0
 11
103.361964762194
 21
119.7156490447919
 31
0.0
  0
LINE
  5
2D6
330
1F
100
AcDbEntity
  8
用紙-GR2
  6
Continuous
 62
     7
370
    20
100
AcDbLine
 10
109.1032064120863
 20
106.0933432391731
 30
0.0
 11
109.1032064120863
 21
119.7156490447919
 31
0.0
  0
LINE
  5
2D7
330
1F
100
AcDbEntity
  8
用紙-GR2
  6
Continuous
 62
     7
370
    20
100
AcDbLine
 10
109.9951452774588
 20
106.0933432391731
 30
0.0
 11
109.9951452774588
 21
119.7156490447919
 31
0.0
  0
LINE
  5
2D8
330
1F
100
AcDbEntity
  8
用紙-GR2
  6
Continuous
 62
     7
370
    20
100
AcDbLine
 10
99.31287890284965
 20
119.7156490447919
 30
0.0
 11
99.31287890284965
 21
106.0933432391731
 31
0.0
  0
LINE
  5
2D9
330
1F
100
AcDbEntity
  8
用紙-GR2
  6
Continuous
 62
     7
370
    20
100
AcDbLine
 10
110.478620176822
 20
120.2544961419819
 30
0.0
 11
114.3015289368877
 21
120.2544961419819
 31
0.0
  0
LINE
  5
2DA
330
1F
100
AcDbEntity
  8
用紙-GR2
  6
Continuous
 62
     7
370
    20
100
AcDbLine
 10
110.478620176822
 20
105.5544961419826
 30
0.0
 11
114.3015289368877
 21
105.5544961419826
 31
0.0
  0
LINE
  5
2DB
330
1F
100
AcDbEntity
  8
用紙-GR2
  6
Continuous
 62
     7
370
    20
100
AcDbLine
 10
103.9657127279797
 20
120.2544961419826
 30
0.0
 11
103.8454396615552
 21
120.1342230755581
 31
0.0
  0
LINE
  5
2DC
330
1F
100
AcDbEntity
  8
用紙-GR2
  6
Continuous
 62
     7
370
    20
100
AcDbLine
 10
154.361500354359
 20
109.4101065637949
 30
0.0
 11
158.9724928932937
 21
117.3965799145496
 31
0.0
  0
LINE
  5
2DD
330
1F
100
AcDbEntity
  8
用紙-GR2
  6
Continuous
 62
     7
370
    20
100
AcDbLine
 10
156.0935511619285
 20
108.4101065637946
 30
0.0
 11
160.7045437008623
 21
116.3965799145499
 31
0.0
  0
LINE
  5
2DE
330
1F
100
AcDbEntity
  8
用紙-GR2
  6
Continuous
 62
     7
370
    20
100
AcDbLine
 10
44.53302202760954
 20
95.40334323917189
 30
0.0
 11
77.53302202761002
 21
95.40334323917189
 31
0.0
  0
LINE
  5
2DF
330
1F
100
AcDbEntity
  8
用紙-GR2
  6
Continuous
 62
     7
370
    20
100
AcDbLine
 10
44.53302202761014
 20
130.4033432391718
 30
0.0
 11
77.53302202761002
 21
130.4033432391718
 31
0.0
  0
LINE
  5
2E0
330
1F
100
AcDbEntity
  8
用紙-GR2
  6
Continuous
 62
     7
370
    20
100
AcDbLine
 10
78.53302202761009
 20
96.40334323917187
 30
0.0
 11
78.53302202761009
 21
129.4033432391718
 31
0.0
  0
LINE
  5
2E1
330
1F
100
AcDbEntity
  8
用紙-GR2
  6
Continuous
 62
     7
370
    20
100
AcDbLine
 10
43.53302202760954
 20
96.40334323917187
 30
0.0
 11
43.53302202760995
 21
129.4033432391718
 31
0.0
  0
ARC
  5
2E2
330
1F
100
AcDbEntity
  8
用紙-GR2
  6
Continuous
 62
     7
370
    20
100
AcDbCircle
 10
44.53302202760954
 20
96.40334323917187
 30
0.0
 40
1.0
100
AcDbArc
 50
180.0
 51
270.0
  0
ARC
  5
2E3
330
1F
100
AcDbEntity
  8
用紙-GR2
  6
Continuous
 62
     7
370
    20
100
AcDbCircle
 10
61.03302202761042
 20
112.9033432391718
 30
0.0
 40
14.0
100
AcDbArc
 50
113.8498830984357
 51
66.15011690156426
  0
ARC
  5
2E4
330
1F
100
AcDbEntity
  8
用紙-GR2
  6
Continuous
 62
     7
370
    20
100
AcDbCircle
 10
61.03302202761042
 20
112.9033432391718
 30
0.0
 40
15.0
100
AcDbArc
 50
113.2132107017276
 51
66.78678929827239
  0
ARC
  5
2E5
330
1F
100
AcDbEntity
  8
用紙-GR2
  6
Continuous
 62
     7
370
    20
100
AcDbCircle
 10
55.51486848636024
 20
125.7699660087716
 30
0.0
 40
1.0
100
AcDbArc
 50
14.99999999998101
 51
113.2132107017294
  0
ARC
  5
2E6
330
1F
100
AcDbEntity
  8
用紙-GR2
  6
Continuous
 62
     7
370
    20
100
AcDbCircle
 10
66.55117556886034
 20
125.7699660087722
 30
0.0
 40
1.0
100
AcDbArc
 50
66.78678929827059
 51
165.0000000000056
  0
ARC
  5
2E7
330
1F
100
AcDbEntity
  8
用紙-GR2
  6
Continuous
 62
     7
370
    20
100
AcDbCircle
 10
55.77657954490271
 20
124.7932470413892
 30
0.0
 40
1.0
100
AcDbArc
 50
14.99999999999444
 51
113.8498830984427
  0
ARC
  5
2E8
330
1F
100
AcDbEntity
  8
用紙-GR2
  6
Continuous
 62
     7
370
    20
100
AcDbCircle
 10
57.09636667230604
 20
119.8677344267455
 30
0.0
 40
1.0
100
AcDbArc
 50
299.4775121859273
 51
15.00000000000629
  0
LINE
  5
2E9
330
1F
100
AcDbEntity
  8
用紙-GR2
  6
Continuous
 62
     7
370
    20
100
AcDbLine
 10
58.06229249859421
 20
120.126553471848
 30
0.0
 11
56.7425053711918
 21
125.0520660864918
 31
0.0
  0
ARC
  5
2EA
330
1F
100
AcDbEntity
  8
用紙-GR2
  6
Continuous
 62
     7
370
    20
100
AcDbCircle
 10
66.28946451031831
 20
124.7932470413892
 30
0.0
 40
1.0
100
AcDbArc
 50
66.15011690155729
 51
165.0000000000056
  0
ARC
  5
2EB
330
1F
100
AcDbEntity
  8
用紙-GR2
  6
Continuous
 62
     7
370
    20
100
AcDbCircle
 10
64.96967738291499
 20
119.8677344267455
 30
0.0
 40
1.0
100
AcDbArc
 50
164.9999999999937
 51
240.5224878140726
  0
LINE
  5
2EC
330
1F
100
AcDbEntity
  8
用紙-GR2
  6
Continuous
 62
     7
370
    20
100
AcDbLine
 10
64.00375155662598
 20
120.126553471848
 30
0.0
 11
65.32353868402925
 21
125.0520660864918
 31
0.0
  0
ARC
  5
2ED
330
1F
100
AcDbEntity
  8
用紙-GR2
  6
Continuous
 62
     7
370
    20
100
AcDbCircle
 10
45.53302202760964
 20
97.40334323917187
 30
0.0
 40
2.249999999999998
100
AcDbArc
 50
0.0
 51
90.0
  0
LINE
  5
2EE
330
1F
100
AcDbEntity
  8
用紙-GR2
  6
Continuous
 62
     7
370
    20
100
AcDbLine
 10
45.53302202760964
 20
99.65334323917184
 30
0.0
 11
43.53302202760995
 21
99.65334323917184
 31
0.0
  0
LINE
  5
2EF
330
1F
100
AcDbEntity
  8
用紙-GR2
  6
Continuous
 62
     7
370
    20
100
AcDbLine
 10
47.78302202760956
 20
97.40334323917187
 30
0.0
 11
47.78302202760956
 21
95.40334323917189
 31
0.0
  0
CIRCLE
  5
2F0
330
1F
100
AcDbEntity
  8
用紙-GR2
  6
Continuous
 62
     7
370
    20
100
AcDbCircle
 10
61.03302202761042
 20
112.9033432391718
 30
0.0
 40
3.299999999999997
  0
CIRCLE
  5
2F1
330
1F
100
AcDbEntity
  8
用紙-GR2
  6
Continuous
 62
     7
370
    20
100
AcDbCircle
 10
61.03302202761042
 20
112.9033432391718
 30
0.0
 40
7.0
  0
CIRCLE
  5
2F2
330
1F
100
AcDbEntity
  8
用紙-GR2
  6
Continuous
 62
     7
370
    20
100
AcDbCircle
 10
61.03302202761042
 20
112.9033432391723
 30
0.0
 40
2.999999999999999
  0
LINE
  5
2F3
330
1F
100
AcDbEntity
  8
用紙-GR2
  6
Continuous
 62
     7
370
    20
100
AcDbLine
 10
44.66699645810474
 20
97.40334323917187
 30
0.0
 11
45.10000926094332
 21
96.65334323917186
 31
0.0
  0
LINE
  5
2F4
330
1F
100
AcDbEntity
  8
用紙-GR2
  6
Continuous
 62
     7
370
    20
100
AcDbLine
 10
45.10000926094332
 20
96.65334323917186
 30
0.0
 11
45.96603456378131
 21
96.65334323917186
 31
0.0
  0
LINE
  5
2F5
330
1F
100
AcDbEntity
  8
用紙-GR2
  6
Continuous
 62
     7
370
    20
100
AcDbLine
 10
45.96603456378131
 20
96.65334323917186
 30
0.0
 11
46.39904706378142
 21
97.40334323917187
 31
0.0
  0
LINE
  5
2F6
330
1F
100
AcDbEntity
  8
用紙-GR2
  6
Continuous
 62
     7
370
    20
100
AcDbLine
 10
46.39904706378142
 20
97.40334323917187
 30
0.0
 11
45.96603426094268
 21
98.15334323917184
 31
0.0
  0
LINE
  5
2F7
330
1F
100
AcDbEntity
  8
用紙-GR2
  6
Continuous
 62
     7
370
    20
100
AcDbLine
 10
45.96603426094268
 20
98.15334323917184
 30
0.0
 11
45.10000895810423
 21
98.15334323917184
 31
0.0
  0
LINE
  5
2F8
330
1F
100
AcDbEntity
  8
用紙-GR2
  6
Continuous
 62
     7
370
    20
100
AcDbLine
 10
45.10000895810423
 20
98.15334323917184
 30
0.0
 11
44.66699645810474
 21
97.40334323917187
 31
0.0
  0
CIRCLE
  5
2F9
330
1F
100
AcDbEntity
  8
用紙-GR2
  6
Continuous
 62
     7
370
    20
100
AcDbCircle
 10
45.53302202760964
 20
97.40334323917187
 30
0.0
 40
1.899999999999976
  0
CIRCLE
  5
2FA
330
1F
100
AcDbEntity
  8
用紙-GR2
  6
Continuous
 62
     7
370
    20
100
AcDbCircle
 10
45.53302202760964
 20
97.40334323917187
 30
0.0
 40
1.699999999999988
  0
ARC
  5
2FB
330
1F
100
AcDbEntity
  8
用紙-GR2
  6
Continuous
 62
     7
370
    20
100
AcDbCircle
 10
44.53302202760954
 20
129.4033432391727
 30
0.0
 40
1.0
100
AcDbArc
 50
90.0
 51
180.0
  0
ARC
  5
2FC
330
1F
100
AcDbEntity
  8
用紙-GR2
  6
Continuous
 62
     7
370
    20
100
AcDbCircle
 10
45.53302202760964
 20
128.4033432391727
 30
0.0
 40
2.249999999999998
100
AcDbArc
 50
270.0
 51
0.0
  0
LINE
  5
2FD
330
1F
100
AcDbEntity
  8
用紙-GR2
  6
Continuous
 62
     7
370
    20
100
AcDbLine
 10
45.53302202760964
 20
126.1533432391728
 30
0.0
 11
43.53302202760995
 21
126.1533432391728
 31
0.0
  0
LINE
  5
2FE
330
1F
100
AcDbEntity
  8
用紙-GR2
  6
Continuous
 62
     7
370
    20
100
AcDbLine
 10
47.78302202760956
 20
128.4033432391727
 30
0.0
 11
47.78302202760956
 21
130.4033432391727
 31
0.0
  0
LINE
  5
2FF
330
1F
100
AcDbEntity
  8
用紙-GR2
  6
Continuous
 62
     7
370
    20
100
AcDbLine
 10
44.66699645810474
 20
128.4033432391727
 30
0.0
 11
45.10000926094332
 21
129.1533432391728
 31
0.0
  0
LINE
  5
300
330
1F
100
AcDbEntity
  8
用紙-GR2
  6
Continuous
 62
     7
370
    20
100
AcDbLine
 10
45.10000926094332
 20
129.1533432391728
 30
0.0
 11
45.96603456378131
 21
129.1533432391728
 31
0.0
  0
LINE
  5
301
330
1F
100
AcDbEntity
  8
用紙-GR2
  6
Continuous
 62
     7
370
    20
100
AcDbLine
 10
45.96603456378131
 20
129.1533432391728
 30
0.0
 11
46.39904706378142
 21
128.4033432391727
 31
0.0
  0
LINE
  5
302
330
1F
100
AcDbEntity
  8
用紙-GR2
  6
Continuous
 62
     7
370
    20
100
AcDbLine
 10
46.39904706378142
 20
128.4033432391727
 30
0.0
 11
45.96603426094268
 21
127.6533432391727
 31
0.0
  0
LINE
  5
303
330
1F
100
AcDbEntity
  8
用紙-GR2
  6
Continuous
 62
     7
370
    20
100
AcDbLine
 10
45.96603426094268
 20
127.6533432391727
 30
0.0
 11
45.10000895810423
 21
127.6533432391727
 31
0.0
  0
LINE
  5
304
330
1F
100
AcDbEntity
  8
用紙-GR2
  6
Continuous
 62
     7
370
    20
100
AcDbLine
 10
45.10000895810423
 20
127.6533432391727
 30
0.0
 11
44.66699645810474
 21
128.4033432391727
 31
0.0
  0
CIRCLE
  5
305
330
1F
100
AcDbEntity
  8
用紙-GR2
  6
Continuous
 62
     7
370
    20
100
AcDbCircle
 10
45.53302202760964
 20
128.4033432391727
 30
0.0
 40
1.899999999999976
  0
CIRCLE
  5
306
330
1F
100
AcDbEntity
  8
用紙-GR2
  6
Continuous
 62
     7
370
    20
100
AcDbCircle
 10
45.53302202760964
 20
128.4033432391727
 30
0.0
 40
1.699999999999988
  0
ARC
  5
307
330
1F
100
AcDbEntity
  8
用紙-GR2
  6
Continuous
 62
     7
370
    20
100
AcDbCircle
 10
77.5330220276105
 20
96.40334323917187
 30
0.0
 40
1.0
100
AcDbArc
 50
270.0
 51
0.0
  0
ARC
  5
308
330
1F
100
AcDbEntity
  8
用紙-GR2
  6
Continuous
 62
     7
370
    20
100
AcDbCircle
 10
76.53302202761047
 20
97.40334323917187
 30
0.0
 40
2.249999999999998
100
AcDbArc
 50
90.0
 51
180.0
  0
LINE
  5
309
330
1F
100
AcDbEntity
  8
用紙-GR2
  6
Continuous
 62
     7
370
    20
100
AcDbLine
 10
76.53302202761047
 20
99.65334323917184
 30
0.0
 11
78.53302202761009
 21
99.65334323917184
 31
0.0
  0
LINE
  5
30A
330
1F
100
AcDbEntity
  8
用紙-GR2
  6
Continuous
 62
     7
370
    20
100
AcDbLine
 10
74.28302202761044
 20
97.40334323917187
 30
0.0
 11
74.28302202761044
 21
95.40334323917189
 31
0.0
  0
LINE
  5
30B
330
1F
100
AcDbEntity
  8
用紙-GR2
  6
Continuous
 62
     7
370
    20
100
AcDbLine
 10
77.39904759711546
 20
97.40334323917187
 30
0.0
 11
76.96603479427668
 21
96.65334323917186
 31
0.0
  0
LINE
  5
30C
330
1F
100
AcDbEntity
  8
用紙-GR2
  6
Continuous
 62
     7
370
    20
100
AcDbLine
 10
76.96603479427668
 20
96.65334323917186
 30
0.0
 11
76.10000949143885
 21
96.65334323917186
 31
0.0
  0
LINE
  5
30D
330
1F
100
AcDbEntity
  8
用紙-GR2
  6
Continuous
 62
     7
370
    20
100
AcDbLine
 10
76.10000949143885
 20
96.65334323917186
 30
0.0
 11
75.66699699143867
 21
97.40334323917187
 31
0.0
  0
LINE
  5
30E
330
1F
100
AcDbEntity
  8
用紙-GR2
  6
Continuous
 62
     7
370
    20
100
AcDbLine
 10
75.66699699143867
 20
97.40334323917187
 30
0.0
 11
76.10000979427733
 21
98.15334323917184
 31
0.0
  0
LINE
  5
30F
330
1F
100
AcDbEntity
  8
用紙-GR2
  6
Continuous
 62
     7
370
    20
100
AcDbLine
 10
76.10000979427733
 20
98.15334323917184
 30
0.0
 11
76.96603509711576
 21
98.15334323917184
 31
0.0
  0
LINE
  5
310
330
1F
100
AcDbEntity
  8
用紙-GR2
  6
Continuous
 62
     7
370
    20
100
AcDbLine
 10
76.96603509711576
 20
98.15334323917184
 30
0.0
 11
77.39904759711546
 21
97.40334323917187
 31
0.0
  0
CIRCLE
  5
311
330
1F
100
AcDbEntity
  8
用紙-GR2
  6
Continuous
 62
     7
370
    20
100
AcDbCircle
 10
76.53302202761047
 20
97.40334323917187
 30
0.0
 40
1.899999999999976
  0
CIRCLE
  5
312
330
1F
100
AcDbEntity
  8
用紙-GR2
  6
Continuous
 62
     7
370
    20
100
AcDbCircle
 10
76.53302202761047
 20
97.40334323917187
 30
0.0
 40
1.699999999999988
  0
ARC
  5
313
330
1F
100
AcDbEntity
  8
用紙-GR2
  6
Continuous
 62
     7
370
    20
100
AcDbCircle
 10
77.5330220276105
 20
129.4033432391727
 30
0.0
 40
1.0
100
AcDbArc
 50
0.0
 51
90.0
  0
ARC
  5
314
330
1F
100
AcDbEntity
  8
用紙-GR2
  6
Continuous
 62
     7
370
    20
100
AcDbCircle
 10
76.53302202761047
 20
128.4033432391727
 30
0.0
 40
2.249999999999998
100
AcDbArc
 50
180.0
 51
270.0
  0
LINE
  5
315
330
1F
100
AcDbEntity
  8
用紙-GR2
  6
Continuous
 62
     7
370
    20
100
AcDbLine
 10
76.53302202761047
 20
126.1533432391728
 30
0.0
 11
78.53302202761009
 21
126.1533432391728
 31
0.0
  0
LINE
  5
316
330
1F
100
AcDbEntity
  8
用紙-GR2
  6
Continuous
 62
     7
370
    20
100
AcDbLine
 10
74.28302202761044
 20
128.4033432391727
 30
0.0
 11
74.28302202761044
 21
130.4033432391727
 31
0.0
  0
LINE
  5
317
330
1F
100
AcDbEntity
  8
用紙-GR2
  6
Continuous
 62
     7
370
    20
100
AcDbLine
 10
77.39904759711546
 20
128.4033432391727
 30
0.0
 11
76.96603479427668
 21
129.1533432391728
 31
0.0
  0
LINE
  5
318
330
1F
100
AcDbEntity
  8
用紙-GR2
  6
Continuous
 62
     7
370
    20
100
AcDbLine
 10
76.96603479427668
 20
129.1533432391728
 30
0.0
 11
76.10000949143885
 21
129.1533432391728
 31
0.0
  0
LINE
  5
319
330
1F
100
AcDbEntity
  8
用紙-GR2
  6
Continuous
 62
     7
370
    20
100
AcDbLine
 10
76.10000949143885
 20
129.1533432391728
 30
0.0
 11
75.66699699143867
 21
128.4033432391727
 31
0.0
  0
LINE
  5
31A
330
1F
100
AcDbEntity
  8
用紙-GR2
  6
Continuous
 62
     7
370
    20
100
AcDbLine
 10
75.66699699143867
 20
128.4033432391727
 30
0.0
 11
76.10000979427733
 21
127.6533432391727
 31
0.0
  0
LINE
  5
31B
330
1F
100
AcDbEntity
  8
用紙-GR2
  6
Continuous
 62
     7
370
    20
100
AcDbLine
 10
76.10000979427733
 20
127.6533432391727
 30
0.0
 11
76.96603509711576
 21
127.6533432391727
 31
0.0
  0
LINE
  5
31C
330
1F
100
AcDbEntity
  8
用紙-GR2
  6
Continuous
 62
     7
370
    20
100
AcDbLine
 10
76.96603509711576
 20
127.6533432391727
 30
0.0
 11
77.39904759711546
 21
128.4033432391727
 31
0.0
  0
CIRCLE
  5
31D
330
1F
100
AcDbEntity
  8
用紙-GR2
  6
Continuous
 62
     7
370
    20
100
AcDbCircle
 10
76.53302202761047
 20
128.4033432391727
 30
0.0
 40
1.899999999999976
  0
CIRCLE
  5
31E
330
1F
100
AcDbEntity
  8
用紙-GR2
  6
Continuous
 62
     7
370
    20
100
AcDbCircle
 10
76.53302202761047
 20
128.4033432391727
 30
0.0
 40
1.699999999999988
  0
ARC
  5
31F
330
1F
100
AcDbEntity
  8
用紙-GR2
  6
Continuous
 62
     7
370
    20
100
AcDbCircle
 10
61.03302202761042
 20
112.9033432391718
 30
0.0
 40
7.999999999999998
100
AcDbArc
 50
281.4096221092725
 51
0.0
  0
ARC
  5
320
330
1F
100
AcDbEntity
  8
用紙-GR2
  6
Continuous
 62
     7
370
    20
100
AcDbCircle
 10
61.03302202761042
 20
112.9033432391718
 30
0.0
 40
7.999999999999998
100
AcDbArc
 50
161.4096221092794
 51
240.0000000000028
  0
ARC
  5
321
330
1F
100
AcDbEntity
  8
用紙-GR2
  6
Continuous
 62
     7
370
    20
100
AcDbCircle
 10
61.03302202761042
 20
112.9033432391718
 30
0.0
 40
7.999999999999998
100
AcDbArc
 50
112.1807557814596
 51
119.9999999999971
  0
ARC
  5
322
330
1F
100
AcDbEntity
  8
用紙-GR2
  6
Continuous
 62
     7
370
    20
100
AcDbCircle
 10
61.03302202761042
 20
112.9033432391718
 30
0.0
 40
7.999999999999998
100
AcDbArc
 50
41.40962210926964
 51
60.31924421853673
  0
LINE
  5
323
330
1F
100
AcDbEntity
  8
用紙-GR2
  6
Continuous
 62
     7
370
    20
100
AcDbLine
 10
69.03302202761048
 20
112.9033432391718
 30
0.0
 11
69.03302202761008
 21
124.3924685322484
 31
0.0
  0
LINE
  5
324
330
1F
100
AcDbEntity
  8
用紙-GR2
  6
Continuous
 62
     7
370
    20
100
AcDbLine
 10
67.03302202761051
 20
118.194845861301
 30
0.0
 11
67.03302202761097
 21
125.5524538798452
 31
0.0
  0
LINE
  5
325
330
1F
100
AcDbEntity
  8
用紙-GR2
  6
Continuous
 62
     7
370
    20
100
AcDbLine
 10
57.03302202761003
 20
105.9751400088964
 30
0.0
 11
66.98289639867656
 21
100.2305773623582
 31
0.0
  0
LINE
  5
326
330
1F
100
AcDbEntity
  8
用紙-GR2
  6
Continuous
 62
     7
370
    20
100
AcDbLine
 10
62.6155977225662
 20
105.0614395054006
 30
0.0
 11
68.98747317771401
 21
101.3826354961286
 31
0.0
  0
LINE
  5
327
330
1F
100
AcDbEntity
  8
用紙-GR2
  6
Continuous
 62
     7
370
    20
100
AcDbLine
 10
57.03302202761048
 20
119.8315464694472
 30
0.0
 11
47.08314765654455
 21
114.0869838229093
 31
0.0
  0
LINE
  5
328
330
1F
100
AcDbEntity
  8
用紙-GR2
  6
Continuous
 62
     7
370
    20
100
AcDbLine
 10
53.45044633265431
 20
115.4537443508136
 30
0.0
 11
47.07857087750692
 21
111.7749403415416
 31
0.0
  0
LINE
  5
329
330
1F
100
AcDbEntity
  8
用紙-GR2
  6
Continuous
 62
     7
370
    20
100
AcDbLine
 10
69.03302202761048
 20
119.0419591430036
 30
0.0
 11
72.13996879168778
 21
121.4260032452942
 31
0.0
  0
LINE
  5
32A
330
1F
100
AcDbEntity
  8
用紙-GR2
  6
Continuous
 62
     7
370
    20
100
AcDbLine
 10
69.03302202761091
 20
115.5027008090357
 30
0.0
 11
74.34781325574292
 21
117.2295811604219
 31
0.0
  0
LINE
  5
32B
330
1F
100
AcDbEntity
  8
用紙-GR2
  6
Continuous
 62
     7
370
    20
100
AcDbLine
 10
67.62603153658716
 20
108.3720933437737
 30
0.0
 11
72.57078866831903
 21
104.9736559222244
 31
0.0
  0
LINE
  5
32C
330
1F
100
AcDbEntity
  8
用紙-GR2
  6
Continuous
 62
     7
370
    20
100
AcDbLine
 10
65.73530404595064
 20
106.4312072841728
 30
0.0
 11
69.26201555970604
 21
101.5771053179226
 31
0.0
  0
LINE
  5
32D
330
1F
100
AcDbEntity
  8
用紙-GR2
  6
Continuous
 62
     7
370
    20
100
AcDbLine
 10
58.69633646179089
 20
105.0148249725753
 30
0.0
 11
57.0568072017568
 21
99.47986695101739
 31
0.0
  0
ARC
  5
32E
330
1F
100
AcDbEntity
  8
用紙-GR2
  6
Continuous
 62
     7
370
    20
100
AcDbCircle
 10
61.03302202761098
 20
112.9033432391723
 30
0.0
 40
14.0
100
AcDbArc
 50
304.6230664748354
 51
306.0000000000044
  0
LINE
  5
32F
330
1F
100
AcDbEntity
  8
用紙-GR2
  6
Continuous
 62
     7
370
    20
100
AcDbLine
 10
56.3307400092717
 20
106.4312072841714
 30
0.0
 11
52.80402849551724
 21
101.5771053179226
 31
0.0
  0
LINE
  5
330
330
1F
100
AcDbEntity
  8
用紙-GR2
  6
Continuous
 62
     7
370
    20
100
AcDbLine
 10
53.03576342780619
 20
112.6939276527089
 30
0.0
 11
48.46289977607793
 21
112.574183003778
 31
0.0
  0
LINE
  5
331
330
1F
100
AcDbEntity
  8
用紙-GR2
  6
Continuous
 62
     7
370
    20
100
AcDbLine
 10
50.79483981935344
 20
116.2299302922558
 30
0.0
 11
47.7182307994785
 21
117.2295811604205
 31
0.0
  0
LINE
  5
332
330
1F
100
AcDbEntity
  8
用紙-GR2
  6
Continuous
 62
     7
370
    20
100
AcDbLine
 10
63.98163693306915
 20
120.0219293341454
 30
0.0
 11
66.3708218799657
 21
125.7899320359609
 31
0.0
  0
LINE
  5
333
330
1F
100
AcDbEntity
  8
用紙-GR2
  6
Continuous
 62
     7
370
    20
100
AcDbLine
 10
64.60821015240711
 20
118.9214849683368
 30
0.0
 11
67.03302202761051
 21
124.7754986836573
 31
0.0
  0
LINE
  5
334
330
1F
100
AcDbEntity
  8
用紙-GR2
  6
DASHDOT
 62
     6
370
    20
100
AcDbLine
 10
276.609998086884
 20
112.9033432391723
 30
0.0
 11
316.5681475224849
 21
112.9033432391723
 31
0.0
  0
LINE
  5
335
330
1F
100
AcDbEntity
  8
用紙-GR2
  6
Continuous
 62
     7
370
    20
100
AcDbLine
 10
249.5330220276113
 20
96.90334323917229
 30
0.0
 11
249.5330220276113
 21
128.9033432391713
 31
0.0
  0
LINE
  5
336
330
1F
100
AcDbEntity
  8
用紙-GR2
  6
Continuous
 62
     7
370
    20
100
AcDbLine
 10
253.5330220276108
 20
98.90334323917231
 30
0.0
 11
253.5330220276112
 21
126.9033432391723
 31
0.0
  0
ARC
  5
337
330
1F
100
AcDbEntity
  8
用紙-GR2
  6
Continuous
 62
     7
370
    20
100
AcDbCircle
 10
252.5330220276109
 20
98.90334323917231
 30
0.0
 40
1.0
100
AcDbArc
 50
275.7391704772615
 51
0.0
  0
ARC
  5
338
330
1F
100
AcDbEntity
  8
用紙-GR2
  6
Continuous
 62
     7
370
    20
100
AcDbCircle
 10
252.5330220276112
 20
126.9033432391723
 30
0.0
 40
1.0
100
AcDbArc
 50
0.0
 51
84.26082952275823
  0
LINE
  5
339
330
1F
100
AcDbEntity
  8
用紙-GR2
  6
Continuous
 62
     7
370
    20
100
AcDbLine
 10
251.0330220276113
 20
96.90334323917229
 30
0.0
 11
249.5330220276113
 21
96.90334323917229
 31
0.0
  0
LINE
  5
33A
330
1F
100
AcDbEntity
  8
用紙-GR2
  6
Continuous
 62
     7
370
    20
100
AcDbLine
 10
251.0330220276113
 20
128.9033432391713
 30
0.0
 11
249.5330220276113
 21
128.9033432391713
 31
0.0
  0
LINE
  5
33B
330
1F
100
AcDbEntity
  8
用紙-GR2
  6
Continuous
 62
     7
370
    20
100
AcDbLine
 10
251.0330220276113
 20
96.90334323917229
 30
0.0
 11
251.0330220276113
 21
128.9033432391713
 31
0.0
  0
LINE
  5
33C
330
1F
100
AcDbEntity
  8
用紙-GR2
  6
Continuous
 62
     7
370
    20
100
AcDbLine
 10
280.0330220276106
 20
127.9033432391724
 30
0.0
 11
280.0330220276102
 21
97.90334323917299
 31
0.0
  0
LINE
  5
33D
330
1F
100
AcDbEntity
  8
用紙-GR2
  6
Continuous
 62
     7
370
    20
100
AcDbLine
 10
312.0330220276106
 20
127.9033432391727
 30
0.0
 11
312.0330220276122
 21
97.90334323917278
 31
0.0
  0
ARC
  5
33E
330
1F
100
AcDbEntity
  8
用紙-GR2
  6
Continuous
 62
     7
370
    20
100
AcDbCircle
 10
311.0330220276122
 20
97.90334323917278
 30
0.0
 40
1.0
100
AcDbArc
 50
270.0
 51
0.0
  0
LINE
  5
33F
330
1F
100
AcDbEntity
  8
用紙-GR2
  6
Continuous
 62
     7
370
    20
100
AcDbLine
 10
281.0330220276106
 20
128.9033432391724
 30
0.0
 11
311.0330220276106
 21
128.9033432391727
 31
0.0
  0
ARC
  5
340
330
1F
100
AcDbEntity
  8
用紙-GR2
  6
Continuous
 62
     7
370
    20
100
AcDbCircle
 10
281.0330220276106
 20
127.9033432391723
 30
0.0
 40
1.0
100
AcDbArc
 50
90.0
 51
180.0
  0
ARC
  5
341
330
1F
100
AcDbEntity
  8
用紙-GR2
  6
Continuous
 62
     7
370
    20
100
AcDbCircle
 10
311.0330220276106
 20
127.9033432391727
 30
0.0
 40
1.0
100
AcDbArc
 50
0.0
 51
90.0
  0
LINE
  5
342
330
1F
100
AcDbEntity
  8
用紙-GR2
  6
Continuous
 62
     7
370
    20
100
AcDbLine
 10
281.0330220276103
 20
96.90334323917298
 30
0.0
 11
311.0330220276122
 21
96.9033432391728
 31
0.0
  0
ARC
  5
343
330
1F
100
AcDbEntity
  8
用紙-GR2
  6
Continuous
 62
     7
370
    20
100
AcDbCircle
 10
281.0330220276103
 20
97.90334323917299
 30
0.0
 40
1.0
100
AcDbArc
 50
180.0
 51
270.0
  0
CIRCLE
  5
344
330
1F
100
AcDbEntity
  8
用紙-GR2
  6
Continuous
 62
     7
370
    20
100
AcDbCircle
 10
296.0330220276115
 20
112.9033432391723
 30
0.0
 40
3.750000000189629
  0
CIRCLE
  5
345
330
1F
100
AcDbEntity
  8
用紙-GR2
  6
Continuous
 62
     7
370
    20
100
AcDbCircle
 10
296.0330220276115
 20
112.9033432391723
 30
0.0
 40
5.000000000190483
  0
CIRCLE
  5
346
330
1F
100
AcDbEntity
  8
用紙-GR2
  6
Continuous
 62
     7
370
    20
100
AcDbCircle
 10
296.0330220276115
 20
112.9033432391723
 30
0.0
 40
15.0
  0
CIRCLE
  5
347
330
1F
100
AcDbEntity
  8
用紙-GR2
  6
Continuous
 62
     7
370
    20
100
AcDbCircle
 10
296.0330220276115
 20
112.9033432391723
 30
0.0
 40
10.0
  0
CIRCLE
  5
348
330
1F
100
AcDbEntity
  8
用紙-GR2
  6
Continuous
 62
     7
370
    20
100
AcDbCircle
 10
290.7297211687128
 20
107.6000423802726
 30
0.0
 40
1.75
  0
CIRCLE
  5
349
330
1F
100
AcDbEntity
  8
用紙-GR2
  6
Continuous
 62
     7
370
    20
100
AcDbCircle
 10
290.7297211687124
 20
118.2066440980711
 30
0.0
 40
1.75
  0
CIRCLE
  5
34A
330
1F
100
AcDbEntity
  8
用紙-GR2
  6
Continuous
 62
     7
370
    20
100
AcDbCircle
 10
301.3363228865097
 20
118.2066440980718
 30
0.0
 40
1.75
  0
CIRCLE
  5
34B
330
1F
100
AcDbEntity
  8
用紙-GR2
  6
Continuous
 62
     7
370
    20
100
AcDbCircle
 10
301.336322886511
 20
107.6000423802737
 30
0.0
 40
1.75
  0
LINE
  5
34C
330
1F
100
AcDbEntity
  8
用紙-GR2
  6
Continuous
 62
     7
370
    20
100
AcDbLine
 10
279.5330220276113
 20
130.4033432391721
 30
0.0
 11
312.5330220276115
 21
130.4033432391718
 31
0.0
  0
ARC
  5
34D
330
1F
100
AcDbEntity
  8
用紙-GR2
  6
Continuous
 62
     7
370
    20
100
AcDbCircle
 10
312.5330220276115
 20
129.4033432391718
 30
0.0
 40
1.0
100
AcDbArc
 50
0.0
 51
90.0
  0
LINE
  5
34E
330
1F
100
AcDbEntity
  8
用紙-GR2
  6
Continuous
 62
     7
370
    20
100
AcDbLine
 10
279.5330220276113
 20
95.40334323917189
 30
0.0
 11
312.5330220276113
 21
95.40334323917189
 31
0.0
  0
ARC
  5
34F
330
1F
100
AcDbEntity
  8
用紙-GR2
  6
Continuous
 62
     7
370
    20
100
AcDbCircle
 10
279.5330220276113
 20
96.40334323917187
 30
0.0
 40
1.0
100
AcDbArc
 50
180.0
 51
270.0
  0
LINE
  5
350
330
1F
100
AcDbEntity
  8
用紙-GR2
  6
Continuous
 62
     7
370
    20
100
AcDbLine
 10
278.5330220276112
 20
129.4033432391721
 30
0.0
 11
278.5330220276112
 21
96.40334323917187
 31
0.0
  0
ARC
  5
351
330
1F
100
AcDbEntity
  8
用紙-GR2
  6
Continuous
 62
     7
370
    20
100
AcDbCircle
 10
279.5330220276113
 20
129.4033432391721
 30
0.0
 40
1.0
100
AcDbArc
 50
90.0
 51
180.0
  0
LINE
  5
352
330
1F
100
AcDbEntity
  8
用紙-GR2
  6
Continuous
 62
     7
370
    20
100
AcDbLine
 10
313.5330220276115
 20
129.4033432391718
 30
0.0
 11
313.5330220276111
 21
96.40334323917187
 31
0.0
  0
ARC
  5
353
330
1F
100
AcDbEntity
  8
用紙-GR2
  6
Continuous
 62
     7
370
    20
100
AcDbCircle
 10
312.5330220276113
 20
96.40334323917187
 30
0.0
 40
1.0
100
AcDbArc
 50
270.0
 51
0.0
  0
LINE
  5
354
330
1F
100
AcDbEntity
  8
用紙-GR2
  6
Continuous
 62
     7
370
    20
100
AcDbLine
 10
252.4330220276114
 20
128.1533432391722
 30
0.0
 11
251.0330220276113
 21
128.1533432391722
 31
0.0
  0
LINE
  5
355
330
1F
100
AcDbEntity
  8
用紙-GR2
  6
Continuous
 62
     7
370
    20
100
AcDbLine
 10
252.4330220276108
 20
123.6533432391723
 30
0.0
 11
251.0330220276113
 21
123.6533432391723
 31
0.0
  0
LINE
  5
356
330
1F
100
AcDbEntity
  8
用紙-GR2
  6
Continuous
 62
     7
370
    20
100
AcDbLine
 10
252.6330220276108
 20
123.8533432391726
 30
0.0
 11
252.4330220276108
 21
123.6533432391723
 31
0.0
  0
LINE
  5
357
330
1F
100
AcDbEntity
  8
用紙-GR2
  6
Continuous
 62
     7
370
    20
100
AcDbLine
 10
252.6330220276111
 20
127.9533432391723
 30
0.0
 11
252.6330220276108
 21
123.8533432391726
 31
0.0
  0
LINE
  5
358
330
1F
100
AcDbEntity
  8
用紙-GR2
  6
Continuous
 62
     7
370
    20
100
AcDbLine
 10
252.4330220276114
 20
128.1533432391722
 30
0.0
 11
252.6330220276111
 21
127.9533432391723
 31
0.0
  0
LINE
  5
359
330
1F
100
AcDbEntity
  8
用紙-GR2
  6
Continuous
 62
     7
370
    20
100
AcDbLine
 10
251.0330220276113
 20
128.1533432391722
 30
0.0
 11
251.0330220276113
 21
123.6533432391723
 31
0.0
  0
LINE
  5
35A
330
1F
100
AcDbEntity
  8
用紙-GR2
  6
Continuous
 62
     7
370
    20
100
AcDbLine
 10
252.4330220276114
 20
128.1533432391722
 30
0.0
 11
252.4330220276108
 21
123.6533432391723
 31
0.0
  0
LINE
  5
35B
330
1F
100
AcDbEntity
  8
用紙-GR2
  6
Continuous
 62
     7
370
    20
100
AcDbLine
 10
252.4330220276114
 20
97.65334323917237
 30
0.0
 11
251.0330220276113
 21
97.65334323917237
 31
0.0
  0
LINE
  5
35C
330
1F
100
AcDbEntity
  8
用紙-GR2
  6
Continuous
 62
     7
370
    20
100
AcDbLine
 10
252.4330220276108
 20
102.1533432391723
 30
0.0
 11
251.0330220276113
 21
102.1533432391723
 31
0.0
  0
LINE
  5
35D
330
1F
100
AcDbEntity
  8
用紙-GR2
  6
Continuous
 62
     7
370
    20
100
AcDbLine
 10
252.6330220276108
 20
101.953343239172
 30
0.0
 11
252.4330220276108
 21
102.1533432391723
 31
0.0
  0
LINE
  5
35E
330
1F
100
AcDbEntity
  8
用紙-GR2
  6
Continuous
 62
     7
370
    20
100
AcDbLine
 10
252.6330220276111
 20
97.85334323917235
 30
0.0
 11
252.6330220276108
 21
101.953343239172
 31
0.0
  0
LINE
  5
35F
330
1F
100
AcDbEntity
  8
用紙-GR2
  6
Continuous
 62
     7
370
    20
100
AcDbLine
 10
252.4330220276114
 20
97.65334323917237
 30
0.0
 11
252.6330220276111
 21
97.85334323917235
 31
0.0
  0
LINE
  5
360
330
1F
100
AcDbEntity
  8
用紙-GR2
  6
Continuous
 62
     7
370
    20
100
AcDbLine
 10
251.0330220276113
 20
97.65334323917237
 30
0.0
 11
251.0330220276113
 21
102.1533432391723
 31
0.0
  0
LINE
  5
361
330
1F
100
AcDbEntity
  8
用紙-GR2
  6
Continuous
 62
     7
370
    20
100
AcDbLine
 10
252.4330220276114
 20
97.65334323917237
 30
0.0
 11
252.4330220276108
 21
102.1533432391723
 31
0.0
  0
CIRCLE
  5
362
330
1F
100
AcDbEntity
  8
用紙-GR2
  6
Continuous
 62
     7
370
    20
100
AcDbCircle
 10
283.0330220276128
 20
125.9033432391728
 30
0.0
 40
2.249999999999998
  0
CIRCLE
  5
363
330
1F
100
AcDbEntity
  8
用紙-GR2
  6
Continuous
 62
     7
370
    20
100
AcDbCircle
 10
283.0330220276128
 20
125.9033432391728
 30
0.0
 40
2.049999999999999
  0
LINE
  5
364
330
1F
100
AcDbEntity
  8
用紙-GR2
  6
Continuous
 62
     7
370
    20
100
AcDbLine
 10
283.7830220276124
 20
126.3363559410648
 30
0.0
 11
283.7830220276124
 21
125.4703305372802
 31
0.0
  0
LINE
  5
365
330
1F
100
AcDbEntity
  8
用紙-GR2
  6
Continuous
 62
     7
370
    20
100
AcDbLine
 10
282.2830220276123
 20
126.3363559410643
 30
0.0
 11
282.2830220276123
 21
125.4703305372805
 31
0.0
  0
LINE
  5
366
330
1F
100
AcDbEntity
  8
用紙-GR2
  6
Continuous
 62
     7
370
    20
100
AcDbLine
 10
282.2830220276123
 20
126.3363559410643
 30
0.0
 11
283.0330220276128
 21
126.7693686429568
 31
0.0
  0
LINE
  5
367
330
1F
100
AcDbEntity
  8
用紙-GR2
  6
Continuous
 62
     7
370
    20
100
AcDbLine
 10
283.0330220276132
 20
125.0373178353882
 30
0.0
 11
283.7830220276124
 21
125.4703305372802
 31
0.0
  0
LINE
  5
368
330
1F
100
AcDbEntity
  8
用紙-GR2
  6
Continuous
 62
     7
370
    20
100
AcDbLine
 10
283.0330220276132
 20
125.0373178353882
 30
0.0
 11
282.2830220276123
 21
125.4703305372805
 31
0.0
  0
LINE
  5
369
330
1F
100
AcDbEntity
  8
用紙-GR2
  6
Continuous
 62
     7
370
    20
100
AcDbLine
 10
283.7830220276124
 20
126.3363559410648
 30
0.0
 11
283.0330220276128
 21
126.7693686429568
 31
0.0
  0
CIRCLE
  5
36A
330
1F
100
AcDbEntity
  8
用紙-GR2
  6
Continuous
 62
     7
370
    20
100
AcDbCircle
 10
309.0330220276113
 20
125.9033432391728
 30
0.0
 40
2.249999999999998
  0
CIRCLE
  5
36B
330
1F
100
AcDbEntity
  8
用紙-GR2
  6
Continuous
 62
     7
370
    20
100
AcDbCircle
 10
309.0330220276113
 20
125.9033432391728
 30
0.0
 40
2.049999999999999
  0
LINE
  5
36C
330
1F
100
AcDbEntity
  8
用紙-GR2
  6
Continuous
 62
     7
370
    20
100
AcDbLine
 10
308.283022027611
 20
126.3363559410648
 30
0.0
 11
308.283022027611
 21
125.4703305372802
 31
0.0
  0
LINE
  5
36D
330
1F
100
AcDbEntity
  8
用紙-GR2
  6
Continuous
 62
     7
370
    20
100
AcDbLine
 10
309.7830220276112
 20
126.3363559410643
 30
0.0
 11
309.7830220276112
 21
125.4703305372805
 31
0.0
  0
LINE
  5
36E
330
1F
100
AcDbEntity
  8
用紙-GR2
  6
Continuous
 62
     7
370
    20
100
AcDbLine
 10
309.7830220276112
 20
126.3363559410643
 30
0.0
 11
309.0330220276106
 21
126.7693686429568
 31
0.0
  0
LINE
  5
36F
330
1F
100
AcDbEntity
  8
用紙-GR2
  6
Continuous
 62
     7
370
    20
100
AcDbLine
 10
309.0330220276102
 20
125.0373178353882
 30
0.0
 11
308.283022027611
 21
125.4703305372802
 31
0.0
  0
LINE
  5
370
330
1F
100
AcDbEntity
  8
用紙-GR2
  6
Continuous
 62
     7
370
    20
100
AcDbLine
 10
309.0330220276102
 20
125.0373178353882
 30
0.0
 11
309.7830220276112
 21
125.4703305372805
 31
0.0
  0
LINE
  5
371
330
1F
100
AcDbEntity
  8
用紙-GR2
  6
Continuous
 62
     7
370
    20
100
AcDbLine
 10
308.283022027611
 20
126.3363559410648
 30
0.0
 11
309.0330220276106
 21
126.7693686429568
 31
0.0
  0
CIRCLE
  5
372
330
1F
100
AcDbEntity
  8
用紙-GR2
  6
Continuous
 62
     7
370
    20
100
AcDbCircle
 10
283.0330220276128
 20
99.90334323917187
 30
0.0
 40
2.249999999999998
  0
CIRCLE
  5
373
330
1F
100
AcDbEntity
  8
用紙-GR2
  6
Continuous
 62
     7
370
    20
100
AcDbCircle
 10
283.0330220276128
 20
99.90334323917187
 30
0.0
 40
2.049999999999999
  0
LINE
  5
374
330
1F
100
AcDbEntity
  8
用紙-GR2
  6
Continuous
 62
     7
370
    20
100
AcDbLine
 10
283.7830220276124
 20
99.47033053727979
 30
0.0
 11
283.7830220276124
 21
100.3363559410643
 31
0.0
  0
LINE
  5
375
330
1F
100
AcDbEntity
  8
用紙-GR2
  6
Continuous
 62
     7
370
    20
100
AcDbLine
 10
282.2830220276123
 20
99.47033053728024
 30
0.0
 11
282.2830220276123
 21
100.3363559410641
 31
0.0
  0
LINE
  5
376
330
1F
100
AcDbEntity
  8
用紙-GR2
  6
Continuous
 62
     7
370
    20
100
AcDbLine
 10
282.2830220276123
 20
99.47033053728024
 30
0.0
 11
283.0330220276128
 21
99.03731783538775
 31
0.0
  0
LINE
  5
377
330
1F
100
AcDbEntity
  8
用紙-GR2
  6
Continuous
 62
     7
370
    20
100
AcDbLine
 10
283.0330220276132
 20
100.7693686429563
 30
0.0
 11
283.7830220276124
 21
100.3363559410643
 31
0.0
  0
LINE
  5
378
330
1F
100
AcDbEntity
  8
用紙-GR2
  6
Continuous
 62
     7
370
    20
100
AcDbLine
 10
283.0330220276132
 20
100.7693686429563
 30
0.0
 11
282.2830220276123
 21
100.3363559410641
 31
0.0
  0
LINE
  5
379
330
1F
100
AcDbEntity
  8
用紙-GR2
  6
Continuous
 62
     7
370
    20
100
AcDbLine
 10
283.7830220276124
 20
99.47033053727979
 30
0.0
 11
283.0330220276128
 21
99.03731783538775
 31
0.0
  0
CIRCLE
  5
37A
330
1F
100
AcDbEntity
  8
用紙-GR2
  6
Continuous
 62
     7
370
    20
100
AcDbCircle
 10
309.0330220276113
 20
99.90334323917187
 30
0.0
 40
2.249999999999998
  0
CIRCLE
  5
37B
330
1F
100
AcDbEntity
  8
用紙-GR2
  6
Continuous
 62
     7
370
    20
100
AcDbCircle
 10
309.0330220276113
 20
99.90334323917187
 30
0.0
 40
2.049999999999999
  0
LINE
  5
37C
330
1F
100
AcDbEntity
  8
用紙-GR2
  6
Continuous
 62
     7
370
    20
100
AcDbLine
 10
308.283022027611
 20
99.47033053727979
 30
0.0
 11
308.283022027611
 21
100.3363559410643
 31
0.0
  0
LINE
  5
37D
330
1F
100
AcDbEntity
  8
用紙-GR2
  6
Continuous
 62
     7
370
    20
100
AcDbLine
 10
309.7830220276112
 20
99.47033053728024
 30
0.0
 11
309.7830220276112
 21
100.3363559410641
 31
0.0
  0
LINE
  5
37E
330
1F
100
AcDbEntity
  8
用紙-GR2
  6
Continuous
 62
     7
370
    20
100
AcDbLine
 10
309.7830220276112
 20
99.47033053728024
 30
0.0
 11
309.0330220276106
 21
99.03731783538775
 31
0.0
  0
LINE
  5
37F
330
1F
100
AcDbEntity
  8
用紙-GR2
  6
Continuous
 62
     7
370
    20
100
AcDbLine
 10
309.0330220276102
 20
100.7693686429563
 30
0.0
 11
308.283022027611
 21
100.3363559410643
 31
0.0
  0
LINE
  5
380
330
1F
100
AcDbEntity
  8
用紙-GR2
  6
Continuous
 62
     7
370
    20
100
AcDbLine
 10
309.0330220276102
 20
100.7693686429563
 30
0.0
 11
309.7830220276112
 21
100.3363559410641
 31
0.0
  0
LINE
  5
381
330
1F
100
AcDbEntity
  8
用紙-GR2
  6
Continuous
 62
     7
370
    20
100
AcDbLine
 10
308.283022027611
 20
99.47033053727979
 30
0.0
 11
309.0330220276106
 21
99.03731783538775
 31
0.0
  0
CIRCLE
  5
382
330
1F
100
AcDbEntity
  8
用紙-GR2
  6
Continuous
 62
     7
370
    20
100
AcDbCircle
 10
290.7297211687124
 20
118.2066440980711
 30
0.0
 40
1.499999999999999
  0
LINE
  5
383
330
1F
100
AcDbEntity
  8
用紙-GR2
  6
Continuous
 62
     7
370
    20
100
AcDbLine
 10
290.4797211687129
 20
119.2066440980711
 30
0.0
 11
290.4797211687129
 21
118.7066440980713
 31
0.0
  0
ARC
  5
384
330
1F
100
AcDbEntity
  8
用紙-GR2
  6
Continuous
 62
     7
370
    20
100
AcDbCircle
 10
290.2297211687129
 20
118.7066440980713
 30
0.0
 40
0.25
100
AcDbArc
 50
270.0
 51
0.0
  0
LINE
  5
385
330
1F
100
AcDbEntity
  8
用紙-GR2
  6
Continuous
 62
     7
370
    20
100
AcDbLine
 10
290.4797211687129
 20
117.7066440980711
 30
0.0
 11
290.4797211687129
 21
117.2066440980712
 31
0.0
  0
LINE
  5
386
330
1F
100
AcDbEntity
  8
用紙-GR2
  6
Continuous
 62
     7
370
    20
100
AcDbLine
 10
290.9797211687124
 20
119.2066440980714
 30
0.0
 11
290.9797211687124
 21
118.7066440980713
 31
0.0
  0
LINE
  5
387
330
1F
100
AcDbEntity
  8
用紙-GR2
  6
Continuous
 62
     7
370
    20
100
AcDbLine
 10
290.9797211687114
 20
117.706644098071
 30
0.0
 11
290.979721168712
 21
117.2066440980712
 31
0.0
  0
LINE
  5
388
330
1F
100
AcDbEntity
  8
用紙-GR2
  6
Continuous
 62
     7
370
    20
100
AcDbLine
 10
291.7297211687129
 20
118.4566440980712
 30
0.0
 11
291.2297211687126
 21
118.4566440980713
 31
0.0
  0
ARC
  5
389
330
1F
100
AcDbEntity
  8
用紙-GR2
  6
Continuous
 62
     7
370
    20
100
AcDbCircle
 10
291.2297211687126
 20
118.7066440980713
 30
0.0
 40
0.25
100
AcDbArc
 50
180.0
 51
270.0
  0
LINE
  5
38A
330
1F
100
AcDbEntity
  8
用紙-GR2
  6
Continuous
 62
     7
370
    20
100
AcDbLine
 10
290.2297211687129
 20
118.4566440980713
 30
0.0
 11
289.7297211687124
 21
118.4566440980713
 31
0.0
  0
LINE
  5
38B
330
1F
100
AcDbEntity
  8
用紙-GR2
  6
Continuous
 62
     7
370
    20
100
AcDbLine
 10
291.7297211687124
 20
117.956644098071
 30
0.0
 11
291.2297211687115
 21
117.956644098071
 31
0.0
  0
ARC
  5
38C
330
1F
100
AcDbEntity
  8
用紙-GR2
  6
Continuous
 62
     7
370
    20
100
AcDbCircle
 10
291.2297211687115
 20
117.706644098071
 30
0.0
 40
0.25
100
AcDbArc
 50
90.0
 51
180.0
  0
LINE
  5
38D
330
1F
100
AcDbEntity
  8
用紙-GR2
  6
Continuous
 62
     7
370
    20
100
AcDbLine
 10
290.2297211687129
 20
117.9566440980711
 30
0.0
 11
289.729721168713
 21
117.9566440980711
 31
0.0
  0
ARC
  5
38E
330
1F
100
AcDbEntity
  8
用紙-GR2
  6
Continuous
 62
     7
370
    20
100
AcDbCircle
 10
290.2297211687129
 20
117.7066440980711
 30
0.0
 40
0.25
100
AcDbArc
 50
0.0
 51
90.0
  0
LINE
  5
38F
330
1F
100
AcDbEntity
  8
用紙-GR2
  6
Continuous
 62
     7
370
    20
100
AcDbLine
 10
290.9797211687124
 20
119.2066440980714
 30
0.0
 11
290.4797211687129
 21
119.2066440980711
 31
0.0
  0
LINE
  5
390
330
1F
100
AcDbEntity
  8
用紙-GR2
  6
Continuous
 62
     7
370
    20
100
AcDbLine
 10
290.979721168712
 20
117.2066440980712
 30
0.0
 11
290.4797211687129
 21
117.2066440980712
 31
0.0
  0
LINE
  5
391
330
1F
100
AcDbEntity
  8
用紙-GR2
  6
Continuous
 62
     7
370
    20
100
AcDbLine
 10
289.7297211687124
 20
118.4566440980713
 30
0.0
 11
289.729721168713
 21
117.9566440980711
 31
0.0
  0
LINE
  5
392
330
1F
100
AcDbEntity
  8
用紙-GR2
  6
Continuous
 62
     7
370
    20
100
AcDbLine
 10
291.7297211687129
 20
118.4566440980712
 30
0.0
 11
291.7297211687124
 21
117.956644098071
 31
0.0
  0
LINE
  5
393
330
1F
100
AcDbEntity
  8
用紙-GR2
  6
Continuous
 62
     7
370
    20
100
AcDbLine
 10
301.0863228865101
 20
119.2066440980718
 30
0.0
 11
301.0863228865101
 21
118.7066440980721
 31
0.0
  0
ARC
  5
394
330
1F
100
AcDbEntity
  8
用紙-GR2
  6
Continuous
 62
     7
370
    20
100
AcDbCircle
 10
300.8363228865102
 20
118.7066440980721
 30
0.0
 40
0.25
100
AcDbArc
 50
270.0
 51
0.0
  0
LINE
  5
395
330
1F
100
AcDbEntity
  8
用紙-GR2
  6
Continuous
 62
     7
370
    20
100
AcDbLine
 10
301.0863228865101
 20
117.7066440980718
 30
0.0
 11
301.0863228865101
 21
117.2066440980719
 31
0.0
  0
LINE
  5
396
330
1F
100
AcDbEntity
  8
用紙-GR2
  6
Continuous
 62
     7
370
    20
100
AcDbLine
 10
301.5863228865099
 20
119.2066440980718
 30
0.0
 11
301.5863228865099
 21
118.7066440980718
 31
0.0
  0
LINE
  5
397
330
1F
100
AcDbEntity
  8
用紙-GR2
  6
Continuous
 62
     7
370
    20
100
AcDbLine
 10
301.5863228865088
 20
117.7066440980718
 30
0.0
 11
301.5863228865092
 21
117.2066440980719
 31
0.0
  0
LINE
  5
398
330
1F
100
AcDbEntity
  8
用紙-GR2
  6
Continuous
 62
     7
370
    20
100
AcDbLine
 10
302.3363228865101
 20
118.4566440980719
 30
0.0
 11
301.8363228865096
 21
118.4566440980719
 31
0.0
  0
ARC
  5
399
330
1F
100
AcDbEntity
  8
用紙-GR2
  6
Continuous
 62
     7
370
    20
100
AcDbCircle
 10
301.8363228865096
 20
118.7066440980718
 30
0.0
 40
0.25
100
AcDbArc
 50
180.0
 51
270.0
  0
LINE
  5
39A
330
1F
100
AcDbEntity
  8
用紙-GR2
  6
Continuous
 62
     7
370
    20
100
AcDbLine
 10
300.8363228865102
 20
118.456644098072
 30
0.0
 11
300.3363228865097
 21
118.4566440980719
 31
0.0
  0
LINE
  5
39B
330
1F
100
AcDbEntity
  8
用紙-GR2
  6
Continuous
 62
     7
370
    20
100
AcDbLine
 10
302.3363228865097
 20
117.9566440980718
 30
0.0
 11
301.8363228865088
 21
117.9566440980718
 31
0.0
  0
ARC
  5
39C
330
1F
100
AcDbEntity
  8
用紙-GR2
  6
Continuous
 62
     7
370
    20
100
AcDbCircle
 10
301.8363228865088
 20
117.7066440980718
 30
0.0
 40
0.25
100
AcDbArc
 50
90.0
 51
180.0
  0
LINE
  5
39D
330
1F
100
AcDbEntity
  8
用紙-GR2
  6
Continuous
 62
     7
370
    20
100
AcDbLine
 10
300.8363228865102
 20
117.9566440980718
 30
0.0
 11
300.3363228865105
 21
117.9566440980718
 31
0.0
  0
ARC
  5
39E
330
1F
100
AcDbEntity
  8
用紙-GR2
  6
Continuous
 62
     7
370
    20
100
AcDbCircle
 10
300.8363228865102
 20
117.7066440980718
 30
0.0
 40
0.25
100
AcDbArc
 50
0.0
 51
90.0
  0
LINE
  5
39F
330
1F
100
AcDbEntity
  8
用紙-GR2
  6
Continuous
 62
     7
370
    20
100
AcDbLine
 10
301.5863228865099
 20
119.2066440980718
 30
0.0
 11
301.0863228865101
 21
119.2066440980718
 31
0.0
  0
LINE
  5
3A0
330
1F
100
AcDbEntity
  8
用紙-GR2
  6
Continuous
 62
     7
370
    20
100
AcDbLine
 10
301.5863228865092
 20
117.2066440980719
 30
0.0
 11
301.0863228865101
 21
117.2066440980719
 31
0.0
  0
LINE
  5
3A1
330
1F
100
AcDbEntity
  8
用紙-GR2
  6
Continuous
 62
     7
370
    20
100
AcDbLine
 10
300.3363228865097
 20
118.4566440980719
 30
0.0
 11
300.3363228865105
 21
117.9566440980718
 31
0.0
  0
LINE
  5
3A2
330
1F
100
AcDbEntity
  8
用紙-GR2
  6
Continuous
 62
     7
370
    20
100
AcDbLine
 10
302.3363228865101
 20
118.4566440980719
 30
0.0
 11
302.3363228865097
 21
117.9566440980718
 31
0.0
  0
LINE
  5
3A3
330
1F
100
AcDbEntity
  8
用紙-GR2
  6
Continuous
 62
     7
370
    20
100
AcDbLine
 10
301.0863228865115
 20
108.6000423802736
 30
0.0
 11
301.0863228865115
 21
108.1000423802739
 31
0.0
  0
ARC
  5
3A4
330
1F
100
AcDbEntity
  8
用紙-GR2
  6
Continuous
 62
     7
370
    20
100
AcDbCircle
 10
300.8363228865115
 20
108.1000423802739
 30
0.0
 40
0.25
100
AcDbArc
 50
270.0
 51
0.0
  0
LINE
  5
3A5
330
1F
100
AcDbEntity
  8
用紙-GR2
  6
Continuous
 62
     7
370
    20
100
AcDbLine
 10
301.0863228865115
 20
107.1000423802736
 30
0.0
 11
301.0863228865115
 21
106.6000423802737
 31
0.0
  0
LINE
  5
3A6
330
1F
100
AcDbEntity
  8
用紙-GR2
  6
Continuous
 62
     7
370
    20
100
AcDbLine
 10
301.5863228865113
 20
108.6000423802736
 30
0.0
 11
301.5863228865113
 21
108.1000423802736
 31
0.0
  0
LINE
  5
3A7
330
1F
100
AcDbEntity
  8
用紙-GR2
  6
Continuous
 62
     7
370
    20
100
AcDbLine
 10
301.5863228865102
 20
107.1000423802736
 30
0.0
 11
301.5863228865106
 21
106.6000423802737
 31
0.0
  0
LINE
  5
3A8
330
1F
100
AcDbEntity
  8
用紙-GR2
  6
Continuous
 62
     7
370
    20
100
AcDbLine
 10
302.3363228865116
 20
107.8500423802737
 30
0.0
 11
301.836322886511
 21
107.8500423802737
 31
0.0
  0
ARC
  5
3A9
330
1F
100
AcDbEntity
  8
用紙-GR2
  6
Continuous
 62
     7
370
    20
100
AcDbCircle
 10
301.836322886511
 20
108.1000423802736
 30
0.0
 40
0.25
100
AcDbArc
 50
180.0
 51
270.0
  0
LINE
  5
3AA
330
1F
100
AcDbEntity
  8
用紙-GR2
  6
Continuous
 62
     7
370
    20
100
AcDbLine
 10
300.8363228865115
 20
107.8500423802738
 30
0.0
 11
300.336322886511
 21
107.8500423802737
 31
0.0
  0
LINE
  5
3AB
330
1F
100
AcDbEntity
  8
用紙-GR2
  6
Continuous
 62
     7
370
    20
100
AcDbLine
 10
302.3363228865112
 20
107.3500423802737
 30
0.0
 11
301.8363228865102
 21
107.3500423802737
 31
0.0
  0
ARC
  5
3AC
330
1F
100
AcDbEntity
  8
用紙-GR2
  6
Continuous
 62
     7
370
    20
100
AcDbCircle
 10
301.8363228865102
 20
107.1000423802736
 30
0.0
 40
0.25
100
AcDbArc
 50
90.0
 51
180.0
  0
LINE
  5
3AD
330
1F
100
AcDbEntity
  8
用紙-GR2
  6
Continuous
 62
     7
370
    20
100
AcDbLine
 10
300.8363228865115
 20
107.3500423802737
 30
0.0
 11
300.3363228865115
 21
107.3500423802737
 31
0.0
  0
ARC
  5
3AE
330
1F
100
AcDbEntity
  8
用紙-GR2
  6
Continuous
 62
     7
370
    20
100
AcDbCircle
 10
300.8363228865115
 20
107.1000423802736
 30
0.0
 40
0.25
100
AcDbArc
 50
0.0
 51
90.0
  0
LINE
  5
3AF
330
1F
100
AcDbEntity
  8
用紙-GR2
  6
Continuous
 62
     7
370
    20
100
AcDbLine
 10
301.5863228865113
 20
108.6000423802736
 30
0.0
 11
301.0863228865115
 21
108.6000423802736
 31
0.0
  0
LINE
  5
3B0
330
1F
100
AcDbEntity
  8
用紙-GR2
  6
Continuous
 62
     7
370
    20
100
AcDbLine
 10
301.5863228865106
 20
106.6000423802737
 30
0.0
 11
301.0863228865115
 21
106.6000423802737
 31
0.0
  0
LINE
  5
3B1
330
1F
100
AcDbEntity
  8
用紙-GR2
  6
Continuous
 62
     7
370
    20
100
AcDbLine
 10
300.336322886511
 20
107.8500423802737
 30
0.0
 11
300.3363228865115
 21
107.3500423802737
 31
0.0
  0
LINE
  5
3B2
330
1F
100
AcDbEntity
  8
用紙-GR2
  6
Continuous
 62
     7
370
    20
100
AcDbLine
 10
302.3363228865116
 20
107.8500423802737
 30
0.0
 11
302.3363228865112
 21
107.3500423802737
 31
0.0
  0
LINE
  5
3B3
330
1F
100
AcDbEntity
  8
用紙-GR2
  6
Continuous
 62
     7
370
    20
100
AcDbLine
 10
290.4797211687133
 20
108.6000423802727
 30
0.0
 11
290.4797211687133
 21
108.1000423802729
 31
0.0
  0
ARC
  5
3B4
330
1F
100
AcDbEntity
  8
用紙-GR2
  6
Continuous
 62
     7
370
    20
100
AcDbCircle
 10
290.2297211687133
 20
108.1000423802729
 30
0.0
 40
0.25
100
AcDbArc
 50
270.0
 51
0.0
  0
LINE
  5
3B5
330
1F
100
AcDbEntity
  8
用紙-GR2
  6
Continuous
 62
     7
370
    20
100
AcDbLine
 10
290.4797211687133
 20
107.1000423802728
 30
0.0
 11
290.4797211687133
 21
106.6000423802727
 31
0.0
  0
LINE
  5
3B6
330
1F
100
AcDbEntity
  8
用紙-GR2
  6
Continuous
 62
     7
370
    20
100
AcDbLine
 10
290.9797211687132
 20
108.6000423802727
 30
0.0
 11
290.9797211687132
 21
108.1000423802727
 31
0.0
  0
LINE
  5
3B7
330
1F
100
AcDbEntity
  8
用紙-GR2
  6
Continuous
 62
     7
370
    20
100
AcDbLine
 10
290.979721168712
 20
107.1000423802728
 30
0.0
 11
290.9797211687124
 21
106.6000423802727
 31
0.0
  0
LINE
  5
3B8
330
1F
100
AcDbEntity
  8
用紙-GR2
  6
Continuous
 62
     7
370
    20
100
AcDbLine
 10
291.7297211687137
 20
107.8500423802727
 30
0.0
 11
291.2297211687128
 21
107.8500423802727
 31
0.0
  0
ARC
  5
3B9
330
1F
100
AcDbEntity
  8
用紙-GR2
  6
Continuous
 62
     7
370
    20
100
AcDbCircle
 10
291.2297211687128
 20
108.1000423802727
 30
0.0
 40
0.25
100
AcDbArc
 50
180.0
 51
270.0
  0
LINE
  5
3BA
330
1F
100
AcDbEntity
  8
用紙-GR2
  6
Continuous
 62
     7
370
    20
100
AcDbLine
 10
290.2297211687133
 20
107.850042380273
 30
0.0
 11
289.729721168713
 21
107.8500423802727
 31
0.0
  0
LINE
  5
3BB
330
1F
100
AcDbEntity
  8
用紙-GR2
  6
Continuous
 62
     7
370
    20
100
AcDbLine
 10
291.7297211687129
 20
107.3500423802728
 30
0.0
 11
291.2297211687121
 21
107.3500423802728
 31
0.0
  0
ARC
  5
3BC
330
1F
100
AcDbEntity
  8
用紙-GR2
  6
Continuous
 62
     7
370
    20
100
AcDbCircle
 10
291.2297211687121
 20
107.1000423802728
 30
0.0
 40
0.25
100
AcDbArc
 50
90.0
 51
180.0
  0
LINE
  5
3BD
330
1F
100
AcDbEntity
  8
用紙-GR2
  6
Continuous
 62
     7
370
    20
100
AcDbLine
 10
290.2297211687133
 20
107.3500423802728
 30
0.0
 11
289.7297211687133
 21
107.3500423802728
 31
0.0
  0
ARC
  5
3BE
330
1F
100
AcDbEntity
  8
用紙-GR2
  6
Continuous
 62
     7
370
    20
100
AcDbCircle
 10
290.2297211687133
 20
107.1000423802728
 30
0.0
 40
0.25
100
AcDbArc
 50
0.0
 51
90.0
  0
LINE
  5
3BF
330
1F
100
AcDbEntity
  8
用紙-GR2
  6
Continuous
 62
     7
370
    20
100
AcDbLine
 10
290.9797211687132
 20
108.6000423802727
 30
0.0
 11
290.4797211687133
 21
108.6000423802727
 31
0.0
  0
LINE
  5
3C0
330
1F
100
AcDbEntity
  8
用紙-GR2
  6
Continuous
 62
     7
370
    20
100
AcDbLine
 10
290.9797211687124
 20
106.6000423802727
 30
0.0
 11
290.4797211687133
 21
106.6000423802727
 31
0.0
  0
LINE
  5
3C1
330
1F
100
AcDbEntity
  8
用紙-GR2
  6
Continuous
 62
     7
370
    20
100
AcDbLine
 10
289.729721168713
 20
107.8500423802727
 30
0.0
 11
289.7297211687133
 21
107.3500423802728
 31
0.0
  0
LINE
  5
3C2
330
1F
100
AcDbEntity
  8
用紙-GR2
  6
Continuous
 62
     7
370
    20
100
AcDbLine
 10
291.7297211687137
 20
107.8500423802727
 30
0.0
 11
291.7297211687129
 21
107.3500423802728
 31
0.0
  0
CIRCLE
  5
3C3
330
1F
100
AcDbEntity
  8
用紙-GR2
  6
Continuous
 62
     7
370
    20
100
AcDbCircle
 10
301.3363228865097
 20
118.2066440980718
 30
0.0
 40
1.499999999999999
  0
CIRCLE
  5
3C4
330
1F
100
AcDbEntity
  8
用紙-GR2
  6
Continuous
 62
     7
370
    20
100
AcDbCircle
 10
301.336322886511
 20
107.6000423802737
 30
0.0
 40
1.499999999999999
  0
CIRCLE
  5
3C5
330
1F
100
AcDbEntity
  8
用紙-GR2
  6
Continuous
 62
     7
370
    20
100
AcDbCircle
 10
290.7297211687128
 20
107.6000423802726
 30
0.0
 40
1.499999999999999
  0
LINE
  5
3C6
330
1F
100
AcDbEntity
  8
用紙-GR2
  6
DASHDOT
 62
     6
370
    20
100
AcDbLine
 10
296.0330220276115
 20
132.447243576509
 30
0.0
 11
296.0330220276115
 21
93.33472270047309
 31
0.0
  0
LINE
  5
3C7
330
1F
100
AcDbEntity
  8
用紙-GR2
  6
Continuous
 62
     7
370
    20
100
AcDbLine
 10
249.5330220276117
 20
43.23517215582377
 30
0.0
 11
249.5330220276103
 21
76.23517215582379
 31
0.0
  0
LINE
  5
3C8
330
1F
100
AcDbEntity
  8
用紙-GR2
  6
Continuous
 62
     7
370
    20
100
AcDbLine
 10
197.5330220276113
 20
42.23517215582422
 30
0.0
 11
248.5330220276117
 21
42.23517215582377
 31
0.0
  0
ARC
  5
3C9
330
1F
100
AcDbEntity
  8
用紙-GR2
  6
Continuous
 62
     7
370
    20
100
AcDbCircle
 10
248.5330220276117
 20
43.23517215582377
 30
0.0
 40
1.0
100
AcDbArc
 50
270.0
 51
0.0
  0
LINE
  5
3CA
330
1F
100
AcDbEntity
  8
用紙-GR2
  6
Continuous
 62
     7
370
    20
100
AcDbLine
 10
197.5330220276113
 20
77.23517215582379
 30
0.0
 11
248.5330220276103
 21
77.23517215582379
 31
0.0
  0
ARC
  5
3CB
330
1F
100
AcDbEntity
  8
用紙-GR2
  6
Continuous
 62
     7
370
    20
100
AcDbCircle
 10
248.5330220276103
 20
76.23517215582379
 30
0.0
 40
1.0
100
AcDbArc
 50
0.0
 51
90.0
  0
LINE
  5
3CC
330
1F
100
AcDbEntity
  8
用紙-GR2
  6
Continuous
 62
     7
370
    20
100
AcDbLine
 10
197.5330220276113
 20
42.23517215582422
 30
0.0
 11
197.5330220276113
 21
77.23517215582379
 31
0.0
  0
LINE
  5
3CD
330
1F
100
AcDbEntity
  8
用紙-GR2
  6
DASHDOT
 62
     6
370
    20
100
AcDbLine
 10
239.5330220276114
 20
46.73517215582424
 30
0.0
 11
239.533022027611
 21
72.73517215582422
 31
0.0
  0
LINE
  5
3CE
330
1F
100
AcDbEntity
  8
用紙-GR2
  6
DASHDOT
 62
     6
370
    20
100
AcDbLine
 10
242.533022027611
 20
69.73517215582422
 30
0.0
 11
236.5330220276109
 21
69.73517215582422
 31
0.0
  0
LINE
  5
3CF
330
1F
100
AcDbEntity
  8
用紙-GR2
  6
DASHDOT
 62
     6
370
    20
100
AcDbLine
 10
242.5330220276112
 20
49.73517215582423
 30
0.0
 11
236.5330220276113
 21
49.73517215582423
 31
0.0
  0
CIRCLE
  5
3D0
330
1F
100
AcDbEntity
  8
用紙-GR2
  6
Continuous
 62
     7
370
    20
100
AcDbCircle
 10
239.533022027611
 20
69.73517215582422
 30
0.0
 40
1.999999999999998
  0
CIRCLE
  5
3D1
330
1F
100
AcDbEntity
  8
用紙-GR2
  6
Continuous
 62
     7
370
    20
100
AcDbCircle
 10
239.533022027611
 20
69.73517215582422
 30
0.0
 40
1.599999999999999
  0
CIRCLE
  5
3D2
330
1F
100
AcDbEntity
  8
用紙-GR2
  6
Continuous
 62
     7
370
    20
100
AcDbCircle
 10
239.533022027611
 20
49.73517215582423
 30
0.0
 40
1.999999999999998
  0
CIRCLE
  5
3D3
330
1F
100
AcDbEntity
  8
用紙-GR2
  6
Continuous
 62
     7
370
    20
100
AcDbCircle
 10
239.533022027611
 20
49.73517215582423
 30
0.0
 40
1.599999999999999
  0
LINE
  5
3D4
330
1F
100
AcDbEntity
  8
用紙-GR2
  6
Continuous
 62
     7
370
    20
100
AcDbLine
 10
197.5330220276113
 20
77.2351721558247
 30
0.0
 11
197.5330220276113
 21
42.23517215582467
 31
0.0
  0
LINE
  5
3D5
330
1F
100
AcDbEntity
  8
用紙-GR2
  6
Continuous
 62
     7
370
    20
100
AcDbLine
 10
193.5330220276113
 20
76.23517215582421
 30
0.0
 11
193.5330220276109
 21
43.23517215582421
 31
0.0
  0
ARC
  5
3D6
330
1F
100
AcDbEntity
  8
用紙-GR2
  6
Continuous
 62
     7
370
    20
100
AcDbCircle
 10
194.5330220276113
 20
76.23517215582421
 30
0.0
 40
1.0
100
AcDbArc
 50
90.0
 51
115.8418934494987
  0
LINE
  5
3D7
330
1F
100
AcDbEntity
  8
用紙-GR2
  6
Continuous
 62
     7
370
    20
100
AcDbLine
 10
197.5330220276113
 20
77.23517215582422
 30
0.0
 11
197.5330220276113
 21
42.23517215582422
 31
0.0
  0
LINE
  5
3D8
330
1F
100
AcDbEntity
  8
用紙-GR2
  6
Continuous
 62
     7
370
    20
100
AcDbLine
 10
197.5330220276113
 20
77.23517215582422
 30
0.0
 11
194.5330220276113
 21
77.23517215582422
 31
0.0
  0
LINE
  5
3D9
330
1F
100
AcDbEntity
  8
用紙-GR2
  6
Continuous
 62
     7
370
    20
100
AcDbLine
 10
197.5330220276113
 20
42.23517215582422
 30
0.0
 11
194.5330220276109
 21
42.23517215582422
 31
0.0
  0
ARC
  5
3DA
330
1F
100
AcDbEntity
  8
用紙-GR2
  6
Continuous
 62
     7
370
    20
100
AcDbCircle
 10
194.5330220276109
 20
43.23517215582421
 30
0.0
 40
1.0
100
AcDbArc
 50
244.1580279232274
 51
270.0
  0
LINE
  5
3DB
330
1F
100
AcDbEntity
  8
用紙-GR2
  6
Continuous
 62
     7
370
    20
100
AcDbLine
 10
183.5330220276092
 20
65.73517215582469
 30
0.0
 11
183.5330220276092
 21
53.73517215582422
 31
0.0
  0
ARC
  5
3DC
330
1F
100
AcDbEntity
  8
用紙-GR2
  6
Continuous
 62
     7
370
    20
100
AcDbCircle
 10
184.5330220276091
 20
65.73517215582469
 30
0.0
 40
1.0
100
AcDbArc
 50
90.0
 51
180.0
  0
LINE
  5
3DD
330
1F
100
AcDbEntity
  8
用紙-GR2
  6
Continuous
 62
     7
370
    20
100
AcDbLine
 10
193.5330220276109
 20
66.7351721558247
 30
0.0
 11
184.5330220276091
 21
66.7351721558247
 31
0.0
  0
LINE
  5
3DE
330
1F
100
AcDbEntity
  8
用紙-GR2
  6
Continuous
 62
     7
370
    20
100
AcDbLine
 10
193.5330220276109
 20
52.73517215582421
 30
0.0
 11
184.5330220276091
 21
52.73517215582421
 31
0.0
  0
ARC
  5
3DF
330
1F
100
AcDbEntity
  8
用紙-GR2
  6
Continuous
 62
     7
370
    20
100
AcDbCircle
 10
184.5330220276091
 20
53.73517215582422
 30
0.0
 40
1.0
100
AcDbArc
 50
180.0
 51
270.0
  0
LINE
  5
3E0
330
1F
100
AcDbEntity
  8
用紙-GR2
  6
Continuous
 62
     7
370
    20
100
AcDbLine
 10
195.5330220276113
 20
72.98517215582425
 30
0.0
 11
193.5330220276113
 21
72.98517215582425
 31
0.0
  0
LINE
  5
3E1
330
1F
100
AcDbEntity
  8
用紙-GR2
  6
Continuous
 62
     7
370
    20
100
AcDbLine
 10
195.5330220276113
 20
77.23517215582422
 30
0.0
 11
195.5330220276113
 21
72.98517215582425
 31
0.0
  0
LINE
  5
3E2
330
1F
100
AcDbEntity
  8
用紙-GR2
  6
Continuous
 62
     7
370
    20
100
AcDbLine
 10
195.5330220276113
 20
46.4851721558247
 30
0.0
 11
193.5330220276113
 21
46.48517215582423
 31
0.0
  0
LINE
  5
3E3
330
1F
100
AcDbEntity
  8
用紙-GR2
  6
Continuous
 62
     7
370
    20
100
AcDbLine
 10
195.5330220276113
 20
42.23517215582422
 30
0.0
 11
195.5330220276113
 21
46.4851721558247
 31
0.0
  0
LINE
  5
3E4
330
1F
100
AcDbEntity
  8
用紙-GR2
  6
Continuous
 62
     7
370
    20
100
AcDbLine
 10
195.5330220276113
 20
73.33517245491103
 30
0.0
 11
195.5330220276113
 21
77.1351724549112
 31
0.0
  0
LINE
  5
3E5
330
1F
100
AcDbEntity
  8
用紙-GR2
  6
Continuous
 62
     7
370
    20
100
AcDbLine
 10
193.7330220276113
 20
73.33517245491103
 30
0.0
 11
193.7330220276113
 21
77.1351724549112
 31
0.0
  0
LINE
  5
3E6
330
1F
100
AcDbEntity
  8
用紙-GR2
  6
Continuous
 62
     7
370
    20
100
AcDbLine
 10
193.5330220276113
 20
73.53517245491082
 30
0.0
 11
193.5330220276113
 21
76.93517245491094
 31
0.0
  0
LINE
  5
3E7
330
1F
100
AcDbEntity
  8
用紙-GR2
  6
Continuous
 62
     7
370
    20
100
AcDbLine
 10
193.7330220276113
 20
77.1351724549112
 30
0.0
 11
195.5330220276113
 21
77.1351724549112
 31
0.0
  0
LINE
  5
3E8
330
1F
100
AcDbEntity
  8
用紙-GR2
  6
Continuous
 62
     7
370
    20
100
AcDbLine
 10
193.7330220276113
 20
77.1351724549112
 30
0.0
 11
193.5330220276113
 21
76.93517245491094
 31
0.0
  0
LINE
  5
3E9
330
1F
100
AcDbEntity
  8
用紙-GR2
  6
Continuous
 62
     7
370
    20
100
AcDbLine
 10
193.7330220276113
 20
73.33517245491103
 30
0.0
 11
195.5330220276113
 21
73.33517245491103
 31
0.0
  0
LINE
  5
3EA
330
1F
100
AcDbEntity
  8
用紙-GR2
  6
Continuous
 62
     7
370
    20
100
AcDbLine
 10
193.7330220276113
 20
73.33517245491103
 30
0.0
 11
193.5330220276113
 21
73.53517245491082
 31
0.0
  0
LINE
  5
3EB
330
1F
100
AcDbEntity
  8
用紙-GR2
  6
Continuous
 62
     7
370
    20
100
AcDbLine
 10
195.5330220276113
 20
42.33517245491102
 30
0.0
 11
195.5330220276113
 21
46.13517245491118
 31
0.0
  0
LINE
  5
3EC
330
1F
100
AcDbEntity
  8
用紙-GR2
  6
Continuous
 62
     7
370
    20
100
AcDbLine
 10
193.7330220276113
 20
42.33517245491102
 30
0.0
 11
193.7330220276113
 21
46.13517245491118
 31
0.0
  0
LINE
  5
3ED
330
1F
100
AcDbEntity
  8
用紙-GR2
  6
Continuous
 62
     7
370
    20
100
AcDbLine
 10
193.5330220276113
 20
42.53517245491082
 30
0.0
 11
193.5330220276113
 21
45.93517245491092
 31
0.0
  0
LINE
  5
3EE
330
1F
100
AcDbEntity
  8
用紙-GR2
  6
Continuous
 62
     7
370
    20
100
AcDbLine
 10
193.7330220276113
 20
46.13517245491118
 30
0.0
 11
195.5330220276113
 21
46.13517245491118
 31
0.0
  0
LINE
  5
3EF
330
1F
100
AcDbEntity
  8
用紙-GR2
  6
Continuous
 62
     7
370
    20
100
AcDbLine
 10
193.7330220276113
 20
46.13517245491118
 30
0.0
 11
193.5330220276113
 21
45.93517245491092
 31
0.0
  0
LINE
  5
3F0
330
1F
100
AcDbEntity
  8
用紙-GR2
  6
Continuous
 62
     7
370
    20
100
AcDbLine
 10
193.7330220276113
 20
42.33517245491102
 30
0.0
 11
195.5330220276113
 21
42.33517245491102
 31
0.0
  0
LINE
  5
3F1
330
1F
100
AcDbEntity
  8
用紙-GR2
  6
Continuous
 62
     7
370
    20
100
AcDbLine
 10
193.7330220276113
 20
42.33517245491102
 30
0.0
 11
193.5330220276113
 21
42.53517245491082
 31
0.0
  0
LINE
  5
3F2
330
1F
100
AcDbEntity
  8
用紙-GR2
  6
Continuous
 62
     7
370
    20
100
AcDbLine
 10
249.5330220276113
 20
75.73517215582447
 30
0.0
 11
249.5330220276113
 21
43.73517215582512
 31
0.0
  0
LINE
  5
3F3
330
1F
100
AcDbEntity
  8
用紙-GR2
  6
Continuous
 62
     7
370
    20
100
AcDbLine
 10
253.5330220276108
 20
73.73517215582444
 30
0.0
 11
253.5330220276112
 21
45.73517215582444
 31
0.0
  0
ARC
  5
3F4
330
1F
100
AcDbEntity
  8
用紙-GR2
  6
Continuous
 62
     7
370
    20
100
AcDbCircle
 10
252.5330220276109
 20
73.73517215582444
 30
0.0
 40
1.0
100
AcDbArc
 50
0.0
 51
84.26082952273846
  0
ARC
  5
3F5
330
1F
100
AcDbEntity
  8
用紙-GR2
  6
Continuous
 62
     7
370
    20
100
AcDbCircle
 10
252.5330220276112
 20
45.73517215582444
 30
0.0
 40
1.0
100
AcDbArc
 50
275.7391704772418
 51
0.0
  0
LINE
  5
3F6
330
1F
100
AcDbEntity
  8
用紙-GR2
  6
Continuous
 62
     7
370
    20
100
AcDbLine
 10
251.0330220276113
 20
75.73517215582447
 30
0.0
 11
249.5330220276113
 21
75.73517215582447
 31
0.0
  0
LINE
  5
3F7
330
1F
100
AcDbEntity
  8
用紙-GR2
  6
Continuous
 62
     7
370
    20
100
AcDbLine
 10
251.0330220276113
 20
43.73517215582512
 30
0.0
 11
249.5330220276113
 21
43.73517215582512
 31
0.0
  0
LINE
  5
3F8
330
1F
100
AcDbEntity
  8
用紙-GR2
  6
Continuous
 62
     7
370
    20
100
AcDbLine
 10
251.0330220276113
 20
75.73517215582447
 30
0.0
 11
251.0330220276113
 21
43.73517215582512
 31
0.0
  0
LINE
  5
3F9
330
1F
100
AcDbEntity
  8
用紙-GR2
  6
Continuous
 62
     7
370
    20
100
AcDbLine
 10
252.4330220276114
 20
44.48517215582421
 30
0.0
 11
251.0330220276113
 21
44.48517215582421
 31
0.0
  0
LINE
  5
3FA
330
1F
100
AcDbEntity
  8
用紙-GR2
  6
Continuous
 62
     7
370
    20
100
AcDbLine
 10
252.4330220276108
 20
48.98517215582422
 30
0.0
 11
251.0330220276113
 21
48.98517215582422
 31
0.0
  0
LINE
  5
3FB
330
1F
100
AcDbEntity
  8
用紙-GR2
  6
Continuous
 62
     7
370
    20
100
AcDbLine
 10
252.6330220276108
 20
48.78517215582396
 30
0.0
 11
252.4330220276108
 21
48.98517215582422
 31
0.0
  0
LINE
  5
3FC
330
1F
100
AcDbEntity
  8
用紙-GR2
  6
Continuous
 62
     7
370
    20
100
AcDbLine
 10
252.6330220276111
 20
44.68517215582451
 30
0.0
 11
252.6330220276108
 21
48.78517215582396
 31
0.0
  0
LINE
  5
3FD
330
1F
100
AcDbEntity
  8
用紙-GR2
  6
Continuous
 62
     7
370
    20
100
AcDbLine
 10
252.4330220276114
 20
44.48517215582421
 30
0.0
 11
252.6330220276111
 21
44.68517215582451
 31
0.0
  0
LINE
  5
3FE
330
1F
100
AcDbEntity
  8
用紙-GR2
  6
Continuous
 62
     7
370
    20
100
AcDbLine
 10
251.0330220276113
 20
44.48517215582421
 30
0.0
 11
251.0330220276113
 21
48.98517215582422
 31
0.0
  0
LINE
  5
3FF
330
1F
100
AcDbEntity
  8
用紙-GR2
  6
Continuous
 62
     7
370
    20
100
AcDbLine
 10
252.4330220276114
 20
44.48517215582421
 30
0.0
 11
252.4330220276108
 21
48.98517215582422
 31
0.0
  0
LINE
  5
400
330
1F
100
AcDbEntity
  8
用紙-GR2
  6
Continuous
 62
     7
370
    20
100
AcDbLine
 10
252.4330220276114
 20
74.98517215582426
 30
0.0
 11
251.0330220276113
 21
74.98517215582426
 31
0.0
  0
LINE
  5
401
330
1F
100
AcDbEntity
  8
用紙-GR2
  6
Continuous
 62
     7
370
    20
100
AcDbLine
 10
252.4330220276108
 20
70.48517215582423
 30
0.0
 11
251.0330220276113
 21
70.48517215582423
 31
0.0
  0
LINE
  5
402
330
1F
100
AcDbEntity
  8
用紙-GR2
  6
Continuous
 62
     7
370
    20
100
AcDbLine
 10
252.6330220276108
 20
70.68517215582449
 30
0.0
 11
252.4330220276108
 21
70.48517215582423
 31
0.0
  0
LINE
  5
403
330
1F
100
AcDbEntity
  8
用紙-GR2
  6
Continuous
 62
     7
370
    20
100
AcDbLine
 10
252.6330220276111
 20
74.78517215582442
 30
0.0
 11
252.6330220276108
 21
70.68517215582449
 31
0.0
  0
LINE
  5
404
330
1F
100
AcDbEntity
  8
用紙-GR2
  6
Continuous
 62
     7
370
    20
100
AcDbLine
 10
252.4330220276114
 20
74.98517215582426
 30
0.0
 11
252.6330220276111
 21
74.78517215582442
 31
0.0
  0
LINE
  5
405
330
1F
100
AcDbEntity
  8
用紙-GR2
  6
Continuous
 62
     7
370
    20
100
AcDbLine
 10
251.0330220276113
 20
74.98517215582426
 30
0.0
 11
251.0330220276113
 21
70.48517215582423
 31
0.0
  0
LINE
  5
406
330
1F
100
AcDbEntity
  8
用紙-GR2
  6
Continuous
 62
     7
370
    20
100
AcDbLine
 10
252.4330220276114
 20
74.98517215582426
 30
0.0
 11
252.4330220276108
 21
70.48517215582423
 31
0.0
  0
LINE
  5
407
330
1F
100
AcDbEntity
  8
用紙-GR2
  6
Continuous
 62
     7
370
    20
100
AcDbLine
 10
183.5330220276092
 20
56.73517215582444
 30
0.0
 11
156.9556717584213
 21
56.73517215582444
 31
0.0
  0
LINE
  5
408
330
1F
100
AcDbEntity
  8
用紙-GR2
  6
Continuous
 62
     7
370
    20
100
AcDbLine
 10
183.5330220276086
 20
62.73517215582446
 30
0.0
 11
160.4197733735595
 21
62.73517215582446
 31
0.0
  0
LINE
  5
409
330
1F
100
AcDbEntity
  8
用紙-GR2
  6
Continuous
 62
     7
370
    20
100
AcDbLine
 10
156.0935511619285
 20
55.2419354804466
 30
0.0
 11
160.7045437008623
 21
63.22840883120182
 31
0.0
  0
LINE
  5
40A
330
1F
100
AcDbEntity
  8
用紙-GR2
  6
DASHDOT
 62
     6
370
    20
100
AcDbLine
 10
256.8759388246363
 20
59.73517215582424
 30
0.0
 11
154.0535375019857
 21
59.73517215582424
 31
0.0
  0
DIMENSION
  5
40B
330
1F
100
AcDbEntity
  8
用紙-GR2
100
AcDbDimension
  2
*D26
 10
193.5330220276109
 20
138.1063117634379
 30
0.0
 11
146.0330220276109
 21
140.3563117634379
 31
0.0
 70
    32
 71
     5
 42
94.99999999999998
  3
FXDIMINFO
100
AcDbAlignedDimension
 13
98.53302202761096
 23
117.6544961419822
 33
0.0
 14
193.5330220276109
 24
129.4033432391723
 34
0.0
 50
180.0
100
AcDbRotatedDimension
1001
ACAD
1000
DSTYLE
1002
{
1070
   173
1070
     1
1070
   344
1005
48
1070
   343
1005
42
1002
}
  0
DIMENSION
  5
415
330
1F
100
AcDbEntity
  8
用紙-GR2
100
AcDbDimension
  2
*D27
 10
253.5330220276112
 20
138.1063117634379
 30
0.0
 11
223.5330220276111
 21
140.3563117634379
 31
0.0
 70
    32
 71
     5
 42
60.00000000000037
  3
FXDIMINFO
100
AcDbAlignedDimension
 13
193.5330220276109
 23
129.4033432391723
 33
0.0
 14
253.5330220276112
 24
126.9033432391723
 34
0.0
 50
180.0
100
AcDbRotatedDimension
1001
ACAD
1000
DSTYLE
1002
{
1070
   173
1070
     1
1070
   344
1005
48
1070
   343
1005
42
1002
}
  0
DIMENSION
  5
41E
330
1F
100
AcDbEntity
  8
用紙-GR2
100
AcDbDimension
  2
*D28
 10
328.0244891276663
 20
130.4033432391718
 30
0.0
 11
325.7744891276662
 21
112.9033432391719
 31
0.0
 70
    33
 71
     5
 42
34.99999999999994
  3
FXDIMINFO
100
AcDbAlignedDimension
 13
312.5330220276113
 23
95.40334323917189
 33
0.0
 14
312.5330220276115
 24
130.4033432391718
 34
0.0
1001
ACAD
1000
DSTYLE
1002
{
1070
   173
1070
     1
1070
   344
1005
48
1070
   343
1005
42
1002
}
  0
DIMENSION
  5
428
330
1F
100
AcDbEntity
  8
用紙-GR2
100
AcDbDimension
  2
*D29
 10
313.5330220276111
 20
84.38865862384295
 30
0.0
 11
296.0330220276111
 21
86.63865862384295
 31
0.0
 70
    33
 71
     5
 42
34.99999999999983
  3
FXDIMINFO
100
AcDbAlignedDimension
 13
278.5330220276112
 23
96.40334323917187
 33
0.0
 14
313.5330220276111
 24
96.40334323917187
 34
0.0
1001
ACAD
1000
DSTYLE
1002
{
1070
   173
1070
     1
1070
   344
1005
48
1070
   343
1005
42
1002
}
  0
INSERT
  5
435
330
1F
100
AcDbEntity
  8
0
100
AcDbBlockReference
  2
FXDIM032
 10
351.0133329701656
 20
-35.84127571355028
 30
0.0
 41
1.414
 42
1.414
 43
1.414
  0
INSERT
  5
43D
330
1F
100
AcDbEntity
  8
0
100
AcDbBlockReference
  2
FXDIM033
 10
351.0133329701656
 20
-35.84127571355028
 30
0.0
 41
1.414
 42
1.414
 43
1.414
  0
DIMENSION
  5
442
330
1F
100
AcDbEntity
  8
用紙-GR2
100
AcDbDimension
  2
*D32
 10
227.0085496194623
 20
69.73517215582422
 30
0.0
 11
224.7585496194623
 21
59.73517215582425
 31
0.0
 70
    33
 71
     5
 42
19.99999999999999
  3
FXDIMINFO
100
AcDbAlignedDimension
 13
236.5330220276113
 23
49.73517215582423
 33
0.0
 14
236.5330220276109
 24
69.73517215582422
 34
0.0
1001
ACAD
1000
DSTYLE
1002
{
1070
   173
1070
     1
1070
   344
1005
48
1070
   343
1005
42
1002
}
  0
DIMENSION
  5
44C
330
1F
100
AcDbEntity
  8
用紙-GR2
100
AcDbDimension
  2
*D33
 10
253.5330220276112
 20
34.45733413012091
 30
0.0
 11
246.5330220276114
 21
36.70733413012091
 31
0.0
 70
    32
 71
     5
 42
13.99999999999983
  3
FXDIMINFO
100
AcDbAlignedDimension
 13
239.5330220276114
 23
46.73517215582424
 33
0.0
 14
253.5330220276112
 24
45.73517215582444
 34
0.0
 50
180.0
100
AcDbRotatedDimension
1001
ACAD
1000
DSTYLE
1002
{
1070
   173
1070
     1
1070
   344
1005
48
1070
   343
1005
42
1002
}
  0
INSERT
  5
459
330
1F
100
AcDbEntity
  8
0
100
AcDbBlockReference
  2
FXDIM036
 10
351.0133329701656
 20
-35.84127571355028
 30
0.0
 41
1.414
 42
1.414
 43
1.414
  0
TEXT
  5
45F
330
1F
100
AcDbEntity
  8
用紙-GR2
  6
Continuous
 62
     6
370
    20
100
AcDbText
 10
35.00872652485323
 20
53.09077689875441
 30
0.0
 40
3.535
  1
H-1VH4-V1/H-1VH4-V2取付時
 41
0.8
  7
FX_VECTOR
100
AcDbText
  0
LINE
  5
460
330
1F
100
AcDbEntity
  8
用紙-GR2
  6
Continuous
 62
     6
370
    20
100
AcDbLine
 10
100.0484510817779
 20
51.44507347205326
 30
0.0
 11
31.52667463419434
 21
51.44507347205326
 31
0.0
  0
INSERT
  5
464
330
1F
100
AcDbEntity
  8
0
100
AcDbBlockReference
  2
FXDIM037
 10
351.0133329701656
 20
-35.84127571355028
 30
0.0
 41
1.414
 42
1.414
 43
1.414
  0
INSERT
  5
470
330
1F
100
AcDbEntity
  8
0
100
AcDbBlockReference
  2
FXDIM038
 10
351.0133329701656
 20
-35.84127571355028
 30
0.0
 41
1.414
 42
1.414
 43
1.414
  0
ENDSEC
  0
SECTION
  2
OBJECTS
  0
DICTIONARY
  5
C
330
0
100
AcDbDictionary
281
     1
  3
ACAD_GROUP
350
D
  3
ACAD_LAYOUT
350
1A
  3
ACAD_MLEADERSTYLE
350
714
  3
ACAD_MLINESTYLE
350
17
  3
ACAD_PLOTSETTINGS
350
19
  3
ACAD_PLOTSTYLENAME
350
E
  3
ACAD_TABLESTYLE
350
713
  3
ACAD_VISUALSTYLE
350
2A
  3
AcDbVariableDictionary
350
715
  0
DICTIONARY
  5
D
102
{ACAD_REACTORS
330
C
102
}
330
C
100
AcDbDictionary
281
     1
  0
DICTIONARY
  5
1A
102
{ACAD_REACTORS
330
C
102
}
330
C
100
AcDbDictionary
281
     1
  3
Layout1
350
1E
  3
Layout2
350
26
  3
Model
350
22
  0
DICTIONARY
  5
714
102
{ACAD_REACTORS
330
C
102
}
330
C
100
AcDbDictionary
281
     1
  0
DICTIONARY
  5
17
102
{ACAD_REACTORS
330
C
102
}
330
C
100
AcDbDictionary
281
     1
  3
Standard
350
18
  0
DICTIONARY
  5
19
102
{ACAD_REACTORS
330
C
102
}
330
C
100
AcDbDictionary
281
     1
  0
ACDBDICTIONARYWDFLT
  5
E
102
{ACAD_REACTORS
330
C
102
}
330
C
100
AcDbDictionary
281
     1
  3
Normal
350
F
100
AcDbDictionaryWithDefault
340
F
  0
DICTIONARY
  5
713
102
{ACAD_REACTORS
330
C
102
}
330
C
100
AcDbDictionary
281
     1
  0
DICTIONARY
  5
2A
102
{ACAD_REACTORS
330
C
102
}
330
C
100
AcDbDictionary
281
     1
  3
2dWireframe
350
2F
  3
3D Hidden
350
31
  3
3dWireframe
350
30
  3
Basic
350
32
  3
Brighten
350
36
  3
ColorChange
350
3A
  3
Conceptual
350
34
  3
Dim
350
35
  3
Facepattern
350
39
  3
Flat
350
2B
  3
FlatWithEdges
350
2C
  3
Gouraud
350
2D
  3
GouraudWithEdges
350
2E
  3
Linepattern
350
38
  3
Realistic
350
33
  3
Thicken
350
37
  0
DICTIONARY
  5
715
102
{ACAD_REACTORS
330
C
102
}
330
C
100
AcDbDictionary
281
     1
  3
PSOLHEIGHT
350
717
  3
PSOLWIDTH
350
716
  0
LAYOUT
  5
1E
102
{ACAD_REACTORS
330
1A
102
}
330
1A
100
AcDbPlotSettings
  1

  2
none_device
  4

  6

 40
0.0
 41
0.0
 42
0.0
 43
0.0
 44
0.0
 45
0.0
 46
0.0
 47
0.0
 48
0.0
 49
0.0
140
0.0
141
0.0
142
1.0
143
1.0
 70
   688
 72
     0
 73
     0
 74
     5
  7

 75
    16
147
1.0
148
0.0
149
0.0
100
AcDbLayout
  1
Layout1
 70
     1
 71
     1
 10
0.0
 20
0.0
 11
420.0
 21
297.0
 12
0.0
 22
0.0
 32
0.0
 14
1.000000000000000E+20
 24
1.000000000000000E+20
 34
1.000000000000000E+20
 15
-1.000000000000000E+20
 25
-1.000000000000000E+20
 35
-1.000000000000000E+20
146
0.0
 13
0.0
 23
0.0
 33
0.0
 16
1.0
 26
0.0
 36
0.0
 17
0.0
 27
1.0
 37
0.0
 76
     0
330
1B
  0
LAYOUT
  5
26
102
{ACAD_REACTORS
330
1A
102
}
330
1A
100
AcDbPlotSettings
  1

  2
none_device
  4

  6

 40
0.0
 41
0.0
 42
0.0
 43
0.0
 44
0.0
 45
0.0
 46
0.0
 47
0.0
 48
0.0
 49
0.0
140
0.0
141
0.0
142
1.0
143
1.0
 70
   688
 72
     0
 73
     0
 74
     5
  7

 75
    16
147
1.0
148
0.0
149
0.0
100
AcDbLayout
  1
Layout2
 70
     1
 71
     2
 10
0.0
 20
0.0
 11
0.0
 21
0.0
 12
0.0
 22
0.0
 32
0.0
 14
0.0
 24
0.0
 34
0.0
 15
0.0
 25
0.0
 35
0.0
146
0.0
 13
0.0
 23
0.0
 33
0.0
 16
1.0
 26
0.0
 36
0.0
 17
0.0
 27
1.0
 37
0.0
 76
     0
330
23
  0
LAYOUT
  5
22
102
{ACAD_REACTORS
330
1A
102
}
330
1A
100
AcDbPlotSettings
  1

  2
none_device
  4

  6

 40
0.0
 41
0.0
 42
0.0
 43
0.0
 44
0.0
 45
0.0
 46
0.0
 47
0.0
 48
0.0
 49
0.0
140
0.0
141
0.0
142
1.0
143
1.0
 70
  1712
 72
     0
 73
     0
 74
     0
  7

 75
     0
147
1.0
148
0.0
149
0.0
100
AcDbLayout
  1
Model
 70
     1
 71
     0
 10
0.0
 20
0.0
 11
297.0
 21
210.0
 12
0.0
 22
0.0
 32
0.0
 14
0.0
 24
0.0
 34
0.0
 15
297.0
 25
210.0
 35
0.0
146
0.0
 13
0.0
 23
0.0
 33
0.0
 16
1.0
 26
0.0
 36
0.0
 17
0.0
 27
1.0
 37
0.0
 76
     0
330
1F
331
29
  0
MLINESTYLE
  5
18
102
{ACAD_REACTORS
330
17
102
}
330
17
100
AcDbMlineStyle
  2
STANDARD
 70
     0
  3

 62
   256
 51
90.0
 52
90.0
 71
     2
 49
0.5
 62
   256
  6
BYLAYER
 49
-0.5
 62
   256
  6
BYLAYER
  0
ACDBPLACEHOLDER
  5
F
102
{ACAD_REACTORS
330
E
102
}
330
E
  0
VISUALSTYLE
  5
2F
102
{ACAD_REACTORS
330
2A
102
}
330
2A
100
AcDbVisualStyle
  2
2dWireframe
 70
     4
 71
     0
 72
     2
 73
     0
 90
        0
 40
-0.6
 41
-30.0
 62
     5
 63
     7
 74
     1
 91
        4
 64
     7
 65
   257
 75
     1
175
     1
 42
1.0
 92
        0
 66
   257
 43
1.0
 76
     1
 77
     6
 78
     2
 67
     7
 79
     5
170
     0
171
     0
290
     0
174
     0
 93
        1
 44
0.0
173
     0
291
     0
 45
0.0
1001
ACAD
1000
AcDbSavedByObjectVersion
1070
     0
  0
VISUALSTYLE
  5
31
102
{ACAD_REACTORS
330
2A
102
}
330
2A
100
AcDbVisualStyle
  2
3D Hidden
 70
     6
 71
     1
 72
     2
 73
     2
 90
        0
 40
-0.6
 41
-30.0
 62
     5
 63
     7
 74
     2
 91
        2
 64
     7
 65
   257
 75
     2
175
     1
 42
40.0
 92
        0
 66
   257
 43
1.0
 76
     1
 77
     6
 78
     2
 67
     7
 79
     3
170
     0
171
     0
290
     0
174
     0
 93
        1
 44
0.0
173
     0
291
     0
 45
0.0
1001
ACAD
1000
AcDbSavedByObjectVersion
1070
     0
  0
VISUALSTYLE
  5
30
102
{ACAD_REACTORS
330
2A
102
}
330
2A
100
AcDbVisualStyle
  2
3dWireframe
 70
     5
 71
     0
 72
     2
 73
     0
 90
        0
 40
-0.6
 41
-30.0
 62
     5
 63
     7
 74
     1
 91
        4
 64
     7
 65
   257
 75
     1
175
     1
 42
1.0
 92
        0
 66
   257
 43
1.0
 76
     1
 77
     6
 78
     2
 67
     7
 79
     5
170
     0
171
     0
290
     0
174
     0
 93
        1
 44
0.0
173
     0
291
     0
 45
0.0
1001
ACAD
1000
AcDbSavedByObjectVersion
1070
     0
  0
VISUALSTYLE
  5
32
102
{ACAD_REACTORS
330
2A
102
}
330
2A
100
AcDbVisualStyle
  2
Basic
 70
     7
 71
     1
 72
     0
 73
     1
 90
        0
 40
-0.6
 41
-30.0
 62
     5
 63
     7
 74
     0
 91
        4
 64
     7
 65
   257
 75
     1
175
     1
 42
1.0
 92
        8
 66
     7
 43
1.0
 76
     1
 77
     6
 78
     2
 67
     7
 79
     5
170
     0
171
     0
290
     0
174
     0
 93
        1
 44
0.0
173
     0
291
     1
 45
0.0
1001
ACAD
1000
AcDbSavedByObjectVersion
1070
     0
  0
VISUALSTYLE
  5
36
102
{ACAD_REACTORS
330
2A
102
}
330
2A
100
AcDbVisualStyle
  2
Brighten
 70
    12
 71
     2
 72
     2
 73
     0
 90
        0
 40
-0.6
 41
-30.0
 62
     5
 63
     7
 74
     1
 91
        4
 64
     7
 65
   257
 75
     1
175
     1
 42
1.0
 92
        8
 66
     7
 43
1.0
 76
     1
 77
     6
 78
     2
 67
     7
 79
     5
170
     0
171
     0
290
     0
174
     0
 93
        1
 44
50.0
173
     0
291
     1
 45
0.0
1001
ACAD
1000
AcDbSavedByObjectVersion
1070
     0
  0
VISUALSTYLE
  5
3A
102
{ACAD_REACTORS
330
2A
102
}
330
2A
100
AcDbVisualStyle
  2
ColorChange
 70
    16
 71
     2
 72
     2
 73
     3
 90
        0
 40
-0.6
 41
-30.0
 62
     5
 63
     8
 74
     1
 91
        4
 64
     7
 65
   257
 75
     1
175
     1
 42
1.0
 92
        8
 66
     8
 43
1.0
 76
     1
 77
     6
 78
     2
 67
     7
 79
     5
170
     0
171
     0
290
     0
174
     0
 93
        1
 44
0.0
173
     0
291
     1
 45
0.0
1001
ACAD
1000
AcDbSavedByObjectVersion
1070
     0
  0
VISUALSTYLE
  5
34
102
{ACAD_REACTORS
330
2A
102
}
330
2A
100
AcDbVisualStyle
  2
Conceptual
 70
     9
 71
     3
 72
     2
 73
     0
 90
        0
 40
-0.6
 41
-30.0
 62
     5
 63
     7
 74
     2
 91
        2
 64
     7
 65
   257
 75
     1
175
     1
 42
40.0
 92
        8
 66
     7
 43
1.0
 76
     1
 77
     6
 78
     2
 67
     7
 79
     3
170
     0
171
     0
290
     0
174
     0
 93
        1
 44
0.0
173
     0
291
     0
 45
0.0
1001
ACAD
1000
AcDbSavedByObjectVersion
1070
     0
  0
VISUALSTYLE
  5
35
102
{ACAD_REACTORS
330
2A
102
}
330
2A
100
AcDbVisualStyle
  2
Dim
 70
    11
 71
     2
 72
     2
 73
     0
 90
        0
 40
-0.6
 41
-30.0
 62
     5
 63
     7
 74
     1
 91
        4
 64
     7
 65
   257
 75
     1
175
     1
 42
1.0
 92
        8
 66
     7
 43
1.0
 76
     1
 77
     6
 78
     2
 67
     7
 79
     5
170
     0
171
     0
290
     0
174
     0
 93
        1
 44
-50.0
173
     0
291
     1
 45
0.0
1001
ACAD
1000
AcDbSavedByObjectVersion
1070
     0
  0
VISUALSTYLE
  5
39
102
{ACAD_REACTORS
330
2A
102
}
330
2A
100
AcDbVisualStyle
  2
Facepattern
 70
    15
 71
     2
 72
     2
 73
     0
 90
        0
 40
-0.6
 41
-30.0
 62
     5
 63
     7
 74
     1
 91
        4
 64
     7
 65
   257
 75
     1
175
     1
 42
1.0
 92
        8
 66
     7
 43
1.0
 76
     1
 77
     6
 78
     2
 67
     7
 79
     5
170
     0
171
     0
290
     0
174
     0
 93
        1
 44
0.0
173
     0
291
     1
 45
0.0
1001
ACAD
1000
AcDbSavedByObjectVersion
1070
     0
  0
VISUALSTYLE
  5
2B
102
{ACAD_REACTORS
330
2A
102
}
330
2A
100
AcDbVisualStyle
  2
Flat
 70
     0
 71
     2
 72
     1
 73
     1
 90
        2
 40
-0.6
 41
30.0
 62
     5
 63
     7
 74
     0
 91
        4
 64
     7
 65
   257
 75
     1
175
     1
 42
1.0
 92
        8
 66
     7
 43
1.0
 76
     1
 77
     6
 78
     2
 67
     7
 79
     5
170
     0
171
     0
290
     0
174
     0
 93
       13
 44
0.0
173
     0
291
     1
 45
0.0
1001
ACAD
1000
AcDbSavedByObjectVersion
1070
     0
  0
VISUALSTYLE
  5
2C
102
{ACAD_REACTORS
330
2A
102
}
330
2A
100
AcDbVisualStyle
  2
FlatWithEdges
 70
     1
 71
     2
 72
     1
 73
     1
 90
        2
 40
-0.6
 41
30.0
 62
     5
 63
     7
 74
     1
 91
        4
 64
     7
 65
   257
 75
     1
175
     1
 42
1.0
 92
        0
 66
   257
 43
1.0
 76
     1
 77
     6
 78
     2
 67
     7
 79
     5
170
     0
171
     0
290
     0
174
     0
 93
       13
 44
0.0
173
     0
291
     1
 45
0.0
1001
ACAD
1000
AcDbSavedByObjectVersion
1070
     0
  0
VISUALSTYLE
  5
2D
102
{ACAD_REACTORS
330
2A
102
}
330
2A
100
AcDbVisualStyle
  2
Gouraud
 70
     2
 71
     2
 72
     2
 73
     1
 90
        2
 40
-0.6
 41
30.0
 62
     5
 63
     7
 74
     0
 91
        4
 64
     7
 65
   257
 75
     1
175
     1
 42
1.0
 92
        0
 66
     7
 43
1.0
 76
     1
 77
     6
 78
     2
 67
     7
 79
     5
170
     0
171
     0
290
     0
174
     0
 93
       13
 44
0.0
173
     0
291
     1
 45
0.0
1001
ACAD
1000
AcDbSavedByObjectVersion
1070
     0
  0
VISUALSTYLE
  5
2E
102
{ACAD_REACTORS
330
2A
102
}
330
2A
100
AcDbVisualStyle
  2
GouraudWithEdges
 70
     3
 71
     2
 72
     2
 73
     1
 90
        2
 40
-0.6
 41
30.0
 62
     5
 63
     7
 74
     1
 91
        4
 64
     7
 65
   257
 75
     1
175
     1
 42
1.0
 92
        0
 66
   257
 43
1.0
 76
     1
 77
     6
 78
     2
 67
     7
 79
     5
170
     0
171
     0
290
     0
174
     0
 93
       13
 44
0.0
173
     0
291
     1
 45
0.0
1001
ACAD
1000
AcDbSavedByObjectVersion
1070
     0
  0
VISUALSTYLE
  5
38
102
{ACAD_REACTORS
330
2A
102
}
330
2A
100
AcDbVisualStyle
  2
Linepattern
 70
    14
 71
     2
 72
     2
 73
     0
 90
        0
 40
-0.6
 41
-30.0
 62
     5
 63
     7
 74
     1
 91
        4
 64
     7
 65
   257
 75
     7
175
     7
 42
1.0
 92
        8
 66
     7
 43
1.0
 76
     1
 77
     6
 78
     2
 67
     7
 79
     5
170
     0
171
     0
290
     0
174
     0
 93
        1
 44
0.0
173
     0
291
     1
 45
0.0
1001
ACAD
1000
AcDbSavedByObjectVersion
1070
     0
  0
VISUALSTYLE
  5
33
102
{ACAD_REACTORS
330
2A
102
}
330
2A
100
AcDbVisualStyle
  2
Realistic
 70
     8
 71
     2
 72
     2
 73
     0
 90
        0
 40
-0.6
 41
-30.0
 62
     5
 63
     7
 74
     1
 91
        0
 64
     7
 65
   257
 75
     1
175
     1
 42
1.0
 92
        8
 66
     8
 43
1.0
 76
     1
 77
     6
 78
     2
 67
     7
 79
     5
170
     0
171
     0
290
     0
174
     0
 93
       13
 44
0.0
173
     0
291
     0
 45
0.0
1001
ACAD
1000
AcDbSavedByObjectVersion
1070
     0
  0
VISUALSTYLE
  5
37
102
{ACAD_REACTORS
330
2A
102
}
330
2A
100
AcDbVisualStyle
  2
Thicken
 70
    13
 71
     2
 72
     2
 73
     0
 90
        0
 40
-0.6
 41
-30.0
 62
     5
 63
     7
 74
     1
 91
        4
 64
     7
 65
   257
 75
     1
175
     1
 42
1.0
 92
       12
 66
     7
 43
1.0
 76
     1
 77
     6
 78
     2
 67
     7
 79
     5
170
     0
171
     0
290
     0
174
     0
 93
        1
 44
0.0
173
     0
291
     1
 45
0.0
1001
ACAD
1000
AcDbSavedByObjectVersion
1070
     0
  0
DICTIONARYVAR
  5
717
102
{ACAD_REACTORS
330
715
102
}
330
715
100
DictionaryVariables
280
     0
  1
80.000000
  0
DICTIONARYVAR
  5
716
102
{ACAD_REACTORS
330
715
102
}
330
715
100
DictionaryVariables
280
     0
  1
5.000000
  0
ENDSEC
  0
EOF
