  0
SECTION
  2
HEADER
  9
$ACADVER
  1
AC1015
  9
$ACADMAINTVER
 70
    10
  9
$DWGCODEPAGE
  3
ANSI_932
  9
$INSBASE
 10
0.0
 20
0.0
 30
0.0
  9
$EXTMIN
 10
36.68941479004667
 20
20.67961317671823
 30
0.0
  9
$EXTMAX
 10
365.5588770182881
 20
132.9534658991401
 30
0.0
  9
$LIMMIN
 10
0.0
 20
0.0
  9
$LIMMAX
 10
297.0
 20
210.0
  9
$ORTHOMODE
 70
     0
  9
$REGENMODE
 70
     1
  9
$FILLMODE
 70
     1
  9
$QTEXTMODE
 70
     0
  9
$MIRRTEXT
 70
     1
  9
$LTSCALE
 40
1.0
  9
$ATTMODE
 70
     1
  9
$TEXTSIZE
 40
0.2
  9
$TRACEWID
 40
1.0
  9
$TEXTSTYLE
  7
STYLE003
  9
$CLAYER
  8
0
  9
$CELTYPE
  6
ByLayer
  9
$CECOLOR
 62
   256
  9
$CELTSCALE
 40
1.0
  9
$DISPSILH
 70
     0
  9
$DIMSCALE
 40
1.0
  9
$DIMASZ
 40
3.0
  9
$DIMEXO
 40
1.0
  9
$DIMDLI
 40
10.0
  9
$DIMRND
 40
0.0
  9
$DIMDLE
 40
3.0
  9
$DIMEXE
 40
1.5
  9
$DIMTP
 40
0.0
  9
$DIMTM
 40
0.0
  9
$DIMTXT
 40
3.5
  9
$DIMCEN
 40
2.5
  9
$DIMTSZ
 40
0.0
  9
$DIMTOL
 70
     0
  9
$DIMLIM
 70
     0
  9
$DIMTIH
 70
     0
  9
$DIMTOH
 70
     0
  9
$DIMSE1
 70
     0
  9
$DIMSE2
 70
     0
  9
$DIMTAD
 70
     1
  9
$DIMZIN
 70
     8
  9
$DIMBLK
  1

  9
$DIMASO
 70
     1
  9
$DIMSHO
 70
     1
  9
$DIMPOST
  1

  9
$DIMAPOST
  1

  9
$DIMALT
 70
     0
  9
$DIMALTD
 70
     3
  9
$DIMALTF
 40
0.03937
  9
$DIMLFAC
 40
1.0
  9
$DIMTOFL
 70
     1
  9
$DIMTVP
 40
0.0
  9
$DIMTIX
 70
     0
  9
$DIMSOXD
 70
     0
  9
$DIMSAH
 70
     1
  9
$DIMBLK1
  1
FXTIP_ARROW_S
  9
$DIMBLK2
  1
FXTIP_ARROW_E
  9
$DIMSTYLE
  2
FXDIMINFO
  9
$DIMCLRD
 70
     6
  9
$DIMCLRE
 70
     6
  9
$DIMCLRT
 70
     6
  9
$DIMTFAC
 40
1.0
  9
$DIMGAP
 40
0.5
  9
$DIMJUST
 70
     0
  9
$DIMSD1
 70
     0
  9
$DIMSD2
 70
     0
  9
$DIMTOLJ
 70
     1
  9
$DIMTZIN
 70
     8
  9
$DIMALTZ
 70
     0
  9
$DIMALTTZ
 70
     0
  9
$DIMUPT
 70
     0
  9
$DIMDEC
 70
     2
  9
$DIMTDEC
 70
     2
  9
$DIMALTU
 70
     2
  9
$DIMALTTD
 70
     3
  9
$DIMTXSTY
  7
STYLE003
  9
$DIMAUNIT
 70
     0
  9
$DIMADEC
 70
     2
  9
$DIMALTRND
 40
0.0
  9
$DIMAZIN
 70
     0
  9
$DIMDSEP
 70
    46
  9
$DIMATFIT
 70
     3
  9
$DIMFRAC
 70
     0
  9
$DIMLDRBLK
  1
FXTIP_ARROW_S
  9
$DIMLUNIT
 70
     2
  9
$DIMLWD
 70
    -2
  9
$DIMLWE
 70
    -2
  9
$DIMTMOVE
 70
     0
  9
$LUNITS
 70
     2
  9
$LUPREC
 70
     4
  9
$SKETCHINC
 40
1.0
  9
$FILLETRAD
 40
10.0
  9
$AUNITS
 70
     0
  9
$AUPREC
 70
     0
  9
$MENU
  1
.
  9
$ELEVATION
 40
0.0
  9
$PELEVATION
 40
0.0
  9
$THICKNESS
 40
0.0
  9
$LIMCHECK
 70
     0
  9
$CHAMFERA
 40
10.0
  9
$CHAMFERB
 40
10.0
  9
$CHAMFERC
 40
20.0
  9
$CHAMFERD
 40
0.0
  9
$SKPOLY
 70
     0
  9
$TDCREATE
 40
2456646.690845995
  9
$TDUCREATE
 40
2456646.315845995
  9
$TDUPDATE
 40
2456888.751423321
  9
$TDUUPDATE
 40
2456888.376423321
  9
$TDINDWG
 40
0.0012172917
  9
$TDUSRTIMER
 40
0.0012169329
  9
$USRTIMER
 70
     1
  9
$ANGBASE
 50
0.0
  9
$ANGDIR
 70
     0
  9
$PDMODE
 70
     0
  9
$PDSIZE
 40
0.0
  9
$PLINEWID
 40
0.0
  9
$SPLFRAME
 70
     0
  9
$SPLINETYPE
 70
     6
  9
$SPLINESEGS
 70
     8
  9
$HANDSEED
  5
7AF
  9
$SURFTAB1
 70
     6
  9
$SURFTAB2
 70
     6
  9
$SURFTYPE
 70
     6
  9
$SURFU
 70
     6
  9
$SURFV
 70
     6
  9
$UCSBASE
  2

  9
$UCSNAME
  2

  9
$UCSORG
 10
0.0
 20
0.0
 30
0.0
  9
$UCSXDIR
 10
1.0
 20
0.0
 30
0.0
  9
$UCSYDIR
 10
0.0
 20
1.0
 30
0.0
  9
$UCSORTHOREF
  2

  9
$UCSORTHOVIEW
 70
     0
  9
$UCSORGTOP
 10
0.0
 20
0.0
 30
0.0
  9
$UCSORGBOTTOM
 10
0.0
 20
0.0
 30
0.0
  9
$UCSORGLEFT
 10
0.0
 20
0.0
 30
0.0
  9
$UCSORGRIGHT
 10
0.0
 20
0.0
 30
0.0
  9
$UCSORGFRONT
 10
0.0
 20
0.0
 30
0.0
  9
$UCSORGBACK
 10
0.0
 20
0.0
 30
0.0
  9
$PUCSBASE
  2

  9
$PUCSNAME
  2

  9
$PUCSORG
 10
0.0
 20
0.0
 30
0.0
  9
$PUCSXDIR
 10
1.0
 20
0.0
 30
0.0
  9
$PUCSYDIR
 10
0.0
 20
1.0
 30
0.0
  9
$PUCSORTHOREF
  2

  9
$PUCSORTHOVIEW
 70
     0
  9
$PUCSORGTOP
 10
0.0
 20
0.0
 30
0.0
  9
$PUCSORGBOTTOM
 10
0.0
 20
0.0
 30
0.0
  9
$PUCSORGLEFT
 10
0.0
 20
0.0
 30
0.0
  9
$PUCSORGRIGHT
 10
0.0
 20
0.0
 30
0.0
  9
$PUCSORGFRONT
 10
0.0
 20
0.0
 30
0.0
  9
$PUCSORGBACK
 10
0.0
 20
0.0
 30
0.0
  9
$USERI1
 70
     0
  9
$USERI2
 70
     0
  9
$USERI3
 70
     0
  9
$USERI4
 70
     0
  9
$USERI5
 70
     0
  9
$USERR1
 40
0.0
  9
$USERR2
 40
0.0
  9
$USERR3
 40
0.0
  9
$USERR4
 40
0.0
  9
$USERR5
 40
0.0
  9
$WORLDVIEW
 70
     1
  9
$SHADEDGE
 70
     3
  9
$SHADEDIF
 70
    70
  9
$TILEMODE
 70
     1
  9
$MAXACTVP
 70
    64
  9
$PINSBASE
 10
0.0
 20
0.0
 30
0.0
  9
$PLIMCHECK
 70
     0
  9
$PEXTMIN
 10
1.000000000000000E+20
 20
1.000000000000000E+20
 30
1.000000000000000E+20
  9
$PEXTMAX
 10
-1.000000000000000E+20
 20
-1.000000000000000E+20
 30
-1.000000000000000E+20
  9
$PLIMMIN
 10
0.0
 20
0.0
  9
$PLIMMAX
 10
420.0
 20
297.0
  9
$UNITMODE
 70
     0
  9
$VISRETAIN
 70
     1
  9
$PLINEGEN
 70
     0
  9
$PSLTSCALE
 70
     1
  9
$TREEDEPTH
 70
  3020
  9
$CMLSTYLE
  2
Standard
  9
$CMLJUST
 70
     0
  9
$CMLSCALE
 40
20.0
  9
$PROXYGRAPHICS
 70
     1
  9
$MEASUREMENT
 70
     1
  9
$CELWEIGHT
370
    -1
  9
$ENDCAPS
280
     0
  9
$JOINSTYLE
280
     0
  9
$LWDISPLAY
290
     0
  9
$INSUNITS
 70
     4
  9
$HYPERLINKBASE
  1

  9
$STYLESHEET
  1

  9
$XEDIT
290
     1
  9
$CEPSNTYPE
380
     0
  9
$PSTYLEMODE
290
     1
  9
$FINGERPRINTGUID
  2
{87131D80-156D-4E75-87C7-45CD6C45D6B9}
  9
$VERSIONGUID
  2
{FDA8F78B-EF96-4C36-B39B-6AFAE78ED1ED}
  9
$EXTNAMES
290
     1
  9
$PSVPSCALE
 40
0.0
  9
$OLESTARTUP
290
     0
  0
ENDSEC
  0
SECTION
  2
CLASSES
  0
CLASS
  1
ACDBDICTIONARYWDFLT
  2
AcDbDictionaryWithDefault
  3
AutoCAD 2000
 90
        0
280
     0
281
     0
  0
CLASS
  1
VISUALSTYLE
  2
AcDbVisualStyle
  3
ObjectDBX Classes
 90
     4095
280
     0
281
     0
  0
CLASS
  1
DICTIONARYVAR
  2
AcDbDictionaryVar
  3
AutoCAD 2000
 90
        0
280
     0
281
     0
  0
CLASS
  1
ACDBPLACEHOLDER
  2
AcDbPlaceHolder
  3
AutoCAD 2000
 90
        0
280
     0
281
     0
  0
CLASS
  1
LAYOUT
  2
AcDbLayout
  3
AutoCAD 2000
 90
        0
280
     0
281
     0
  0
ENDSEC
  0
SECTION
  2
TABLES
  0
TABLE
  2
VPORT
  5
8
330
0
100
AcDbSymbolTable
 70
     2
  0
VPORT
  5
7AE
330
8
100
AcDbSymbolTableRecord
100
AcDbViewportTableRecord
  2
*Active
 70
     0
 10
0.0
 20
0.0
 11
1.0
 21
1.0
 12
192.8093028127507
 22
135.5573340446474
 13
0.0
 23
0.0
 14
10.0
 24
10.0
 15
10.0
 25
10.0
 16
0.0
 26
0.0
 36
1.0
 17
0.0
 27
0.0
 37
0.0
 40
337.7618294269042
 41
1.505226480836237
 42
50.0
 43
0.0
 44
0.0
 50
0.0
 51
0.0
 71
     0
 72
   100
 73
     1
 74
     3
 75
     0
 76
     0
 77
     0
 78
     0
281
     0
 65
     1
110
0.0
120
0.0
130
0.0
111
1.0
121
0.0
131
0.0
112
0.0
122
1.0
132
0.0
 79
     0
146
0.0
  0
ENDTAB
  0
TABLE
  2
LTYPE
  5
5
330
0
100
AcDbSymbolTable
 70
     3
  0
LTYPE
  5
14
330
5
100
AcDbSymbolTableRecord
100
AcDbLinetypeTableRecord
  2
ByBlock
 70
     0
  3

 72
    65
 73
     0
 40
0.0
  0
LTYPE
  5
15
330
5
100
AcDbSymbolTableRecord
100
AcDbLinetypeTableRecord
  2
ByLayer
 70
     0
  3

 72
    65
 73
     0
 40
0.0
  0
LTYPE
  5
16
330
5
100
AcDbSymbolTableRecord
100
AcDbLinetypeTableRecord
  2
Continuous
 70
     0
  3
Continuous ___________________________________
 72
    65
 73
     0
 40
0.0
  0
LTYPE
  5
3B
330
5
100
AcDbSymbolTableRecord
100
AcDbLinetypeTableRecord
  2
DASHDOT
 70
     0
  3
Dash dot __ . __ . __ . __ . __ . __ . __ . __
 72
    65
 73
     4
 40
25.3
 49
12.7
 74
     0
 49
-6.299999999999998
 74
     0
 49
0.0
 74
     0
 49
-6.299999999999998
 74
     0
  0
LTYPE
  5
1E8
330
5
100
AcDbSymbolTableRecord
100
AcDbLinetypeTableRecord
  2
DASH_DOT
 70
     0
  3

 72
    65
 73
     4
 40
0.5
 49
0.2
 74
     0
 49
-0.1
 74
     0
 49
0.1
 74
     0
 49
-0.1
 74
     0
  0
ENDTAB
  0
TABLE
  2
LAYER
  5
2
330
0
100
AcDbSymbolTable
 70
     4
  0
LAYER
  5
10
330
2
100
AcDbSymbolTableRecord
100
AcDbLayerTableRecord
  2
0
 70
     0
 62
     7
  6
Continuous
370
    -3
390
F
  0
LAYER
  5
AA
330
2
100
AcDbSymbolTableRecord
100
AcDbLayerTableRecord
  2
Defpoints
 70
     0
 62
     7
  6
Continuous
290
     0
370
    -3
390
F
  0
LAYER
  5
AB
330
2
100
AcDbSymbolTableRecord
100
AcDbLayerTableRecord
  2
LAYER004
 70
     0
 62
     7
  6
Continuous
370
    -3
390
F
  0
LAYER
  5
260
330
2
100
AcDbSymbolTableRecord
100
AcDbLayerTableRecord
  2
用紙-GR2
 70
     0
 62
     7
  6
Continuous
370
    -3
390
F
  0
ENDTAB
  0
TABLE
  2
STYLE
  5
3
330
0
100
AcDbSymbolTable
 70
     3
  0
STYLE
  5
11
330
3
100
AcDbSymbolTableRecord
100
AcDbTextStyleTableRecord
  2
Standard
 70
     0
 40
0.0
 41
1.0
 50
0.0
 71
     0
 42
2.5
  3
txt
  4

  0
STYLE
  5
41
330
3
100
AcDbSymbolTableRecord
100
AcDbTextStyleTableRecord
  2
FX_VECTOR
 70
     0
 40
0.0
 41
1.0
 50
0.0
 71
     0
 42
0.2
  3
MONOTXT.SHX
  4
BigFont.shx
  0
STYLE
  5
A9
330
3
100
AcDbSymbolTableRecord
100
AcDbTextStyleTableRecord
  2
STYLE003
 70
     0
 40
0.0
 41
1.0
 50
0.0
 71
     0
 42
0.2
  3

  4

1001
ACAD
1000
ＭＳ 明朝
1071
    32785
  0
ENDTAB
  0
TABLE
  2
VIEW
  5
6
330
0
100
AcDbSymbolTable
 70
     0
  0
ENDTAB
  0
TABLE
  2
UCS
  5
7
330
0
100
AcDbSymbolTable
 70
     0
  0
ENDTAB
  0
TABLE
  2
APPID
  5
9
330
0
100
AcDbSymbolTable
 70
     1
  0
APPID
  5
12
330
9
100
AcDbSymbolTableRecord
100
AcDbRegAppTableRecord
  2
ACAD
 70
     0
  0
ENDTAB
  0
TABLE
  2
DIMSTYLE
  5
A
330
0
100
AcDbSymbolTable
 70
     2
100
AcDbDimStyleTable
 71
     0
  0
DIMSTYLE
105
27
330
A
100
AcDbSymbolTableRecord
100
AcDbDimStyleTableRecord
  2
ISO-25
 70
     0
 41
2.5
 42
0.625
 43
3.75
 44
1.25
 73
     0
 74
     0
 77
     1
 78
     8
140
2.5
141
2.5
143
0.03937007874016
147
0.625
171
     3
172
     1
271
     2
272
     2
274
     3
278
    44
283
     0
284
     8
340
11
  0
DIMSTYLE
105
A8
102
{ACAD_REACTORS
330
637
330
641
330
64B
330
665
330
698
330
6FE
330
708
102
}
330
A
100
AcDbSymbolTableRecord
100
AcDbDimStyleTableRecord
  2
FXDIMINFO
 70
     0
 41
3.0
 42
1.0
 43
10.0
 44
1.5
 46
3.0
 73
     0
 74
     0
 77
     1
 78
     8
140
3.5
141
2.5
143
0.03937
147
0.5
171
     3
172
     1
173
     1
176
     6
177
     6
178
     6
179
     2
271
     2
272
     2
274
     3
284
     8
340
A9
341
42
343
42
344
48
  0
ENDTAB
  0
TABLE
  2
BLOCK_RECORD
  5
1
330
0
100
AcDbSymbolTable
 70
    59
  0
BLOCK_RECORD
  5
1F
330
1
100
AcDbSymbolTableRecord
100
AcDbBlockTableRecord
  2
*Model_Space
340
22
  0
BLOCK_RECORD
  5
1B
330
1
100
AcDbSymbolTableRecord
100
AcDbBlockTableRecord
  2
*Paper_Space
340
1E
  0
BLOCK_RECORD
  5
23
330
1
100
AcDbSymbolTableRecord
100
AcDbBlockTableRecord
  2
*Paper_Space0
340
26
  0
BLOCK_RECORD
  5
42
330
1
100
AcDbSymbolTableRecord
100
AcDbBlockTableRecord
  2
FXTIP_ARROW_S
340
0
102
{BLKREFS
331
411
331
41B
331
424
331
42E
331
448
331
452
331
466
331
4CD
331
4D7
331
4E1
331
4EB
331
4F4
331
513
331
51C
331
63D
331
647
331
651
331
66B
331
67E
331
69E
331
6F9
331
704
331
70E
331
72A
331
733
331
73C
331
746
331
74F
331
758
331
761
331
772
331
77B
331
784
331
78D
331
796
331
79F
331
7A8
102
}
  0
BLOCK_RECORD
  5
48
330
1
100
AcDbSymbolTableRecord
100
AcDbBlockTableRecord
  2
FXTIP_ARROW_E
340
0
102
{BLKREFS
331
412
331
41C
331
425
331
42F
331
449
331
453
331
4CE
331
4D8
331
4E2
331
4EC
331
504
331
514
331
51D
331
63E
331
648
331
652
331
66C
331
69F
331
6FA
331
705
331
70F
331
72B
331
734
331
73D
331
747
331
750
331
759
331
762
331
773
331
77C
331
785
331
78E
331
797
331
7A0
331
7A9
102
}
  0
BLOCK_RECORD
  5
4E
330
1
100
AcDbSymbolTableRecord
100
AcDbBlockTableRecord
  2
FXTIP_BLACKDOT_S
340
0
102
{BLKREFS
331
437
331
43F
331
45B
331
472
331
50B
331
65A
331
662
331
674
331
686
102
}
  0
BLOCK_RECORD
  5
54
330
1
100
AcDbSymbolTableRecord
100
AcDbBlockTableRecord
  2
FXTIP_BLACKDOT_E
340
0
  0
BLOCK_RECORD
  5
5A
330
1
100
AcDbSymbolTableRecord
100
AcDbBlockTableRecord
  2
FXTIP_TRIANGLE_S
340
0
  0
BLOCK_RECORD
  5
61
330
1
100
AcDbSymbolTableRecord
100
AcDbBlockTableRecord
  2
FXTIP_TRIANGLE_E
340
0
  0
BLOCK_RECORD
  5
68
330
1
100
AcDbSymbolTableRecord
100
AcDbBlockTableRecord
  2
FXTIP_ARCHITECT_S
340
0
  0
BLOCK_RECORD
  5
6E
330
1
100
AcDbSymbolTableRecord
100
AcDbBlockTableRecord
  2
FXTIP_ARCHITECT_E
340
0
  0
BLOCK_RECORD
  5
74
330
1
100
AcDbSymbolTableRecord
100
AcDbBlockTableRecord
  2
FXTIP_CIVIL_S
340
0
  0
BLOCK_RECORD
  5
7A
330
1
100
AcDbSymbolTableRecord
100
AcDbBlockTableRecord
  2
FXTIP_CIVIL_E
340
0
  0
BLOCK_RECORD
  5
80
330
1
100
AcDbSymbolTableRecord
100
AcDbBlockTableRecord
  2
FXTIP_WHITEDOT_S
340
0
  0
BLOCK_RECORD
  5
85
330
1
100
AcDbSymbolTableRecord
100
AcDbBlockTableRecord
  2
FXTIP_WHITEDOT_E
340
0
  0
BLOCK_RECORD
  5
8A
330
1
100
AcDbSymbolTableRecord
100
AcDbBlockTableRecord
  2
FXTIP_UPARROW_S
340
0
  0
BLOCK_RECORD
  5
8F
330
1
100
AcDbSymbolTableRecord
100
AcDbBlockTableRecord
  2
FXTIP_UPARROW_E
340
0
  0
BLOCK_RECORD
  5
94
330
1
100
AcDbSymbolTableRecord
100
AcDbBlockTableRecord
  2
FXTIP_DOWNARROW_S
340
0
  0
BLOCK_RECORD
  5
99
330
1
100
AcDbSymbolTableRecord
100
AcDbBlockTableRecord
  2
FXTIP_DOWNARROW_E
340
0
  0
BLOCK_RECORD
  5
9E
330
1
100
AcDbSymbolTableRecord
100
AcDbBlockTableRecord
  2
FXTIP_BLACKTRIANGLE_S
340
0
  0
BLOCK_RECORD
  5
A3
330
1
100
AcDbSymbolTableRecord
100
AcDbBlockTableRecord
  2
FXTIP_BLACKTRIANGLE_E
340
0
  0
BLOCK_RECORD
  5
1A9
330
1
100
AcDbSymbolTableRecord
100
AcDbBlockTableRecord
  2
BLKF021
340
0
102
{BLKREFS
331
1AC
102
}
  0
BLOCK_RECORD
  5
1AF
330
1
100
AcDbSymbolTableRecord
100
AcDbBlockTableRecord
  2
FXDIM022
340
0
102
{BLKREFS
331
1B2
102
}
  0
BLOCK_RECORD
  5
1B7
330
1
100
AcDbSymbolTableRecord
100
AcDbBlockTableRecord
  2
BLKF023
340
0
102
{BLKREFS
331
1BA
102
}
  0
BLOCK_RECORD
  5
1CF
330
1
100
AcDbSymbolTableRecord
100
AcDbBlockTableRecord
  2
BLKF024
340
0
102
{BLKREFS
331
1D2
102
}
  0
BLOCK_RECORD
  5
1DE
330
1
100
AcDbSymbolTableRecord
100
AcDbBlockTableRecord
  2
BLKF025
340
0
102
{BLKREFS
331
1E1
102
}
  0
BLOCK_RECORD
  5
20E
330
1
100
AcDbSymbolTableRecord
100
AcDbBlockTableRecord
  2
BLKF026
340
0
102
{BLKREFS
331
211
102
}
  0
BLOCK_RECORD
  5
250
330
1
100
AcDbSymbolTableRecord
100
AcDbBlockTableRecord
  2
BLKF027
340
0
102
{BLKREFS
331
253
102
}
  0
BLOCK_RECORD
  5
40C
330
1
100
AcDbSymbolTableRecord
100
AcDbBlockTableRecord
  2
*D26
340
0
  0
BLOCK_RECORD
  5
416
330
1
100
AcDbSymbolTableRecord
100
AcDbBlockTableRecord
  2
*D27
340
0
  0
BLOCK_RECORD
  5
41F
330
1
100
AcDbSymbolTableRecord
100
AcDbBlockTableRecord
  2
*D28
340
0
  0
BLOCK_RECORD
  5
429
330
1
100
AcDbSymbolTableRecord
100
AcDbBlockTableRecord
  2
*D29
340
0
  0
BLOCK_RECORD
  5
432
330
1
100
AcDbSymbolTableRecord
100
AcDbBlockTableRecord
  2
FXDIM032
340
0
102
{BLKREFS
331
435
102
}
  0
BLOCK_RECORD
  5
43A
330
1
100
AcDbSymbolTableRecord
100
AcDbBlockTableRecord
  2
FXDIM033
340
0
102
{BLKREFS
331
43D
102
}
  0
BLOCK_RECORD
  5
443
330
1
100
AcDbSymbolTableRecord
100
AcDbBlockTableRecord
  2
*D32
340
0
  0
BLOCK_RECORD
  5
44D
330
1
100
AcDbSymbolTableRecord
100
AcDbBlockTableRecord
  2
*D33
340
0
  0
BLOCK_RECORD
  5
456
330
1
100
AcDbSymbolTableRecord
100
AcDbBlockTableRecord
  2
FXDIM036
340
0
102
{BLKREFS
331
459
102
}
  0
BLOCK_RECORD
  5
461
330
1
100
AcDbSymbolTableRecord
100
AcDbBlockTableRecord
  2
FXDIM037
340
0
102
{BLKREFS
331
464
102
}
  0
BLOCK_RECORD
  5
46D
330
1
100
AcDbSymbolTableRecord
100
AcDbBlockTableRecord
  2
FXDIM038
340
0
102
{BLKREFS
331
470
102
}
  0
BLOCK_RECORD
  5
4C8
330
1
100
AcDbSymbolTableRecord
100
AcDbBlockTableRecord
  2
*D37
340
0
  0
BLOCK_RECORD
  5
4D2
330
1
100
AcDbSymbolTableRecord
100
AcDbBlockTableRecord
  2
*D38
340
0
  0
BLOCK_RECORD
  5
4DC
330
1
100
AcDbSymbolTableRecord
100
AcDbBlockTableRecord
  2
*D39
340
0
  0
BLOCK_RECORD
  5
4E6
330
1
100
AcDbSymbolTableRecord
100
AcDbBlockTableRecord
  2
*D40
340
0
  0
BLOCK_RECORD
  5
4EF
330
1
100
AcDbSymbolTableRecord
100
AcDbBlockTableRecord
  2
FXDIM043
340
0
102
{BLKREFS
331
4F2
102
}
  0
BLOCK_RECORD
  5
4FC
330
1
100
AcDbSymbolTableRecord
100
AcDbBlockTableRecord
  2
*D42
340
0
  0
BLOCK_RECORD
  5
506
330
1
100
AcDbSymbolTableRecord
100
AcDbBlockTableRecord
  2
*D43
340
0
  0
BLOCK_RECORD
  5
50E
330
1
100
AcDbSymbolTableRecord
100
AcDbBlockTableRecord
  2
*D44
340
0
  0
BLOCK_RECORD
  5
517
330
1
100
AcDbSymbolTableRecord
100
AcDbBlockTableRecord
  2
*D45
340
0
  0
BLOCK_RECORD
  5
638
330
1
100
AcDbSymbolTableRecord
100
AcDbBlockTableRecord
  2
*D46
340
0
  0
BLOCK_RECORD
  5
642
330
1
100
AcDbSymbolTableRecord
100
AcDbBlockTableRecord
  2
*D47
340
0
  0
BLOCK_RECORD
  5
64C
330
1
100
AcDbSymbolTableRecord
100
AcDbBlockTableRecord
  2
*D48
340
0
  0
BLOCK_RECORD
  5
655
330
1
100
AcDbSymbolTableRecord
100
AcDbBlockTableRecord
  2
FXDIM051
340
0
102
{BLKREFS
331
658
102
}
  0
BLOCK_RECORD
  5
65D
330
1
100
AcDbSymbolTableRecord
100
AcDbBlockTableRecord
  2
FXDIM052
340
0
102
{BLKREFS
331
660
102
}
  0
BLOCK_RECORD
  5
666
330
1
100
AcDbSymbolTableRecord
100
AcDbBlockTableRecord
  2
*D51
340
0
  0
BLOCK_RECORD
  5
66F
330
1
100
AcDbSymbolTableRecord
100
AcDbBlockTableRecord
  2
FXDIM054
340
0
102
{BLKREFS
331
672
102
}
  0
BLOCK_RECORD
  5
679
330
1
100
AcDbSymbolTableRecord
100
AcDbBlockTableRecord
  2
FXDIM055
340
0
102
{BLKREFS
331
67C
102
}
  0
BLOCK_RECORD
  5
681
330
1
100
AcDbSymbolTableRecord
100
AcDbBlockTableRecord
  2
FXDIM056
340
0
102
{BLKREFS
331
684
102
}
  0
BLOCK_RECORD
  5
699
330
1
100
AcDbSymbolTableRecord
100
AcDbBlockTableRecord
  2
*D55
340
0
  0
BLOCK_RECORD
  5
6F4
330
1
100
AcDbSymbolTableRecord
100
AcDbBlockTableRecord
  2
*D56
340
0
  0
BLOCK_RECORD
  5
6FF
330
1
100
AcDbSymbolTableRecord
100
AcDbBlockTableRecord
  2
*D57
340
0
  0
BLOCK_RECORD
  5
709
330
1
100
AcDbSymbolTableRecord
100
AcDbBlockTableRecord
  2
*D58
340
0
  0
ENDTAB
  0
ENDSEC
  0
SECTION
  2
BLOCKS
  0
BLOCK
  5
20
330
1F
100
AcDbEntity
  8
0
100
AcDbBlockBegin
  2
*Model_Space
 70
     0
 10
0.0
 20
0.0
 30
0.0
  3
*Model_Space
  1

  0
ENDBLK
  5
21
330
1F
100
AcDbEntity
  8
0
100
AcDbBlockEnd
  0
BLOCK
  5
1C
330
1B
100
AcDbEntity
 67
     1
  8
0
100
AcDbBlockBegin
  2
*Paper_Space
 70
     0
 10
0.0
 20
0.0
 30
0.0
  3
*Paper_Space
  1

  0
ENDBLK
  5
1D
330
1B
100
AcDbEntity
 67
     1
  8
0
100
AcDbBlockEnd
  0
BLOCK
  5
24
330
23
100
AcDbEntity
  8
0
100
AcDbBlockBegin
  2
*Paper_Space0
 70
     0
 10
0.0
 20
0.0
 30
0.0
  3
*Paper_Space0
  1

  0
ENDBLK
  5
25
330
23
100
AcDbEntity
  8
0
100
AcDbBlockEnd
  0
BLOCK
  5
43
330
42
100
AcDbEntity
  8
0
100
AcDbBlockBegin
  2
FXTIP_ARROW_S
 70
     0
 10
0.0
 20
0.0
 30
0.0
  3
FXTIP_ARROW_S
  1

  0
LINE
  5
45
330
42
100
AcDbEntity
  8
0
  6
Continuous
 62
     0
370
    -2
100
AcDbLine
 10
0.0
 20
0.0
 30
0.0
 11
-1.0
 21
0.0000000000000001
 31
0.0
  0
LINE
  5
46
330
42
100
AcDbEntity
  8
0
  6
Continuous
 62
     0
370
    -2
100
AcDbLine
 10
0.0
 20
0.0
 30
0.0
 11
-0.9659258262890684
 21
-0.2588190451025206
 31
0.0
  0
LINE
  5
47
330
42
100
AcDbEntity
  8
0
  6
Continuous
 62
     0
370
    -2
100
AcDbLine
 10
0.0
 20
0.0
 30
0.0
 11
-0.9659258262890684
 21
0.2588190451025209
 31
0.0
  0
ENDBLK
  5
44
330
42
100
AcDbEntity
  8
0
100
AcDbBlockEnd
  0
BLOCK
  5
49
330
48
100
AcDbEntity
  8
0
100
AcDbBlockBegin
  2
FXTIP_ARROW_E
 70
     0
 10
0.0
 20
0.0
 30
0.0
  3
FXTIP_ARROW_E
  1

  0
LINE
  5
4B
330
48
100
AcDbEntity
  8
0
  6
Continuous
 62
     0
370
    -2
100
AcDbLine
 10
0.0
 20
0.0
 30
0.0
 11
-1.0
 21
0.0
 31
0.0
  0
LINE
  5
4C
330
48
100
AcDbEntity
  8
0
  6
Continuous
 62
     0
370
    -2
100
AcDbLine
 10
0.0
 20
0.0
 30
0.0
 11
-0.9659258262890684
 21
0.2588190451025207
 31
0.0
  0
LINE
  5
4D
330
48
100
AcDbEntity
  8
0
  6
Continuous
 62
     0
370
    -2
100
AcDbLine
 10
0.0
 20
0.0
 30
0.0
 11
-0.9659258262890684
 21
-0.2588190451025207
 31
0.0
  0
ENDBLK
  5
4A
330
48
100
AcDbEntity
  8
0
100
AcDbBlockEnd
  0
BLOCK
  5
4F
330
4E
100
AcDbEntity
  8
0
100
AcDbBlockBegin
  2
FXTIP_BLACKDOT_S
 70
     0
 10
0.0
 20
0.0
 30
0.0
  3
FXTIP_BLACKDOT_S
  1

  0
LINE
  5
51
330
4E
100
AcDbEntity
  8
0
  6
Continuous
 62
     0
370
    -2
100
AcDbLine
 10
0.0
 20
0.0
 30
0.0
 11
-1.0
 21
0.0000000000000001
 31
0.0
  0
LWPOLYLINE
  5
52
330
4E
100
AcDbEntity
  8
0
  6
Continuous
 62
     0
370
    -2
100
AcDbPolyline
 90
        2
 70
     1
 43
0.5
 10
-0.25
 20
0.0
 42
1.0
 10
0.25
 20
0.0
 42
1.0
  0
CIRCLE
  5
53
330
4E
100
AcDbEntity
  8
0
  6
Continuous
 62
     0
370
    -2
100
AcDbCircle
 10
0.0
 20
0.0
 30
0.0
 40
0.5
  0
ENDBLK
  5
50
330
4E
100
AcDbEntity
  8
0
100
AcDbBlockEnd
  0
BLOCK
  5
55
330
54
100
AcDbEntity
  8
0
100
AcDbBlockBegin
  2
FXTIP_BLACKDOT_E
 70
     0
 10
0.0
 20
0.0
 30
0.0
  3
FXTIP_BLACKDOT_E
  1

  0
LINE
  5
57
330
54
100
AcDbEntity
  8
0
  6
Continuous
 62
     0
370
    -2
100
AcDbLine
 10
0.0
 20
0.0
 30
0.0
 11
-1.0
 21
0.0
 31
0.0
  0
LWPOLYLINE
  5
58
330
54
100
AcDbEntity
  8
0
  6
Continuous
 62
     0
370
    -2
100
AcDbPolyline
 90
        2
 70
     1
 43
0.5
 10
-0.25
 20
0.0
 42
1.0
 10
0.25
 20
0.0
 42
1.0
  0
CIRCLE
  5
59
330
54
100
AcDbEntity
  8
0
  6
Continuous
 62
     0
370
    -2
100
AcDbCircle
 10
0.0
 20
0.0
 30
0.0
 40
0.5
  0
ENDBLK
  5
56
330
54
100
AcDbEntity
  8
0
100
AcDbBlockEnd
  0
BLOCK
  5
5B
330
5A
100
AcDbEntity
  8
0
100
AcDbBlockBegin
  2
FXTIP_TRIANGLE_S
 70
     0
 10
0.0
 20
0.0
 30
0.0
  3
FXTIP_TRIANGLE_S
  1

  0
LINE
  5
5D
330
5A
100
AcDbEntity
  8
0
  6
Continuous
 62
     0
370
    -2
100
AcDbLine
 10
0.0
 20
0.0
 30
0.0
 11
-1.0
 21
0.0000000000000001
 31
0.0
  0
LINE
  5
5E
330
5A
100
AcDbEntity
  8
0
  6
Continuous
 62
     0
370
    -2
100
AcDbLine
 10
0.0
 20
0.0
 30
0.0
 11
-0.9659258262890684
 21
-0.2588190451025206
 31
0.0
  0
LINE
  5
5F
330
5A
100
AcDbEntity
  8
0
  6
Continuous
 62
     0
370
    -2
100
AcDbLine
 10
0.0
 20
0.0
 30
0.0
 11
-0.9659258262890684
 21
0.2588190451025209
 31
0.0
  0
LINE
  5
60
330
5A
100
AcDbEntity
  8
0
  6
Continuous
 62
     0
370
    -2
100
AcDbLine
 10
-0.9659258262890684
 20
-0.2588190451025206
 30
0.0
 11
-0.9659258262890684
 21
0.2588190451025209
 31
0.0
  0
ENDBLK
  5
5C
330
5A
100
AcDbEntity
  8
0
100
AcDbBlockEnd
  0
BLOCK
  5
62
330
61
100
AcDbEntity
  8
0
100
AcDbBlockBegin
  2
FXTIP_TRIANGLE_E
 70
     0
 10
0.0
 20
0.0
 30
0.0
  3
FXTIP_TRIANGLE_E
  1

  0
LINE
  5
64
330
61
100
AcDbEntity
  8
0
  6
Continuous
 62
     0
370
    -2
100
AcDbLine
 10
0.0
 20
0.0
 30
0.0
 11
-1.0
 21
0.0
 31
0.0
  0
LINE
  5
65
330
61
100
AcDbEntity
  8
0
  6
Continuous
 62
     0
370
    -2
100
AcDbLine
 10
0.0
 20
0.0
 30
0.0
 11
-0.9659258262890684
 21
0.2588190451025207
 31
0.0
  0
LINE
  5
66
330
61
100
AcDbEntity
  8
0
  6
Continuous
 62
     0
370
    -2
100
AcDbLine
 10
0.0
 20
0.0
 30
0.0
 11
-0.9659258262890684
 21
-0.2588190451025207
 31
0.0
  0
LINE
  5
67
330
61
100
AcDbEntity
  8
0
  6
Continuous
 62
     0
370
    -2
100
AcDbLine
 10
-0.9659258262890684
 20
0.2588190451025207
 30
0.0
 11
-0.9659258262890684
 21
-0.2588190451025207
 31
0.0
  0
ENDBLK
  5
63
330
61
100
AcDbEntity
  8
0
100
AcDbBlockEnd
  0
BLOCK
  5
69
330
68
100
AcDbEntity
  8
0
100
AcDbBlockBegin
  2
FXTIP_ARCHITECT_S
 70
     0
 10
0.0
 20
0.0
 30
0.0
  3
FXTIP_ARCHITECT_S
  1

  0
LINE
  5
6B
330
68
100
AcDbEntity
  8
0
  6
Continuous
 62
     0
370
    -2
100
AcDbLine
 10
0.0
 20
0.0
 30
0.0
 11
-1.0
 21
0.0000000000000001
 31
0.0
  0
LINE
  5
6C
330
68
100
AcDbEntity
  8
0
  6
Continuous
 62
     0
370
    -2
100
AcDbLine
 10
0.0
 20
0.0
 30
0.0
 11
-0.7071067811865476
 21
-0.7071067811865474
 31
0.0
  0
LINE
  5
6D
330
68
100
AcDbEntity
  8
0
  6
Continuous
 62
     0
370
    -2
100
AcDbLine
 10
0.0
 20
0.0
 30
0.0
 11
0.7071067811865476
 21
0.7071067811865474
 31
0.0
  0
ENDBLK
  5
6A
330
68
100
AcDbEntity
  8
0
100
AcDbBlockEnd
  0
BLOCK
  5
6F
330
6E
100
AcDbEntity
  8
0
100
AcDbBlockBegin
  2
FXTIP_ARCHITECT_E
 70
     0
 10
0.0
 20
0.0
 30
0.0
  3
FXTIP_ARCHITECT_E
  1

  0
LINE
  5
71
330
6E
100
AcDbEntity
  8
0
  6
Continuous
 62
     0
370
    -2
100
AcDbLine
 10
0.0
 20
0.0
 30
0.0
 11
-1.0
 21
0.0
 31
0.0
  0
LINE
  5
72
330
6E
100
AcDbEntity
  8
0
  6
Continuous
 62
     0
370
    -2
100
AcDbLine
 10
0.0
 20
0.0
 30
0.0
 11
0.7071067811865475
 21
0.7071067811865475
 31
0.0
  0
LINE
  5
73
330
6E
100
AcDbEntity
  8
0
  6
Continuous
 62
     0
370
    -2
100
AcDbLine
 10
0.0
 20
0.0
 30
0.0
 11
-0.7071067811865475
 21
-0.7071067811865475
 31
0.0
  0
ENDBLK
  5
70
330
6E
100
AcDbEntity
  8
0
100
AcDbBlockEnd
  0
BLOCK
  5
75
330
74
100
AcDbEntity
  8
0
100
AcDbBlockBegin
  2
FXTIP_CIVIL_S
 70
     0
 10
0.0
 20
0.0
 30
0.0
  3
FXTIP_CIVIL_S
  1

  0
LINE
  5
77
330
74
100
AcDbEntity
  8
0
  6
Continuous
 62
     0
370
    -2
100
AcDbLine
 10
0.0
 20
0.0
 30
0.0
 11
-1.0
 21
0.0000000000000001
 31
0.0
  0
LINE
  5
78
330
74
100
AcDbEntity
  8
0
  6
Continuous
 62
     0
370
    -2
100
AcDbLine
 10
0.0
 20
-0.0833333333333333
 30
0.0
 11
-1.0
 21
-0.0833333333333332
 31
0.0
  0
LINE
  5
79
330
74
100
AcDbEntity
  8
0
  6
Continuous
 62
     0
370
    -2
100
AcDbLine
 10
0.0
 20
-0.1666666666666667
 30
0.0
 11
-1.0
 21
-0.1666666666666666
 31
0.0
  0
ENDBLK
  5
76
330
74
100
AcDbEntity
  8
0
100
AcDbBlockEnd
  0
BLOCK
  5
7B
330
7A
100
AcDbEntity
  8
0
100
AcDbBlockBegin
  2
FXTIP_CIVIL_E
 70
     0
 10
0.0
 20
0.0
 30
0.0
  3
FXTIP_CIVIL_E
  1

  0
LINE
  5
7D
330
7A
100
AcDbEntity
  8
0
  6
Continuous
 62
     0
370
    -2
100
AcDbLine
 10
0.0
 20
0.0
 30
0.0
 11
-1.0
 21
0.0
 31
0.0
  0
LINE
  5
7E
330
7A
100
AcDbEntity
  8
0
  6
Continuous
 62
     0
370
    -2
100
AcDbLine
 10
0.0
 20
0.0833333333333333
 30
0.0
 11
-1.0
 21
0.0833333333333333
 31
0.0
  0
LINE
  5
7F
330
7A
100
AcDbEntity
  8
0
  6
Continuous
 62
     0
370
    -2
100
AcDbLine
 10
0.0
 20
0.1666666666666667
 30
0.0
 11
-1.0
 21
0.1666666666666667
 31
0.0
  0
ENDBLK
  5
7C
330
7A
100
AcDbEntity
  8
0
100
AcDbBlockEnd
  0
BLOCK
  5
81
330
80
100
AcDbEntity
  8
0
100
AcDbBlockBegin
  2
FXTIP_WHITEDOT_S
 70
     0
 10
0.0
 20
0.0
 30
0.0
  3
FXTIP_WHITEDOT_S
  1

  0
LINE
  5
83
330
80
100
AcDbEntity
  8
0
  6
Continuous
 62
     0
370
    -2
100
AcDbLine
 10
0.0
 20
0.0
 30
0.0
 11
-1.0
 21
0.0000000000000001
 31
0.0
  0
CIRCLE
  5
84
330
80
100
AcDbEntity
  8
0
  6
Continuous
 62
     0
370
    -2
100
AcDbCircle
 10
0.0
 20
0.0
 30
0.0
 40
0.5
  0
ENDBLK
  5
82
330
80
100
AcDbEntity
  8
0
100
AcDbBlockEnd
  0
BLOCK
  5
86
330
85
100
AcDbEntity
  8
0
100
AcDbBlockBegin
  2
FXTIP_WHITEDOT_E
 70
     0
 10
0.0
 20
0.0
 30
0.0
  3
FXTIP_WHITEDOT_E
  1

  0
LINE
  5
88
330
85
100
AcDbEntity
  8
0
  6
Continuous
 62
     0
370
    -2
100
AcDbLine
 10
0.0
 20
0.0
 30
0.0
 11
-1.0
 21
0.0
 31
0.0
  0
CIRCLE
  5
89
330
85
100
AcDbEntity
  8
0
  6
Continuous
 62
     0
370
    -2
100
AcDbCircle
 10
0.0
 20
0.0
 30
0.0
 40
0.5
  0
ENDBLK
  5
87
330
85
100
AcDbEntity
  8
0
100
AcDbBlockEnd
  0
BLOCK
  5
8B
330
8A
100
AcDbEntity
  8
0
100
AcDbBlockBegin
  2
FXTIP_UPARROW_S
 70
     0
 10
0.0
 20
0.0
 30
0.0
  3
FXTIP_UPARROW_S
  1

  0
LINE
  5
8D
330
8A
100
AcDbEntity
  8
0
  6
Continuous
 62
     0
370
    -2
100
AcDbLine
 10
0.0
 20
0.0
 30
0.0
 11
-1.0
 21
0.0000000000000001
 31
0.0
  0
LINE
  5
8E
330
8A
100
AcDbEntity
  8
0
  6
Continuous
 62
     0
370
    -2
100
AcDbLine
 10
0.0
 20
0.0
 30
0.0
 11
-0.9659258262890684
 21
-0.2588190451025206
 31
0.0
  0
ENDBLK
  5
8C
330
8A
100
AcDbEntity
  8
0
100
AcDbBlockEnd
  0
BLOCK
  5
90
330
8F
100
AcDbEntity
  8
0
100
AcDbBlockBegin
  2
FXTIP_UPARROW_E
 70
     0
 10
0.0
 20
0.0
 30
0.0
  3
FXTIP_UPARROW_E
  1

  0
LINE
  5
92
330
8F
100
AcDbEntity
  8
0
  6
Continuous
 62
     0
370
    -2
100
AcDbLine
 10
0.0
 20
0.0
 30
0.0
 11
-1.0
 21
0.0
 31
0.0
  0
LINE
  5
93
330
8F
100
AcDbEntity
  8
0
  6
Continuous
 62
     0
370
    -2
100
AcDbLine
 10
0.0
 20
0.0
 30
0.0
 11
-0.9659258262890684
 21
0.2588190451025207
 31
0.0
  0
ENDBLK
  5
91
330
8F
100
AcDbEntity
  8
0
100
AcDbBlockEnd
  0
BLOCK
  5
95
330
94
100
AcDbEntity
  8
0
100
AcDbBlockBegin
  2
FXTIP_DOWNARROW_S
 70
     0
 10
0.0
 20
0.0
 30
0.0
  3
FXTIP_DOWNARROW_S
  1

  0
LINE
  5
97
330
94
100
AcDbEntity
  8
0
  6
Continuous
 62
     0
370
    -2
100
AcDbLine
 10
0.0
 20
0.0
 30
0.0
 11
-1.0
 21
0.0000000000000001
 31
0.0
  0
LINE
  5
98
330
94
100
AcDbEntity
  8
0
  6
Continuous
 62
     0
370
    -2
100
AcDbLine
 10
0.0
 20
0.0
 30
0.0
 11
-0.9659258262890684
 21
0.2588190451025209
 31
0.0
  0
ENDBLK
  5
96
330
94
100
AcDbEntity
  8
0
100
AcDbBlockEnd
  0
BLOCK
  5
9A
330
99
100
AcDbEntity
  8
0
100
AcDbBlockBegin
  2
FXTIP_DOWNARROW_E
 70
     0
 10
0.0
 20
0.0
 30
0.0
  3
FXTIP_DOWNARROW_E
  1

  0
LINE
  5
9C
330
99
100
AcDbEntity
  8
0
  6
Continuous
 62
     0
370
    -2
100
AcDbLine
 10
0.0
 20
0.0
 30
0.0
 11
-1.0
 21
0.0
 31
0.0
  0
LINE
  5
9D
330
99
100
AcDbEntity
  8
0
  6
Continuous
 62
     0
370
    -2
100
AcDbLine
 10
0.0
 20
0.0
 30
0.0
 11
-0.9659258262890684
 21
-0.2588190451025207
 31
0.0
  0
ENDBLK
  5
9B
330
99
100
AcDbEntity
  8
0
100
AcDbBlockEnd
  0
BLOCK
  5
9F
330
9E
100
AcDbEntity
  8
0
100
AcDbBlockBegin
  2
FXTIP_BLACKTRIANGLE_S
 70
     0
 10
0.0
 20
0.0
 30
0.0
  3
FXTIP_BLACKTRIANGLE_S
  1

  0
LINE
  5
A1
330
9E
100
AcDbEntity
  8
0
  6
Continuous
 62
     0
370
    -2
100
AcDbLine
 10
0.0
 20
0.0
 30
0.0
 11
-1.0
 21
0.0000000000000001
 31
0.0
  0
SOLID
  5
A2
330
9E
100
AcDbEntity
  8
0
  6
Continuous
 62
     0
370
    -2
100
AcDbTrace
 10
0.0
 20
0.0
 30
0.0
 11
-0.9659258262890684
 21
-0.2588190451025206
 31
0.0
 12
-0.9659258262890684
 22
0.2588190451025209
 32
0.0
 13
-0.9659258262890684
 23
0.2588190451025209
 33
0.0
  0
ENDBLK
  5
A0
330
9E
100
AcDbEntity
  8
0
100
AcDbBlockEnd
  0
BLOCK
  5
A4
330
A3
100
AcDbEntity
  8
0
100
AcDbBlockBegin
  2
FXTIP_BLACKTRIANGLE_E
 70
     0
 10
0.0
 20
0.0
 30
0.0
  3
FXTIP_BLACKTRIANGLE_E
  1

  0
LINE
  5
A6
330
A3
100
AcDbEntity
  8
0
  6
Continuous
 62
     0
370
    -2
100
AcDbLine
 10
0.0
 20
0.0
 30
0.0
 11
-1.0
 21
0.0
 31
0.0
  0
SOLID
  5
A7
330
A3
100
AcDbEntity
  8
0
  6
Continuous
 62
     0
370
    -2
100
AcDbTrace
 10
0.0
 20
0.0
 30
0.0
 11
-0.9659258262890684
 21
0.2588190451025207
 31
0.0
 12
-0.9659258262890684
 22
-0.2588190451025207
 32
0.0
 13
-0.9659258262890684
 23
-0.2588190451025207
 33
0.0
  0
ENDBLK
  5
A5
330
A3
100
AcDbEntity
  8
0
100
AcDbBlockEnd
  0
BLOCK
  5
1AA
330
1A9
100
AcDbEntity
  8
0
100
AcDbBlockBegin
  2
BLKF021
 70
     0
 10
0.0
 20
0.0
 30
0.0
  3
BLKF021
  1

  0
TEXT
  5
1AD
330
1A9
100
AcDbEntity
  8
LAYER004
  6
Continuous
 62
     6
370
    20
100
AcDbText
 10
193.6679992675781
 20
188.8809204101561
 30
0.0
 40
2.299999952316284
  1
 
 41
0.5217391619835558
  7
FX_VECTOR
100
AcDbText
  0
TEXT
  5
1AE
330
1A9
100
AcDbEntity
  8
LAYER004
  6
Continuous
 62
     6
370
    20
100
AcDbText
 10
241.8339996337889
 20
188.8809204101561
 30
0.0
 40
2.299999952316284
  1
 
 41
0.5217391619835558
  7
FX_VECTOR
100
AcDbText
  0
INSERT
  5
1B2
330
1A9
100
AcDbEntity
  8
0
100
AcDbBlockReference
  2
FXDIM022
 10
0.0
 20
0.0
 30
0.0
  0
ENDBLK
  5
1AB
330
1A9
100
AcDbEntity
  8
0
100
AcDbBlockEnd
  0
BLOCK
  5
1B0
330
1AF
100
AcDbEntity
  8
0
100
AcDbBlockBegin
  2
FXDIM022
 70
     0
 10
0.0
 20
0.0
 30
0.0
  3
FXDIM022
  1

  0
TEXT
  5
1B3
330
1AF
100
AcDbEntity
  8
LAYER004
  6
Continuous
 62
     6
370
    20
100
AcDbText
 10
184.4885314704908
 20
188.6425079106235
 30
0.0
 40
2.200000047683713
  1
 
 50
0.0000000099999999
 41
0.5454545553065529
  7
FX_VECTOR
100
AcDbText
  0
LINE
  5
1B4
330
1AF
100
AcDbEntity
  8
LAYER004
  6
Continuous
 62
     6
370
    20
100
AcDbLine
 10
185.0885254983103
 20
191.8425053757654
 30
0.0
 11
182.9885254989454
 21
188.2051986795044
 31
0.0
  0
LINE
  5
1B5
330
1AF
100
AcDbEntity
  8
LAYER004
  6
Continuous
 62
     6
370
    20
100
AcDbLine
 10
182.9885254989454
 20
188.2051986795044
 30
0.0
 11
187.1885254989453
 21
188.2051986802373
 31
0.0
  0
LINE
  5
1B6
330
1AF
100
AcDbEntity
  8
LAYER004
  6
Continuous
 62
     6
370
    20
100
AcDbLine
 10
187.1885254989453
 20
188.2051986802373
 30
0.0
 11
185.0885254983103
 21
191.8425053757654
 31
0.0
  0
ENDBLK
  5
1B1
330
1AF
100
AcDbEntity
  8
0
100
AcDbBlockEnd
  0
BLOCK
  5
1B8
330
1B7
100
AcDbEntity
  8
0
100
AcDbBlockBegin
  2
BLKF023
 70
     0
 10
0.0
 20
0.0
 30
0.0
  3
BLKF023
  1

  0
LINE
  5
1BB
330
1B7
100
AcDbEntity
  8
LAYER004
  6
Continuous
 62
     7
370
    20
100
AcDbLine
 10
18.47867977292269
 20
198.9797160754093
 30
0.0
 11
133.4665303663903
 21
198.9797160754093
 31
0.0
  0
LINE
  5
1BC
330
1B7
100
AcDbEntity
  8
LAYER004
  6
Continuous
 62
     7
370
    20
100
AcDbLine
 10
133.4665303663903
 20
198.9797160754093
 30
0.0
 11
133.4665303663903
 21
178.3368977228819
 31
0.0
  0
LINE
  5
1BD
330
1B7
100
AcDbEntity
  8
LAYER004
  6
Continuous
 62
     7
370
    20
100
AcDbLine
 10
133.4665303663903
 20
178.3368977228819
 30
0.0
 11
18.47867977292268
 21
178.3368977228819
 31
0.0
  0
LINE
  5
1BE
330
1B7
100
AcDbEntity
  8
LAYER004
  6
Continuous
 62
     7
370
    20
100
AcDbLine
 10
18.47867977292268
 20
178.3368977228819
 30
0.0
 11
18.47867977292269
 21
198.9797160754093
 31
0.0
  0
LINE
  5
1BF
330
1B7
100
AcDbEntity
  8
LAYER004
  6
Continuous
 62
     7
370
    20
100
AcDbLine
 10
17.72867977292269
 20
199.7297160754095
 30
0.0
 11
134.2165303663903
 21
199.7297160754095
 31
0.0
  0
LINE
  5
1C0
330
1B7
100
AcDbEntity
  8
LAYER004
  6
Continuous
 62
     7
370
    20
100
AcDbLine
 10
134.2165303663903
 20
199.7297160754095
 30
0.0
 11
134.2165303663903
 21
177.5868977228818
 31
0.0
  0
LINE
  5
1C1
330
1B7
100
AcDbEntity
  8
LAYER004
  6
Continuous
 62
     7
370
    20
100
AcDbLine
 10
134.2165303663903
 20
177.5868977228818
 30
0.0
 11
17.72867977292269
 21
177.5868977228818
 31
0.0
  0
LINE
  5
1C2
330
1B7
100
AcDbEntity
  8
LAYER004
  6
Continuous
 62
     7
370
    20
100
AcDbLine
 10
17.72867977292269
 20
177.5868977228818
 30
0.0
 11
17.72867977292269
 21
199.7297160754095
 31
0.0
  0
TEXT
  5
1C3
330
1B7
100
AcDbEntity
  8
LAYER004
  6
Continuous
 62
     7
370
    20
100
AcDbText
 10
19.22414588928223
 20
194.9769134521483
 30
0.0
 40
3.0
  1
　
 41
0.9000000158945717
  7
FX_VECTOR
100
AcDbText
  0
TEXT
  5
1C4
330
1B7
100
AcDbEntity
  8
LAYER004
  6
Continuous
 62
     7
370
    20
100
AcDbText
 10
21.92414665222166
 20
194.3809661865234
 30
0.0
 40
2.299999952316284
  1
Confidential
 41
0.8999999896339746
  7
FX_VECTOR
100
AcDbText
  0
TEXT
  5
1C5
330
1B7
100
AcDbEntity
  8
LAYER004
  6
Continuous
 62
     7
370
    20
100
AcDbText
 10
46.76414489746091
 20
194.9769134521483
 30
0.0
 40
2.299999952316284
  1
　
 41
0.8999999896339746
  7
FX_VECTOR
100
AcDbText
  0
TEXT
  5
1C6
330
1B7
100
AcDbEntity
  8
LAYER004
  6
Continuous
 62
     7
370
    20
100
AcDbText
 10
48.83414840698242
 20
194.3809661865234
 30
0.0
 40
2.299999952316284
  1
Information
 41
0.8999999896339746
  7
FX_VECTOR
100
AcDbText
  0
TEXT
  5
1C7
330
1B7
100
AcDbEntity
  8
LAYER004
  6
Continuous
 62
     7
370
    20
100
AcDbText
 10
71.60414886474609
 20
194.3809661865234
 30
0.0
 40
2.5
  1
　　機密情報
 41
0.9
  7
FX_VECTOR
100
AcDbText
  0
TEXT
  5
1C8
330
1B7
100
AcDbEntity
  8
LAYER004
  6
Continuous
 62
     7
370
    20
100
AcDbText
 10
19.22414588928223
 20
190.8836669921875
 30
0.0
 40
2.099999904632567
  1
This material and any attachment contain information that is privileged confidentialor exempt
 41
0.5714286200854266
  7
FX_VECTOR
100
AcDbText
  0
TEXT
  5
1C9
330
1B7
100
AcDbEntity
  8
LAYER004
  6
Continuous
 62
     7
370
    20
100
AcDbText
 10
39.38414764404297
 20
188.7769165039061
 30
0.0
 40
2.0
  1
 
 41
0.899999976158142
  7
FX_VECTOR
100
AcDbText
  0
TEXT
  5
1CA
330
1B7
100
AcDbEntity
  8
LAYER004
  6
Continuous
 62
     7
370
    20
100
AcDbText
 10
19.22414588928223
 20
187.5641021728514
 30
0.0
 40
2.099999904632567
  1
form disclosure under application or copying of this information is strictly prohibited.
 41
0.5714286200854266
  7
FX_VECTOR
100
AcDbText
  0
TEXT
  5
1CB
330
1B7
100
AcDbEntity
  8
LAYER004
  6
Continuous
 62
     7
370
    20
100
AcDbText
 10
19.22414588928223
 20
183.8472442626953
 30
0.0
 40
2.299999952316284
  1
本資料は、
 41
0.7826086911452065
  7
FX_VECTOR
100
AcDbText
  0
TEXT
  5
1CC
330
1B7
100
AcDbEntity
  8
LAYER004
  6
Continuous
 62
     7
370
    20
100
AcDbText
 10
27.77736091613769
 20
183.8472442626953
 30
0.0
 40
2.200000047683713
  1
HOYA CANDEO OPTRONICS
 41
0.6363636117336186
  7
FX_VECTOR
100
AcDbText
  0
TEXT
  5
1CD
330
1B7
100
AcDbEntity
  8
LAYER004
  6
Continuous
 62
     7
370
    20
100
AcDbText
 10
57.83607864379883
 20
183.8472442626953
 30
0.0
 40
2.299999952316284
  1
株式会社の財産的情報を含んでおりますので、
 41
0.7826086911452065
  7
FX_VECTOR
100
AcDbText
  0
TEXT
  5
1CE
330
1B7
100
AcDbEntity
  8
LAYER004
  6
Continuous
 62
     7
370
    20
100
AcDbText
 10
19.22414588928223
 20
180.7472534179688
 30
0.0
 40
2.299999952316284
  1
許可なく第三者に開示したり内容の全部又は一部を複写する事を御遠慮下さい。
 41
0.7826086911452065
  7
FX_VECTOR
100
AcDbText
  0
ENDBLK
  5
1B9
330
1B7
100
AcDbEntity
  8
0
100
AcDbBlockEnd
  0
BLOCK
  5
1D0
330
1CF
100
AcDbEntity
  8
0
100
AcDbBlockBegin
  2
BLKF024
 70
     0
 10
0.0
 20
0.0
 30
0.0
  3
BLKF024
  1

  0
TEXT
  5
1D3
330
1CF
100
AcDbEntity
  8
LAYER004
  6
Continuous
 62
     7
370
    20
100
AcDbText
 10
221.4999999999999
 20
32.75690078735352
 30
0.0
 40
2.0
  1
2011.09.12
 41
0.8000000119209291
  7
FX_VECTOR
100
AcDbText
  0
TEXT
  5
1D4
330
1CF
100
AcDbEntity
  8
LAYER004
  6
Continuous
 62
     7
370
    20
100
AcDbText
 10
203.076477050781
 20
28.45743370056151
 30
0.0
 40
2.5
  1
元図番
 41
1.438202285766601
  7
FX_VECTOR
100
AcDbText
  0
TEXT
  5
1D5
330
1CF
100
AcDbEntity
  8
LAYER004
  6
Continuous
 62
     7
370
    20
100
AcDbText
 10
274.4500122070312
 20
13.14485645294189
 30
0.0
 40
2.0
  1
1/1
 41
0.6000000238418579
  7
FX_VECTOR
100
AcDbText
  0
TEXT
  5
1D6
330
1CF
100
AcDbEntity
  8
LAYER004
  6
Continuous
 62
     7
370
    20
100
AcDbText
 10
275.0499877929688
 20
21.38633155822753
 30
0.0
 40
2.0
  1
A4
 41
0.6000000238418579
  7
FX_VECTOR
100
AcDbText
  0
TEXT
  5
1D7
330
1CF
100
AcDbEntity
  8
LAYER004
  6
Continuous
 62
     7
370
    20
100
AcDbText
 10
122.5
 20
28.22083282470703
 30
0.0
 40
3.299999952316281
  1
JIS B 0419-cH(ISO2768-2)
 41
0.7449494816310404
  7
FX_VECTOR
100
AcDbText
  0
TEXT
  5
1D8
330
1CF
100
AcDbEntity
  8
LAYER004
  6
Continuous
 62
     7
370
    20
100
AcDbText
 10
148.4974822998044
 20
34.64977264404296
 30
0.0
 40
3.299999952316281
  1
**
 41
0.8484848462955135
  7
FX_VECTOR
100
AcDbText
  0
TEXT
  5
1D9
330
1CF
100
AcDbEntity
  8
LAYER004
  6
Continuous
 62
     7
370
    20
100
AcDbText
 10
148.3046112060546
 20
41.13259506225586
 30
0.0
 40
3.299999952316281
  1
**
 41
0.8484848462955135
  7
FX_VECTOR
100
AcDbText
  0
TEXT
  5
1DA
330
1CF
100
AcDbEntity
  8
LAYER004
  6
Continuous
 62
     7
370
    20
100
AcDbText
 10
204.3000030517577
 20
41.21905136108398
 30
0.0
 40
3.0
  1
1:2
 41
0.9333333174387611
  7
FX_VECTOR
100
AcDbText
  0
TEXT
  5
1DB
330
1CF
100
AcDbEntity
  8
LAYER004
  6
Continuous
 62
     6
370
    20
100
AcDbText
 10
5.59656810760498
 20
13.62403011322021
 30
0.0
 40
1.799999952316284
  1
****
 41
0.7777777851363761
  7
FX_VECTOR
100
AcDbText
  0
TEXT
  5
1DC
330
1CF
100
AcDbEntity
  8
LAYER004
  6
Continuous
 62
     6
370
    20
100
AcDbText
 10
5.59656810760498
 20
10.22377681732175
 30
0.0
 40
1.799999952316284
  1
%%%U%%%
 41
0.7777777851363761
  7
FX_VECTOR
100
AcDbText
  0
ENDBLK
  5
1D1
330
1CF
100
AcDbEntity
  8
0
100
AcDbBlockEnd
  0
BLOCK
  5
1DF
330
1DE
100
AcDbEntity
  8
0
100
AcDbBlockBegin
  2
BLKF025
 70
     0
 10
0.0
 20
0.0
 30
0.0
  3
BLKF025
  1

  0
LINE
  5
1E2
330
1DE
100
AcDbEntity
  8
LAYER004
  6
Continuous
 62
     7
370
    20
100
AcDbLine
 10
217.1958087157903
 20
37.67999678925763
 30
0.0
 11
214.6958087157903
 21
37.17999678925764
 31
0.0
  0
LINE
  5
1E3
330
1DE
100
AcDbEntity
  8
LAYER004
  6
Continuous
 62
     7
370
    20
100
AcDbLine
 10
217.1958087157903
 20
37.67999678925763
 30
0.0
 11
217.1958087157903
 21
34.67999678925764
 31
0.0
  0
CIRCLE
  5
1E4
330
1DE
100
AcDbEntity
  8
LAYER004
  6
Continuous
 62
     7
370
    20
100
AcDbCircle
 10
212.1958087157902
 20
36.14231643089117
 30
0.0
 40
1.414213562373103
  0
CIRCLE
  5
1E5
330
1DE
100
AcDbEntity
  8
LAYER004
  6
Continuous
 62
     7
370
    20
100
AcDbCircle
 10
212.1958087157902
 20
36.14231643089117
 30
0.0
 40
1.0
  0
LINE
  5
1E6
330
1DE
100
AcDbEntity
  8
LAYER004
  6
Continuous
 62
     7
370
    20
100
AcDbLine
 10
214.6958087157903
 20
37.17999678925764
 30
0.0
 11
214.6958087157903
 21
35.17999678925765
 31
0.0
  0
LINE
  5
1E7
330
1DE
100
AcDbEntity
  8
LAYER004
  6
Continuous
 62
     7
370
    20
100
AcDbLine
 10
217.1958087157903
 20
34.67999678925764
 30
0.0
 11
214.6958087157903
 21
35.17999678925765
 31
0.0
  0
LINE
  5
1E9
330
1DE
100
AcDbEntity
  8
LAYER004
  6
DASH_DOT
 62
     7
370
    20
100
AcDbLine
 10
212.1958087157902
 20
38.05663829568981
 30
0.0
 11
212.1958087157902
 21
34.23222723368709
 31
0.0
  0
LINE
  5
1EA
330
1DE
100
AcDbEntity
  8
LAYER004
  6
DASH_DOT
 62
     7
370
    20
100
AcDbLine
 10
210.353895244483
 20
36.14231643089117
 30
0.0
 11
217.6001474700413
 21
36.14231643089117
 31
0.0
  0
TEXT
  5
1EB
330
1DE
100
AcDbEntity
  8
LAYER004
  6
Continuous
 62
     7
370
    20
100
AcDbText
 10
20.80375289916992
 20
14.9008617401123
 30
0.0
 40
2.299999952316284
  1
仕様書番号
 41
0.8999999896339746
  7
FX_VECTOR
100
AcDbText
  0
TEXT
  5
1EC
330
1DE
100
AcDbEntity
  8
LAYER004
  6
Continuous
 62
     7
370
    20
100
AcDbText
 10
20.30875205993651
 20
10.750862121582
 30
0.0
 40
1.799999952316284
  1
Spec.No
 41
0.9000000264909539
  7
FX_VECTOR
100
AcDbText
  0
TEXT
  5
1ED
330
1DE
100
AcDbEntity
  8
LAYER004
  6
Continuous
 62
     7
370
    20
100
AcDbText
 10
196.0196838378905
 20
14.39006233215332
 30
0.0
 40
2.299999952316284
  1
図番
 41
0.8000000310980761
  7
FX_VECTOR
100
AcDbText
  0
TEXT
  5
1EE
330
1DE
100
AcDbEntity
  8
LAYER004
  6
Continuous
 62
     7
370
    20
100
AcDbText
 10
196.0196838378905
 20
10.89006233215332
 30
0.0
 40
1.799999952316284
  1
DWG＿No
 41
0.6666667108182566
  7
FX_VECTOR
100
AcDbText
  0
TEXT
  5
1EF
330
1DE
100
AcDbEntity
  8
LAYER004
  6
Continuous
 62
     7
370
    20
100
AcDbText
 10
196.0196838378905
 20
22.61516952514648
 30
0.0
 40
2.299999952316284
  1
図名
 41
0.8000000310980761
  7
FX_VECTOR
100
AcDbText
  0
TEXT
  5
1F0
330
1DE
100
AcDbEntity
  8
LAYER004
  6
Continuous
 62
     7
370
    20
100
AcDbText
 10
196.0196838378905
 20
19.11516952514648
 30
0.0
 40
1.799999952316284
  1
DWG＿Name
 41
0.6666667108182566
  7
FX_VECTOR
100
AcDbText
  0
TEXT
  5
1F1
330
1DE
100
AcDbEntity
  8
LAYER004
  6
Continuous
 62
     7
370
    20
100
AcDbText
 10
266.5531921386719
 20
14.26356601715088
 30
0.0
 40
2.0
  1
ページ
 41
0.899999976158142
  7
FX_VECTOR
100
AcDbText
  0
TEXT
  5
1F2
330
1DE
100
AcDbEntity
  8
LAYER004
  6
Continuous
 62
     7
370
    20
100
AcDbText
 10
266.8500061035155
 20
10.96356582641602
 30
0.0
 40
1.799999952316284
  1
Page
 41
0.6666667108182566
  7
FX_VECTOR
100
AcDbText
  0
TEXT
  5
1F3
330
1DE
100
AcDbEntity
  8
LAYER004
  6
Continuous
 62
     7
370
    20
100
AcDbText
 10
267.3749694824219
 20
42.81801223754881
 30
0.0
 40
2.299999952316284
  1
作成
 41
0.8999999896339746
  7
FX_VECTOR
100
AcDbText
  0
TEXT
  5
1F4
330
1DE
100
AcDbEntity
  8
LAYER004
  6
Continuous
 62
     7
370
    20
100
AcDbText
 10
267.3749694824219
 20
40.32801055908203
 30
0.0
 40
1.799999952316284
  1
Drawn
 41
0.6666667108182566
  7
FX_VECTOR
100
AcDbText
  0
TEXT
  5
1F5
330
1DE
100
AcDbEntity
  8
LAYER004
  6
Continuous
 62
     7
370
    20
100
AcDbText
 10
254.3677062988281
 20
42.49589920043945
 30
0.0
 40
2.299999952316284
  1
設計
 41
0.8999999896339746
  7
FX_VECTOR
100
AcDbText
  0
TEXT
  5
1F6
330
1DE
100
AcDbEntity
  8
LAYER004
  6
Continuous
 62
     7
370
    20
100
AcDbText
 10
254.3677062988281
 20
40.00589752197265
 30
0.0
 40
1.799999952316284
  1
Designed
 41
0.6666667108182566
  7
FX_VECTOR
100
AcDbText
  0
TEXT
  5
1F7
330
1DE
100
AcDbEntity
  8
LAYER004
  6
Continuous
 62
     7
370
    20
100
AcDbText
 10
241.364273071289
 20
42.84443283081055
 30
0.0
 40
2.299999952316284
  1
検図
 41
0.8999999896339746
  7
FX_VECTOR
100
AcDbText
  0
TEXT
  5
1F8
330
1DE
100
AcDbEntity
  8
LAYER004
  6
Continuous
 62
     7
370
    20
100
AcDbText
 10
241.364273071289
 20
40.35443115234374
 30
0.0
 40
1.799999952316284
  1
Checked
 41
0.6666667108182566
  7
FX_VECTOR
100
AcDbText
  0
TEXT
  5
1F9
330
1DE
100
AcDbEntity
  8
LAYER004
  6
Continuous
 62
     7
370
    20
100
AcDbText
 10
219.3719635009764
 20
42.79372787475586
 30
0.0
 40
2.299999952316284
  1
承認 - 日付
 41
0.8999999896339746
  7
FX_VECTOR
100
AcDbText
  0
TEXT
  5
1FA
330
1DE
100
AcDbEntity
  8
LAYER004
  6
Continuous
 62
     7
370
    20
100
AcDbText
 10
219.3719635009764
 20
40.30373001098633
 30
0.0
 40
1.799999952316284
  1
Approval - Date
 41
0.6666667108182566
  7
FX_VECTOR
100
AcDbText
  0
TEXT
  5
1FB
330
1DE
100
AcDbEntity
  8
LAYER004
  6
Continuous
 62
     7
370
    20
100
AcDbText
 10
200.313034057617
 20
35.14861297607422
 30
0.0
 40
2.0
  1
第三角法
  7
FX_VECTOR
100
AcDbText
  0
TEXT
  5
1FC
330
1DE
100
AcDbEntity
  8
LAYER004
  6
Continuous
 62
     7
370
    20
100
AcDbText
 10
266.5531921386719
 20
22.50294303894043
 30
0.0
 40
2.0
  1
サイズ
 41
0.899999976158142
  7
FX_VECTOR
100
AcDbText
  0
TEXT
  5
1FD
330
1DE
100
AcDbEntity
  8
LAYER004
  6
Continuous
 62
     7
370
    20
100
AcDbText
 10
266.8500061035155
 20
19.20294380187987
 30
0.0
 40
1.799999952316284
  1
Size
 41
0.6666667108182566
  7
FX_VECTOR
100
AcDbText
  0
TEXT
  5
1FE
330
1DE
100
AcDbEntity
  8
LAYER004
  6
Continuous
 62
     7
370
    20
100
AcDbText
 10
227.0676727294921
 20
37.45894241333008
 30
0.0
 40
2.0
  1
岸根
 41
1.325000047683715
  7
FX_VECTOR
100
AcDbText
  0
TEXT
  5
1FF
330
1DE
100
AcDbEntity
  8
LAYER004
  6
Continuous
 62
     7
370
    20
100
AcDbText
 10
244.1469268798828
 20
37.45894241333008
 30
0.0
 40
2.0
  1
紫藤
 41
1.325000047683715
  7
FX_VECTOR
100
AcDbText
  0
TEXT
  5
200
330
1DE
100
AcDbEntity
  8
LAYER004
  6
Continuous
 62
     7
370
    20
100
AcDbText
 10
257.0972595214844
 20
37.45894241333008
 30
0.0
 40
2.0
  1
岸根
 41
1.325000047683715
  7
FX_VECTOR
100
AcDbText
  0
TEXT
  5
201
330
1DE
100
AcDbEntity
  8
LAYER004
  6
Continuous
 62
     7
370
    20
100
AcDbText
 10
270.0841064453125
 20
37.45894241333008
 30
0.0
 40
2.0
  1
岸根
 41
1.325000047683715
  7
FX_VECTOR
100
AcDbText
  0
TEXT
  5
202
330
1DE
100
AcDbEntity
  8
LAYER004
  6
Continuous
 62
     7
370
    20
100
AcDbText
 10
110.9876480102539
 20
42.91971206665039
 30
0.0
 40
2.299999952316284
  1
材質
 41
0.8999999896339746
  7
FX_VECTOR
100
AcDbText
  0
TEXT
  5
203
330
1DE
100
AcDbEntity
  8
LAYER004
  6
Continuous
 62
     7
370
    20
100
AcDbText
 10
110.9876480102539
 20
39.79286193847656
 30
0.0
 40
1.799999952316284
  1
Material
 41
0.6666667108182566
  7
FX_VECTOR
100
AcDbText
  0
TEXT
  5
204
330
1DE
100
AcDbEntity
  8
LAYER004
  6
Continuous
 62
     7
370
    20
100
AcDbText
 10
110.9876480102539
 20
36.3911018371582
 30
0.0
 40
2.299999952316284
  1
処理
 41
0.8999999896339746
  7
FX_VECTOR
100
AcDbText
  0
TEXT
  5
205
330
1DE
100
AcDbEntity
  8
LAYER004
  6
Continuous
 62
     7
370
    20
100
AcDbText
 10
110.9876480102539
 20
33.26425170898438
 30
0.0
 40
1.799999952316284
  1
Treatment
 41
0.6666667108182566
  7
FX_VECTOR
100
AcDbText
  0
TEXT
  5
206
330
1DE
100
AcDbEntity
  8
LAYER004
  6
Continuous
 62
     7
370
    20
100
AcDbText
 10
110.9876480102539
 20
29.89969444274901
 30
0.0
 40
2.299999952316284
  1
公差
 41
0.8999999896339746
  7
FX_VECTOR
100
AcDbText
  0
TEXT
  5
207
330
1DE
100
AcDbEntity
  8
LAYER004
  6
Continuous
 62
     7
370
    20
100
AcDbText
 10
110.9876480102539
 20
26.77284240722656
 30
0.0
 40
1.799999952316284
  1
Tolerance
 41
0.6666667108182566
  7
FX_VECTOR
100
AcDbText
  0
TEXT
  5
208
330
1DE
100
AcDbEntity
  8
LAYER004
  6
Continuous
 62
     7
370
    20
100
AcDbText
 10
181.9535369873046
 20
42.90362167358398
 30
0.0
 40
2.299999952316284
  1
尺度
 41
0.8999999896339746
  7
FX_VECTOR
100
AcDbText
  0
TEXT
  5
209
330
1DE
100
AcDbEntity
  8
LAYER004
  6
Continuous
 62
     7
370
    20
100
AcDbText
 10
181.9535369873046
 20
39.77677154541014
 30
0.0
 40
1.799999952316284
  1
Scale
 41
0.6666667108182566
  7
FX_VECTOR
100
AcDbText
  0
TEXT
  5
20A
330
1DE
100
AcDbEntity
  8
LAYER004
  6
Continuous
 62
     7
370
    20
100
AcDbText
 10
181.9535369873046
 20
36.41714477539061
 30
0.0
 40
2.299999952316284
  1
投影法
 41
0.8999999896339746
  7
FX_VECTOR
100
AcDbText
  0
TEXT
  5
20B
330
1DE
100
AcDbEntity
  8
LAYER004
  6
Continuous
 62
     7
370
    20
100
AcDbText
 10
181.9535369873046
 20
33.2902946472168
 30
0.0
 40
1.799999952316284
  1
Projection
 41
0.6666667108182566
  7
FX_VECTOR
100
AcDbText
  0
TEXT
  5
20C
330
1DE
100
AcDbEntity
  8
LAYER004
  6
Continuous
 62
     7
370
    20
100
AcDbText
 10
181.9535369873046
 20
30.07779121398926
 30
0.0
 40
2.299999952316284
  1
元図番
 41
0.8999999896339746
  7
FX_VECTOR
100
AcDbText
  0
TEXT
  5
20D
330
1DE
100
AcDbEntity
  8
LAYER004
  6
Continuous
 62
     7
370
    20
100
AcDbText
 10
181.9535369873046
 20
26.95093727111816
 30
0.0
 40
1.799999952316284
  1
Origin DWG-No
 41
0.6666667108182566
  7
FX_VECTOR
100
AcDbText
  0
ENDBLK
  5
1E0
330
1DE
100
AcDbEntity
  8
0
100
AcDbBlockEnd
  0
BLOCK
  5
20F
330
20E
100
AcDbEntity
  8
0
100
AcDbBlockBegin
  2
BLKF026
 70
     0
 10
0.0
 20
0.0
 30
0.0
  3
BLKF026
  1

  0
LINE
  5
212
330
20E
100
AcDbEntity
  8
LAYER004
  6
Continuous
 62
   161
370
    20
100
AcDbLine
 10
70.5000000000001
 20
10.0
 30
0.0
 11
70.5000000000001
 21
18.5
 31
0.0
  0
LINE
  5
213
330
20E
100
AcDbEntity
  8
LAYER004
  6
Continuous
 62
     7
370
    20
100
AcDbLine
 10
34.50000000000007
 20
10.00000000000007
 30
0.0
 11
34.50000000000005
 21
18.5
 31
0.0
  0
LINE
  5
214
330
20E
100
AcDbEntity
  8
LAYER004
  6
Continuous
 62
   161
370
    20
100
AcDbLine
 10
17.50000000000006
 20
18.5
 30
0.0
 11
70.5000000000001
 21
18.5
 31
0.0
  0
LINE
  5
215
330
20E
100
AcDbEntity
  8
LAYER004
  6
Continuous
 62
     7
370
    20
100
AcDbLine
 10
17.50000000000006
 20
9.999999999999991
 30
0.0
 11
70.5000000000001
 21
10.0
 31
0.0
  0
LINE
  5
216
330
20E
100
AcDbEntity
  8
LAYER004
  6
Continuous
 62
   161
370
    20
100
AcDbLine
 10
218.5
 20
46.0
 30
0.0
 11
218.5
 21
26.50000000000002
 31
0.0
  0
LINE
  5
217
330
20E
100
AcDbEntity
  8
LAYER004
  6
Continuous
 62
     7
370
    20
100
AcDbLine
 10
207.5000000000001
 20
26.50000000000001
 30
0.0
 11
207.5000000000001
 21
10.0
 31
0.0
  0
LINE
  5
218
330
20E
100
AcDbEntity
  8
LAYER004
  6
Continuous
 62
     7
370
    20
100
AcDbLine
 10
198.5000000000001
 20
26.50000000000001
 30
0.0
 11
198.5000000000001
 21
46.0
 31
0.0
  0
LINE
  5
219
330
20E
100
AcDbEntity
  8
LAYER004
  6
Continuous
 62
   161
370
    20
100
AcDbLine
 10
195.5
 20
26.50000000000001
 30
0.0
 11
195.5
 21
10.0
 31
0.0
  0
LINE
  5
21A
330
20E
100
AcDbEntity
  8
LAYER004
  6
Continuous
 62
     7
370
    20
100
AcDbLine
 10
240.5
 20
46.0
 30
0.0
 11
240.5
 21
26.50000000000003
 31
0.0
  0
LINE
  5
21B
330
20E
100
AcDbEntity
  8
LAYER004
  6
Continuous
 62
     7
370
    20
100
AcDbLine
 10
195.5
 20
18.25000000000001
 30
0.0
 11
279.4999999999999
 21
18.25000000000003
 31
0.0
  0
LINE
  5
21C
330
20E
100
AcDbEntity
  8
LAYER004
  6
Continuous
 62
     7
370
    20
100
AcDbLine
 10
218.5
 20
36.0
 30
0.0
 11
279.4999999999999
 21
36.00000000000003
 31
0.0
  0
LINE
  5
21D
330
20E
100
AcDbEntity
  8
LAYER004
  6
Continuous
 62
     7
370
    20
100
AcDbLine
 10
279.4999999999999
 20
10.00000000000005
 30
0.0
 11
110.5000000000001
 21
9.999999999999962
 31
0.0
  0
LINE
  5
21E
330
20E
100
AcDbEntity
  8
LAYER004
  6
Continuous
 62
   161
370
    20
100
AcDbLine
 10
110.5000000000001
 20
26.49999999999996
 30
0.0
 11
279.4999999999999
 21
26.50000000000005
 31
0.0
  0
LINE
  5
21F
330
20E
100
AcDbEntity
  8
LAYER004
  6
Continuous
 62
   161
370
    20
100
AcDbLine
 10
110.5000000000001
 20
46.0
 30
0.0
 11
279.4999999999999
 21
46.0
 31
0.0
  0
LINE
  5
220
330
20E
100
AcDbEntity
  8
LAYER004
  6
Continuous
 62
     7
370
    20
100
AcDbLine
 10
279.4999999999999
 20
46.0
 30
0.0
 11
279.4999999999999
 21
10.00000000000005
 31
0.0
  0
LINE
  5
221
330
20E
100
AcDbEntity
  8
LAYER004
  6
Continuous
 62
     7
370
    20
100
AcDbLine
 10
253.5000000000001
 20
46.0
 30
0.0
 11
253.5000000000001
 21
26.50000000000003
 31
0.0
  0
LINE
  5
222
330
20E
100
AcDbEntity
  8
LAYER004
  6
Continuous
 62
     7
370
    20
100
AcDbLine
 10
266.5
 20
46.0
 30
0.0
 11
266.5
 21
26.50000000000003
 31
0.0
  0
LINE
  5
223
330
20E
100
AcDbEntity
  8
LAYER004
  6
Continuous
 62
   161
370
    20
100
AcDbLine
 10
265.5
 20
26.50000000000003
 30
0.0
 11
265.5
 21
10.00000000000005
 31
0.0
  0
LINE
  5
224
330
20E
100
AcDbEntity
  8
LAYER004
  6
Continuous
 62
     7
370
    20
100
AcDbLine
 10
273.0
 20
26.50000000000003
 30
0.0
 11
273.0
 21
10.00000000000005
 31
0.0
  0
LINE
  5
225
330
20E
100
AcDbEntity
  8
LAYER004
  6
Continuous
 62
   161
370
    20
100
AcDbLine
 10
181.4999999999999
 20
46.0
 30
0.0
 11
181.4999999999999
 21
26.5
 31
0.0
  0
LINE
  5
226
330
20E
100
AcDbEntity
  8
LAYER004
  6
Continuous
 62
   161
370
    20
100
AcDbLine
 10
110.5000000000001
 20
9.999999999999962
 30
0.0
 11
110.5000000000001
 21
46.0
 31
0.0
  0
LINE
  5
227
330
20E
100
AcDbEntity
  8
LAYER004
  6
Continuous
 62
     7
370
    20
100
AcDbLine
 10
122.5
 20
46.0
 30
0.0
 11
122.5
 21
26.49999999999996
 31
0.0
  0
LINE
  5
228
330
20E
100
AcDbEntity
  8
LAYER004
  6
Continuous
 62
   161
370
    20
100
AcDbLine
 10
17.5
 20
200.0
 30
0.0
 11
279.4999999999999
 21
200.0
 31
0.0
  0
LINE
  5
229
330
20E
100
AcDbEntity
  8
LAYER004
  6
Continuous
 62
   161
370
    20
100
AcDbLine
 10
279.4999999999999
 20
200.0
 30
0.0
 11
279.4999999999999
 21
10.0
 31
0.0
  0
LINE
  5
22A
330
20E
100
AcDbEntity
  8
LAYER004
  6
Continuous
 62
   161
370
    20
100
AcDbLine
 10
279.4999999999999
 20
9.999999999999996
 30
0.0
 11
17.50000000000001
 21
9.999999999999962
 31
0.0
  0
LINE
  5
22B
330
20E
100
AcDbEntity
  8
LAYER004
  6
Continuous
 62
   161
370
    20
100
AcDbLine
 10
17.50000000000001
 20
9.999999999999962
 30
0.0
 11
17.5
 21
200.0
 31
0.0
  0
LINE
  5
22C
330
20E
100
AcDbEntity
  8
LAYER004
  6
Continuous
 62
     7
370
    20
100
AcDbLine
 10
61.16700000000001
 20
200.0
 30
0.0
 11
61.16700000000001
 21
205.0
 31
0.0
  0
LINE
  5
22D
330
20E
100
AcDbEntity
  8
LAYER004
  6
Continuous
 62
     7
370
    20
100
AcDbLine
 10
104.834
 20
200.0
 30
0.0
 11
104.834
 21
205.0
 31
0.0
  0
LINE
  5
22E
330
20E
100
AcDbEntity
  8
LAYER004
  6
Continuous
 62
     7
370
    20
100
AcDbLine
 10
148.501
 20
200.0
 30
0.0
 11
148.501
 21
205.0
 31
0.0
  0
LINE
  5
22F
330
20E
100
AcDbEntity
  8
LAYER004
  6
Continuous
 62
     7
370
    20
100
AcDbLine
 10
192.168
 20
200.0
 30
0.0
 11
192.168
 21
205.0
 31
0.0
  0
LINE
  5
230
330
20E
100
AcDbEntity
  8
LAYER004
  6
Continuous
 62
     7
370
    20
100
AcDbLine
 10
235.835
 20
200.0
 30
0.0
 11
235.835
 21
205.0
 31
0.0
  0
LINE
  5
231
330
20E
100
AcDbEntity
  8
LAYER004
  6
Continuous
 62
     7
370
    20
100
AcDbLine
 10
279.4999999999999
 20
152.5
 30
0.0
 11
284.5
 21
152.5
 31
0.0
  0
LINE
  5
232
330
20E
100
AcDbEntity
  8
LAYER004
  6
Continuous
 62
     7
370
    20
100
AcDbLine
 10
279.4999999999999
 20
105.0
 30
0.0
 11
284.5
 21
105.0
 31
0.0
  0
LINE
  5
233
330
20E
100
AcDbEntity
  8
LAYER004
  6
Continuous
 62
     7
370
    20
100
AcDbLine
 10
279.4999999999999
 20
57.5
 30
0.0
 11
284.5
 21
57.5
 31
0.0
  0
LINE
  5
234
330
20E
100
AcDbEntity
  8
LAYER004
  6
Continuous
 62
     7
370
    20
100
AcDbLine
 10
17.50200000000007
 20
152.4999999999999
 30
0.0
 11
12.50200000000007
 21
152.5
 31
0.0
  0
LINE
  5
235
330
20E
100
AcDbEntity
  8
LAYER004
  6
Continuous
 62
     7
370
    20
100
AcDbLine
 10
17.50200000000007
 20
104.9999999999996
 30
0.0
 11
12.50200000000007
 21
105.0
 31
0.0
  0
LINE
  5
236
330
20E
100
AcDbEntity
  8
LAYER004
  6
Continuous
 62
     7
370
    20
100
AcDbLine
 10
17.5020000000001
 20
57.49999999999996
 30
0.0
 11
12.5020000000001
 21
57.49999999999996
 31
0.0
  0
LINE
  5
237
330
20E
100
AcDbEntity
  8
LAYER004
  6
Continuous
 62
     7
370
    20
100
AcDbLine
 10
235.835
 20
10.00000000000007
 30
0.0
 11
235.835
 21
5.000000000000071
 31
0.0
  0
LINE
  5
238
330
20E
100
AcDbEntity
  8
LAYER004
  6
Continuous
 62
     7
370
    20
100
AcDbLine
 10
192.168
 20
10.00000000000003
 30
0.0
 11
192.168
 21
5.000000000000036
 31
0.0
  0
LINE
  5
239
330
20E
100
AcDbEntity
  8
LAYER004
  6
Continuous
 62
     7
370
    20
100
AcDbLine
 10
148.501
 20
10.00000000000003
 30
0.0
 11
148.501
 21
5.000000000000036
 31
0.0
  0
LINE
  5
23A
330
20E
100
AcDbEntity
  8
LAYER004
  6
Continuous
 62
     7
370
    20
100
AcDbLine
 10
61.16700000000004
 20
10.0
 30
0.0
 11
61.16700000000003
 21
5.0
 31
0.0
  0
LINE
  5
23B
330
20E
100
AcDbEntity
  8
LAYER004
  6
Continuous
 62
     7
370
    20
100
AcDbLine
 10
104.834
 20
10.00000000000003
 30
0.0
 11
104.834
 21
5.000000000000036
 31
0.0
  0
TEXT
  5
23C
330
20E
100
AcDbEntity
  8
LAYER004
  6
Continuous
 62
   161
370
    20
100
AcDbText
 10
280.4542846679688
 20
174.75
 30
0.0
 40
3.0
  1
A
 41
0.8571429252624509
  7
FX_VECTOR
100
AcDbText
  0
TEXT
  5
23D
330
20E
100
AcDbEntity
  8
LAYER004
  6
Continuous
 62
   161
370
    20
100
AcDbText
 10
280.239990234375
 20
79.75
 30
0.0
 40
3.0
  1
C
  7
FX_VECTOR
100
AcDbText
  0
TEXT
  5
23E
330
20E
100
AcDbEntity
  8
LAYER004
  6
Continuous
 62
   161
370
    20
100
AcDbText
 10
280.1685791015625
 20
32.25
 30
0.0
 40
3.0
  1
D
 41
1.047619104385373
  7
FX_VECTOR
100
AcDbText
  0
TEXT
  5
23F
330
20E
100
AcDbEntity
  8
LAYER004
  6
Continuous
 62
   161
370
    20
100
AcDbText
 10
280.1685791015625
 20
127.2499999999999
 30
0.0
 40
3.0
  1
B
 41
1.047619104385373
  7
FX_VECTOR
100
AcDbText
  0
TEXT
  5
240
330
20E
100
AcDbEntity
  8
LAYER004
  6
Continuous
 62
   161
370
    20
100
AcDbText
 10
256.167999267578
 20
200.8999938964841
 30
0.0
 40
3.0
  1
6
  7
FX_VECTOR
100
AcDbText
  0
TEXT
  5
241
330
20E
100
AcDbEntity
  8
LAYER004
  6
Continuous
 62
   161
370
    20
100
AcDbText
 10
168.833999633789
 20
200.8999938964841
 30
0.0
 40
3.0
  1
4
  7
FX_VECTOR
100
AcDbText
  0
TEXT
  5
242
330
20E
100
AcDbEntity
  8
LAYER004
  6
Continuous
 62
   161
370
    20
100
AcDbText
 10
38.11871337890625
 20
200.8999938964841
 30
0.0
 40
3.0
  1
1
 41
0.8095238208770748
  7
FX_VECTOR
100
AcDbText
  0
TEXT
  5
243
330
20E
100
AcDbEntity
  8
LAYER004
  6
Continuous
 62
   161
370
    20
100
AcDbText
 10
81.57142639160156
 20
200.8999938964841
 30
0.0
 40
3.0
  1
2
 41
0.9523809750874836
  7
FX_VECTOR
100
AcDbText
  0
TEXT
  5
244
330
20E
100
AcDbEntity
  8
LAYER004
  6
Continuous
 62
   161
370
    20
100
AcDbText
 10
125.2384262084961
 20
200.8999938964841
 30
0.0
 40
3.0
  1
3
 41
0.9523809750874836
  7
FX_VECTOR
100
AcDbText
  0
TEXT
  5
245
330
20E
100
AcDbEntity
  8
LAYER004
  6
Continuous
 62
   161
370
    20
100
AcDbText
 10
212.5724334716796
 20
200.8999938964841
 30
0.0
 40
3.0
  1
5
 41
0.9523809750874836
  7
FX_VECTOR
100
AcDbText
  0
TEXT
  5
246
330
20E
100
AcDbEntity
  8
LAYER004
  6
Continuous
 62
   161
370
    20
100
AcDbText
 10
38.11871337890625
 20
6.099999904632567
 30
0.0
 40
3.0
  1
1
 41
0.8095238208770748
  7
FX_VECTOR
100
AcDbText
  0
TEXT
  5
247
330
20E
100
AcDbEntity
  8
LAYER004
  6
Continuous
 62
   161
370
    20
100
AcDbText
 10
81.57142639160156
 20
6.099999904632567
 30
0.0
 40
3.0
  1
2
 41
0.9523809750874836
  7
FX_VECTOR
100
AcDbText
  0
TEXT
  5
248
330
20E
100
AcDbEntity
  8
LAYER004
  6
Continuous
 62
   161
370
    20
100
AcDbText
 10
125.2384262084961
 20
6.099999904632567
 30
0.0
 40
3.0
  1
3
 41
0.9523809750874836
  7
FX_VECTOR
100
AcDbText
  0
TEXT
  5
249
330
20E
100
AcDbEntity
  8
LAYER004
  6
Continuous
 62
   161
370
    20
100
AcDbText
 10
168.833999633789
 20
6.099999904632567
 30
0.0
 40
3.0
  1
4
  7
FX_VECTOR
100
AcDbText
  0
TEXT
  5
24A
330
20E
100
AcDbEntity
  8
LAYER004
  6
Continuous
 62
   161
370
    20
100
AcDbText
 10
212.5724334716796
 20
6.099999904632567
 30
0.0
 40
3.0
  1
5
 41
0.9523809750874836
  7
FX_VECTOR
100
AcDbText
  0
TEXT
  5
24B
330
20E
100
AcDbEntity
  8
LAYER004
  6
Continuous
 62
   161
370
    20
100
AcDbText
 10
256.167999267578
 20
6.099999904632567
 30
0.0
 40
3.0
  1
6
  7
FX_VECTOR
100
AcDbText
  0
TEXT
  5
24C
330
20E
100
AcDbEntity
  8
LAYER004
  6
Continuous
 62
   161
370
    20
100
AcDbText
 10
13.97428607940674
 20
174.75
 30
0.0
 40
3.0
  1
A
 41
0.8571429252624509
  7
FX_VECTOR
100
AcDbText
  0
TEXT
  5
24D
330
20E
100
AcDbEntity
  8
LAYER004
  6
Continuous
 62
   161
370
    20
100
AcDbText
 10
13.68857097625731
 20
127.2499999999999
 30
0.0
 40
3.0
  1
B
 41
1.047619104385373
  7
FX_VECTOR
100
AcDbText
  0
TEXT
  5
24E
330
20E
100
AcDbEntity
  8
LAYER004
  6
Continuous
 62
   161
370
    20
100
AcDbText
 10
13.76000022888184
 20
79.75
 30
0.0
 40
3.0
  1
C
  7
FX_VECTOR
100
AcDbText
  0
TEXT
  5
24F
330
20E
100
AcDbEntity
  8
LAYER004
  6
Continuous
 62
   161
370
    20
100
AcDbText
 10
13.68857097625731
 20
32.25
 30
0.0
 40
3.0
  1
D
 41
1.047619104385373
  7
FX_VECTOR
100
AcDbText
  0
ENDBLK
  5
210
330
20E
100
AcDbEntity
  8
0
100
AcDbBlockEnd
  0
BLOCK
  5
251
330
250
100
AcDbEntity
  8
0
100
AcDbBlockBegin
  2
BLKF027
 70
     0
 10
0.0
 20
0.0
 30
0.0
  3
BLKF027
  1

  0
LINE
  5
254
330
250
100
AcDbEntity
  8
LAYER004
  6
Continuous
 62
     7
370
    20
100
AcDbLine
 10
177.168
 20
200.0000028302204
 30
0.0
 11
279.4999828890983
 21
200.0000028302204
 31
0.0
  0
LINE
  5
255
330
250
100
AcDbEntity
  8
LAYER004
  6
Continuous
 62
   161
370
    20
100
AcDbLine
 10
279.4999828890983
 20
187.5
 30
0.0
 11
177.168
 21
187.5
 31
0.0
  0
LINE
  5
256
330
250
100
AcDbEntity
  8
LAYER004
  6
Continuous
 62
   161
370
    20
100
AcDbLine
 10
177.168
 20
187.5
 30
0.0
 11
177.168
 21
200.0000028302204
 31
0.0
  0
LINE
  5
257
330
250
100
AcDbEntity
  8
LAYER004
  6
Continuous
 62
     7
370
    20
100
AcDbLine
 10
177.168
 20
192.4999999999999
 30
0.0
 11
279.4999828890983
 21
192.4999999999999
 31
0.0
  0
LINE
  5
258
330
250
100
AcDbEntity
  8
LAYER004
  6
Continuous
 62
     7
370
    20
100
AcDbLine
 10
192.168
 20
187.5
 30
0.0
 11
192.168
 21
200.0000028302204
 31
0.0
  0
LINE
  5
259
330
250
100
AcDbEntity
  8
LAYER004
  6
Continuous
 62
     7
370
    20
100
AcDbLine
 10
207.168
 20
200.0000028302204
 30
0.0
 11
207.168
 21
187.5
 31
0.0
  0
TEXT
  5
25A
330
250
100
AcDbEntity
  8
LAYER004
  6
Continuous
 62
     7
370
    20
100
AcDbText
 10
238.7339935302734
 20
196.4786682128906
 30
0.0
 40
2.299999952316284
  1
改訂内容
  7
FX_VECTOR
100
AcDbText
  0
TEXT
  5
25B
330
250
100
AcDbEntity
  8
LAYER004
  6
Continuous
 62
     7
370
    20
100
AcDbText
 10
232.9340057373046
 20
193.6854553222655
 30
0.0
 40
1.600000023841858
  1
Revision note
  7
FX_VECTOR
100
AcDbText
  0
TEXT
  5
25C
330
250
100
AcDbEntity
  8
LAYER004
  6
Continuous
 62
     7
370
    20
100
AcDbText
 10
196.2272186279296
 20
196.4786682128906
 30
0.0
 40
2.299999952316284
  1
改訂日
  7
FX_VECTOR
100
AcDbText
  0
TEXT
  5
25D
330
250
100
AcDbEntity
  8
LAYER004
  6
Continuous
 62
     7
370
    20
100
AcDbText
 10
196.4772186279296
 20
193.6854553222655
 30
0.0
 40
1.600000023841858
  1
Date
  7
FX_VECTOR
100
AcDbText
  0
TEXT
  5
25E
330
250
100
AcDbEntity
  8
LAYER004
  6
Continuous
 62
     7
370
    20
100
AcDbText
 10
180.0540313720703
 20
196.4786682128906
 30
0.0
 40
2.299999952316284
  1
改訂番号
  7
FX_VECTOR
100
AcDbText
  0
TEXT
  5
25F
330
250
100
AcDbEntity
  8
LAYER004
  6
Continuous
 62
     7
370
    20
100
AcDbText
 10
179.8679962158203
 20
193.6854553222655
 30
0.0
 40
1.600000023841858
  1
Rev.No
  7
FX_VECTOR
100
AcDbText
  0
ENDBLK
  5
252
330
250
100
AcDbEntity
  8
0
100
AcDbBlockEnd
  0
BLOCK
  5
40D
330
40C
100
AcDbEntity
  8
0
100
AcDbBlockBegin
  2
*D26
 70
     1
 10
0.0
 20
0.0
 30
0.0
  3
*D26
  1

  0
TEXT
  5
40F
330
40C
100
AcDbEntity
  8
用紙-GR2
  6
Continuous
 62
     6
370
    20
100
AcDbText
 10
-155.9648521239889
 20
123.518095326727
 30
0.0
 40
2.5
  1
ケーブル長（2000）
 41
0.8
  7
FX_VECTOR
100
AcDbText
  0
LINE
  5
410
330
40C
100
AcDbEntity
  8
用紙-GR2
  6
Continuous
 62
     6
370
    20
100
AcDbLine
 10
-178.5575042026554
 20
123.0180958111656
 30
0.0
 11
-111.3722142450882
 21
123.0180958111656
 31
0.0
  0
INSERT
  5
411
330
40C
100
AcDbEntity
  8
用紙-GR2
  6
Continuous
 62
     6
370
    20
100
AcDbBlockReference
  2
FXTIP_ARROW_S
 10
-178.5575042026554
 20
123.0180958111656
 30
0.0
 41
3.0
 42
3.0
 50
180.0
  0
INSERT
  5
412
330
40C
100
AcDbEntity
  8
用紙-GR2
  6
Continuous
 62
     6
370
    20
100
AcDbBlockReference
  2
FXTIP_ARROW_E
 10
-111.3722142450882
 20
123.0180958111656
 30
0.0
 41
3.0
 42
3.0
 50
360.0
  0
LINE
  5
413
330
40C
100
AcDbEntity
  8
用紙-GR2
  6
Continuous
 62
     6
370
    20
100
AcDbLine
 10
-178.5575042026554
 20
109.5542941229595
 30
0.0
 11
-178.5575042026554
 21
124.5180958475861
 31
0.0
  0
LINE
  5
414
330
40C
100
AcDbEntity
  8
用紙-GR2
  6
Continuous
 62
     6
370
    20
100
AcDbLine
 10
-111.3722142450882
 20
117.8632383218209
 30
0.0
 11
-111.3722142450882
 21
124.5180958475861
 31
0.0
  0
ENDBLK
  5
40E
330
40C
100
AcDbEntity
  8
0
100
AcDbBlockEnd
  0
BLOCK
  5
417
330
416
100
AcDbEntity
  8
0
100
AcDbBlockBegin
  2
*D27
 70
     1
 10
0.0
 20
0.0
 30
0.0
  3
*D27
  1

  0
TEXT
  5
419
330
416
100
AcDbEntity
  8
用紙-GR2
  6
Continuous
 62
     6
370
    20
100
AcDbText
 10
-92.15579979018407
 20
123.518095326378
 30
0.0
 40
2.5
  1
60
 50
0.0000000099999999
 41
0.8
 51
15.0
  7
FX_VECTOR
100
AcDbText
  0
LINE
  5
41A
330
416
100
AcDbEntity
  8
用紙-GR2
  6
Continuous
 62
     6
370
    20
100
AcDbLine
 10
-111.3722142450882
 20
123.0180958111656
 30
0.0
 11
-68.93939953504555
 21
123.0180958111656
 31
0.0
  0
INSERT
  5
41B
330
416
100
AcDbEntity
  8
用紙-GR2
  6
Continuous
 62
     6
370
    20
100
AcDbBlockReference
  2
FXTIP_ARROW_S
 10
-111.3722142450882
 20
123.0180958111656
 30
0.0
 41
3.0
 42
3.0
 50
180.0
  0
INSERT
  5
41C
330
416
100
AcDbEntity
  8
用紙-GR2
  6
Continuous
 62
     6
370
    20
100
AcDbBlockReference
  2
FXTIP_ARROW_E
 10
-68.93939953504555
 20
123.0180958111656
 30
0.0
 41
3.0
 42
3.0
 50
360.0
  0
LINE
  5
41D
330
416
100
AcDbEntity
  8
用紙-GR2
  6
Continuous
 62
     6
370
    20
100
AcDbLine
 10
-68.93939953504551
 20
116.0952043755692
 30
0.0
 11
-68.93939953504551
 21
124.5180958475861
 31
0.0
  0
ENDBLK
  5
418
330
416
100
AcDbEntity
  8
0
100
AcDbBlockEnd
  0
BLOCK
  5
420
330
41F
100
AcDbEntity
  8
0
100
AcDbBlockBegin
  2
*D28
 70
     1
 10
0.0
 20
0.0
 30
0.0
  3
*D28
  1

  0
TEXT
  5
422
330
41F
100
AcDbEntity
  8
用紙-GR2
  6
Continuous
 62
     6
370
    20
100
AcDbText
 10
-16.7580136483933
 20
103.1942212915488
 30
0.0
 40
2.5
  1
35
 50
90.0
 41
0.8
 51
15.0
  7
FX_VECTOR
100
AcDbText
  0
LINE
  5
423
330
41F
100
AcDbEntity
  8
用紙-GR2
  6
Continuous
 62
     6
370
    20
100
AcDbLine
 10
-16.25802251944792
 20
92.81797662851635
 30
0.0
 11
-16.25802251944792
 21
117.570451876041
 31
0.0
  0
INSERT
  5
424
330
41F
100
AcDbEntity
  8
用紙-GR2
  6
Continuous
 62
     6
370
    20
100
AcDbBlockReference
  2
FXTIP_ARROW_S
 10
-16.25802251944792
 20
92.81797662851635
 30
0.0
 41
3.0
 42
3.0
 50
270.0
  0
INSERT
  5
425
330
41F
100
AcDbEntity
  8
用紙-GR2
  6
Continuous
 62
     6
370
    20
100
AcDbBlockReference
  2
FXTIP_ARROW_E
 10
-16.25802251944792
 20
117.570451876041
 30
0.0
 41
3.0
 42
3.0
 50
90.0
  0
LINE
  5
426
330
41F
100
AcDbEntity
  8
用紙-GR2
  6
Continuous
 62
     6
370
    20
100
AcDbLine
 10
-26.21379837922353
 20
92.81797662851635
 30
0.0
 11
-14.75802248302755
 21
92.81797662851635
 31
0.0
  0
LINE
  5
427
330
41F
100
AcDbEntity
  8
用紙-GR2
  6
Continuous
 62
     6
370
    20
100
AcDbLine
 10
-26.21379837922336
 20
117.570451876041
 30
0.0
 11
-14.75802248302755
 21
117.570451876041
 31
0.0
  0
ENDBLK
  5
421
330
41F
100
AcDbEntity
  8
0
100
AcDbBlockEnd
  0
BLOCK
  5
42A
330
429
100
AcDbEntity
  8
0
100
AcDbBlockBegin
  2
*D29
 70
     1
 10
0.0
 20
0.0
 30
0.0
  3
*D29
  1

  0
TEXT
  5
42C
330
429
100
AcDbEntity
  8
用紙-GR2
  6
Continuous
 62
     6
370
    20
100
AcDbText
 10
-40.88280455766001
 20
85.52823747872459
 30
0.0
 40
2.5
  1
35
 50
0.0000000099999999
 41
0.8
 51
15.0
  7
FX_VECTOR
100
AcDbText
  0
LINE
  5
42D
330
429
100
AcDbEntity
  8
用紙-GR2
  6
Continuous
 62
     6
370
    20
100
AcDbLine
 10
-51.25906007252783
 20
85.02824210565291
 30
0.0
 11
-26.50658482500324
 21
85.02824210565291
 31
0.0
  0
INSERT
  5
42E
330
429
100
AcDbEntity
  8
用紙-GR2
  6
Continuous
 62
     6
370
    20
100
AcDbBlockReference
  2
FXTIP_ARROW_S
 10
-51.25906007252783
 20
85.02824210565291
 30
0.0
 41
3.0
 42
3.0
 50
180.0
  0
INSERT
  5
42F
330
429
100
AcDbEntity
  8
用紙-GR2
  6
Continuous
 62
     6
370
    20
100
AcDbBlockReference
  2
FXTIP_ARROW_E
 10
-26.50658482500324
 20
85.02824210565291
 30
0.0
 41
3.0
 42
3.0
 50
360.0
  0
LINE
  5
430
330
429
100
AcDbEntity
  8
用紙-GR2
  6
Continuous
 62
     6
370
    20
100
AcDbLine
 10
-51.25906007252783
 20
92.52519018273682
 30
0.0
 11
-51.25906007252779
 21
83.5282420692325
 31
0.0
  0
LINE
  5
431
330
429
100
AcDbEntity
  8
用紙-GR2
  6
Continuous
 62
     6
370
    20
100
AcDbLine
 10
-26.50658482500324
 20
92.52519018273682
 30
0.0
 11
-26.50658482500324
 21
83.5282420692325
 31
0.0
  0
ENDBLK
  5
42B
330
429
100
AcDbEntity
  8
0
100
AcDbBlockEnd
  0
BLOCK
  5
433
330
432
100
AcDbEntity
  8
0
100
AcDbBlockBegin
  2
FXDIM032
 70
     0
 10
0.0
 20
0.0
 30
0.0
  3
FXDIM032
  1

  0
LINE
  5
436
330
432
100
AcDbEntity
  8
用紙-GR2
  6
Continuous
 62
     6
370
    20
100
AcDbLine
 10
-211.7777151040413
 20
100.7039456865179
 30
0.0
 11
-213.8386724635354
 21
84.41256846385122
 31
0.0
  0
INSERT
  5
437
330
432
100
AcDbEntity
  8
用紙-GR2
  6
Continuous
 62
     6
370
    20
100
AcDbBlockReference
  2
FXTIP_BLACKDOT_S
 10
-211.7777151040413
 20
100.7039456865179
 30
0.0
 50
82.79003815438413
  0
LINE
  5
438
330
432
100
AcDbEntity
  8
用紙-GR2
  6
Continuous
 62
     6
370
    20
100
AcDbLine
 10
-213.8386724635354
 20
84.41256846385122
 30
0.0
 11
-224.2122384086504
 21
84.41256846385122
 31
0.0
  0
TEXT
  5
439
330
432
100
AcDbEntity
  8
用紙-GR2
  6
Continuous
 62
     6
370
    20
100
AcDbText
 10
-222.0254567536133
 20
84.91256584320153
 30
0.0
 40
2.5
  1
排気口
 50
0.0000000100000079
 41
0.8
  7
FX_VECTOR
100
AcDbText
  0
ENDBLK
  5
434
330
432
100
AcDbEntity
  8
0
100
AcDbBlockEnd
  0
BLOCK
  5
43B
330
43A
100
AcDbEntity
  8
0
100
AcDbBlockBegin
  2
FXDIM033
 70
     0
 10
0.0
 20
0.0
 30
0.0
  3
FXDIM033
  1

  0
LINE
  5
43E
330
43A
100
AcDbEntity
  8
用紙-GR2
  6
Continuous
 62
     6
370
    20
100
AcDbLine
 10
-173.0160328610509
 20
102.0790829723003
 30
0.0
 11
-175.2388369905678
 21
84.21726407439676
 31
0.0
  0
INSERT
  5
43F
330
43A
100
AcDbEntity
  8
用紙-GR2
  6
Continuous
 62
     6
370
    20
100
AcDbBlockReference
  2
FXTIP_BLACKDOT_S
 10
-173.0160328610509
 20
102.0790829723003
 30
0.0
 50
82.90632707221293
  0
LINE
  5
440
330
43A
100
AcDbEntity
  8
用紙-GR2
  6
Continuous
 62
     6
370
    20
100
AcDbLine
 10
-175.2388369905678
 20
84.21726407439676
 30
0.0
 11
-203.006648422023
 21
84.21726407439676
 31
0.0
  0
TEXT
  5
441
330
43A
100
AcDbEntity
  8
用紙-GR2
  6
Continuous
 62
     6
370
    20
100
AcDbText
 10
-200.1227409222505
 20
84.71726629127266
 30
0.0
 40
2.5
  1
電源ケーブル/コネクタ
 50
0.0000000100000079
 41
0.8
  7
FX_VECTOR
100
AcDbText
  0
ENDBLK
  5
43C
330
43A
100
AcDbEntity
  8
0
100
AcDbBlockEnd
  0
BLOCK
  5
444
330
443
100
AcDbEntity
  8
0
100
AcDbBlockBegin
  2
*D32
 70
     1
 10
0.0
 20
0.0
 30
0.0
  3
*D32
  1

  0
TEXT
  5
446
330
443
100
AcDbEntity
  8
用紙-GR2
  6
Continuous
 62
     6
370
    20
100
AcDbText
 10
-88.19786190480796
 20
65.59295537751669
 30
0.0
 40
2.5
  1
20
 50
90.0
 41
0.8
 51
15.0
  7
FX_VECTOR
100
AcDbText
  0
LINE
  5
447
330
443
100
AcDbEntity
  8
用紙-GR2
  6
Continuous
 62
     6
370
    20
100
AcDbLine
 10
-87.69786658465582
 20
60.52082593307956
 30
0.0
 11
-87.69786658465582
 21
74.66509750309372
 31
0.0
  0
INSERT
  5
448
330
443
100
AcDbEntity
  8
用紙-GR2
  6
Continuous
 62
     6
370
    20
100
AcDbBlockReference
  2
FXTIP_ARROW_S
 10
-87.69786658465582
 20
60.52082593307956
 30
0.0
 41
3.0
 42
3.0
 50
270.0
  0
INSERT
  5
449
330
443
100
AcDbEntity
  8
用紙-GR2
  6
Continuous
 62
     6
370
    20
100
AcDbBlockReference
  2
FXTIP_ARROW_E
 10
-87.69786658465582
 20
74.66509750309372
 30
0.0
 41
3.0
 42
3.0
 50
90.0
  0
LINE
  5
44A
330
443
100
AcDbEntity
  8
用紙-GR2
  6
Continuous
 62
     6
370
    20
100
AcDbLine
 10
-81.96203039383778
 20
60.52082593307956
 30
0.0
 11
-89.19786662107618
 21
60.52082593307956
 31
0.0
  0
LINE
  5
44B
330
443
100
AcDbEntity
  8
用紙-GR2
  6
Continuous
 62
     6
370
    20
100
AcDbLine
 10
-81.96203039383801
 20
74.6650975030937
 30
0.0
 11
-89.19786662107618
 21
74.66509750309372
 31
0.0
  0
ENDBLK
  5
445
330
443
100
AcDbEntity
  8
0
100
AcDbBlockEnd
  0
BLOCK
  5
44E
330
44D
100
AcDbEntity
  8
0
100
AcDbBlockBegin
  2
*D33
 70
     1
 10
0.0
 20
0.0
 30
0.0
  3
*D33
  1

  0
TEXT
  5
450
330
44D
100
AcDbEntity
  8
用紙-GR2
  6
Continuous
 62
     6
370
    20
100
AcDbText
 10
-75.88987669344501
 20
50.21612445197479
 30
0.0
 40
2.5
  1
14
 50
0.0000000099999999
 41
0.8
 51
15.0
  7
FX_VECTOR
100
AcDbText
  0
LINE
  5
451
330
44D
100
AcDbEntity
  8
用紙-GR2
  6
Continuous
 62
     6
370
    20
100
AcDbLine
 10
-78.84038963405537
 20
49.71613143116774
 30
0.0
 11
-68.93939953504546
 21
49.71613143116774
 31
0.0
  0
INSERT
  5
452
330
44D
100
AcDbEntity
  8
用紙-GR2
  6
Continuous
 62
     6
370
    20
100
AcDbBlockReference
  2
FXTIP_ARROW_S
 10
-78.84038963405537
 20
49.71613143116774
 30
0.0
 41
3.0
 42
3.0
 50
180.0
  0
INSERT
  5
453
330
44D
100
AcDbEntity
  8
用紙-GR2
  6
Continuous
 62
     6
370
    20
100
AcDbBlockReference
  2
FXTIP_ARROW_E
 10
-68.93939953504546
 20
49.71613143116774
 30
0.0
 41
3.0
 42
3.0
 50
360.0
  0
LINE
  5
454
330
44D
100
AcDbEntity
  8
用紙-GR2
  6
Continuous
 62
     6
370
    20
100
AcDbLine
 10
-78.8403896340554
 20
57.39918517329718
 30
0.0
 11
-78.84038963405537
 21
48.21613139474739
 31
0.0
  0
LINE
  5
455
330
44D
100
AcDbEntity
  8
用紙-GR2
  6
Continuous
 62
     6
370
    20
100
AcDbLine
 10
-68.93939953504551
 20
56.69197159479665
 30
0.0
 11
-68.93939953504546
 21
48.21613139474739
 31
0.0
  0
ENDBLK
  5
44F
330
44D
100
AcDbEntity
  8
0
100
AcDbBlockEnd
  0
BLOCK
  5
457
330
456
100
AcDbEntity
  8
0
100
AcDbBlockBegin
  2
FXDIM036
 70
     0
 10
0.0
 20
0.0
 30
0.0
  3
FXDIM036
  1

  0
LINE
  5
45A
330
456
100
AcDbEntity
  8
用紙-GR2
  6
Continuous
 62
     6
370
    20
100
AcDbLine
 10
-77.89572813916295
 20
98.50159932049812
 30
0.0
 11
-75.7814074611597
 21
85.13016089251626
 31
0.0
  0
INSERT
  5
45B
330
456
100
AcDbEntity
  8
用紙-GR2
  6
Continuous
 62
     6
370
    20
100
AcDbBlockReference
  2
FXTIP_BLACKDOT_S
 10
-77.89572813916295
 20
98.50159932049812
 30
0.0
 50
98.98533939812944
  0
LINE
  5
45C
330
456
100
AcDbEntity
  8
用紙-GR2
  6
Continuous
 62
     6
370
    20
100
AcDbLine
 10
-75.7814074611597
 20
85.13016089251626
 30
0.0
 11
-64.29045955206635
 21
85.13016089251626
 31
0.0
  0
TEXT
  5
45D
330
456
100
AcDbEntity
  8
用紙-GR2
  6
Continuous
 62
     6
370
    20
100
AcDbText
 10
-73.03594254165929
 20
85.6301551824403
 30
0.0
 40
2.5
  1
排気口
 50
0.0000000099999999
 41
0.8
  7
FX_VECTOR
100
AcDbText
  0
ENDBLK
  5
458
330
456
100
AcDbEntity
  8
0
100
AcDbBlockEnd
  0
BLOCK
  5
462
330
461
100
AcDbEntity
  8
0
100
AcDbBlockBegin
  2
FXDIM037
 70
     0
 10
0.0
 20
0.0
 30
0.0
  3
FXDIM037
  1

  0
LINE
  5
465
330
461
100
AcDbEntity
  8
用紙-GR2
  6
Continuous
 62
     6
370
    20
100
AcDbLine
 10
-79.73507363168903
 20
75.76060867457572
 30
0.0
 11
-87.30378086403961
 21
85.02824210565291
 31
0.0
  0
INSERT
  5
466
330
461
100
AcDbEntity
  8
用紙-GR2
  6
Continuous
 62
     6
370
    20
100
AcDbBlockReference
  2
FXTIP_ARROW_S
 10
-79.73507363168903
 20
75.76060867457572
 30
0.0
 41
3.0
 42
3.0
 50
309.2378860821722
  0
LINE
  5
467
330
461
100
AcDbEntity
  8
用紙-GR2
  6
Continuous
 62
     6
370
    20
100
AcDbLine
 10
-87.30378086403961
 20
85.02824210565291
 30
0.0
 11
-114.6607907309597
 21
85.02824210565291
 31
0.0
  0
TEXT
  5
468
330
461
100
AcDbEntity
  8
用紙-GR2
  6
Continuous
 62
     6
370
    20
100
AcDbText
 10
-112.9822775316035
 20
85.52824287468506
 30
0.0
 40
2.5
  1
2-M4深さ4（固定用）
 41
0.8
  7
FX_VECTOR
100
AcDbText
  0
ENDBLK
  5
463
330
461
100
AcDbEntity
  8
0
100
AcDbBlockEnd
  0
BLOCK
  5
46E
330
46D
100
AcDbEntity
  8
0
100
AcDbBlockBegin
  2
FXDIM038
 70
     0
 10
0.0
 20
0.0
 30
0.0
  3
FXDIM038
  1

  0
LINE
  5
471
330
46D
100
AcDbEntity
  8
用紙-GR2
  6
Continuous
 62
     6
370
    20
100
AcDbLine
 10
-38.08788887017643
 20
104.275375567907
 30
0.0
 11
-22.47387250813264
 21
84.63193562856154
 31
0.0
  0
INSERT
  5
472
330
46D
100
AcDbEntity
  8
用紙-GR2
  6
Continuous
 62
     6
370
    20
100
AcDbBlockReference
  2
FXTIP_BLACKDOT_S
 10
-38.08788887017643
 20
104.275375567907
 30
0.0
 50
128.4801982483429
  0
LINE
  5
473
330
46D
100
AcDbEntity
  8
用紙-GR2
  6
Continuous
 62
     6
370
    20
100
AcDbLine
 10
-22.47387250813264
 20
84.63193562856154
 30
0.0
 11
-11.2040784403671
 21
84.63193562856154
 31
0.0
  0
TEXT
  5
474
330
46D
100
AcDbEntity
  8
用紙-GR2
  6
Continuous
 62
     6
370
    20
100
AcDbText
 10
-20.83896940196252
 20
85.13193521605177
 30
0.0
 40
2.5
  1
光出射口
 50
0.0000000099999999
 41
0.8
  7
FX_VECTOR
100
AcDbText
  0
ENDBLK
  5
46F
330
46D
100
AcDbEntity
  8
0
100
AcDbBlockEnd
  0
BLOCK
  5
4C9
330
4C8
100
AcDbEntity
  8
0
100
AcDbBlockBegin
  2
*D37
 70
     1
 10
0.0
 20
0.0
 30
0.0
  3
*D37
  1

  0
TEXT
  5
4CB
330
4C8
100
AcDbEntity
  8
用紙-GR2
  6
Continuous
 62
     6
370
    20
100
AcDbText
 10
258.9211039023824
 20
158.0689058425233
 30
0.0
 40
2.200000047683713
  1
32
 50
90.0
 41
0.9090908893868947
 51
15.0
  7
FX_VECTOR
100
AcDbText
  0
LINE
  5
4CC
330
4C8
100
AcDbEntity
  8
用紙-GR2
  6
Continuous
 62
     6
370
    20
100
AcDbLine
 10
259.4210957288847
 20
148.7534865149549
 30
0.0
 11
259.4210957288847
 21
171.3843210269773
 31
0.0
  0
INSERT
  5
4CD
330
4C8
100
AcDbEntity
  8
用紙-GR2
  6
Continuous
 62
     6
370
    20
100
AcDbBlockReference
  2
FXTIP_ARROW_S
 10
259.4210957288847
 20
148.7534865149549
 30
0.0
 41
3.0
 42
3.0
 50
270.0
  0
INSERT
  5
4CE
330
4C8
100
AcDbEntity
  8
用紙-GR2
  6
Continuous
 62
     6
370
    20
100
AcDbBlockReference
  2
FXTIP_ARROW_E
 10
259.4210957288847
 20
171.3843210269773
 30
0.0
 41
3.0
 42
3.0
 50
90.0
  0
LINE
  5
4CF
330
4C8
100
AcDbEntity
  8
用紙-GR2
  6
Continuous
 62
     6
370
    20
100
AcDbLine
 10
248.0445811582123
 20
148.7534865149549
 30
0.0
 11
260.9210957653049
 21
148.7534865149549
 31
0.0
  0
LINE
  5
4D0
330
4C8
100
AcDbEntity
  8
用紙-GR2
  6
Continuous
 62
     6
370
    20
100
AcDbLine
 10
248.0445811582123
 20
171.3843210269776
 30
0.0
 11
260.9210957653049
 21
171.3843210269773
 31
0.0
  0
ENDBLK
  5
4CA
330
4C8
100
AcDbEntity
  8
0
100
AcDbBlockEnd
  0
BLOCK
  5
4D3
330
4D2
100
AcDbEntity
  8
0
100
AcDbBlockBegin
  2
*D38
 70
     1
 10
0.0
 20
0.0
 30
0.0
  3
*D38
  1

  0
TEXT
  5
4D5
330
4D2
100
AcDbEntity
  8
用紙-GR2
  6
Continuous
 62
     6
370
    20
100
AcDbText
 10
234.4364041297402
 20
140.4138157691324
 30
0.0
 40
2.200000047683713
  1
32
 50
0.0000000099999999
 41
0.9090908893868947
 51
15.0
  7
FX_VECTOR
100
AcDbText
  0
LINE
  5
4D6
330
4D2
100
AcDbEntity
  8
用紙-GR2
  6
Continuous
 62
     6
370
    20
100
AcDbLine
 10
225.1209602004101
 20
139.9137900968532
 30
0.0
 11
247.7517947124328
 21
139.9137900968532
 31
0.0
  0
INSERT
  5
4D7
330
4D2
100
AcDbEntity
  8
用紙-GR2
  6
Continuous
 62
     6
370
    20
100
AcDbBlockReference
  2
FXTIP_ARROW_S
 10
225.1209602004101
 20
139.9137900968532
 30
0.0
 41
3.0
 42
3.0
 50
180.0
  0
INSERT
  5
4D8
330
4D2
100
AcDbEntity
  8
用紙-GR2
  6
Continuous
 62
     6
370
    20
100
AcDbBlockReference
  2
FXTIP_ARROW_E
 10
247.7517947124328
 20
139.9137900968532
 30
0.0
 41
3.0
 42
3.0
 50
360.0
  0
LINE
  5
4D9
330
4D2
100
AcDbEntity
  8
用紙-GR2
  6
Continuous
 62
     6
370
    20
100
AcDbLine
 10
225.1209602004101
 20
148.4607000691753
 30
0.0
 11
225.1209602004101
 21
138.4137900604325
 31
0.0
  0
LINE
  5
4DA
330
4D2
100
AcDbEntity
  8
用紙-GR2
  6
Continuous
 62
     6
370
    20
100
AcDbLine
 10
247.7517947124328
 20
148.4607000691753
 30
0.0
 11
247.7517947124325
 21
138.4137900604325
 31
0.0
  0
ENDBLK
  5
4D4
330
4D2
100
AcDbEntity
  8
0
100
AcDbBlockEnd
  0
BLOCK
  5
4DD
330
4DC
100
AcDbEntity
  8
0
100
AcDbBlockBegin
  2
*D39
 70
     1
 10
0.0
 20
0.0
 30
0.0
  3
*D39
  1

  0
TEXT
  5
4DF
330
4DC
100
AcDbEntity
  8
用紙-GR2
  6
Continuous
 62
     6
370
    20
100
AcDbText
 10
143.2150337618513
 20
158.0689058425233
 30
0.0
 40
2.5
  1
26
 50
90.0
 41
0.8
 51
15.0
  7
FX_VECTOR
100
AcDbText
  0
LINE
  5
4E0
330
4DC
100
AcDbEntity
  8
用紙-GR2
  6
Continuous
 62
     6
370
    20
100
AcDbLine
 10
143.71503757995
 20
150.8751272504577
 30
0.0
 11
143.715037579951
 21
169.2626802914765
 31
0.0
  0
INSERT
  5
4E1
330
4DC
100
AcDbEntity
  8
用紙-GR2
  6
Continuous
 62
     6
370
    20
100
AcDbBlockReference
  2
FXTIP_ARROW_S
 10
143.71503757995
 20
150.8751272504577
 30
0.0
 41
3.0
 42
3.0
 50
270.0
  0
INSERT
  5
4E2
330
4DC
100
AcDbEntity
  8
用紙-GR2
  6
Continuous
 62
     6
370
    20
100
AcDbBlockReference
  2
FXTIP_ARROW_E
 10
143.715037579951
 20
169.2626802914765
 30
0.0
 41
3.0
 42
3.0
 50
90.0
  0
LINE
  5
4E3
330
4DC
100
AcDbEntity
  8
用紙-GR2
  6
Continuous
 62
     6
370
    20
100
AcDbLine
 10
151.8145653066878
 20
150.8751272504573
 30
0.0
 11
142.2150375435298
 21
150.8751272504577
 31
0.0
  0
LINE
  5
4E4
330
4DC
100
AcDbEntity
  8
用紙-GR2
  6
Continuous
 62
     6
370
    20
100
AcDbLine
 10
151.814565306688
 20
169.2626802914761
 30
0.0
 11
142.2150375435306
 21
169.2626802914767
 31
0.0
  0
ENDBLK
  5
4DE
330
4DC
100
AcDbEntity
  8
0
100
AcDbBlockEnd
  0
BLOCK
  5
4E7
330
4E6
100
AcDbEntity
  8
0
100
AcDbBlockBegin
  2
*D40
 70
     1
 10
0.0
 20
0.0
 30
0.0
  3
*D40
  1

  0
TEXT
  5
4E9
330
4E6
100
AcDbEntity
  8
用紙-GR2
  6
Continuous
 62
     6
370
    20
100
AcDbText
 10
161.0691571485204
 20
140.3301837923048
 30
0.0
 40
2.5
  1
26
 50
0.0000000099999999
 41
0.8
 51
15.0
  7
FX_VECTOR
100
AcDbText
  0
LINE
  5
4EA
330
4E6
100
AcDbEntity
  8
用紙-GR2
  6
Continuous
 62
     6
370
    20
100
AcDbLine
 10
153.8753856987193
 20
139.8301764204906
 30
0.0
 11
172.2629387397365
 21
139.8301764204906
 31
0.0
  0
INSERT
  5
4EB
330
4E6
100
AcDbEntity
  8
用紙-GR2
  6
Continuous
 62
     6
370
    20
100
AcDbBlockReference
  2
FXTIP_ARROW_S
 10
153.8753856987193
 20
139.8301764204906
 30
0.0
 41
3.0
 42
3.0
 50
180.0
  0
INSERT
  5
4EC
330
4E6
100
AcDbEntity
  8
用紙-GR2
  6
Continuous
 62
     6
370
    20
100
AcDbBlockReference
  2
FXTIP_ARROW_E
 10
172.2629387397365
 20
139.8301764204906
 30
0.0
 41
3.0
 42
3.0
 50
360.0
  0
LINE
  5
4ED
330
4E6
100
AcDbEntity
  8
用紙-GR2
  6
Continuous
 62
     6
370
    20
100
AcDbLine
 10
153.8753856987193
 20
148.8143068584261
 30
0.0
 11
153.8753856987193
 21
138.33017638407
 31
0.0
  0
LINE
  5
4EE
330
4E6
100
AcDbEntity
  8
用紙-GR2
  6
Continuous
 62
     6
370
    20
100
AcDbLine
 10
172.2629387397365
 20
148.8143068584256
 30
0.0
 11
172.2629387397365
 21
138.33017638407
 31
0.0
  0
ENDBLK
  5
4E8
330
4E6
100
AcDbEntity
  8
0
100
AcDbBlockEnd
  0
BLOCK
  5
4F0
330
4EF
100
AcDbEntity
  8
0
100
AcDbBlockBegin
  2
FXDIM043
 70
     0
 10
0.0
 20
0.0
 30
0.0
  3
FXDIM043
  1

  0
LINE
  5
4F3
330
4EF
100
AcDbEntity
  8
用紙-GR2
  6
Continuous
 62
     6
370
    20
100
AcDbLine
 10
153.8753856987193
 20
170.3235006592275
 30
0.0
 11
150.2305582237364
 21
175.1760411869823
 31
0.0
  0
INSERT
  5
4F4
330
4EF
100
AcDbEntity
  8
用紙-GR2
  6
Continuous
 62
     6
370
    20
100
AcDbBlockReference
  2
FXTIP_ARROW_S
 10
153.8753856987193
 20
170.3235006592275
 30
0.0
 41
3.0
 42
3.0
 50
306.9108488191773
  0
LINE
  5
4F5
330
4EF
100
AcDbEntity
  8
用紙-GR2
  6
Continuous
 62
     6
370
    20
100
AcDbLine
 10
150.2305582237364
 20
175.1760411869823
 30
0.0
 11
138.6293056315434
 21
175.1760411869823
 31
0.0
  0
TEXT
  5
4F6
330
4EF
100
AcDbEntity
  8
用紙-GR2
  6
Continuous
 62
     6
370
    20
100
AcDbText
 10
140.429931208976
 20
175.676035576841
 30
0.0
 40
2.5
  1
4-%%c3
 50
0.0000000100000079
 41
0.8
 51
15.0
  7
FX_VECTOR
100
AcDbText
  0
ENDBLK
  5
4F1
330
4EF
100
AcDbEntity
  8
0
100
AcDbBlockEnd
  0
BLOCK
  5
4FD
330
4FC
100
AcDbEntity
  8
0
100
AcDbBlockBegin
  2
*D42
 70
     1
 10
0.0
 20
0.0
 30
0.0
  3
*D42
  1

  0
TEXT
  5
4FF
330
4FC
100
AcDbEntity
  8
用紙-GR2
  6
Continuous
 62
     6
370
    20
100
AcDbText
 10
182.1667649675124
 20
144.594864258503
 30
0.0
 40
2.5
  1
2.5
 41
0.8
 51
15.0
  7
FX_VECTOR
100
AcDbText
  0
LINE
  5
500
330
4FC
100
AcDbEntity
  8
用紙-GR2
  6
Continuous
 62
     6
370
    20
100
AcDbLine
 10
191.1667524625725
 20
144.0948636089749
 30
0.0
 11
192.9347864088243
 21
144.0948636089749
 31
0.0
  0
LINE
  5
501
330
4FC
100
AcDbEntity
  8
用紙-GR2
  6
Continuous
 62
     6
370
    20
100
AcDbLine
 10
191.1667524625725
 20
147.7534864906744
 30
0.0
 11
191.1667524625725
 21
142.5948635725544
 31
0.0
  0
LINE
  5
502
330
4FC
100
AcDbEntity
  8
用紙-GR2
  6
Continuous
 62
     6
370
    20
100
AcDbLine
 10
192.9347864088243
 20
147.7534864906744
 30
0.0
 11
192.9347864088243
 21
142.5948635725544
 31
0.0
  0
LINE
  5
503
330
4FC
100
AcDbEntity
  8
用紙-GR2
  6
Continuous
 62
     6
370
    20
100
AcDbLine
 10
179.1667521712096
 20
144.0948636089749
 30
0.0
 11
191.1667524625725
 21
144.0948636089749
 31
0.0
  0
INSERT
  5
504
330
4FC
100
AcDbEntity
  8
用紙-GR2
  6
Continuous
 62
     6
370
    20
100
AcDbBlockReference
  2
FXTIP_ARROW_E
 10
191.1667524625725
 20
144.0948636089749
 30
0.0
 41
3.0
 42
3.0
 50
360.0
  0
ENDBLK
  5
4FE
330
4FC
100
AcDbEntity
  8
0
100
AcDbBlockEnd
  0
BLOCK
  5
507
330
506
100
AcDbEntity
  8
0
100
AcDbBlockBegin
  2
*D43
 70
     1
 10
0.0
 20
0.0
 30
0.0
  3
*D43
  1

  0
TEXT
  5
509
330
506
100
AcDbEntity
  8
用紙-GR2
  6
Continuous
 62
     6
370
    20
100
AcDbText
 10
192.1633437182305
 20
139.6106142640282
 30
0.0
 40
2.5
  1
7.5
 41
0.8
 51
15.0
  7
FX_VECTOR
100
AcDbText
  0
LINE
  5
50A
330
506
100
AcDbEntity
  8
用紙-GR2
  6
Continuous
 62
     6
370
    20
100
AcDbLine
 10
192.9347864088243
 20
144.0948636089749
 30
0.0
 11
198.2388882475794
 21
144.0948636089749
 31
0.0
  0
INSERT
  5
50B
330
506
100
AcDbEntity
  8
用紙-GR2
  6
Continuous
 62
     6
370
    20
100
AcDbBlockReference
  2
FXTIP_BLACKDOT_S
 10
192.9347864088243
 20
144.0948636089749
 30
0.0
 50
180.0
  0
LINE
  5
50C
330
506
100
AcDbEntity
  8
用紙-GR2
  6
Continuous
 62
     6
370
    20
100
AcDbLine
 10
198.2388882475794
 20
153.05758832943
 30
0.0
 11
198.2388882475794
 21
142.5948635725544
 31
0.0
  0
ENDBLK
  5
508
330
506
100
AcDbEntity
  8
0
100
AcDbBlockEnd
  0
BLOCK
  5
50F
330
50E
100
AcDbEntity
  8
0
100
AcDbBlockBegin
  2
*D44
 70
     1
 10
0.0
 20
0.0
 30
0.0
  3
*D44
  1

  0
TEXT
  5
511
330
50E
100
AcDbEntity
  8
用紙-GR2
  6
Continuous
 62
     6
370
    20
100
AcDbText
 10
200.709906895056
 20
144.594864258503
 30
0.0
 40
2.5
  1
18.3
 41
0.8
 51
15.0
  7
FX_VECTOR
100
AcDbText
  0
LINE
  5
512
330
50E
100
AcDbEntity
  8
用紙-GR2
  6
Continuous
 62
     6
370
    20
100
AcDbLine
 10
198.2388882475794
 20
144.0948636089749
 30
0.0
 11
211.1808967343784
 21
144.0948636089749
 31
0.0
  0
INSERT
  5
513
330
50E
100
AcDbEntity
  8
用紙-GR2
  6
Continuous
 62
     6
370
    20
100
AcDbBlockReference
  2
FXTIP_ARROW_S
 10
198.2388882475794
 20
144.0948636089749
 30
0.0
 41
3.0
 42
3.0
 50
180.0
  0
INSERT
  5
514
330
50E
100
AcDbEntity
  8
用紙-GR2
  6
Continuous
 62
     6
370
    20
100
AcDbBlockReference
  2
FXTIP_ARROW_E
 10
211.1808967343784
 20
144.0948636089749
 30
0.0
 41
3.0
 42
3.0
 50
360.0
  0
LINE
  5
515
330
50E
100
AcDbEntity
  8
用紙-GR2
  6
Continuous
 62
     6
370
    20
100
AcDbLine
 10
211.1808967343784
 20
154.259851412881
 30
0.0
 11
211.1808967343784
 21
142.5948635725544
 31
0.0
  0
ENDBLK
  5
510
330
50E
100
AcDbEntity
  8
0
100
AcDbBlockEnd
  0
BLOCK
  5
518
330
517
100
AcDbEntity
  8
0
100
AcDbBlockBegin
  2
*D45
 70
     1
 10
0.0
 20
0.0
 30
0.0
  3
*D45
  1

  0
TEXT
  5
51A
330
517
100
AcDbEntity
  8
用紙-GR2
  6
Continuous
 62
     6
370
    20
100
AcDbText
 10
197.1738390025526
 20
135.793283940036
 30
0.0
 40
2.5
  1
28.3
 41
0.8
 51
15.0
  7
FX_VECTOR
100
AcDbText
  0
LINE
  5
51B
330
517
100
AcDbEntity
  8
用紙-GR2
  6
Continuous
 62
     6
370
    20
100
AcDbLine
 10
191.1667524625725
 20
135.2932841044574
 30
0.0
 11
211.1808967343784
 21
135.2932841044574
 31
0.0
  0
INSERT
  5
51C
330
517
100
AcDbEntity
  8
用紙-GR2
  6
Continuous
 62
     6
370
    20
100
AcDbBlockReference
  2
FXTIP_ARROW_S
 10
191.1667524625725
 20
135.2932841044574
 30
0.0
 41
3.0
 42
3.0
 50
180.0
  0
INSERT
  5
51D
330
517
100
AcDbEntity
  8
用紙-GR2
  6
Continuous
 62
     6
370
    20
100
AcDbBlockReference
  2
FXTIP_ARROW_E
 10
211.1808967343784
 20
135.2932841044574
 30
0.0
 41
3.0
 42
3.0
 50
360.0
  0
LINE
  5
51E
330
517
100
AcDbEntity
  8
用紙-GR2
  6
Continuous
 62
     6
370
    20
100
AcDbLine
 10
191.1667524625725
 20
147.7534864906744
 30
0.0
 11
191.1667524625725
 21
133.7932840680369
 31
0.0
  0
LINE
  5
51F
330
517
100
AcDbEntity
  8
用紙-GR2
  6
Continuous
 62
     6
370
    20
100
AcDbLine
 10
211.1808967343784
 20
154.259851412881
 30
0.0
 11
211.1808967343784
 21
133.7932840680369
 31
0.0
  0
TEXT
  5
520
330
517
100
AcDbEntity
  8
用紙-GR2
  6
Continuous
 62
     6
370
    20
100
AcDbText
 10
195.1738338227657
 20
135.793283940036
 30
0.0
 40
2.5
  1
(
 41
0.8
 51
15.0
  7
FX_VECTOR
100
AcDbText
  0
TEXT
  5
521
330
517
100
AcDbEntity
  8
用紙-GR2
  6
Continuous
 62
     6
370
    20
100
AcDbText
 10
205.1738441823395
 20
135.793283940036
 30
0.0
 40
2.5
  1
)
 41
0.8
 51
15.0
  7
FX_VECTOR
100
AcDbText
  0
ENDBLK
  5
519
330
517
100
AcDbEntity
  8
0
100
AcDbBlockEnd
  0
BLOCK
  5
639
330
638
100
AcDbEntity
  8
0
100
AcDbBlockBegin
  2
*D46
 70
     1
 10
0.0
 20
0.0
 30
0.0
  3
*D46
  1

  0
LINE
  5
76F
330
638
100
AcDbEntity
  8
用紙-GR2
 62
     6
370
    -2
100
AcDbLine
 10
109.4583449599231
 20
108.6016502776844
 30
0.0
 11
109.4583449599231
 21
129.5534658991401
 31
0.0
  0
LINE
  5
770
330
638
100
AcDbEntity
  8
用紙-GR2
 62
     6
370
    -2
100
AcDbLine
 10
204.4583449599233
 20
120.3504973748745
 30
0.0
 11
204.4583449599233
 21
129.5534658991401
 31
0.0
  0
LINE
  5
771
330
638
100
AcDbEntity
  8
用紙-GR2
 62
     6
370
    -2
100
AcDbLine
 10
112.4583449599231
 20
128.0534658991401
 30
0.0
 11
201.4583449599233
 21
128.0534658991401
 31
0.0
  0
INSERT
  5
772
330
638
100
AcDbEntity
  8
用紙-GR2
 62
     6
370
    -2
100
AcDbBlockReference
  2
FXTIP_ARROW_S
 10
109.4583449599231
 20
128.0534658991401
 30
0.0
 41
3.0
 42
3.0
 43
3.0
 50
180.0
  0
INSERT
  5
773
330
638
100
AcDbEntity
  8
用紙-GR2
 62
     6
370
    -2
100
AcDbBlockReference
  2
FXTIP_ARROW_E
 10
204.4583449599233
 20
128.0534658991401
 30
0.0
 41
3.0
 42
3.0
 43
3.0
  0
MTEXT
  5
774
330
638
100
AcDbEntity
  8
用紙-GR2
 62
     6
100
AcDbMText
 10
156.9583449599232
 20
130.3034658991401
 30
0.0
 40
3.5
 41
0.0
 71
     5
 72
     1
  1
\A1;95
  7
STYLE003
 73
     1
 44
1.0
  0
POINT
  5
775
330
638
100
AcDbEntity
  8
Defpoints
 62
     0
100
AcDbPoint
 10
109.4583449599231
 20
107.6016502776844
 30
0.0
  0
POINT
  5
776
330
638
100
AcDbEntity
  8
Defpoints
 62
     0
100
AcDbPoint
 10
204.4583449599233
 20
119.3504973748745
 30
0.0
  0
POINT
  5
777
330
638
100
AcDbEntity
  8
Defpoints
 62
     0
100
AcDbPoint
 10
204.4583449599233
 20
128.0534658991401
 30
0.0
  0
ENDBLK
  5
63A
330
638
100
AcDbEntity
  8
0
100
AcDbBlockEnd
  0
BLOCK
  5
643
330
642
100
AcDbEntity
  8
0
100
AcDbBlockBegin
  2
*D47
 70
     1
 10
0.0
 20
0.0
 30
0.0
  3
*D47
  1

  0
LINE
  5
7A5
330
642
100
AcDbEntity
  8
用紙-GR2
 62
     6
370
    -2
100
AcDbLine
 10
343.9211329904128
 20
85.35049737487417
 30
0.0
 11
358.8945944140234
 21
85.35049737487415
 31
0.0
  0
LINE
  5
7A6
330
642
100
AcDbEntity
  8
用紙-GR2
 62
     6
370
    -2
100
AcDbLine
 10
343.921132990413
 20
120.350497374874
 30
0.0
 11
358.8945944140234
 21
120.3504973748739
 31
0.0
  0
LINE
  5
7A7
330
642
100
AcDbEntity
  8
用紙-GR2
 62
     6
370
    -2
100
AcDbLine
 10
357.3945944140234
 20
88.35049737487414
 30
0.0
 11
357.3945944140234
 21
117.3504973748739
 31
0.0
  0
INSERT
  5
7A8
330
642
100
AcDbEntity
  8
用紙-GR2
 62
     6
370
    -2
100
AcDbBlockReference
  2
FXTIP_ARROW_S
 10
357.3945944140234
 20
85.35049737487415
 30
0.0
 41
3.0
 42
3.0
 43
3.0
 50
270.0
  0
INSERT
  5
7A9
330
642
100
AcDbEntity
  8
用紙-GR2
 62
     6
370
    -2
100
AcDbBlockReference
  2
FXTIP_ARROW_E
 10
357.3945944140234
 20
120.3504973748739
 30
0.0
 41
3.0
 42
3.0
 43
3.0
 50
90.0
  0
MTEXT
  5
7AA
330
642
100
AcDbEntity
  8
用紙-GR2
 62
     6
100
AcDbMText
 10
355.1445944140234
 20
102.8504973748741
 30
0.0
 40
3.5
 41
0.0
 71
     5
 72
     1
  1
\A1;35
  7
STYLE003
 11
0.0000000000000001
 21
1.0
 31
0.0
 73
     1
 44
1.0
  0
POINT
  5
7AB
330
642
100
AcDbEntity
  8
Defpoints
 62
     0
100
AcDbPoint
 10
342.9211329904128
 20
85.35049737487417
 30
0.0
  0
POINT
  5
7AC
330
642
100
AcDbEntity
  8
Defpoints
 62
     0
100
AcDbPoint
 10
342.921132990413
 20
120.350497374874
 30
0.0
  0
POINT
  5
7AD
330
642
100
AcDbEntity
  8
Defpoints
 62
     0
100
AcDbPoint
 10
357.3945944140234
 20
120.3504973748739
 30
0.0
  0
ENDBLK
  5
644
330
642
100
AcDbEntity
  8
0
100
AcDbBlockEnd
  0
BLOCK
  5
64D
330
64C
100
AcDbEntity
  8
0
100
AcDbBlockBegin
  2
*D48
 70
     1
 10
0.0
 20
0.0
 30
0.0
  3
*D48
  1

  0
LINE
  5
778
330
64C
100
AcDbEntity
  8
用紙-GR2
 62
     6
370
    -2
100
AcDbLine
 10
308.9211329904128
 20
85.35049737487415
 30
0.0
 11
308.9211329904128
 21
72.83581275954523
 31
0.0
  0
LINE
  5
779
330
64C
100
AcDbEntity
  8
用紙-GR2
 62
     6
370
    -2
100
AcDbLine
 10
343.9211329904127
 20
85.35049737487415
 30
0.0
 11
343.9211329904127
 21
72.83581275954523
 31
0.0
  0
LINE
  5
77A
330
64C
100
AcDbEntity
  8
用紙-GR2
 62
     6
370
    -2
100
AcDbLine
 10
311.9211329904128
 20
74.33581275954523
 30
0.0
 11
340.9211329904127
 21
74.33581275954523
 31
0.0
  0
INSERT
  5
77B
330
64C
100
AcDbEntity
  8
用紙-GR2
 62
     6
370
    -2
100
AcDbBlockReference
  2
FXTIP_ARROW_S
 10
308.9211329904128
 20
74.33581275954523
 30
0.0
 41
3.0
 42
3.0
 43
3.0
 50
180.0
  0
INSERT
  5
77C
330
64C
100
AcDbEntity
  8
用紙-GR2
 62
     6
370
    -2
100
AcDbBlockReference
  2
FXTIP_ARROW_E
 10
343.9211329904127
 20
74.33581275954523
 30
0.0
 41
3.0
 42
3.0
 43
3.0
  0
MTEXT
  5
77D
330
64C
100
AcDbEntity
  8
用紙-GR2
 62
     6
100
AcDbMText
 10
326.4211329904127
 20
76.58581275954523
 30
0.0
 40
3.5
 41
0.0
 71
     5
 72
     1
  1
\A1;35
  7
STYLE003
 73
     1
 44
1.0
  0
POINT
  5
77E
330
64C
100
AcDbEntity
  8
Defpoints
 62
     0
100
AcDbPoint
 10
308.9211329904128
 20
86.35049737487415
 30
0.0
  0
POINT
  5
77F
330
64C
100
AcDbEntity
  8
Defpoints
 62
     0
100
AcDbPoint
 10
343.9211329904127
 20
86.35049737487415
 30
0.0
  0
POINT
  5
780
330
64C
100
AcDbEntity
  8
Defpoints
 62
     0
100
AcDbPoint
 10
343.9211329904127
 20
74.33581275954523
 30
0.0
  0
ENDBLK
  5
64E
330
64C
100
AcDbEntity
  8
0
100
AcDbBlockEnd
  0
BLOCK
  5
656
330
655
100
AcDbEntity
  8
0
100
AcDbBlockBegin
  2
FXDIM051
 70
     0
 10
0.0
 20
0.0
 30
0.0
  3
FXDIM051
  1

  0
LINE
  5
659
330
655
100
AcDbEntity
  8
用紙-GR2
  6
Continuous
 62
     6
370
    20
100
AcDbLine
 10
50.85700261102017
 20
100.7039456865179
 30
0.0
 11
48.79604525152618
 21
84.41256846385122
 31
0.0
  0
INSERT
  5
65A
330
655
100
AcDbEntity
  8
用紙-GR2
  6
Continuous
 62
     6
370
    20
100
AcDbBlockReference
  2
FXTIP_BLACKDOT_S
 10
50.85700261102017
 20
100.7039456865179
 30
0.0
 50
82.79003815438413
  0
LINE
  5
65B
330
655
100
AcDbEntity
  8
用紙-GR2
  6
Continuous
 62
     6
370
    20
100
AcDbLine
 10
48.79604525152618
 20
84.41256846385122
 30
0.0
 11
38.42247930641128
 21
84.41256846385122
 31
0.0
  0
TEXT
  5
65C
330
655
100
AcDbEntity
  8
用紙-GR2
  6
Continuous
 62
     6
370
    20
100
AcDbText
 10
40.60926033246635
 20
84.91256584320153
 30
0.0
 40
2.5
  1
排気口
 50
0.0000000100000079
 41
0.8
  7
FX_VECTOR
100
AcDbText
  0
ENDBLK
  5
657
330
655
100
AcDbEntity
  8
0
100
AcDbBlockEnd
  0
BLOCK
  5
65E
330
65D
100
AcDbEntity
  8
0
100
AcDbBlockBegin
  2
FXDIM052
 70
     0
 10
0.0
 20
0.0
 30
0.0
  3
FXDIM052
  1

  0
LINE
  5
661
330
65D
100
AcDbEntity
  8
用紙-GR2
  6
Continuous
 62
     6
370
    20
100
AcDbLine
 10
89.61868485401081
 20
102.0790829723003
 30
0.0
 11
87.39588072449391
 21
84.21726407439676
 31
0.0
  0
INSERT
  5
662
330
65D
100
AcDbEntity
  8
用紙-GR2
  6
Continuous
 62
     6
370
    20
100
AcDbBlockReference
  2
FXTIP_BLACKDOT_S
 10
89.61868485401081
 20
102.0790829723003
 30
0.0
 50
82.90632707221289
  0
LINE
  5
663
330
65D
100
AcDbEntity
  8
用紙-GR2
  6
Continuous
 62
     6
370
    20
100
AcDbLine
 10
87.39588072449391
 20
84.21726407439676
 30
0.0
 11
59.62806929303864
 21
84.21726407439676
 31
0.0
  0
TEXT
  5
664
330
65D
100
AcDbEntity
  8
用紙-GR2
  6
Continuous
 62
     6
370
    20
100
AcDbText
 10
62.51196807041194
 20
84.71726629127266
 30
0.0
 40
2.5
  1
電源ケーブル/コネクタ
 50
0.0000000100000079
 41
0.8
  7
FX_VECTOR
100
AcDbText
  0
ENDBLK
  5
65F
330
65D
100
AcDbEntity
  8
0
100
AcDbBlockEnd
  0
BLOCK
  5
667
330
666
100
AcDbEntity
  8
0
100
AcDbBlockBegin
  2
*D51
 70
     1
 10
0.0
 20
0.0
 30
0.0
  3
*D51
  1

  0
LINE
  5
781
330
666
100
AcDbEntity
  8
用紙-GR2
 62
     6
370
    -2
100
AcDbLine
 10
246.4583449599232
 20
39.68232629152653
 30
0.0
 11
236.4338725517746
 21
39.68232629152653
 31
0.0
  0
LINE
  5
782
330
666
100
AcDbEntity
  8
用紙-GR2
 62
     6
370
    -2
100
AcDbLine
 10
246.4583449599232
 20
59.68232629152651
 30
0.0
 11
236.4338725517746
 21
59.68232629152652
 31
0.0
  0
LINE
  5
783
330
666
100
AcDbEntity
  8
用紙-GR2
 62
     6
370
    -2
100
AcDbLine
 10
237.9338725517746
 20
42.68232629152653
 30
0.0
 11
237.9338725517746
 21
56.68232629152651
 31
0.0
  0
INSERT
  5
784
330
666
100
AcDbEntity
  8
用紙-GR2
 62
     6
370
    -2
100
AcDbBlockReference
  2
FXTIP_ARROW_S
 10
237.9338725517746
 20
39.68232629152653
 30
0.0
 41
3.0
 42
3.0
 43
3.0
 50
270.0
  0
INSERT
  5
785
330
666
100
AcDbEntity
  8
用紙-GR2
 62
     6
370
    -2
100
AcDbBlockReference
  2
FXTIP_ARROW_E
 10
237.9338725517746
 20
59.68232629152652
 30
0.0
 41
3.0
 42
3.0
 43
3.0
 50
90.0
  0
MTEXT
  5
786
330
666
100
AcDbEntity
  8
用紙-GR2
 62
     6
100
AcDbMText
 10
235.6838725517746
 20
49.68232629152656
 30
0.0
 40
3.5
 41
0.0
 71
     5
 72
     1
  1
\A1;20
  7
STYLE003
 11
0.0000000000000001
 21
1.0
 31
0.0
 73
     1
 44
1.0
  0
POINT
  5
787
330
666
100
AcDbEntity
  8
Defpoints
 62
     0
100
AcDbPoint
 10
247.4583449599232
 20
39.68232629152653
 30
0.0
  0
POINT
  5
788
330
666
100
AcDbEntity
  8
Defpoints
 62
     0
100
AcDbPoint
 10
247.4583449599232
 20
59.68232629152651
 30
0.0
  0
POINT
  5
789
330
666
100
AcDbEntity
  8
Defpoints
 62
     0
100
AcDbPoint
 10
237.9338725517746
 20
59.68232629152652
 30
0.0
  0
ENDBLK
  5
668
330
666
100
AcDbEntity
  8
0
100
AcDbBlockEnd
  0
BLOCK
  5
670
330
66F
100
AcDbEntity
  8
0
100
AcDbBlockBegin
  2
FXDIM054
 70
     0
 10
0.0
 20
0.0
 30
0.0
  3
FXDIM054
  1

  0
LINE
  5
673
330
66F
100
AcDbEntity
  8
用紙-GR2
  6
Continuous
 62
     6
370
    20
100
AcDbLine
 10
184.7389895758988
 20
98.50159932049812
 30
0.0
 11
186.853310253902
 21
85.13016089251626
 31
0.0
  0
INSERT
  5
674
330
66F
100
AcDbEntity
  8
用紙-GR2
  6
Continuous
 62
     6
370
    20
100
AcDbBlockReference
  2
FXTIP_BLACKDOT_S
 10
184.7389895758988
 20
98.50159932049812
 30
0.0
 50
98.98533939812937
  0
LINE
  5
675
330
66F
100
AcDbEntity
  8
用紙-GR2
  6
Continuous
 62
     6
370
    20
100
AcDbLine
 10
186.853310253902
 20
85.13016089251626
 30
0.0
 11
198.3442581629953
 21
85.13016089251626
 31
0.0
  0
TEXT
  5
676
330
66F
100
AcDbEntity
  8
用紙-GR2
  6
Continuous
 62
     6
370
    20
100
AcDbText
 10
189.5987664510034
 20
85.6301551824403
 30
0.0
 40
2.5
  1
排気口
 50
0.0000000099999999
 41
0.8
  7
FX_VECTOR
100
AcDbText
  0
ENDBLK
  5
671
330
66F
100
AcDbEntity
  8
0
100
AcDbBlockEnd
  0
BLOCK
  5
67A
330
679
100
AcDbEntity
  8
0
100
AcDbBlockBegin
  2
FXDIM055
 70
     0
 10
0.0
 20
0.0
 30
0.0
  3
FXDIM055
  1

  0
LINE
  5
67D
330
679
100
AcDbEntity
  8
用紙-GR2
  6
Continuous
 62
     6
370
    20
100
AcDbLine
 10
182.8996440833726
 20
75.76060867457572
 30
0.0
 11
175.3309368510221
 21
85.02824210565291
 31
0.0
  0
INSERT
  5
67E
330
679
100
AcDbEntity
  8
用紙-GR2
  6
Continuous
 62
     6
370
    20
100
AcDbBlockReference
  2
FXTIP_ARROW_S
 10
182.8996440833726
 20
75.76060867457572
 30
0.0
 41
3.0
 42
3.0
 50
309.2378860821723
  0
LINE
  5
67F
330
679
100
AcDbEntity
  8
用紙-GR2
  6
Continuous
 62
     6
370
    20
100
AcDbLine
 10
175.3309368510221
 20
85.02824210565291
 30
0.0
 11
147.973926984102
 21
85.02824210565291
 31
0.0
  0
TEXT
  5
680
330
679
100
AcDbEntity
  8
用紙-GR2
  6
Continuous
 62
     6
370
    20
100
AcDbText
 10
149.6524314610589
 20
85.52824287468506
 30
0.0
 40
2.5
  1
2-M4深さ4（固定用）
 41
0.8
  7
FX_VECTOR
100
AcDbText
  0
ENDBLK
  5
67B
330
679
100
AcDbEntity
  8
0
100
AcDbBlockEnd
  0
BLOCK
  5
682
330
681
100
AcDbEntity
  8
0
100
AcDbBlockBegin
  2
FXDIM056
 70
     0
 10
0.0
 20
0.0
 30
0.0
  3
FXDIM056
  1

  0
LINE
  5
685
330
681
100
AcDbEntity
  8
用紙-GR2
  6
Continuous
 62
     6
370
    20
100
AcDbLine
 10
238.3111768155284
 20
104.275375567907
 30
0.0
 11
253.9251931775721
 21
84.63193562856154
 31
0.0
  0
INSERT
  5
686
330
681
100
AcDbEntity
  8
用紙-GR2
  6
Continuous
 62
     6
370
    20
100
AcDbBlockReference
  2
FXTIP_BLACKDOT_S
 10
238.3111768155284
 20
104.275375567907
 30
0.0
 50
128.4801982483429
  0
LINE
  5
687
330
681
100
AcDbEntity
  8
用紙-GR2
  6
Continuous
 62
     6
370
    20
100
AcDbLine
 10
253.9251931775721
 20
84.63193562856154
 30
0.0
 11
265.1949872453377
 21
84.63193562856154
 31
0.0
  0
TEXT
  5
688
330
681
100
AcDbEntity
  8
用紙-GR2
  6
Continuous
 62
     6
370
    20
100
AcDbText
 10
255.5600953702373
 20
85.13193521605177
 30
0.0
 40
2.5
  1
光出射口
 50
0.0000000099999999
 41
0.8
  7
FX_VECTOR
100
AcDbText
  0
ENDBLK
  5
683
330
681
100
AcDbEntity
  8
0
100
AcDbBlockEnd
  0
BLOCK
  5
69A
330
699
100
AcDbEntity
  8
0
100
AcDbBlockBegin
  2
*D55
 70
     1
 10
0.0
 20
0.0
 30
0.0
  3
*D55
  1

  0
LINE
  5
79C
330
699
100
AcDbEntity
  8
用紙-GR2
 62
     6
370
    -2
100
AcDbLine
 10
204.4583449599233
 20
120.3504973748745
 30
0.0
 11
204.4583449599233
 21
129.5534658991401
 31
0.0
  0
LINE
  5
79D
330
699
100
AcDbEntity
  8
用紙-GR2
 62
     6
370
    -2
100
AcDbLine
 10
288.7583449602566
 20
110.6504973748743
 30
0.0
 11
288.7583449602566
 21
129.5534658991401
 31
0.0
  0
LINE
  5
79E
330
699
100
AcDbEntity
  8
用紙-GR2
 62
     6
370
    -2
100
AcDbLine
 10
207.4583449599233
 20
128.0534658991401
 30
0.0
 11
285.7583449602566
 21
128.0534658991401
 31
0.0
  0
INSERT
  5
79F
330
699
100
AcDbEntity
  8
用紙-GR2
 62
     6
370
    -2
100
AcDbBlockReference
  2
FXTIP_ARROW_S
 10
204.4583449599233
 20
128.0534658991401
 30
0.0
 41
3.0
 42
3.0
 43
3.0
 50
180.0
  0
INSERT
  5
7A0
330
699
100
AcDbEntity
  8
用紙-GR2
 62
     6
370
    -2
100
AcDbBlockReference
  2
FXTIP_ARROW_E
 10
288.7583449602566
 20
128.0534658991401
 30
0.0
 41
3.0
 42
3.0
 43
3.0
  0
MTEXT
  5
7A1
330
699
100
AcDbEntity
  8
用紙-GR2
 62
     6
100
AcDbMText
 10
246.6083449600899
 20
130.3034658991401
 30
0.0
 40
3.5
 41
0.0
 71
     5
 72
     1
  1
\A1;84.3
  7
STYLE003
 73
     1
 44
1.0
  0
POINT
  5
7A2
330
699
100
AcDbEntity
  8
Defpoints
 62
     0
100
AcDbPoint
 10
204.4583449599233
 20
119.3504973748745
 30
0.0
  0
POINT
  5
7A3
330
699
100
AcDbEntity
  8
Defpoints
 62
     0
100
AcDbPoint
 10
288.7583449602566
 20
109.6504973748743
 30
0.0
  0
POINT
  5
7A4
330
699
100
AcDbEntity
  8
Defpoints
 62
     0
100
AcDbPoint
 10
288.7583449602566
 20
128.0534658991401
 30
0.0
  0
ENDBLK
  5
69B
330
699
100
AcDbEntity
  8
0
100
AcDbBlockEnd
  0
BLOCK
  5
6F5
330
6F4
100
AcDbEntity
  8
0
100
AcDbBlockBegin
  2
*D56
 70
     1
 10
0.0
 20
0.0
 30
0.0
  3
*D56
  1

  0
TEXT
  5
6F7
330
6F4
100
AcDbEntity
  8
用紙-GR2
  6
Continuous
 62
     6
370
    20
100
AcDbText
 10
218.5659880685334
 20
159.5689073964595
 30
0.0
 40
2.200000047683713
  1
14
 50
90.0
 41
0.9090908893868947
 51
15.0
  7
FX_VECTOR
100
AcDbText
  0
LINE
  5
6F8
330
6F4
100
AcDbEntity
  8
用紙-GR2
  6
Continuous
 62
     6
370
    20
100
AcDbLine
 10
219.0659947726913
 20
155.1184087214613
 30
0.0
 11
219.0659947726913
 21
165.0193988204712
 31
0.0
  0
INSERT
  5
6F9
330
6F4
100
AcDbEntity
  8
用紙-GR2
  6
Continuous
 62
     6
370
    20
100
AcDbBlockReference
  2
FXTIP_ARROW_S
 10
219.0659947726913
 20
155.1184087214613
 30
0.0
 41
3.0
 42
3.0
 50
270.0
  0
INSERT
  5
6FA
330
6F4
100
AcDbEntity
  8
用紙-GR2
  6
Continuous
 62
     6
370
    20
100
AcDbBlockReference
  2
FXTIP_ARROW_E
 10
219.0659947726913
 20
165.0193988204712
 30
0.0
 41
3.0
 42
3.0
 50
90.0
  0
LINE
  5
6FB
330
6F4
100
AcDbEntity
  8
用紙-GR2
  6
Continuous
 62
     6
370
    20
100
AcDbLine
 10
212.0394540429584
 20
155.1184087214613
 30
0.0
 11
220.5659948091116
 21
155.1184087214613
 31
0.0
  0
LINE
  5
6FC
330
6F4
100
AcDbEntity
  8
用紙-GR2
  6
Continuous
 62
     6
370
    20
100
AcDbLine
 10
212.0394540429584
 20
165.0193988204712
 30
0.0
 11
220.5659948091116
 21
165.0193988204712
 31
0.0
  0
TEXT
  5
6FD
330
6F4
100
AcDbEntity
  8
用紙-GR2
  6
Continuous
 62
     6
370
    20
100
AcDbText
 10
218.5659880685334
 20
157.5689042885873
 30
0.0
 40
2.200000047683713
  1
%%c
 50
90.0
 41
0.9090908893868947
 51
15.0
  7
FX_VECTOR
100
AcDbText
  0
ENDBLK
  5
6F6
330
6F4
100
AcDbEntity
  8
0
100
AcDbBlockEnd
  0
BLOCK
  5
700
330
6FF
100
AcDbEntity
  8
0
100
AcDbBlockBegin
  2
*D57
 70
     1
 10
0.0
 20
0.0
 30
0.0
  3
*D57
  1

  0
LINE
  5
793
330
6FF
100
AcDbEntity
  8
用紙-GR2
 62
     6
370
    -2
100
AcDbLine
 10
250.4583449599235
 20
35.68232629152655
 30
0.0
 11
250.4583449599235
 21
22.98076691528686
 31
0.0
  0
LINE
  5
794
330
6FF
100
AcDbEntity
  8
用紙-GR2
 62
     6
370
    -2
100
AcDbLine
 10
260.4583449599238
 20
32.18232629152605
 30
0.0
 11
260.4583449599238
 21
22.98076691528686
 31
0.0
  0
LINE
  5
795
330
6FF
100
AcDbEntity
  8
用紙-GR2
 62
     6
370
    -2
100
AcDbLine
 10
253.4583449599235
 20
24.48076691528686
 30
0.0
 11
257.4583449599237
 21
24.48076691528686
 31
0.0
  0
INSERT
  5
796
330
6FF
100
AcDbEntity
  8
用紙-GR2
 62
     6
370
    -2
100
AcDbBlockReference
  2
FXTIP_ARROW_S
 10
250.4583449599235
 20
24.48076691528686
 30
0.0
 41
3.0
 42
3.0
 43
3.0
 50
180.0
  0
INSERT
  5
797
330
6FF
100
AcDbEntity
  8
用紙-GR2
 62
     6
370
    -2
100
AcDbBlockReference
  2
FXTIP_ARROW_E
 10
260.4583449599238
 20
24.48076691528686
 30
0.0
 41
3.0
 42
3.0
 43
3.0
  0
MTEXT
  5
798
330
6FF
100
AcDbEntity
  8
用紙-GR2
 62
     6
100
AcDbMText
 10
255.4583449599236
 20
26.73076691528686
 30
0.0
 40
3.5
 41
0.0
 71
     5
 72
     1
  1
\A1;10
  7
STYLE003
 73
     1
 44
1.0
  0
POINT
  5
799
330
6FF
100
AcDbEntity
  8
Defpoints
 62
     0
100
AcDbPoint
 10
250.4583449599235
 20
36.68232629152655
 30
0.0
  0
POINT
  5
79A
330
6FF
100
AcDbEntity
  8
Defpoints
 62
     0
100
AcDbPoint
 10
260.4583449599238
 20
33.18232629152606
 30
0.0
  0
POINT
  5
79B
330
6FF
100
AcDbEntity
  8
Defpoints
 62
     0
100
AcDbPoint
 10
260.4583449599238
 20
24.48076691528686
 30
0.0
  0
ENDBLK
  5
701
330
6FF
100
AcDbEntity
  8
0
100
AcDbBlockEnd
  0
BLOCK
  5
70A
330
709
100
AcDbEntity
  8
0
100
AcDbBlockBegin
  2
*D58
 70
     1
 10
0.0
 20
0.0
 30
0.0
  3
*D58
  1

  0
LINE
  5
78A
330
709
100
AcDbEntity
  8
用紙-GR2
 62
     6
370
    -2
100
AcDbLine
 10
260.4583449599238
 20
32.18232629152605
 30
0.0
 11
260.4583449599238
 21
22.98076691528686
 31
0.0
  0
LINE
  5
78B
330
709
100
AcDbEntity
  8
用紙-GR2
 62
     6
370
    -2
100
AcDbLine
 10
288.7583449602566
 20
41.88232629152657
 30
0.0
 11
288.7583449602566
 21
22.98076691528686
 31
0.0
  0
LINE
  5
78C
330
709
100
AcDbEntity
  8
用紙-GR2
 62
     6
370
    -2
100
AcDbLine
 10
263.4583449599237
 20
24.48076691528686
 30
0.0
 11
285.7583449602566
 21
24.48076691528686
 31
0.0
  0
INSERT
  5
78D
330
709
100
AcDbEntity
  8
用紙-GR2
 62
     6
370
    -2
100
AcDbBlockReference
  2
FXTIP_ARROW_S
 10
260.4583449599238
 20
24.48076691528686
 30
0.0
 41
3.0
 42
3.0
 43
3.0
 50
180.0
  0
INSERT
  5
78E
330
709
100
AcDbEntity
  8
用紙-GR2
 62
     6
370
    -2
100
AcDbBlockReference
  2
FXTIP_ARROW_E
 10
288.7583449602566
 20
24.48076691528686
 30
0.0
 41
3.0
 42
3.0
 43
3.0
  0
MTEXT
  5
78F
330
709
100
AcDbEntity
  8
用紙-GR2
 62
     6
100
AcDbMText
 10
274.6083449600902
 20
26.73076691528686
 30
0.0
 40
3.5
 41
0.0
 71
     5
 72
     1
  1
\A1;28.3
  7
STYLE003
 73
     1
 44
1.0
  0
POINT
  5
790
330
709
100
AcDbEntity
  8
Defpoints
 62
     0
100
AcDbPoint
 10
260.4583449599238
 20
33.18232629152606
 30
0.0
  0
POINT
  5
791
330
709
100
AcDbEntity
  8
Defpoints
 62
     0
100
AcDbPoint
 10
288.7583449602566
 20
42.88232629152656
 30
0.0
  0
POINT
  5
792
330
709
100
AcDbEntity
  8
Defpoints
 62
     0
100
AcDbPoint
 10
288.7583449602566
 20
24.48076691528686
 30
0.0
  0
ENDBLK
  5
70B
330
709
100
AcDbEntity
  8
0
100
AcDbBlockEnd
  0
ENDSEC
  0
SECTION
  2
ENTITIES
  0
LINE
  5
522
330
1F
100
AcDbEntity
  8
用紙-GR2
  6
Continuous
 62
     7
370
    20
100
AcDbLine
 10
260.4583449599235
 20
86.35049737487415
 30
0.0
 11
260.4583449599231
 21
119.350497374874
 31
0.0
  0
ARC
  5
523
330
1F
100
AcDbEntity
  8
用紙-GR2
  6
Continuous
 62
     7
370
    20
100
AcDbCircle
 10
259.4583449599235
 20
86.35049737487415
 30
0.0
 40
1.0
100
AcDbArc
 50
270.0
 51
0.0
  0
LINE
  5
524
330
1F
100
AcDbEntity
  8
用紙-GR2
  6
Continuous
 62
     7
370
    20
100
AcDbLine
 10
208.4583449599235
 20
85.35049737487439
 30
0.0
 11
259.4583449599235
 21
85.35049737487417
 31
0.0
  0
LINE
  5
525
330
1F
100
AcDbEntity
  8
用紙-GR2
  6
Continuous
 62
     7
370
    20
100
AcDbLine
 10
248.4583449599234
 20
89.35049737487418
 30
0.0
 11
253.4583449599241
 21
89.35049737487418
 31
0.0
  0
ARC
  5
526
330
1F
100
AcDbEntity
  8
用紙-GR2
  6
Continuous
 62
     7
370
    20
100
AcDbCircle
 10
253.4583449599241
 20
90.35049737487417
 30
0.0
 40
1.0
100
AcDbArc
 50
270.0
 51
0.0
  0
LINE
  5
527
330
1F
100
AcDbEntity
  8
用紙-GR2
  6
Continuous
 62
     7
370
    20
100
AcDbLine
 10
208.4583449599232
 20
120.350497374874
 30
0.0
 11
259.4583449599231
 21
120.350497374874
 31
0.0
  0
ARC
  5
528
330
1F
100
AcDbEntity
  8
用紙-GR2
  6
Continuous
 62
     7
370
    20
100
AcDbCircle
 10
259.4583449599231
 20
119.350497374874
 30
0.0
 40
1.0
100
AcDbArc
 50
0.0
 51
90.0
  0
LINE
  5
529
330
1F
100
AcDbEntity
  8
用紙-GR2
  6
Continuous
 62
     7
370
    20
100
AcDbLine
 10
248.4583449599234
 20
116.350497374874
 30
0.0
 11
253.4583449599241
 21
116.350497374874
 31
0.0
  0
ARC
  5
52A
330
1F
100
AcDbEntity
  8
用紙-GR2
  6
Continuous
 62
     7
370
    20
100
AcDbCircle
 10
248.4583449599234
 20
115.3504973748741
 30
0.0
 40
1.0
100
AcDbArc
 50
90.0
 51
180.0
  0
LINE
  5
52B
330
1F
100
AcDbEntity
  8
用紙-GR2
  6
Continuous
 62
     7
370
    20
100
AcDbLine
 10
208.4583449599235
 20
85.35049737487439
 30
0.0
 11
208.4583449599235
 21
120.350497374874
 31
0.0
  0
LINE
  5
52C
330
1F
100
AcDbEntity
  8
用紙-GR2
  6
DASHDOT
 62
     6
370
    20
100
AcDbLine
 10
291.4860210949987
 20
102.8504973748746
 30
0.0
 11
105.1434431599259
 21
102.8504973748746
 31
0.0
  0
LINE
  5
52D
330
1F
100
AcDbEntity
  8
用紙-GR2
  6
Continuous
 62
     7
370
    20
100
AcDbLine
 10
254.4583449599239
 20
115.3504973748741
 30
0.0
 11
254.4583449599239
 21
90.35049737487417
 31
0.0
  0
ARC
  5
52E
330
1F
100
AcDbEntity
  8
用紙-GR2
  6
Continuous
 62
     7
370
    20
100
AcDbCircle
 10
253.4583449599241
 20
115.3504973748741
 30
0.0
 40
1.0
100
AcDbArc
 50
0.0
 51
90.0
  0
LINE
  5
52F
330
1F
100
AcDbEntity
  8
用紙-GR2
  6
Continuous
 62
     7
370
    20
100
AcDbLine
 10
247.4583449599232
 20
115.3504973748741
 30
0.0
 11
247.4583449599232
 21
90.35049737487417
 31
0.0
  0
ARC
  5
530
330
1F
100
AcDbEntity
  8
用紙-GR2
  6
Continuous
 62
     7
370
    20
100
AcDbCircle
 10
248.4583449599234
 20
90.35049737487417
 30
0.0
 40
1.0
100
AcDbArc
 50
180.0
 51
270.0
  0
LINE
  5
531
330
1F
100
AcDbEntity
  8
用紙-GR2
  6
Continuous
 62
     7
370
    20
100
AcDbLine
 10
247.4583449599241
 20
90.27049737487422
 30
0.0
 11
254.4583449599239
 21
90.34049737487414
 31
0.0
  0
LINE
  5
532
330
1F
100
AcDbEntity
  8
用紙-GR2
  6
Continuous
 62
     7
370
    20
100
AcDbLine
 10
247.4583449599241
 20
91.43049737487409
 30
0.0
 11
254.4583449599239
 21
91.36049737487411
 31
0.0
  0
LINE
  5
533
330
1F
100
AcDbEntity
  8
用紙-GR2
  6
Continuous
 62
     7
370
    20
100
AcDbLine
 10
247.4583449599241
 20
92.27049737487423
 30
0.0
 11
254.4583449599239
 21
92.34049737487415
 31
0.0
  0
LINE
  5
534
330
1F
100
AcDbEntity
  8
用紙-GR2
  6
Continuous
 62
     7
370
    20
100
AcDbLine
 10
247.4583449599241
 20
93.43049737487412
 30
0.0
 11
254.4583449599239
 21
93.36049737487412
 31
0.0
  0
LINE
  5
535
330
1F
100
AcDbEntity
  8
用紙-GR2
  6
Continuous
 62
     7
370
    20
100
AcDbLine
 10
247.4583449599241
 20
94.2704973748742
 30
0.0
 11
254.4583449599239
 21
94.34049737487418
 31
0.0
  0
LINE
  5
536
330
1F
100
AcDbEntity
  8
用紙-GR2
  6
Continuous
 62
     7
370
    20
100
AcDbLine
 10
247.4583449599241
 20
95.43049737487407
 30
0.0
 11
254.4583449599239
 21
95.36049737487417
 31
0.0
  0
LINE
  5
537
330
1F
100
AcDbEntity
  8
用紙-GR2
  6
Continuous
 62
     7
370
    20
100
AcDbLine
 10
247.4583449599241
 20
96.27049737487404
 30
0.0
 11
254.4583449599239
 21
96.34049737487396
 31
0.0
  0
LINE
  5
538
330
1F
100
AcDbEntity
  8
用紙-GR2
  6
Continuous
 62
     7
370
    20
100
AcDbLine
 10
247.4583449599241
 20
97.43049737487417
 30
0.0
 11
254.4583449599239
 21
97.36049737487407
 31
0.0
  0
LINE
  5
539
330
1F
100
AcDbEntity
  8
用紙-GR2
  6
Continuous
 62
     7
370
    20
100
AcDbLine
 10
247.4583449599241
 20
98.27049737487429
 30
0.0
 11
254.4583449599239
 21
98.34049737487411
 31
0.0
  0
LINE
  5
53A
330
1F
100
AcDbEntity
  8
用紙-GR2
  6
Continuous
 62
     7
370
    20
100
AcDbLine
 10
247.4583449599241
 20
99.43049737487415
 30
0.0
 11
254.4583449599239
 21
99.36049737487406
 31
0.0
  0
LINE
  5
53B
330
1F
100
AcDbEntity
  8
用紙-GR2
  6
Continuous
 62
     7
370
    20
100
AcDbLine
 10
247.4583449599241
 20
100.2704973748741
 30
0.0
 11
254.4583449599239
 21
100.3404973748742
 31
0.0
  0
LINE
  5
53C
330
1F
100
AcDbEntity
  8
用紙-GR2
  6
Continuous
 62
     7
370
    20
100
AcDbLine
 10
247.4583449599241
 20
101.4304973748741
 30
0.0
 11
254.4583449599239
 21
101.3604973748742
 31
0.0
  0
LINE
  5
53D
330
1F
100
AcDbEntity
  8
用紙-GR2
  6
Continuous
 62
     7
370
    20
100
AcDbLine
 10
247.4583449599241
 20
102.2704973748742
 30
0.0
 11
254.4583449599239
 21
102.3404973748742
 31
0.0
  0
LINE
  5
53E
330
1F
100
AcDbEntity
  8
用紙-GR2
  6
Continuous
 62
     7
370
    20
100
AcDbLine
 10
247.4583449599232
 20
103.4304973748739
 30
0.0
 11
254.4583449599239
 21
103.360497374874
 31
0.0
  0
LINE
  5
53F
330
1F
100
AcDbEntity
  8
用紙-GR2
  6
Continuous
 62
     7
370
    20
100
AcDbLine
 10
247.4583449599232
 20
104.2704973748741
 30
0.0
 11
254.4583449599239
 21
104.3404973748741
 31
0.0
  0
LINE
  5
540
330
1F
100
AcDbEntity
  8
用紙-GR2
  6
Continuous
 62
     7
370
    20
100
AcDbLine
 10
247.4583449599232
 20
105.430497374874
 30
0.0
 11
254.4583449599239
 21
105.360497374874
 31
0.0
  0
LINE
  5
541
330
1F
100
AcDbEntity
  8
用紙-GR2
  6
Continuous
 62
     7
370
    20
100
AcDbLine
 10
247.4583449599232
 20
106.2704973748742
 30
0.0
 11
254.4583449599239
 21
106.3404973748741
 31
0.0
  0
LINE
  5
542
330
1F
100
AcDbEntity
  8
用紙-GR2
  6
Continuous
 62
     7
370
    20
100
AcDbLine
 10
247.4583449599232
 20
107.430497374874
 30
0.0
 11
254.4583449599239
 21
107.3604973748741
 31
0.0
  0
LINE
  5
543
330
1F
100
AcDbEntity
  8
用紙-GR2
  6
Continuous
 62
     7
370
    20
100
AcDbLine
 10
247.4583449599232
 20
108.270497374874
 30
0.0
 11
254.4583449599239
 21
108.340497374874
 31
0.0
  0
LINE
  5
544
330
1F
100
AcDbEntity
  8
用紙-GR2
  6
Continuous
 62
     7
370
    20
100
AcDbLine
 10
247.4583449599232
 20
109.4304973748739
 30
0.0
 11
254.4583449599239
 21
109.3604973748739
 31
0.0
  0
LINE
  5
545
330
1F
100
AcDbEntity
  8
用紙-GR2
  6
Continuous
 62
     7
370
    20
100
AcDbLine
 10
247.4583449599232
 20
110.2704973748741
 30
0.0
 11
254.4583449599239
 21
110.3404973748741
 31
0.0
  0
LINE
  5
546
330
1F
100
AcDbEntity
  8
用紙-GR2
  6
Continuous
 62
     7
370
    20
100
AcDbLine
 10
247.4583449599232
 20
111.4304973748741
 30
0.0
 11
254.4583449599239
 21
111.3604973748741
 31
0.0
  0
LINE
  5
547
330
1F
100
AcDbEntity
  8
用紙-GR2
  6
Continuous
 62
     7
370
    20
100
AcDbLine
 10
247.4583449599232
 20
112.2704973748743
 30
0.0
 11
254.4583449599239
 21
112.3404973748742
 31
0.0
  0
LINE
  5
548
330
1F
100
AcDbEntity
  8
用紙-GR2
  6
Continuous
 62
     7
370
    20
100
AcDbLine
 10
247.4583449599232
 20
113.4304973748741
 30
0.0
 11
254.4583449599239
 21
113.3604973748742
 31
0.0
  0
LINE
  5
549
330
1F
100
AcDbEntity
  8
用紙-GR2
  6
Continuous
 62
     7
370
    20
100
AcDbLine
 10
247.4583449599232
 20
114.2704973748742
 30
0.0
 11
254.4583449599239
 21
114.3404973748742
 31
0.0
  0
LINE
  5
54A
330
1F
100
AcDbEntity
  8
用紙-GR2
  6
Continuous
 62
     7
370
    20
100
AcDbLine
 10
247.4615475265994
 20
115.4304653492073
 30
0.0
 11
254.4582949536729
 21
115.3604978749365
 31
0.0
  0
LINE
  5
54B
330
1F
100
AcDbEntity
  8
用紙-GR2
  6
Continuous
 62
     7
370
    20
100
AcDbLine
 10
248.0813871294893
 20
116.2767277965696
 30
0.0
 11
253.6477746054111
 21
116.3323916713289
 31
0.0
  0
LINE
  5
54C
330
1F
100
AcDbEntity
  8
用紙-GR2
  6
Continuous
 62
     7
370
    20
100
AcDbLine
 10
248.0813871294893
 20
89.42426695317939
 30
0.0
 11
253.6477746054111
 21
89.36860307842023
 31
0.0
  0
LINE
  5
54D
330
1F
100
AcDbEntity
  8
用紙-GR2
  6
Continuous
 62
     7
370
    20
100
AcDbLine
 10
204.4583449599236
 20
86.35049737487463
 30
0.0
 11
204.4583449599233
 21
119.3504973748745
 31
0.0
  0
ARC
  5
54E
330
1F
100
AcDbEntity
  8
用紙-GR2
  6
Continuous
 62
     7
370
    20
100
AcDbCircle
 10
205.4583449599236
 20
86.35049737487463
 30
0.0
 40
1.0
100
AcDbArc
 50
244.1581065505013
 51
270.0
  0
LINE
  5
54F
330
1F
100
AcDbEntity
  8
用紙-GR2
  6
Continuous
 62
     7
370
    20
100
AcDbLine
 10
208.4583449599235
 20
85.35049737487462
 30
0.0
 11
208.4583449599235
 21
120.3504973748745
 31
0.0
  0
LINE
  5
550
330
1F
100
AcDbEntity
  8
用紙-GR2
  6
Continuous
 62
     7
370
    20
100
AcDbLine
 10
208.4583449599235
 20
85.35049737487462
 30
0.0
 11
205.4583449599236
 21
85.35049737487462
 31
0.0
  0
LINE
  5
551
330
1F
100
AcDbEntity
  8
用紙-GR2
  6
Continuous
 62
     7
370
    20
100
AcDbLine
 10
208.4583449599235
 20
120.3504973748745
 30
0.0
 11
205.4583449599233
 21
120.3504973748745
 31
0.0
  0
ARC
  5
552
330
1F
100
AcDbEntity
  8
用紙-GR2
  6
Continuous
 62
     7
370
    20
100
AcDbCircle
 10
205.4583449599233
 20
119.3504973748745
 30
0.0
 40
1.0
100
AcDbArc
 50
90.0
 51
115.8419720767732
  0
LINE
  5
553
330
1F
100
AcDbEntity
  8
用紙-GR2
  6
Continuous
 62
     7
370
    20
100
AcDbLine
 10
194.4583449599211
 20
96.8504973748743
 30
0.0
 11
194.4583449599211
 21
108.8504973748744
 31
0.0
  0
ARC
  5
554
330
1F
100
AcDbEntity
  8
用紙-GR2
  6
Continuous
 62
     7
370
    20
100
AcDbCircle
 10
195.4583449599214
 20
96.8504973748743
 30
0.0
 40
1.0
100
AcDbArc
 50
180.0
 51
270.0
  0
LINE
  5
555
330
1F
100
AcDbEntity
  8
用紙-GR2
  6
Continuous
 62
     7
370
    20
100
AcDbLine
 10
204.4583449599233
 20
95.85049737487436
 30
0.0
 11
195.4583449599214
 21
95.85049737487436
 31
0.0
  0
LINE
  5
556
330
1F
100
AcDbEntity
  8
用紙-GR2
  6
Continuous
 62
     7
370
    20
100
AcDbLine
 10
204.4583449599233
 20
109.8504973748745
 30
0.0
 11
195.4583449599214
 21
109.8504973748745
 31
0.0
  0
ARC
  5
557
330
1F
100
AcDbEntity
  8
用紙-GR2
  6
Continuous
 62
     7
370
    20
100
AcDbCircle
 10
195.4583449599214
 20
108.8504973748744
 30
0.0
 40
1.0
100
AcDbArc
 50
90.0
 51
180.0
  0
LINE
  5
558
330
1F
100
AcDbEntity
  8
用紙-GR2
  6
Continuous
 62
     7
370
    20
100
AcDbLine
 10
206.4583449599235
 20
89.60049737487485
 30
0.0
 11
204.4583449599236
 21
89.60049737487461
 31
0.0
  0
LINE
  5
559
330
1F
100
AcDbEntity
  8
用紙-GR2
  6
Continuous
 62
     7
370
    20
100
AcDbLine
 10
206.4583449599235
 20
85.35049737487462
 30
0.0
 11
206.4583449599235
 21
89.60049737487485
 31
0.0
  0
LINE
  5
55A
330
1F
100
AcDbEntity
  8
用紙-GR2
  6
Continuous
 62
     7
370
    20
100
AcDbLine
 10
206.4583449599235
 20
116.1004973748743
 30
0.0
 11
204.4583449599236
 21
116.1004973748745
 31
0.0
  0
LINE
  5
55B
330
1F
100
AcDbEntity
  8
用紙-GR2
  6
Continuous
 62
     7
370
    20
100
AcDbLine
 10
206.4583449599235
 20
120.3504973748745
 30
0.0
 11
206.4583449599235
 21
116.1004973748743
 31
0.0
  0
LINE
  5
55C
330
1F
100
AcDbEntity
  8
用紙-GR2
  6
Continuous
 62
     7
370
    20
100
AcDbLine
 10
206.4583449599235
 20
89.25049707578784
 30
0.0
 11
206.4583449599235
 21
85.45049707578789
 31
0.0
  0
LINE
  5
55D
330
1F
100
AcDbEntity
  8
用紙-GR2
  6
Continuous
 62
     7
370
    20
100
AcDbLine
 10
204.6583449599234
 20
89.25049707578784
 30
0.0
 11
204.6583449599234
 21
85.45049707578789
 31
0.0
  0
LINE
  5
55E
330
1F
100
AcDbEntity
  8
用紙-GR2
  6
Continuous
 62
     7
370
    20
100
AcDbLine
 10
204.4583449599236
 20
89.05049707578804
 30
0.0
 11
204.4583449599236
 21
85.65049707578793
 31
0.0
  0
LINE
  5
55F
330
1F
100
AcDbEntity
  8
用紙-GR2
  6
Continuous
 62
     7
370
    20
100
AcDbLine
 10
204.6583449599234
 20
85.45049707578789
 30
0.0
 11
206.4583449599235
 21
85.45049707578789
 31
0.0
  0
LINE
  5
560
330
1F
100
AcDbEntity
  8
用紙-GR2
  6
Continuous
 62
     7
370
    20
100
AcDbLine
 10
204.6583449599234
 20
85.45049707578789
 30
0.0
 11
204.4583449599236
 21
85.65049707578793
 31
0.0
  0
LINE
  5
561
330
1F
100
AcDbEntity
  8
用紙-GR2
  6
Continuous
 62
     7
370
    20
100
AcDbLine
 10
204.6583449599234
 20
89.25049707578784
 30
0.0
 11
206.4583449599235
 21
89.25049707578784
 31
0.0
  0
LINE
  5
562
330
1F
100
AcDbEntity
  8
用紙-GR2
  6
Continuous
 62
     7
370
    20
100
AcDbLine
 10
204.6583449599234
 20
89.25049707578784
 30
0.0
 11
204.4583449599236
 21
89.05049707578804
 31
0.0
  0
LINE
  5
563
330
1F
100
AcDbEntity
  8
用紙-GR2
  6
Continuous
 62
     7
370
    20
100
AcDbLine
 10
206.4583449599235
 20
120.2504970757876
 30
0.0
 11
206.4583449599235
 21
116.4504970757878
 31
0.0
  0
LINE
  5
564
330
1F
100
AcDbEntity
  8
用紙-GR2
  6
Continuous
 62
     7
370
    20
100
AcDbLine
 10
204.6583449599234
 20
120.2504970757876
 30
0.0
 11
204.6583449599234
 21
116.4504970757878
 31
0.0
  0
LINE
  5
565
330
1F
100
AcDbEntity
  8
用紙-GR2
  6
Continuous
 62
     7
370
    20
100
AcDbLine
 10
204.4583449599236
 20
120.0504970757878
 30
0.0
 11
204.4583449599236
 21
116.6504970757877
 31
0.0
  0
LINE
  5
566
330
1F
100
AcDbEntity
  8
用紙-GR2
  6
Continuous
 62
     7
370
    20
100
AcDbLine
 10
204.6583449599234
 20
116.4504970757878
 30
0.0
 11
206.4583449599235
 21
116.4504970757878
 31
0.0
  0
LINE
  5
567
330
1F
100
AcDbEntity
  8
用紙-GR2
  6
Continuous
 62
     7
370
    20
100
AcDbLine
 10
204.6583449599234
 20
116.4504970757878
 30
0.0
 11
204.4583449599236
 21
116.6504970757877
 31
0.0
  0
LINE
  5
568
330
1F
100
AcDbEntity
  8
用紙-GR2
  6
Continuous
 62
     7
370
    20
100
AcDbLine
 10
204.6583449599234
 20
120.2504970757876
 30
0.0
 11
206.4583449599235
 21
120.2504970757876
 31
0.0
  0
LINE
  5
569
330
1F
100
AcDbEntity
  8
用紙-GR2
  6
Continuous
 62
     7
370
    20
100
AcDbLine
 10
204.6583449599234
 20
120.2504970757876
 30
0.0
 11
204.4583449599236
 21
120.0504970757878
 31
0.0
  0
LINE
  5
56A
330
1F
100
AcDbEntity
  8
用紙-GR2
  6
DASHDOT
 62
     6
370
    20
100
AcDbLine
 10
71.95834495992224
 20
80.57104073624087
 30
0.0
 11
71.95834495992224
 21
124.750252215143
 31
0.0
  0
LINE
  5
56B
330
1F
100
AcDbEntity
  8
用紙-GR2
  6
Continuous
 62
     7
370
    20
100
AcDbLine
 10
194.4583449599211
 20
99.85049737487438
 30
0.0
 11
167.8809946907336
 21
99.85049737487438
 31
0.0
  0
LINE
  5
56C
330
1F
100
AcDbEntity
  8
用紙-GR2
  6
Continuous
 62
     7
370
    20
100
AcDbLine
 10
194.4583449599208
 20
105.8504973748746
 30
0.0
 11
171.3450963058717
 21
105.8504973748746
 31
0.0
  0
LINE
  5
56D
330
1F
100
AcDbEntity
  8
用紙-GR2
  6
DASHDOT
 62
     6
370
    20
100
AcDbLine
 10
50.18364090332898
 20
102.8504973748746
 30
0.0
 11
93.68706862847972
 21
102.8504973748746
 31
0.0
  0
LINE
  5
56E
330
1F
100
AcDbEntity
  8
用紙-GR2
  6
Continuous
 62
     7
370
    20
100
AcDbLine
 10
165.5715936139745
 20
99.85049737487514
 30
0.0
 11
152.4583449599235
 21
99.85049737487415
 31
0.0
  0
LINE
  5
56F
330
1F
100
AcDbEntity
  8
用紙-GR2
  6
Continuous
 62
     7
370
    20
100
AcDbLine
 10
169.0356952291127
 20
105.8504973748746
 30
0.0
 11
152.4583449599231
 21
105.8504973748751
 31
0.0
  0
ARC
  5
570
330
1F
100
AcDbEntity
  8
用紙-GR2
  6
Continuous
 62
     7
370
    20
100
AcDbCircle
 10
151.9583449599232
 20
99.19082174277168
 30
0.0
 40
0.4999999999999154
100
AcDbArc
 50
279.5042986557264
 51
0.0
  0
ARC
  5
571
330
1F
100
AcDbEntity
  8
用紙-GR2
  6
Continuous
 62
     7
370
    20
100
AcDbCircle
 10
151.9583449599232
 20
106.5124788125976
 30
0.0
 40
0.4999999999999154
100
AcDbArc
 50
0.0
 51
80.49570134427357
  0
LINE
  5
572
330
1F
100
AcDbEntity
  8
用紙-GR2
  6
Continuous
 62
     7
370
    20
100
AcDbLine
 10
152.4583449599231
 20
99.19082174277168
 30
0.0
 11
152.4583449599231
 21
106.5124788125976
 31
0.0
  0
LINE
  5
573
330
1F
100
AcDbEntity
  8
用紙-GR2
  6
Continuous
 62
     7
370
    20
100
AcDbLine
 10
132.2244450684143
 20
96.04049737487539
 30
0.0
 11
130.2836669611733
 21
97.50143263448521
 31
0.0
  0
LINE
  5
574
330
1F
100
AcDbEntity
  8
用紙-GR2
  6
Continuous
 62
     7
370
    20
100
AcDbLine
 10
132.2244450684143
 20
96.04049737487539
 30
0.0
 11
136.9069895505122
 21
96.04049737487539
 31
0.0
  0
LINE
  5
575
330
1F
100
AcDbEntity
  8
用紙-GR2
  6
Continuous
 62
     7
370
    20
100
AcDbLine
 10
127.0921655615452
 20
96.04049737487539
 30
0.0
 11
129.0329436687862
 21
97.50143263448521
 31
0.0
  0
LINE
  5
576
330
1F
100
AcDbEntity
  8
用紙-GR2
  6
Continuous
 62
     7
370
    20
100
AcDbLine
 10
125.710326768562
 20
96.04049737487539
 30
0.0
 11
125.2268518691999
 21
95.50165027768491
 31
0.0
  0
LINE
  5
577
330
1F
100
AcDbEntity
  8
用紙-GR2
  6
Continuous
 62
     7
370
    20
100
AcDbLine
 10
125.710326768562
 20
96.04049737487539
 30
0.0
 11
127.0921655615452
 21
96.04049737487539
 31
0.0
  0
LINE
  5
578
330
1F
100
AcDbEntity
  8
用紙-GR2
  6
Continuous
 62
     7
370
    20
100
AcDbLine
 10
129.0329436687862
 20
97.50143263448521
 30
0.0
 11
130.2836669611733
 21
97.50143263448521
 31
0.0
  0
LINE
  5
579
330
1F
100
AcDbEntity
  8
用紙-GR2
  6
Continuous
 62
     7
370
    20
100
AcDbLine
 10
132.2244450684143
 20
109.6628031804941
 30
0.0
 11
130.2836669611733
 21
108.2018679208838
 31
0.0
  0
LINE
  5
57A
330
1F
100
AcDbEntity
  8
用紙-GR2
  6
Continuous
 62
     7
370
    20
100
AcDbLine
 10
132.2244450684143
 20
109.6628031804941
 30
0.0
 11
136.9069895505122
 21
109.6628031804941
 31
0.0
  0
LINE
  5
57B
330
1F
100
AcDbEntity
  8
用紙-GR2
  6
Continuous
 62
     7
370
    20
100
AcDbLine
 10
127.0921655615452
 20
109.6628031804941
 30
0.0
 11
129.0329436687862
 21
108.2018679208838
 31
0.0
  0
LINE
  5
57C
330
1F
100
AcDbEntity
  8
用紙-GR2
  6
Continuous
 62
     7
370
    20
100
AcDbLine
 10
125.710326768562
 20
109.6628031804941
 30
0.0
 11
125.2268518691999
 21
110.2016502776842
 31
0.0
  0
LINE
  5
57D
330
1F
100
AcDbEntity
  8
用紙-GR2
  6
Continuous
 62
     7
370
    20
100
AcDbLine
 10
125.710326768562
 20
109.6628031804941
 30
0.0
 11
127.0921655615452
 21
109.6628031804941
 31
0.0
  0
LINE
  5
57E
330
1F
100
AcDbEntity
  8
用紙-GR2
  6
Continuous
 62
     7
370
    20
100
AcDbLine
 10
129.0329436687862
 20
108.2018679208838
 30
0.0
 11
130.2836669611733
 21
108.2018679208838
 31
0.0
  0
LINE
  5
57F
330
1F
100
AcDbEntity
  8
用紙-GR2
  6
Continuous
 62
     7
370
    20
100
AcDbLine
 10
136.9069895505122
 20
96.04049737487539
 30
0.0
 11
136.9069895505122
 21
109.6628031804941
 31
0.0
  0
LINE
  5
580
330
1F
100
AcDbEntity
  8
用紙-GR2
  6
Continuous
 62
     7
370
    20
100
AcDbLine
 10
125.710326768562
 20
96.04049737487539
 30
0.0
 11
125.710326768562
 21
109.6628031804941
 31
0.0
  0
LINE
  5
581
330
1F
100
AcDbEntity
  8
用紙-GR2
  6
Continuous
 62
     7
370
    20
100
AcDbLine
 10
127.0921655615452
 20
96.04049737487539
 30
0.0
 11
127.0921655615452
 21
109.6628031804941
 31
0.0
  0
LINE
  5
582
330
1F
100
AcDbEntity
  8
用紙-GR2
  6
Continuous
 62
     7
370
    20
100
AcDbLine
 10
129.0329436687862
 20
97.50143263448521
 30
0.0
 11
129.0329436687862
 21
108.2018679208838
 31
0.0
  0
LINE
  5
583
330
1F
100
AcDbEntity
  8
用紙-GR2
  6
Continuous
 62
     7
370
    20
100
AcDbLine
 10
130.2836669611733
 20
97.50143263448521
 30
0.0
 11
130.2836669611733
 21
108.2018679208838
 31
0.0
  0
LINE
  5
584
330
1F
100
AcDbEntity
  8
用紙-GR2
  6
Continuous
 62
     7
370
    20
100
AcDbLine
 10
132.2244450684143
 20
96.04049737487539
 30
0.0
 11
132.2244450684143
 21
109.6628031804941
 31
0.0
  0
LINE
  5
585
330
1F
100
AcDbEntity
  8
用紙-GR2
  6
Continuous
 62
     7
370
    20
100
AcDbLine
 10
136.9069895505122
 20
108.6361743259915
 30
0.0
 11
152.0409057610022
 21
107.0056154205718
 31
0.0
  0
LINE
  5
586
330
1F
100
AcDbEntity
  8
用紙-GR2
  6
Continuous
 62
     7
370
    20
100
AcDbLine
 10
136.9069895505122
 20
97.0671262293775
 30
0.0
 11
152.0409057610022
 21
98.69768513479712
 31
0.0
  0
LINE
  5
587
330
1F
100
AcDbEntity
  8
用紙-GR2
  6
Continuous
 62
     7
370
    20
100
AcDbLine
 10
120.0285293443985
 20
96.04049737487539
 30
0.0
 11
120.9204682097711
 21
96.04049737487539
 31
0.0
  0
LINE
  5
588
330
1F
100
AcDbEntity
  8
用紙-GR2
  6
Continuous
 62
     7
370
    20
100
AcDbLine
 10
120.0285293443985
 20
96.04049737487539
 30
0.0
 11
119.545054445036
 21
95.50165027768491
 31
0.0
  0
LINE
  5
589
330
1F
100
AcDbEntity
  8
用紙-GR2
  6
Continuous
 62
     7
370
    20
100
AcDbLine
 10
120.9204682097711
 20
96.04049737487539
 30
0.0
 11
121.4039431091341
 21
95.50165027768491
 31
0.0
  0
LINE
  5
58A
330
1F
100
AcDbEntity
  8
用紙-GR2
  6
Continuous
 62
     7
370
    20
100
AcDbLine
 10
114.2872876945062
 20
96.04049737487539
 30
0.0
 11
114.7707625938683
 21
95.50165027768491
 31
0.0
  0
LINE
  5
58B
330
1F
100
AcDbEntity
  8
用紙-GR2
  6
Continuous
 62
     7
370
    20
100
AcDbLine
 10
114.7707625938683
 20
95.50165027768491
 30
0.0
 11
119.545054445036
 21
95.50165027768491
 31
0.0
  0
LINE
  5
58C
330
1F
100
AcDbEntity
  8
用紙-GR2
  6
Continuous
 62
     7
370
    20
100
AcDbLine
 10
110.2382018351618
 20
98.10165027768418
 30
0.0
 11
109.4583449599231
 21
98.10165027768418
 31
0.0
  0
LINE
  5
58D
330
1F
100
AcDbEntity
  8
用紙-GR2
  6
Continuous
 62
     7
370
    20
100
AcDbLine
 10
110.2382018351618
 20
96.04049737487539
 30
0.0
 11
114.2872876945062
 21
96.04049737487539
 31
0.0
  0
LINE
  5
58E
330
1F
100
AcDbEntity
  8
用紙-GR2
  6
Continuous
 62
     7
370
    20
100
AcDbLine
 10
120.0285293443985
 20
109.6628031804941
 30
0.0
 11
120.9204682097711
 21
109.6628031804941
 31
0.0
  0
LINE
  5
58F
330
1F
100
AcDbEntity
  8
用紙-GR2
  6
Continuous
 62
     7
370
    20
100
AcDbLine
 10
120.0285293443985
 20
109.6628031804941
 30
0.0
 11
119.545054445036
 21
110.2016502776842
 31
0.0
  0
LINE
  5
590
330
1F
100
AcDbEntity
  8
用紙-GR2
  6
Continuous
 62
     7
370
    20
100
AcDbLine
 10
120.9204682097711
 20
109.6628031804941
 30
0.0
 11
121.4039431091341
 21
110.2016502776842
 31
0.0
  0
LINE
  5
591
330
1F
100
AcDbEntity
  8
用紙-GR2
  6
Continuous
 62
     7
370
    20
100
AcDbLine
 10
114.2872876945062
 20
109.6628031804941
 30
0.0
 11
114.7707625938683
 21
110.2016502776842
 31
0.0
  0
LINE
  5
592
330
1F
100
AcDbEntity
  8
用紙-GR2
  6
Continuous
 62
     7
370
    20
100
AcDbLine
 10
114.7707625938683
 20
110.2016502776842
 30
0.0
 11
119.545054445036
 21
110.2016502776842
 31
0.0
  0
LINE
  5
593
330
1F
100
AcDbEntity
  8
用紙-GR2
  6
Continuous
 62
     7
370
    20
100
AcDbLine
 10
110.2382018351618
 20
107.6016502776844
 30
0.0
 11
109.4583449599231
 21
107.6016502776844
 31
0.0
  0
LINE
  5
594
330
1F
100
AcDbEntity
  8
用紙-GR2
  6
Continuous
 62
     7
370
    20
100
AcDbLine
 10
110.2382018351618
 20
109.6628031804941
 30
0.0
 11
114.2872876945062
 21
109.6628031804941
 31
0.0
  0
LINE
  5
595
330
1F
100
AcDbEntity
  8
用紙-GR2
  6
Continuous
 62
     7
370
    20
100
AcDbLine
 10
109.4583449599231
 20
98.10165027768418
 30
0.0
 11
109.4583449599231
 21
107.6016502776844
 31
0.0
  0
LINE
  5
596
330
1F
100
AcDbEntity
  8
用紙-GR2
  6
Continuous
 62
     7
370
    20
100
AcDbLine
 10
114.2872876945062
 20
96.04049737487539
 30
0.0
 11
114.2872876945062
 21
109.6628031804941
 31
0.0
  0
LINE
  5
597
330
1F
100
AcDbEntity
  8
用紙-GR2
  6
Continuous
 62
     7
370
    20
100
AcDbLine
 10
120.0285293443985
 20
96.04049737487539
 30
0.0
 11
120.0285293443985
 21
109.6628031804941
 31
0.0
  0
LINE
  5
598
330
1F
100
AcDbEntity
  8
用紙-GR2
  6
Continuous
 62
     7
370
    20
100
AcDbLine
 10
120.9204682097711
 20
96.04049737487539
 30
0.0
 11
120.9204682097711
 21
109.6628031804941
 31
0.0
  0
LINE
  5
599
330
1F
100
AcDbEntity
  8
用紙-GR2
  6
Continuous
 62
     7
370
    20
100
AcDbLine
 10
110.2382018351618
 20
109.6628031804941
 30
0.0
 11
110.2382018351618
 21
96.04049737487539
 31
0.0
  0
LINE
  5
59A
330
1F
100
AcDbEntity
  8
用紙-GR2
  6
Continuous
 62
     7
370
    20
100
AcDbLine
 10
121.4039431091341
 20
110.2016502776842
 30
0.0
 11
125.2268518691999
 21
110.2016502776842
 31
0.0
  0
LINE
  5
59B
330
1F
100
AcDbEntity
  8
用紙-GR2
  6
Continuous
 62
     7
370
    20
100
AcDbLine
 10
121.4039431091341
 20
95.50165027768491
 30
0.0
 11
125.2268518691999
 21
95.50165027768491
 31
0.0
  0
LINE
  5
59C
330
1F
100
AcDbEntity
  8
用紙-GR2
  6
Continuous
 62
     7
370
    20
100
AcDbLine
 10
114.8910356602919
 20
110.2016502776849
 30
0.0
 11
114.7707625938674
 21
110.0813772112604
 31
0.0
  0
LINE
  5
59D
330
1F
100
AcDbEntity
  8
用紙-GR2
  6
Continuous
 62
     7
370
    20
100
AcDbLine
 10
165.2868232866711
 20
99.35726069949708
 30
0.0
 11
169.8978158256057
 21
107.3437340502519
 31
0.0
  0
LINE
  5
59E
330
1F
100
AcDbEntity
  8
用紙-GR2
  6
Continuous
 62
     7
370
    20
100
AcDbLine
 10
167.0188740942409
 20
98.35726069949679
 30
0.0
 11
171.6298666331745
 21
106.3437340502522
 31
0.0
  0
LINE
  5
59F
330
1F
100
AcDbEntity
  8
用紙-GR2
  6
Continuous
 62
     7
370
    20
100
AcDbLine
 10
55.45834495992176
 20
85.35049737487417
 30
0.0
 11
88.45834495992226
 21
85.35049737487417
 31
0.0
  0
LINE
  5
5A0
330
1F
100
AcDbEntity
  8
用紙-GR2
  6
Continuous
 62
     7
370
    20
100
AcDbLine
 10
55.45834495992224
 20
120.350497374874
 30
0.0
 11
88.45834495992226
 21
120.350497374874
 31
0.0
  0
LINE
  5
5A1
330
1F
100
AcDbEntity
  8
用紙-GR2
  6
Continuous
 62
     7
370
    20
100
AcDbLine
 10
89.45834495992224
 20
86.35049737487415
 30
0.0
 11
89.45834495992224
 21
119.350497374874
 31
0.0
  0
LINE
  5
5A2
330
1F
100
AcDbEntity
  8
用紙-GR2
  6
Continuous
 62
     7
370
    20
100
AcDbLine
 10
54.4583449599218
 20
86.35049737487415
 30
0.0
 11
54.45834495992224
 21
119.350497374874
 31
0.0
  0
ARC
  5
5A3
330
1F
100
AcDbEntity
  8
用紙-GR2
  6
Continuous
 62
     7
370
    20
100
AcDbCircle
 10
55.45834495992176
 20
86.35049737487415
 30
0.0
 40
1.0
100
AcDbArc
 50
180.0
 51
270.0
  0
ARC
  5
5A4
330
1F
100
AcDbEntity
  8
用紙-GR2
  6
Continuous
 62
     7
370
    20
100
AcDbCircle
 10
71.95834495992267
 20
102.8504973748741
 30
0.0
 40
14.0
100
AcDbArc
 50
113.8498830984357
 51
66.15011690156426
  0
ARC
  5
5A5
330
1F
100
AcDbEntity
  8
用紙-GR2
  6
Continuous
 62
     7
370
    20
100
AcDbCircle
 10
71.95834495992267
 20
102.8504973748741
 30
0.0
 40
15.0
100
AcDbArc
 50
113.2132107017276
 51
66.78678929827239
  0
ARC
  5
5A6
330
1F
100
AcDbEntity
  8
用紙-GR2
  6
Continuous
 62
     7
370
    20
100
AcDbCircle
 10
66.44019141867241
 20
115.7171201444739
 30
0.0
 40
1.0
100
AcDbArc
 50
14.99999999998101
 51
113.2132107017294
  0
ARC
  5
5A7
330
1F
100
AcDbEntity
  8
用紙-GR2
  6
Continuous
 62
     7
370
    20
100
AcDbCircle
 10
77.47649850117252
 20
115.7171201444745
 30
0.0
 40
1.0
100
AcDbArc
 50
66.78678929827059
 51
165.0000000000056
  0
ARC
  5
5A8
330
1F
100
AcDbEntity
  8
用紙-GR2
  6
Continuous
 62
     7
370
    20
100
AcDbCircle
 10
66.70190247721487
 20
114.7404011770914
 30
0.0
 40
1.0
100
AcDbArc
 50
14.99999999999444
 51
113.8498830984427
  0
ARC
  5
5A9
330
1F
100
AcDbEntity
  8
用紙-GR2
  6
Continuous
 62
     7
370
    20
100
AcDbCircle
 10
68.02168960461814
 20
109.8148885624476
 30
0.0
 40
1.0
100
AcDbArc
 50
299.4775121859273
 51
15.00000000000629
  0
LINE
  5
5AA
330
1F
100
AcDbEntity
  8
用紙-GR2
  6
Continuous
 62
     7
370
    20
100
AcDbLine
 10
68.98761543090635
 20
110.0737076075502
 30
0.0
 11
67.66782830350393
 21
114.9992202221941
 31
0.0
  0
ARC
  5
5AB
330
1F
100
AcDbEntity
  8
用紙-GR2
  6
Continuous
 62
     7
370
    20
100
AcDbCircle
 10
77.21478744263051
 20
114.7404011770914
 30
0.0
 40
1.0
100
AcDbArc
 50
66.15011690155729
 51
165.0000000000056
  0
ARC
  5
5AC
330
1F
100
AcDbEntity
  8
用紙-GR2
  6
Continuous
 62
     7
370
    20
100
AcDbCircle
 10
75.89500031522724
 20
109.8148885624476
 30
0.0
 40
1.0
100
AcDbArc
 50
164.9999999999937
 51
240.5224878140726
  0
LINE
  5
5AD
330
1F
100
AcDbEntity
  8
用紙-GR2
  6
Continuous
 62
     7
370
    20
100
AcDbLine
 10
74.92907448893814
 20
110.0737076075502
 30
0.0
 11
76.2488616163414
 21
114.9992202221941
 31
0.0
  0
ARC
  5
5AE
330
1F
100
AcDbEntity
  8
用紙-GR2
  6
Continuous
 62
     7
370
    20
100
AcDbCircle
 10
56.45834495992178
 20
87.35049737487418
 30
0.0
 40
2.249999999999998
100
AcDbArc
 50
0.0
 51
90.0
  0
LINE
  5
5AF
330
1F
100
AcDbEntity
  8
用紙-GR2
  6
Continuous
 62
     7
370
    20
100
AcDbLine
 10
56.45834495992178
 20
89.60049737487414
 30
0.0
 11
54.45834495992224
 21
89.60049737487414
 31
0.0
  0
LINE
  5
5B0
330
1F
100
AcDbEntity
  8
用紙-GR2
  6
Continuous
 62
     7
370
    20
100
AcDbLine
 10
58.70834495992178
 20
87.35049737487418
 30
0.0
 11
58.70834495992178
 21
85.35049737487417
 31
0.0
  0
CIRCLE
  5
5B1
330
1F
100
AcDbEntity
  8
用紙-GR2
  6
Continuous
 62
     7
370
    20
100
AcDbCircle
 10
71.95834495992267
 20
102.8504973748741
 30
0.0
 40
3.299999999999997
  0
CIRCLE
  5
5B2
330
1F
100
AcDbEntity
  8
用紙-GR2
  6
Continuous
 62
     7
370
    20
100
AcDbCircle
 10
71.95834495992267
 20
102.8504973748741
 30
0.0
 40
7.0
  0
CIRCLE
  5
5B3
330
1F
100
AcDbEntity
  8
用紙-GR2
  6
Continuous
 62
     7
370
    20
100
AcDbCircle
 10
71.95834495992267
 20
102.8504973748746
 30
0.0
 40
2.999999999999998
  0
LINE
  5
5B4
330
1F
100
AcDbEntity
  8
用紙-GR2
  6
Continuous
 62
     7
370
    20
100
AcDbLine
 10
55.59231939041684
 20
87.35049737487418
 30
0.0
 11
56.0253321932555
 21
86.60049737487414
 31
0.0
  0
LINE
  5
5B5
330
1F
100
AcDbEntity
  8
用紙-GR2
  6
Continuous
 62
     7
370
    20
100
AcDbLine
 10
56.0253321932555
 20
86.60049737487414
 30
0.0
 11
56.89135749609341
 21
86.60049737487414
 31
0.0
  0
LINE
  5
5B6
330
1F
100
AcDbEntity
  8
用紙-GR2
  6
Continuous
 62
     7
370
    20
100
AcDbLine
 10
56.89135749609341
 20
86.60049737487414
 30
0.0
 11
57.32436999609356
 21
87.35049737487418
 31
0.0
  0
LINE
  5
5B7
330
1F
100
AcDbEntity
  8
用紙-GR2
  6
Continuous
 62
     7
370
    20
100
AcDbLine
 10
57.32436999609356
 20
87.35049737487418
 30
0.0
 11
56.8913571932549
 21
88.10049737487412
 31
0.0
  0
LINE
  5
5B8
330
1F
100
AcDbEntity
  8
用紙-GR2
  6
Continuous
 62
     7
370
    20
100
AcDbLine
 10
56.8913571932549
 20
88.10049737487412
 30
0.0
 11
56.02533189041655
 21
88.10049737487412
 31
0.0
  0
LINE
  5
5B9
330
1F
100
AcDbEntity
  8
用紙-GR2
  6
Continuous
 62
     7
370
    20
100
AcDbLine
 10
56.02533189041655
 20
88.10049737487412
 30
0.0
 11
55.59231939041684
 21
87.35049737487418
 31
0.0
  0
CIRCLE
  5
5BA
330
1F
100
AcDbEntity
  8
用紙-GR2
  6
Continuous
 62
     7
370
    20
100
AcDbCircle
 10
56.45834495992178
 20
87.35049737487418
 30
0.0
 40
1.899999999999976
  0
CIRCLE
  5
5BB
330
1F
100
AcDbEntity
  8
用紙-GR2
  6
Continuous
 62
     7
370
    20
100
AcDbCircle
 10
56.45834495992178
 20
87.35049737487418
 30
0.0
 40
1.699999999999988
  0
ARC
  5
5BC
330
1F
100
AcDbEntity
  8
用紙-GR2
  6
Continuous
 62
     7
370
    20
100
AcDbCircle
 10
55.45834495992176
 20
119.3504973748748
 30
0.0
 40
1.0
100
AcDbArc
 50
90.0
 51
180.0
  0
ARC
  5
5BD
330
1F
100
AcDbEntity
  8
用紙-GR2
  6
Continuous
 62
     7
370
    20
100
AcDbCircle
 10
56.45834495992178
 20
118.3504973748748
 30
0.0
 40
2.249999999999998
100
AcDbArc
 50
270.0
 51
0.0
  0
LINE
  5
5BE
330
1F
100
AcDbEntity
  8
用紙-GR2
  6
Continuous
 62
     7
370
    20
100
AcDbLine
 10
56.45834495992178
 20
116.100497374875
 30
0.0
 11
54.45834495992224
 21
116.100497374875
 31
0.0
  0
LINE
  5
5BF
330
1F
100
AcDbEntity
  8
用紙-GR2
  6
Continuous
 62
     7
370
    20
100
AcDbLine
 10
58.70834495992178
 20
118.3504973748748
 30
0.0
 11
58.70834495992178
 21
120.3504973748749
 31
0.0
  0
LINE
  5
5C0
330
1F
100
AcDbEntity
  8
用紙-GR2
  6
Continuous
 62
     7
370
    20
100
AcDbLine
 10
55.59231939041684
 20
118.3504973748748
 30
0.0
 11
56.0253321932555
 21
119.1004973748751
 31
0.0
  0
LINE
  5
5C1
330
1F
100
AcDbEntity
  8
用紙-GR2
  6
Continuous
 62
     7
370
    20
100
AcDbLine
 10
56.0253321932555
 20
119.1004973748751
 30
0.0
 11
56.89135749609341
 21
119.1004973748751
 31
0.0
  0
LINE
  5
5C2
330
1F
100
AcDbEntity
  8
用紙-GR2
  6
Continuous
 62
     7
370
    20
100
AcDbLine
 10
56.89135749609341
 20
119.1004973748751
 30
0.0
 11
57.32436999609356
 21
118.3504973748748
 31
0.0
  0
LINE
  5
5C3
330
1F
100
AcDbEntity
  8
用紙-GR2
  6
Continuous
 62
     7
370
    20
100
AcDbLine
 10
57.32436999609356
 20
118.3504973748748
 30
0.0
 11
56.8913571932549
 21
117.600497374875
 31
0.0
  0
LINE
  5
5C4
330
1F
100
AcDbEntity
  8
用紙-GR2
  6
Continuous
 62
     7
370
    20
100
AcDbLine
 10
56.8913571932549
 20
117.600497374875
 30
0.0
 11
56.02533189041655
 21
117.600497374875
 31
0.0
  0
LINE
  5
5C5
330
1F
100
AcDbEntity
  8
用紙-GR2
  6
Continuous
 62
     7
370
    20
100
AcDbLine
 10
56.02533189041655
 20
117.600497374875
 30
0.0
 11
55.59231939041684
 21
118.3504973748748
 31
0.0
  0
CIRCLE
  5
5C6
330
1F
100
AcDbEntity
  8
用紙-GR2
  6
Continuous
 62
     7
370
    20
100
AcDbCircle
 10
56.45834495992178
 20
118.3504973748748
 30
0.0
 40
1.899999999999976
  0
CIRCLE
  5
5C7
330
1F
100
AcDbEntity
  8
用紙-GR2
  6
Continuous
 62
     7
370
    20
100
AcDbCircle
 10
56.45834495992178
 20
118.3504973748748
 30
0.0
 40
1.699999999999988
  0
ARC
  5
5C8
330
1F
100
AcDbEntity
  8
用紙-GR2
  6
Continuous
 62
     7
370
    20
100
AcDbCircle
 10
88.45834495992271
 20
86.35049737487415
 30
0.0
 40
1.0
100
AcDbArc
 50
270.0
 51
0.0
  0
ARC
  5
5C9
330
1F
100
AcDbEntity
  8
用紙-GR2
  6
Continuous
 62
     7
370
    20
100
AcDbCircle
 10
87.45834495992271
 20
87.35049737487418
 30
0.0
 40
2.249999999999998
100
AcDbArc
 50
90.0
 51
180.0
  0
LINE
  5
5CA
330
1F
100
AcDbEntity
  8
用紙-GR2
  6
Continuous
 62
     7
370
    20
100
AcDbLine
 10
87.45834495992271
 20
89.60049737487414
 30
0.0
 11
89.45834495992224
 21
89.60049737487414
 31
0.0
  0
LINE
  5
5CB
330
1F
100
AcDbEntity
  8
用紙-GR2
  6
Continuous
 62
     7
370
    20
100
AcDbLine
 10
85.2083449599227
 20
87.35049737487418
 30
0.0
 11
85.2083449599227
 21
85.35049737487417
 31
0.0
  0
LINE
  5
5CC
330
1F
100
AcDbEntity
  8
用紙-GR2
  6
Continuous
 62
     7
370
    20
100
AcDbLine
 10
88.32437052942765
 20
87.35049737487418
 30
0.0
 11
87.89135772658896
 21
86.60049737487414
 31
0.0
  0
LINE
  5
5CD
330
1F
100
AcDbEntity
  8
用紙-GR2
  6
Continuous
 62
     7
370
    20
100
AcDbLine
 10
87.89135772658896
 20
86.60049737487414
 30
0.0
 11
87.02533242375107
 21
86.60049737487414
 31
0.0
  0
LINE
  5
5CE
330
1F
100
AcDbEntity
  8
用紙-GR2
  6
Continuous
 62
     7
370
    20
100
AcDbLine
 10
87.02533242375107
 20
86.60049737487414
 30
0.0
 11
86.59231992375092
 21
87.35049737487418
 31
0.0
  0
LINE
  5
5CF
330
1F
100
AcDbEntity
  8
用紙-GR2
  6
Continuous
 62
     7
370
    20
100
AcDbLine
 10
86.59231992375092
 20
87.35049737487418
 30
0.0
 11
87.02533272658962
 21
88.10049737487412
 31
0.0
  0
LINE
  5
5D0
330
1F
100
AcDbEntity
  8
用紙-GR2
  6
Continuous
 62
     7
370
    20
100
AcDbLine
 10
87.02533272658962
 20
88.10049737487412
 30
0.0
 11
87.89135802942798
 21
88.10049737487412
 31
0.0
  0
LINE
  5
5D1
330
1F
100
AcDbEntity
  8
用紙-GR2
  6
Continuous
 62
     7
370
    20
100
AcDbLine
 10
87.89135802942798
 20
88.10049737487412
 30
0.0
 11
88.32437052942765
 21
87.35049737487418
 31
0.0
  0
CIRCLE
  5
5D2
330
1F
100
AcDbEntity
  8
用紙-GR2
  6
Continuous
 62
     7
370
    20
100
AcDbCircle
 10
87.45834495992271
 20
87.35049737487418
 30
0.0
 40
1.899999999999976
  0
CIRCLE
  5
5D3
330
1F
100
AcDbEntity
  8
用紙-GR2
  6
Continuous
 62
     7
370
    20
100
AcDbCircle
 10
87.45834495992271
 20
87.35049737487418
 30
0.0
 40
1.699999999999988
  0
ARC
  5
5D4
330
1F
100
AcDbEntity
  8
用紙-GR2
  6
Continuous
 62
     7
370
    20
100
AcDbCircle
 10
88.45834495992271
 20
119.3504973748748
 30
0.0
 40
1.0
100
AcDbArc
 50
0.0
 51
90.0
  0
ARC
  5
5D5
330
1F
100
AcDbEntity
  8
用紙-GR2
  6
Continuous
 62
     7
370
    20
100
AcDbCircle
 10
87.45834495992271
 20
118.3504973748748
 30
0.0
 40
2.249999999999998
100
AcDbArc
 50
180.0
 51
270.0
  0
LINE
  5
5D6
330
1F
100
AcDbEntity
  8
用紙-GR2
  6
Continuous
 62
     7
370
    20
100
AcDbLine
 10
87.45834495992271
 20
116.100497374875
 30
0.0
 11
89.45834495992224
 21
116.100497374875
 31
0.0
  0
LINE
  5
5D7
330
1F
100
AcDbEntity
  8
用紙-GR2
  6
Continuous
 62
     7
370
    20
100
AcDbLine
 10
85.2083449599227
 20
118.3504973748748
 30
0.0
 11
85.2083449599227
 21
120.3504973748749
 31
0.0
  0
LINE
  5
5D8
330
1F
100
AcDbEntity
  8
用紙-GR2
  6
Continuous
 62
     7
370
    20
100
AcDbLine
 10
88.32437052942765
 20
118.3504973748748
 30
0.0
 11
87.89135772658896
 21
119.1004973748751
 31
0.0
  0
LINE
  5
5D9
330
1F
100
AcDbEntity
  8
用紙-GR2
  6
Continuous
 62
     7
370
    20
100
AcDbLine
 10
87.89135772658896
 20
119.1004973748751
 30
0.0
 11
87.02533242375107
 21
119.1004973748751
 31
0.0
  0
LINE
  5
5DA
330
1F
100
AcDbEntity
  8
用紙-GR2
  6
Continuous
 62
     7
370
    20
100
AcDbLine
 10
87.02533242375107
 20
119.1004973748751
 30
0.0
 11
86.59231992375092
 21
118.3504973748748
 31
0.0
  0
LINE
  5
5DB
330
1F
100
AcDbEntity
  8
用紙-GR2
  6
Continuous
 62
     7
370
    20
100
AcDbLine
 10
86.59231992375092
 20
118.3504973748748
 30
0.0
 11
87.02533272658962
 21
117.600497374875
 31
0.0
  0
LINE
  5
5DC
330
1F
100
AcDbEntity
  8
用紙-GR2
  6
Continuous
 62
     7
370
    20
100
AcDbLine
 10
87.02533272658962
 20
117.600497374875
 30
0.0
 11
87.89135802942798
 21
117.600497374875
 31
0.0
  0
LINE
  5
5DD
330
1F
100
AcDbEntity
  8
用紙-GR2
  6
Continuous
 62
     7
370
    20
100
AcDbLine
 10
87.89135802942798
 20
117.600497374875
 30
0.0
 11
88.32437052942765
 21
118.3504973748748
 31
0.0
  0
CIRCLE
  5
5DE
330
1F
100
AcDbEntity
  8
用紙-GR2
  6
Continuous
 62
     7
370
    20
100
AcDbCircle
 10
87.45834495992271
 20
118.3504973748748
 30
0.0
 40
1.899999999999976
  0
CIRCLE
  5
5DF
330
1F
100
AcDbEntity
  8
用紙-GR2
  6
Continuous
 62
     7
370
    20
100
AcDbCircle
 10
87.45834495992271
 20
118.3504973748748
 30
0.0
 40
1.699999999999988
  0
ARC
  5
5E0
330
1F
100
AcDbEntity
  8
用紙-GR2
  6
Continuous
 62
     7
370
    20
100
AcDbCircle
 10
71.95834495992267
 20
102.8504973748741
 30
0.0
 40
7.999999999999997
100
AcDbArc
 50
281.4096221092725
 51
0.0
  0
ARC
  5
5E1
330
1F
100
AcDbEntity
  8
用紙-GR2
  6
Continuous
 62
     7
370
    20
100
AcDbCircle
 10
71.95834495992267
 20
102.8504973748741
 30
0.0
 40
7.999999999999997
100
AcDbArc
 50
161.4096221092794
 51
240.0000000000028
  0
ARC
  5
5E2
330
1F
100
AcDbEntity
  8
用紙-GR2
  6
Continuous
 62
     7
370
    20
100
AcDbCircle
 10
71.95834495992267
 20
102.8504973748741
 30
0.0
 40
7.999999999999997
100
AcDbArc
 50
112.1807557814596
 51
119.9999999999971
  0
ARC
  5
5E3
330
1F
100
AcDbEntity
  8
用紙-GR2
  6
Continuous
 62
     7
370
    20
100
AcDbCircle
 10
71.95834495992267
 20
102.8504973748741
 30
0.0
 40
7.999999999999997
100
AcDbArc
 50
41.40962210926963
 51
60.31924421853673
  0
LINE
  5
5E4
330
1F
100
AcDbEntity
  8
用紙-GR2
  6
Continuous
 62
     7
370
    20
100
AcDbLine
 10
79.95834495992268
 20
102.8504973748741
 30
0.0
 11
79.95834495992226
 21
114.3396226679507
 31
0.0
  0
LINE
  5
5E5
330
1F
100
AcDbEntity
  8
用紙-GR2
  6
Continuous
 62
     7
370
    20
100
AcDbLine
 10
77.9583449599227
 20
108.1419999970032
 30
0.0
 11
77.95834495992315
 21
115.4996080155473
 31
0.0
  0
LINE
  5
5E6
330
1F
100
AcDbEntity
  8
用紙-GR2
  6
Continuous
 62
     7
370
    20
100
AcDbLine
 10
67.95834495992224
 20
95.92229414459863
 30
0.0
 11
77.90821933098872
 21
90.17773149806052
 31
0.0
  0
LINE
  5
5E7
330
1F
100
AcDbEntity
  8
用紙-GR2
  6
Continuous
 62
     7
370
    20
100
AcDbLine
 10
73.54092065487842
 20
95.0085936411029
 30
0.0
 11
79.91279611002622
 21
91.32978963183097
 31
0.0
  0
LINE
  5
5E8
330
1F
100
AcDbEntity
  8
用紙-GR2
  6
Continuous
 62
     7
370
    20
100
AcDbLine
 10
67.9583449599227
 20
109.7787006051494
 30
0.0
 11
58.00847058885668
 21
104.0341379586116
 31
0.0
  0
LINE
  5
5E9
330
1F
100
AcDbEntity
  8
用紙-GR2
  6
Continuous
 62
     7
370
    20
100
AcDbLine
 10
64.37576926496652
 20
105.4008984865158
 30
0.0
 11
58.00389380981915
 21
101.7220944772437
 31
0.0
  0
LINE
  5
5EA
330
1F
100
AcDbEntity
  8
用紙-GR2
  6
Continuous
 62
     7
370
    20
100
AcDbLine
 10
79.95834495992268
 20
108.9891132787059
 30
0.0
 11
83.06529172399999
 21
111.3731573809965
 31
0.0
  0
LINE
  5
5EB
330
1F
100
AcDbEntity
  8
用紙-GR2
  6
Continuous
 62
     7
370
    20
100
AcDbLine
 10
79.95834495992318
 20
105.4498549447379
 30
0.0
 11
85.27313618805512
 21
107.1767352961243
 31
0.0
  0
LINE
  5
5EC
330
1F
100
AcDbEntity
  8
用紙-GR2
  6
Continuous
 62
     7
370
    20
100
AcDbLine
 10
78.55135446889929
 20
98.3192474794761
 30
0.0
 11
83.49611160063117
 21
94.9208100579268
 31
0.0
  0
LINE
  5
5ED
330
1F
100
AcDbEntity
  8
用紙-GR2
  6
Continuous
 62
     7
370
    20
100
AcDbLine
 10
76.66062697826288
 20
96.37836141987502
 30
0.0
 11
80.18733849201819
 21
91.52425945362498
 31
0.0
  0
LINE
  5
5EE
330
1F
100
AcDbEntity
  8
用紙-GR2
  6
Continuous
 62
     7
370
    20
100
AcDbLine
 10
69.62165939410309
 20
94.96197910827763
 30
0.0
 11
67.98213013406897
 21
89.42702108671971
 31
0.0
  0
ARC
  5
5EF
330
1F
100
AcDbEntity
  8
用紙-GR2
  6
Continuous
 62
     7
370
    20
100
AcDbCircle
 10
71.95834495992315
 20
102.8504973748746
 30
0.0
 40
14.0
100
AcDbArc
 50
304.6230664748354
 51
306.0000000000044
  0
LINE
  5
5F0
330
1F
100
AcDbEntity
  8
用紙-GR2
  6
Continuous
 62
     7
370
    20
100
AcDbLine
 10
67.2560629415839
 20
96.37836141987376
 30
0.0
 11
63.72935142782948
 21
91.52425945362498
 31
0.0
  0
LINE
  5
5F1
330
1F
100
AcDbEntity
  8
用紙-GR2
  6
Continuous
 62
     7
370
    20
100
AcDbLine
 10
63.96108636011835
 20
102.6410817884111
 30
0.0
 11
59.38822270838998
 21
102.5213371394801
 31
0.0
  0
LINE
  5
5F2
330
1F
100
AcDbEntity
  8
用紙-GR2
  6
Continuous
 62
     7
370
    20
100
AcDbLine
 10
61.72016275166563
 20
106.1770844279581
 30
0.0
 11
58.64355373179071
 21
107.1767352961228
 31
0.0
  0
LINE
  5
5F3
330
1F
100
AcDbEntity
  8
用紙-GR2
  6
Continuous
 62
     7
370
    20
100
AcDbLine
 10
74.90695986538142
 20
109.9690834698476
 30
0.0
 11
77.29614481227784
 21
115.7370861716631
 31
0.0
  0
LINE
  5
5F4
330
1F
100
AcDbEntity
  8
用紙-GR2
  6
Continuous
 62
     7
370
    20
100
AcDbLine
 10
75.5335330847193
 20
108.8686391040391
 30
0.0
 11
77.9583449599227
 21
114.7226528193596
 31
0.0
  0
LINE
  5
5F5
330
1F
100
AcDbEntity
  8
用紙-GR2
  6
DASHDOT
 62
     6
370
    20
100
AcDbLine
 10
306.9981090496852
 20
102.8504973748746
 30
0.0
 11
346.9562584852864
 21
102.8504973748746
 31
0.0
  0
LINE
  5
5F6
330
1F
100
AcDbEntity
  8
用紙-GR2
  6
Continuous
 62
     7
370
    20
100
AcDbLine
 10
309.9211329904127
 20
120.3504973748744
 30
0.0
 11
342.9211329904131
 21
120.350497374874
 31
0.0
  0
ARC
  5
5F7
330
1F
100
AcDbEntity
  8
用紙-GR2
  6
Continuous
 62
     7
370
    20
100
AcDbCircle
 10
342.9211329904131
 20
119.350497374874
 30
0.0
 40
1.0
100
AcDbArc
 50
0.0
 51
90.0
  0
LINE
  5
5F8
330
1F
100
AcDbEntity
  8
用紙-GR2
  6
Continuous
 62
     7
370
    20
100
AcDbLine
 10
309.9211329904127
 20
85.35049737487417
 30
0.0
 11
342.9211329904128
 21
85.35049737487417
 31
0.0
  0
ARC
  5
5F9
330
1F
100
AcDbEntity
  8
用紙-GR2
  6
Continuous
 62
     7
370
    20
100
AcDbCircle
 10
309.9211329904127
 20
86.35049737487415
 30
0.0
 40
1.0
100
AcDbArc
 50
180.0
 51
270.0
  0
LINE
  5
5FA
330
1F
100
AcDbEntity
  8
用紙-GR2
  6
Continuous
 62
     7
370
    20
100
AcDbLine
 10
308.9211329904128
 20
119.3504973748743
 30
0.0
 11
308.9211329904128
 21
86.35049737487415
 31
0.0
  0
ARC
  5
5FB
330
1F
100
AcDbEntity
  8
用紙-GR2
  6
Continuous
 62
     7
370
    20
100
AcDbCircle
 10
309.9211329904127
 20
119.3504973748743
 30
0.0
 40
1.0
100
AcDbArc
 50
90.0
 51
180.0
  0
LINE
  5
5FC
330
1F
100
AcDbEntity
  8
用紙-GR2
  6
Continuous
 62
     7
370
    20
100
AcDbLine
 10
343.9211329904131
 20
119.350497374874
 30
0.0
 11
343.9211329904127
 21
86.35049737487415
 31
0.0
  0
ARC
  5
5FD
330
1F
100
AcDbEntity
  8
用紙-GR2
  6
Continuous
 62
     7
370
    20
100
AcDbCircle
 10
342.9211329904128
 20
86.35049737487415
 30
0.0
 40
1.0
100
AcDbArc
 50
270.0
 51
0.0
  0
LINE
  5
5FE
330
1F
100
AcDbEntity
  8
用紙-GR2
  6
Continuous
 62
     7
370
    20
100
AcDbLine
 10
264.0583449599233
 20
118.3504973748744
 30
0.0
 11
262.9583449599231
 21
118.3504973748744
 31
0.0
  0
LINE
  5
5FF
330
1F
100
AcDbEntity
  8
用紙-GR2
  6
Continuous
 62
     7
370
    20
100
AcDbLine
 10
264.0583449599228
 20
113.3504973748746
 30
0.0
 11
262.9583449599231
 21
113.3504973748746
 31
0.0
  0
LINE
  5
600
330
1F
100
AcDbEntity
  8
用紙-GR2
  6
Continuous
 62
     7
370
    20
100
AcDbLine
 10
264.2583449599227
 20
113.5504973748748
 30
0.0
 11
264.0583449599228
 21
113.3504973748746
 31
0.0
  0
LINE
  5
601
330
1F
100
AcDbEntity
  8
用紙-GR2
  6
Continuous
 62
     7
370
    20
100
AcDbLine
 10
264.2583449599232
 20
118.1504973748745
 30
0.0
 11
264.2583449599227
 21
113.5504973748748
 31
0.0
  0
LINE
  5
602
330
1F
100
AcDbEntity
  8
用紙-GR2
  6
Continuous
 62
     7
370
    20
100
AcDbLine
 10
264.0583449599233
 20
118.3504973748744
 30
0.0
 11
264.2583449599232
 21
118.1504973748745
 31
0.0
  0
LINE
  5
603
330
1F
100
AcDbEntity
  8
用紙-GR2
  6
Continuous
 62
     7
370
    20
100
AcDbLine
 10
262.9583449599231
 20
118.3504973748744
 30
0.0
 11
262.9583449599231
 21
113.3504973748746
 31
0.0
  0
LINE
  5
604
330
1F
100
AcDbEntity
  8
用紙-GR2
  6
Continuous
 62
     7
370
    20
100
AcDbLine
 10
264.0583449599233
 20
118.3504973748744
 30
0.0
 11
264.0583449599228
 21
113.3504973748746
 31
0.0
  0
CIRCLE
  5
605
330
1F
100
AcDbEntity
  8
用紙-GR2
  6
Continuous
 62
     7
370
    20
100
AcDbCircle
 10
313.4211329904142
 20
115.8504973748751
 30
0.0
 40
2.499999999999544
  0
CIRCLE
  5
606
330
1F
100
AcDbEntity
  8
用紙-GR2
  6
Continuous
 62
     7
370
    20
100
AcDbCircle
 10
313.4211329904142
 20
115.8504973748751
 30
0.0
 40
2.299999999999488
  0
LINE
  5
607
330
1F
100
AcDbEntity
  8
用紙-GR2
  6
DASHDOT
 62
     6
370
    20
100
AcDbLine
 10
326.4211329904131
 20
122.3943977122111
 30
0.0
 11
326.4211329904131
 21
83.28187683617541
 31
0.0
  0
LINE
  5
608
330
1F
100
AcDbEntity
  8
用紙-GR2
  6
Continuous
 62
     7
370
    20
100
AcDbLine
 10
260.4583449599238
 20
33.18232629152608
 30
0.0
 11
260.4583449599225
 21
66.18232629152609
 31
0.0
  0
LINE
  5
609
330
1F
100
AcDbEntity
  8
用紙-GR2
  6
Continuous
 62
     7
370
    20
100
AcDbLine
 10
208.4583449599235
 20
32.18232629152653
 30
0.0
 11
259.458344959924
 21
32.18232629152609
 31
0.0
  0
ARC
  5
60A
330
1F
100
AcDbEntity
  8
用紙-GR2
  6
Continuous
 62
     7
370
    20
100
AcDbCircle
 10
259.458344959924
 20
33.18232629152608
 30
0.0
 40
1.0
100
AcDbArc
 50
270.0
 51
0.0
  0
LINE
  5
60B
330
1F
100
AcDbEntity
  8
用紙-GR2
  6
Continuous
 62
     7
370
    20
100
AcDbLine
 10
208.4583449599235
 20
67.18232629152609
 30
0.0
 11
259.4583449599226
 21
67.18232629152609
 31
0.0
  0
ARC
  5
60C
330
1F
100
AcDbEntity
  8
用紙-GR2
  6
Continuous
 62
     7
370
    20
100
AcDbCircle
 10
259.4583449599226
 20
66.18232629152609
 30
0.0
 40
1.0
100
AcDbArc
 50
0.0
 51
90.0
  0
LINE
  5
60D
330
1F
100
AcDbEntity
  8
用紙-GR2
  6
Continuous
 62
     7
370
    20
100
AcDbLine
 10
208.4583449599235
 20
32.18232629152653
 30
0.0
 11
208.4583449599235
 21
67.18232629152609
 31
0.0
  0
LINE
  5
60E
330
1F
100
AcDbEntity
  8
用紙-GR2
  6
DASHDOT
 62
     6
370
    20
100
AcDbLine
 10
250.4583449599235
 20
36.68232629152654
 30
0.0
 11
250.458344959923
 21
62.68232629152652
 31
0.0
  0
LINE
  5
60F
330
1F
100
AcDbEntity
  8
用紙-GR2
  6
DASHDOT
 62
     6
370
    20
100
AcDbLine
 10
253.4583449599229
 20
59.68232629152652
 30
0.0
 11
247.4583449599232
 21
59.68232629152652
 31
0.0
  0
LINE
  5
610
330
1F
100
AcDbEntity
  8
用紙-GR2
  6
DASHDOT
 62
     6
370
    20
100
AcDbLine
 10
253.4583449599235
 20
39.68232629152653
 30
0.0
 11
247.4583449599232
 21
39.68232629152653
 31
0.0
  0
CIRCLE
  5
611
330
1F
100
AcDbEntity
  8
用紙-GR2
  6
Continuous
 62
     7
370
    20
100
AcDbCircle
 10
250.458344959923
 20
59.68232629152652
 30
0.0
 40
1.999999999999998
  0
CIRCLE
  5
612
330
1F
100
AcDbEntity
  8
用紙-GR2
  6
Continuous
 62
     7
370
    20
100
AcDbCircle
 10
250.458344959923
 20
59.68232629152652
 30
0.0
 40
1.599999999999997
  0
CIRCLE
  5
613
330
1F
100
AcDbEntity
  8
用紙-GR2
  6
Continuous
 62
     7
370
    20
100
AcDbCircle
 10
250.458344959923
 20
39.68232629152653
 30
0.0
 40
1.999999999999998
  0
CIRCLE
  5
614
330
1F
100
AcDbEntity
  8
用紙-GR2
  6
Continuous
 62
     7
370
    20
100
AcDbCircle
 10
250.458344959923
 20
39.68232629152653
 30
0.0
 40
1.599999999999997
  0
LINE
  5
615
330
1F
100
AcDbEntity
  8
用紙-GR2
  6
Continuous
 62
     7
370
    20
100
AcDbLine
 10
208.4583449599235
 20
67.18232629152698
 30
0.0
 11
208.4583449599235
 21
32.18232629152697
 31
0.0
  0
LINE
  5
616
330
1F
100
AcDbEntity
  8
用紙-GR2
  6
Continuous
 62
     7
370
    20
100
AcDbLine
 10
204.4583449599236
 20
66.18232629152652
 30
0.0
 11
204.4583449599233
 21
33.18232629152651
 31
0.0
  0
ARC
  5
617
330
1F
100
AcDbEntity
  8
用紙-GR2
  6
Continuous
 62
     7
370
    20
100
AcDbCircle
 10
205.4583449599236
 20
66.18232629152652
 30
0.0
 40
1.0
100
AcDbArc
 50
90.0
 51
115.8418934494987
  0
LINE
  5
618
330
1F
100
AcDbEntity
  8
用紙-GR2
  6
Continuous
 62
     7
370
    20
100
AcDbLine
 10
208.4583449599235
 20
67.18232629152652
 30
0.0
 11
208.4583449599235
 21
32.18232629152653
 31
0.0
  0
LINE
  5
619
330
1F
100
AcDbEntity
  8
用紙-GR2
  6
Continuous
 62
     7
370
    20
100
AcDbLine
 10
208.4583449599235
 20
67.18232629152652
 30
0.0
 11
205.4583449599236
 21
67.18232629152652
 31
0.0
  0
LINE
  5
61A
330
1F
100
AcDbEntity
  8
用紙-GR2
  6
Continuous
 62
     7
370
    20
100
AcDbLine
 10
208.4583449599235
 20
32.18232629152653
 30
0.0
 11
205.4583449599233
 21
32.18232629152653
 31
0.0
  0
ARC
  5
61B
330
1F
100
AcDbEntity
  8
用紙-GR2
  6
Continuous
 62
     7
370
    20
100
AcDbCircle
 10
205.4583449599233
 20
33.18232629152651
 30
0.0
 40
1.0
100
AcDbArc
 50
244.1580279232274
 51
270.0
  0
LINE
  5
61C
330
1F
100
AcDbEntity
  8
用紙-GR2
  6
Continuous
 62
     7
370
    20
100
AcDbLine
 10
194.4583449599211
 20
55.68232629152698
 30
0.0
 11
194.4583449599211
 21
43.6823262915265
 31
0.0
  0
ARC
  5
61D
330
1F
100
AcDbEntity
  8
用紙-GR2
  6
Continuous
 62
     7
370
    20
100
AcDbCircle
 10
195.4583449599214
 20
55.68232629152698
 30
0.0
 40
1.0
100
AcDbArc
 50
90.0
 51
180.0
  0
LINE
  5
61E
330
1F
100
AcDbEntity
  8
用紙-GR2
  6
Continuous
 62
     7
370
    20
100
AcDbLine
 10
204.4583449599233
 20
56.68232629152698
 30
0.0
 11
195.4583449599214
 21
56.68232629152698
 31
0.0
  0
LINE
  5
61F
330
1F
100
AcDbEntity
  8
用紙-GR2
  6
Continuous
 62
     7
370
    20
100
AcDbLine
 10
204.4583449599233
 20
42.68232629152651
 30
0.0
 11
195.4583449599214
 21
42.68232629152651
 31
0.0
  0
ARC
  5
620
330
1F
100
AcDbEntity
  8
用紙-GR2
  6
Continuous
 62
     7
370
    20
100
AcDbCircle
 10
195.4583449599214
 20
43.6823262915265
 30
0.0
 40
1.0
100
AcDbArc
 50
180.0
 51
270.0
  0
LINE
  5
621
330
1F
100
AcDbEntity
  8
用紙-GR2
  6
Continuous
 62
     7
370
    20
100
AcDbLine
 10
206.4583449599235
 20
62.93232629152653
 30
0.0
 11
204.4583449599236
 21
62.93232629152653
 31
0.0
  0
LINE
  5
622
330
1F
100
AcDbEntity
  8
用紙-GR2
  6
Continuous
 62
     7
370
    20
100
AcDbLine
 10
206.4583449599235
 20
67.18232629152652
 30
0.0
 11
206.4583449599235
 21
62.93232629152653
 31
0.0
  0
LINE
  5
623
330
1F
100
AcDbEntity
  8
用紙-GR2
  6
Continuous
 62
     7
370
    20
100
AcDbLine
 10
206.4583449599235
 20
36.43232629152702
 30
0.0
 11
204.4583449599236
 21
36.43232629152653
 31
0.0
  0
LINE
  5
624
330
1F
100
AcDbEntity
  8
用紙-GR2
  6
Continuous
 62
     7
370
    20
100
AcDbLine
 10
206.4583449599235
 20
32.18232629152653
 30
0.0
 11
206.4583449599235
 21
36.43232629152702
 31
0.0
  0
LINE
  5
625
330
1F
100
AcDbEntity
  8
用紙-GR2
  6
Continuous
 62
     7
370
    20
100
AcDbLine
 10
206.4583449599235
 20
63.28232659061331
 30
0.0
 11
206.4583449599235
 21
67.08232659061351
 31
0.0
  0
LINE
  5
626
330
1F
100
AcDbEntity
  8
用紙-GR2
  6
Continuous
 62
     7
370
    20
100
AcDbLine
 10
204.6583449599234
 20
63.28232659061331
 30
0.0
 11
204.6583449599234
 21
67.08232659061351
 31
0.0
  0
LINE
  5
627
330
1F
100
AcDbEntity
  8
用紙-GR2
  6
Continuous
 62
     7
370
    20
100
AcDbLine
 10
204.4583449599236
 20
63.48232659061313
 30
0.0
 11
204.4583449599236
 21
66.88232659061322
 31
0.0
  0
LINE
  5
628
330
1F
100
AcDbEntity
  8
用紙-GR2
  6
Continuous
 62
     7
370
    20
100
AcDbLine
 10
204.6583449599234
 20
67.08232659061351
 30
0.0
 11
206.4583449599235
 21
67.08232659061351
 31
0.0
  0
LINE
  5
629
330
1F
100
AcDbEntity
  8
用紙-GR2
  6
Continuous
 62
     7
370
    20
100
AcDbLine
 10
204.6583449599234
 20
67.08232659061351
 30
0.0
 11
204.4583449599236
 21
66.88232659061322
 31
0.0
  0
LINE
  5
62A
330
1F
100
AcDbEntity
  8
用紙-GR2
  6
Continuous
 62
     7
370
    20
100
AcDbLine
 10
204.6583449599234
 20
63.28232659061331
 30
0.0
 11
206.4583449599235
 21
63.28232659061331
 31
0.0
  0
LINE
  5
62B
330
1F
100
AcDbEntity
  8
用紙-GR2
  6
Continuous
 62
     7
370
    20
100
AcDbLine
 10
204.6583449599234
 20
63.28232659061331
 30
0.0
 11
204.4583449599236
 21
63.48232659061313
 31
0.0
  0
LINE
  5
62C
330
1F
100
AcDbEntity
  8
用紙-GR2
  6
Continuous
 62
     7
370
    20
100
AcDbLine
 10
206.4583449599235
 20
32.28232659061332
 30
0.0
 11
206.4583449599235
 21
36.08232659061349
 31
0.0
  0
LINE
  5
62D
330
1F
100
AcDbEntity
  8
用紙-GR2
  6
Continuous
 62
     7
370
    20
100
AcDbLine
 10
204.6583449599234
 20
32.28232659061332
 30
0.0
 11
204.6583449599234
 21
36.08232659061349
 31
0.0
  0
LINE
  5
62E
330
1F
100
AcDbEntity
  8
用紙-GR2
  6
Continuous
 62
     7
370
    20
100
AcDbLine
 10
204.4583449599236
 20
32.48232659061311
 30
0.0
 11
204.4583449599236
 21
35.88232659061322
 31
0.0
  0
LINE
  5
62F
330
1F
100
AcDbEntity
  8
用紙-GR2
  6
Continuous
 62
     7
370
    20
100
AcDbLine
 10
204.6583449599234
 20
36.08232659061349
 30
0.0
 11
206.4583449599235
 21
36.08232659061349
 31
0.0
  0
LINE
  5
630
330
1F
100
AcDbEntity
  8
用紙-GR2
  6
Continuous
 62
     7
370
    20
100
AcDbLine
 10
204.6583449599234
 20
36.08232659061349
 30
0.0
 11
204.4583449599236
 21
35.88232659061322
 31
0.0
  0
LINE
  5
631
330
1F
100
AcDbEntity
  8
用紙-GR2
  6
Continuous
 62
     7
370
    20
100
AcDbLine
 10
204.6583449599234
 20
32.28232659061332
 30
0.0
 11
206.4583449599235
 21
32.28232659061332
 31
0.0
  0
LINE
  5
632
330
1F
100
AcDbEntity
  8
用紙-GR2
  6
Continuous
 62
     7
370
    20
100
AcDbLine
 10
204.6583449599234
 20
32.28232659061332
 30
0.0
 11
204.4583449599236
 21
32.48232659061311
 31
0.0
  0
LINE
  5
633
330
1F
100
AcDbEntity
  8
用紙-GR2
  6
Continuous
 62
     7
370
    20
100
AcDbLine
 10
194.4583449599211
 20
46.68232629152676
 30
0.0
 11
167.8809946907336
 21
46.68232629152676
 31
0.0
  0
LINE
  5
634
330
1F
100
AcDbEntity
  8
用紙-GR2
  6
Continuous
 62
     7
370
    20
100
AcDbLine
 10
194.4583449599208
 20
52.68232629152676
 30
0.0
 11
171.3450963058717
 21
52.68232629152676
 31
0.0
  0
LINE
  5
635
330
1F
100
AcDbEntity
  8
用紙-GR2
  6
Continuous
 62
     7
370
    20
100
AcDbLine
 10
167.0188740942409
 20
45.18908961614892
 30
0.0
 11
171.6298666331745
 21
53.17556296690412
 31
0.0
  0
LINE
  5
636
330
1F
100
AcDbEntity
  8
用紙-GR2
  6
DASHDOT
 62
     6
370
    20
100
AcDbLine
 10
291.4860210949987
 20
49.68232629152653
 30
0.0
 11
164.9788604342981
 21
49.68232629152653
 31
0.0
  0
DIMENSION
  5
637
330
1F
100
AcDbEntity
  8
用紙-GR2
100
AcDbDimension
  2
*D46
 10
204.4583449599233
 20
128.0534658991401
 30
0.0
 11
156.9583449599232
 21
130.3034658991401
 31
0.0
 70
    32
 71
     5
 42
95.00000000000015
  3
FXDIMINFO
100
AcDbAlignedDimension
 13
109.4583449599231
 23
107.6016502776844
 33
0.0
 14
204.4583449599233
 24
119.3504973748745
 34
0.0
 50
180.0
100
AcDbRotatedDimension
1001
ACAD
1000
DSTYLE
1002
{
1070
   173
1070
     1
1070
   344
1005
48
1070
   343
1005
42
1002
}
  0
DIMENSION
  5
641
330
1F
100
AcDbEntity
  8
用紙-GR2
100
AcDbDimension
  2
*D47
 10
357.3945944140234
 20
120.3504973748739
 30
0.0
 11
355.1445944140234
 21
102.8504973748741
 31
0.0
 70
    33
 71
     5
 42
34.99999999999984
  3
FXDIMINFO
100
AcDbAlignedDimension
 13
342.9211329904128
 23
85.35049737487417
 33
0.0
 14
342.921132990413
 24
120.350497374874
 34
0.0
1001
ACAD
1000
DSTYLE
1002
{
1070
   173
1070
     1
1070
   344
1005
48
1070
   343
1005
42
1002
}
  0
DIMENSION
  5
64B
330
1F
100
AcDbEntity
  8
用紙-GR2
100
AcDbDimension
  2
*D48
 10
343.9211329904127
 20
74.33581275954523
 30
0.0
 11
326.4211329904127
 21
76.58581275954523
 31
0.0
 70
    33
 71
     5
 42
34.99999999999988
  3
FXDIMINFO
100
AcDbAlignedDimension
 13
308.9211329904128
 23
86.35049737487415
 33
0.0
 14
343.9211329904127
 24
86.35049737487415
 34
0.0
1001
ACAD
1000
DSTYLE
1002
{
1070
   173
1070
     1
1070
   344
1005
48
1070
   343
1005
42
1002
}
  0
INSERT
  5
658
330
1F
100
AcDbEntity
  8
0
100
AcDbBlockReference
  2
FXDIM051
 10
-9.426834946619386
 20
-45.89412157784798
 30
0.0
 41
1.414
 42
1.414
 43
1.414
  0
INSERT
  5
660
330
1F
100
AcDbEntity
  8
0
100
AcDbBlockReference
  2
FXDIM052
 10
-9.426834946619386
 20
-45.89412157784798
 30
0.0
 41
1.414
 42
1.414
 43
1.414
  0
DIMENSION
  5
665
330
1F
100
AcDbEntity
  8
用紙-GR2
100
AcDbDimension
  2
*D51
 10
237.9338725517746
 20
59.68232629152652
 30
0.0
 11
235.6838725517746
 21
49.68232629152656
 31
0.0
 70
    33
 71
     5
 42
19.99999999999998
  3
FXDIMINFO
100
AcDbAlignedDimension
 13
247.4583449599232
 23
39.68232629152653
 33
0.0
 14
247.4583449599232
 24
59.68232629152651
 34
0.0
1001
ACAD
1000
DSTYLE
1002
{
1070
   173
1070
     1
1070
   344
1005
48
1070
   343
1005
42
1002
}
  0
INSERT
  5
672
330
1F
100
AcDbEntity
  8
0
100
AcDbBlockReference
  2
FXDIM054
 10
-9.426834946619386
 20
-45.89412157784798
 30
0.0
 41
1.414
 42
1.414
 43
1.414
  0
TEXT
  5
677
330
1F
100
AcDbEntity
  8
用紙-GR2
  6
Continuous
 62
     6
370
    20
100
AcDbText
 10
45.93402949429858
 20
43.03793103445671
 30
0.0
 40
3.535
  1
H-1VH4-V1/H-1VH4-V2取付時
 41
0.8
  7
FX_VECTOR
100
AcDbText
  0
LINE
  5
678
330
1F
100
AcDbEntity
  8
用紙-GR2
  6
Continuous
 62
     6
370
    20
100
AcDbLine
 10
110.9737740140902
 20
41.39222760775554
 30
0.0
 11
42.45199756650662
 21
41.39222760775554
 31
0.0
  0
INSERT
  5
67C
330
1F
100
AcDbEntity
  8
0
100
AcDbBlockReference
  2
FXDIM055
 10
-9.426834946619386
 20
-45.89412157784798
 30
0.0
 41
1.414
 42
1.414
 43
1.414
  0
INSERT
  5
684
330
1F
100
AcDbEntity
  8
0
100
AcDbBlockReference
  2
FXDIM056
 10
-9.426834946619386
 20
-45.89412157784798
 30
0.0
 41
1.414
 42
1.414
 43
1.414
  0
LINE
  5
689
330
1F
100
AcDbEntity
  8
用紙-GR2
  6
Continuous
 62
     7
370
    20
100
AcDbLine
 10
288.5583449602565
 20
109.8504973748745
 30
0.0
 11
270.458344959923
 21
109.8504973748745
 31
0.0
  0
LINE
  5
68A
330
1F
100
AcDbEntity
  8
用紙-GR2
  6
Continuous
 62
     7
370
    20
100
AcDbLine
 10
288.5583449602565
 20
109.8504973748745
 30
0.0
 11
288.7583449602565
 21
109.6504973748743
 31
0.0
  0
LINE
  5
68B
330
1F
100
AcDbEntity
  8
用紙-GR2
  6
Continuous
 62
     7
370
    20
100
AcDbLine
 10
288.7583449602565
 20
96.05049737487469
 30
0.0
 11
288.7583449602565
 21
109.6504973748743
 31
0.0
  0
LINE
  5
68C
330
1F
100
AcDbEntity
  8
用紙-GR2
  6
Continuous
 62
     7
370
    20
100
AcDbLine
 10
288.5583449602565
 20
95.85049737487445
 30
0.0
 11
270.458344959923
 21
95.85049737487445
 31
0.0
  0
LINE
  5
68D
330
1F
100
AcDbEntity
  8
用紙-GR2
  6
Continuous
 62
     7
370
    20
100
AcDbLine
 10
288.5583449602565
 20
95.85049737487445
 30
0.0
 11
288.7583449602565
 21
96.05049737487469
 31
0.0
  0
LINE
  5
68E
330
1F
100
AcDbEntity
  8
用紙-GR2
  6
Continuous
 62
     7
370
    20
100
AcDbLine
 10
270.458344959923
 20
111.3504973748745
 30
0.0
 11
270.458344959923
 21
94.35049737487469
 31
0.0
  0
LINE
  5
68F
330
1F
100
AcDbEntity
  8
用紙-GR2
  6
Continuous
 62
     7
370
    20
100
AcDbLine
 10
260.4583449599231
 20
118.8504973748746
 30
0.0
 11
262.9583449599231
 21
118.8504973748746
 31
0.0
  0
LINE
  5
690
330
1F
100
AcDbEntity
  8
用紙-GR2
  6
Continuous
 62
     7
370
    20
100
AcDbLine
 10
262.9583449599231
 20
111.8504973748746
 30
0.0
 11
269.9583449599231
 21
111.8504973748746
 31
0.0
  0
LINE
  5
691
330
1F
100
AcDbEntity
  8
用紙-GR2
  6
Continuous
 62
     7
370
    20
100
AcDbLine
 10
262.9583449599231
 20
118.8504973748746
 30
0.0
 11
262.9583449599231
 21
86.85049737487464
 31
0.0
  0
LINE
  5
692
330
1F
100
AcDbEntity
  8
用紙-GR2
  6
Continuous
 62
     7
370
    20
100
AcDbLine
 10
260.4583449599231
 20
86.85049737487464
 30
0.0
 11
262.9583449599231
 21
86.85049737487464
 31
0.0
  0
LINE
  5
693
330
1F
100
AcDbEntity
  8
用紙-GR2
  6
Continuous
 62
     7
370
    20
100
AcDbLine
 10
262.9583449599231
 20
93.85049737487461
 30
0.0
 11
269.9583449599231
 21
93.85049737487465
 31
0.0
  0
LINE
  5
694
330
1F
100
AcDbEntity
  8
用紙-GR2
  6
Continuous
 62
     7
370
    20
100
AcDbLine
 10
269.9583449599231
 20
111.8504973748746
 30
0.0
 11
270.458344959923
 21
111.3504973748745
 31
0.0
  0
LINE
  5
695
330
1F
100
AcDbEntity
  8
用紙-GR2
  6
Continuous
 62
     7
370
    20
100
AcDbLine
 10
269.9583449599231
 20
93.85049737487465
 30
0.0
 11
270.458344959923
 21
94.35049737487469
 31
0.0
  0
LINE
  5
696
330
1F
100
AcDbEntity
  8
用紙-GR2
  6
Continuous
 62
     6
370
    20
100
AcDbLine
 10
269.9583449599231
 20
93.85049737487465
 30
0.0
 11
269.9583449599231
 21
111.8504973748744
 31
0.0
  0
LINE
  5
697
330
1F
100
AcDbEntity
  8
用紙-GR2
  6
Continuous
 62
     6
370
    20
100
AcDbLine
 10
288.5583449602565
 20
95.85049737487445
 30
0.0
 11
288.5583449602567
 21
109.8504973748745
 31
0.0
  0
DIMENSION
  5
698
330
1F
100
AcDbEntity
  8
用紙-GR2
100
AcDbDimension
  2
*D55
 10
288.7583449602566
 20
128.0534658991401
 30
0.0
 11
246.6083449600899
 21
130.3034658991401
 31
0.0
 70
    32
 71
     5
 42
84.30000000033331
  3
FXDIMINFO
100
AcDbAlignedDimension
 13
204.4583449599233
 23
119.3504973748745
 33
0.0
 14
288.7583449602566
 24
109.6504973748743
 34
0.0
 50
180.0
100
AcDbRotatedDimension
1001
ACAD
1000
DSTYLE
1002
{
1070
   173
1070
     1
1070
   344
1005
48
1070
   343
1005
42
1002
}
  0
LINE
  5
6A2
330
1F
100
AcDbEntity
  8
用紙-GR2
  6
Continuous
 62
     7
370
    20
100
AcDbLine
 10
264.0583449599233
 20
87.35049737487457
 30
0.0
 11
262.9583449599231
 21
87.35049737487457
 31
0.0
  0
LINE
  5
6A3
330
1F
100
AcDbEntity
  8
用紙-GR2
  6
Continuous
 62
     7
370
    20
100
AcDbLine
 10
264.0583449599228
 20
92.35049737487463
 30
0.0
 11
262.9583449599231
 21
92.35049737487463
 31
0.0
  0
LINE
  5
6A4
330
1F
100
AcDbEntity
  8
用紙-GR2
  6
Continuous
 62
     7
370
    20
100
AcDbLine
 10
264.2583449599227
 20
92.15049737487438
 30
0.0
 11
264.0583449599228
 21
92.35049737487463
 31
0.0
  0
LINE
  5
6A5
330
1F
100
AcDbEntity
  8
用紙-GR2
  6
Continuous
 62
     7
370
    20
100
AcDbLine
 10
264.2583449599232
 20
87.55049737487468
 30
0.0
 11
264.2583449599227
 21
92.15049737487438
 31
0.0
  0
LINE
  5
6A6
330
1F
100
AcDbEntity
  8
用紙-GR2
  6
Continuous
 62
     7
370
    20
100
AcDbLine
 10
264.0583449599233
 20
87.35049737487457
 30
0.0
 11
264.2583449599232
 21
87.55049737487468
 31
0.0
  0
LINE
  5
6A7
330
1F
100
AcDbEntity
  8
用紙-GR2
  6
Continuous
 62
     7
370
    20
100
AcDbLine
 10
262.9583449599231
 20
87.35049737487457
 30
0.0
 11
262.9583449599231
 21
92.35049737487463
 31
0.0
  0
LINE
  5
6A8
330
1F
100
AcDbEntity
  8
用紙-GR2
  6
Continuous
 62
     7
370
    20
100
AcDbLine
 10
264.0583449599233
 20
87.35049737487457
 30
0.0
 11
264.0583449599228
 21
92.35049737487463
 31
0.0
  0
LINE
  5
6A9
330
1F
100
AcDbEntity
  8
用紙-GR2
  6
Continuous
 62
     7
370
    20
100
AcDbLine
 10
312.7711329904136
 20
116.2257750498479
 30
0.0
 11
312.7711329904136
 21
115.4752196999013
 31
0.0
  0
LINE
  5
6AA
330
1F
100
AcDbEntity
  8
用紙-GR2
  6
Continuous
 62
     7
370
    20
100
AcDbLine
 10
312.7711329904136
 20
115.4752196999013
 30
0.0
 11
313.4211329904136
 21
115.0999420249282
 31
0.0
  0
LINE
  5
6AB
330
1F
100
AcDbEntity
  8
用紙-GR2
  6
Continuous
 62
     7
370
    20
100
AcDbLine
 10
313.4211329904136
 20
115.0999420249282
 30
0.0
 11
314.0711329904134
 21
115.4752196999016
 31
0.0
  0
LINE
  5
6AC
330
1F
100
AcDbEntity
  8
用紙-GR2
  6
Continuous
 62
     7
370
    20
100
AcDbLine
 10
314.0711329904134
 20
115.4752196999016
 30
0.0
 11
314.0711329904134
 21
116.2257750498479
 31
0.0
  0
LINE
  5
6AD
330
1F
100
AcDbEntity
  8
用紙-GR2
  6
Continuous
 62
     7
370
    20
100
AcDbLine
 10
314.0711329904134
 20
116.2257750498479
 30
0.0
 11
313.4211329904136
 21
116.6010527248211
 31
0.0
  0
LINE
  5
6AE
330
1F
100
AcDbEntity
  8
用紙-GR2
  6
Continuous
 62
     7
370
    20
100
AcDbLine
 10
313.4211329904136
 20
116.6010527248211
 30
0.0
 11
312.7711329904136
 21
116.2257750498479
 31
0.0
  0
CIRCLE
  5
6AF
330
1F
100
AcDbEntity
  8
用紙-GR2
  6
Continuous
 62
     7
370
    20
100
AcDbCircle
 10
313.4211329904142
 20
89.85049737487415
 30
0.0
 40
2.499999999999544
  0
CIRCLE
  5
6B0
330
1F
100
AcDbEntity
  8
用紙-GR2
  6
Continuous
 62
     7
370
    20
100
AcDbCircle
 10
313.4211329904142
 20
89.85049737487415
 30
0.0
 40
2.299999999999488
  0
LINE
  5
6B1
330
1F
100
AcDbEntity
  8
用紙-GR2
  6
Continuous
 62
     7
370
    20
100
AcDbLine
 10
312.7711329904136
 20
89.47521969990122
 30
0.0
 11
312.7711329904136
 21
90.22577504984765
 31
0.0
  0
LINE
  5
6B2
330
1F
100
AcDbEntity
  8
用紙-GR2
  6
Continuous
 62
     7
370
    20
100
AcDbLine
 10
312.7711329904136
 20
90.22577504984765
 30
0.0
 11
313.4211329904136
 21
90.60105272482088
 31
0.0
  0
LINE
  5
6B3
330
1F
100
AcDbEntity
  8
用紙-GR2
  6
Continuous
 62
     7
370
    20
100
AcDbLine
 10
313.4211329904136
 20
90.60105272482088
 30
0.0
 11
314.0711329904134
 21
90.22577504984765
 31
0.0
  0
LINE
  5
6B4
330
1F
100
AcDbEntity
  8
用紙-GR2
  6
Continuous
 62
     7
370
    20
100
AcDbLine
 10
314.0711329904134
 20
90.22577504984765
 30
0.0
 11
314.0711329904134
 21
89.47521969990122
 31
0.0
  0
LINE
  5
6B5
330
1F
100
AcDbEntity
  8
用紙-GR2
  6
Continuous
 62
     7
370
    20
100
AcDbLine
 10
314.0711329904134
 20
89.47521969990123
 30
0.0
 11
313.4211329904136
 21
89.09994202492796
 31
0.0
  0
LINE
  5
6B6
330
1F
100
AcDbEntity
  8
用紙-GR2
  6
Continuous
 62
     7
370
    20
100
AcDbLine
 10
313.4211329904136
 20
89.09994202492796
 30
0.0
 11
312.7711329904136
 21
89.47521969990123
 31
0.0
  0
CIRCLE
  5
6B7
330
1F
100
AcDbEntity
  8
用紙-GR2
  6
Continuous
 62
     7
370
    20
100
AcDbCircle
 10
339.4211329904117
 20
115.8504973748751
 30
0.0
 40
2.499999999999544
  0
CIRCLE
  5
6B8
330
1F
100
AcDbEntity
  8
用紙-GR2
  6
Continuous
 62
     7
370
    20
100
AcDbCircle
 10
339.4211329904117
 20
115.8504973748751
 30
0.0
 40
2.299999999999488
  0
LINE
  5
6B9
330
1F
100
AcDbEntity
  8
用紙-GR2
  6
Continuous
 62
     7
370
    20
100
AcDbLine
 10
340.0711329904122
 20
116.2257750498479
 30
0.0
 11
340.0711329904122
 21
115.4752196999013
 31
0.0
  0
LINE
  5
6BA
330
1F
100
AcDbEntity
  8
用紙-GR2
  6
Continuous
 62
     7
370
    20
100
AcDbLine
 10
340.0711329904122
 20
115.4752196999013
 30
0.0
 11
339.4211329904125
 21
115.0999420249282
 31
0.0
  0
LINE
  5
6BB
330
1F
100
AcDbEntity
  8
用紙-GR2
  6
Continuous
 62
     7
370
    20
100
AcDbLine
 10
339.4211329904125
 20
115.0999420249282
 30
0.0
 11
338.7711329904127
 21
115.4752196999016
 31
0.0
  0
LINE
  5
6BC
330
1F
100
AcDbEntity
  8
用紙-GR2
  6
Continuous
 62
     7
370
    20
100
AcDbLine
 10
338.7711329904127
 20
115.4752196999016
 30
0.0
 11
338.7711329904127
 21
116.2257750498479
 31
0.0
  0
LINE
  5
6BD
330
1F
100
AcDbEntity
  8
用紙-GR2
  6
Continuous
 62
     7
370
    20
100
AcDbLine
 10
338.7711329904127
 20
116.2257750498479
 30
0.0
 11
339.4211329904125
 21
116.6010527248211
 31
0.0
  0
LINE
  5
6BE
330
1F
100
AcDbEntity
  8
用紙-GR2
  6
Continuous
 62
     7
370
    20
100
AcDbLine
 10
339.4211329904125
 20
116.6010527248211
 30
0.0
 11
340.0711329904122
 21
116.2257750498479
 31
0.0
  0
CIRCLE
  5
6BF
330
1F
100
AcDbEntity
  8
用紙-GR2
  6
Continuous
 62
     7
370
    20
100
AcDbCircle
 10
339.4211329904117
 20
89.85049737487415
 30
0.0
 40
2.499999999999544
  0
CIRCLE
  5
6C0
330
1F
100
AcDbEntity
  8
用紙-GR2
  6
Continuous
 62
     7
370
    20
100
AcDbCircle
 10
339.4211329904117
 20
89.85049737487415
 30
0.0
 40
2.299999999999488
  0
LINE
  5
6C1
330
1F
100
AcDbEntity
  8
用紙-GR2
  6
Continuous
 62
     7
370
    20
100
AcDbLine
 10
340.0711329904122
 20
89.47521969990122
 30
0.0
 11
340.0711329904122
 21
90.22577504984765
 31
0.0
  0
LINE
  5
6C2
330
1F
100
AcDbEntity
  8
用紙-GR2
  6
Continuous
 62
     7
370
    20
100
AcDbLine
 10
340.0711329904122
 20
90.22577504984765
 30
0.0
 11
339.4211329904125
 21
90.60105272482088
 31
0.0
  0
LINE
  5
6C3
330
1F
100
AcDbEntity
  8
用紙-GR2
  6
Continuous
 62
     7
370
    20
100
AcDbLine
 10
339.4211329904125
 20
90.60105272482088
 30
0.0
 11
338.7711329904127
 21
90.22577504984765
 31
0.0
  0
LINE
  5
6C4
330
1F
100
AcDbEntity
  8
用紙-GR2
  6
Continuous
 62
     7
370
    20
100
AcDbLine
 10
338.7711329904127
 20
90.22577504984765
 30
0.0
 11
338.7711329904127
 21
89.47521969990122
 31
0.0
  0
LINE
  5
6C5
330
1F
100
AcDbEntity
  8
用紙-GR2
  6
Continuous
 62
     7
370
    20
100
AcDbLine
 10
338.7711329904127
 20
89.47521969990123
 30
0.0
 11
339.4211329904125
 21
89.09994202492796
 31
0.0
  0
LINE
  5
6C6
330
1F
100
AcDbEntity
  8
用紙-GR2
  6
Continuous
 62
     7
370
    20
100
AcDbLine
 10
339.4211329904125
 20
89.09994202492796
 30
0.0
 11
340.0711329904122
 21
89.47521969990123
 31
0.0
  0
LINE
  5
6C7
330
1F
100
AcDbEntity
  8
用紙-GR2
  6
Continuous
 62
     7
370
    20
100
AcDbLine
 10
341.4211329904131
 20
118.8504973748746
 30
0.0
 11
311.4211329904131
 21
118.8504973748746
 31
0.0
  0
LINE
  5
6C8
330
1F
100
AcDbEntity
  8
用紙-GR2
  6
Continuous
 62
     7
370
    20
100
AcDbLine
 10
310.4211329904128
 20
117.8504973748745
 30
0.0
 11
310.4211329904128
 21
87.85049737487458
 31
0.0
  0
LINE
  5
6C9
330
1F
100
AcDbEntity
  8
用紙-GR2
  6
Continuous
 62
     7
370
    20
100
AcDbLine
 10
310.4211329904128
 20
117.8504973748745
 30
0.0
 11
311.4211329904131
 21
118.8504973748746
 31
0.0
  0
LINE
  5
6CA
330
1F
100
AcDbEntity
  8
用紙-GR2
  6
Continuous
 62
     7
370
    20
100
AcDbLine
 10
341.4211329904131
 20
86.85049737487464
 30
0.0
 11
311.4211329904131
 21
86.85049737487464
 31
0.0
  0
CIRCLE
  5
6CB
330
1F
100
AcDbEntity
  8
用紙-GR2
  6
Continuous
 62
     7
370
    20
100
AcDbCircle
 10
326.4211329904131
 20
102.8504973748746
 30
0.0
 40
5.499999999999992
  0
LINE
  5
6CC
330
1F
100
AcDbEntity
  8
用紙-GR2
  6
Continuous
 62
     7
370
    20
100
AcDbLine
 10
310.4211329904128
 20
87.85049737487458
 30
0.0
 11
311.4211329904131
 21
86.85049737487464
 31
0.0
  0
LINE
  5
6CD
330
1F
100
AcDbEntity
  8
用紙-GR2
  6
Continuous
 62
     7
370
    20
100
AcDbLine
 10
342.4211329904131
 20
117.8504973748745
 30
0.0
 11
342.4211329904131
 21
87.85049737487458
 31
0.0
  0
LINE
  5
6CE
330
1F
100
AcDbEntity
  8
用紙-GR2
  6
Continuous
 62
     7
370
    20
100
AcDbLine
 10
342.4211329904131
 20
117.8504973748745
 30
0.0
 11
341.4211329904131
 21
118.8504973748746
 31
0.0
  0
LINE
  5
6CF
330
1F
100
AcDbEntity
  8
用紙-GR2
  6
Continuous
 62
     7
370
    20
100
AcDbLine
 10
342.4211329904131
 20
87.85049737487458
 30
0.0
 11
341.4211329904131
 21
86.85049737487464
 31
0.0
  0
CIRCLE
  5
6D0
330
1F
100
AcDbEntity
  8
用紙-GR2
  6
Continuous
 62
     7
370
    20
100
AcDbCircle
 10
326.4211329904131
 20
102.8504973748746
 30
0.0
 40
8.999999999999943
  0
CIRCLE
  5
6D1
330
1F
100
AcDbEntity
  8
用紙-GR2
  6
Continuous
 62
     6
370
    20
100
AcDbCircle
 10
326.4211329904131
 20
102.8504973748746
 30
0.0
 40
8.50000000000003
  0
CIRCLE
  5
6D2
330
1F
100
AcDbEntity
  8
用紙-GR2
  6
Continuous
 62
     7
370
    20
100
AcDbCircle
 10
326.4211329904131
 20
102.8504973748746
 30
0.0
 40
7.0
  0
CIRCLE
  5
6D3
330
1F
100
AcDbEntity
  8
用紙-GR2
  6
Continuous
 62
     6
370
    20
100
AcDbCircle
 10
326.4211329904131
 20
102.8504973748746
 30
0.0
 40
6.799999999999924
  0
LINE
  5
6D4
330
1F
100
AcDbEntity
  8
用紙-GR2
  6
Continuous
 62
     7
370
    20
100
AcDbLine
 10
264.0583449599233
 20
65.18232629152652
 30
0.0
 11
262.9583449599231
 21
65.18232629152652
 31
0.0
  0
LINE
  5
6D5
330
1F
100
AcDbEntity
  8
用紙-GR2
  6
Continuous
 62
     7
370
    20
100
AcDbLine
 10
264.0583449599228
 20
60.18232629152652
 30
0.0
 11
262.9583449599231
 21
60.18232629152652
 31
0.0
  0
LINE
  5
6D6
330
1F
100
AcDbEntity
  8
用紙-GR2
  6
Continuous
 62
     7
370
    20
100
AcDbLine
 10
264.2583449599227
 20
60.38232629152677
 30
0.0
 11
264.0583449599228
 21
60.18232629152652
 31
0.0
  0
LINE
  5
6D7
330
1F
100
AcDbEntity
  8
用紙-GR2
  6
Continuous
 62
     7
370
    20
100
AcDbLine
 10
264.2583449599232
 20
64.98232629152649
 30
0.0
 11
264.2583449599227
 21
60.38232629152677
 31
0.0
  0
LINE
  5
6D8
330
1F
100
AcDbEntity
  8
用紙-GR2
  6
Continuous
 62
     7
370
    20
100
AcDbLine
 10
264.0583449599233
 20
65.18232629152652
 30
0.0
 11
264.2583449599232
 21
64.98232629152649
 31
0.0
  0
LINE
  5
6D9
330
1F
100
AcDbEntity
  8
用紙-GR2
  6
Continuous
 62
     7
370
    20
100
AcDbLine
 10
262.9583449599231
 20
65.18232629152652
 30
0.0
 11
262.9583449599231
 21
60.18232629152652
 31
0.0
  0
LINE
  5
6DA
330
1F
100
AcDbEntity
  8
用紙-GR2
  6
Continuous
 62
     7
370
    20
100
AcDbLine
 10
264.0583449599233
 20
65.18232629152652
 30
0.0
 11
264.0583449599228
 21
60.18232629152652
 31
0.0
  0
LINE
  5
6DB
330
1F
100
AcDbEntity
  8
用紙-GR2
  6
Continuous
 62
     7
370
    20
100
AcDbLine
 10
288.5583449602565
 20
56.68232629152654
 30
0.0
 11
270.458344959923
 21
56.68232629152654
 31
0.0
  0
LINE
  5
6DC
330
1F
100
AcDbEntity
  8
用紙-GR2
  6
Continuous
 62
     7
370
    20
100
AcDbLine
 10
288.5583449602565
 20
56.68232629152654
 30
0.0
 11
288.7583449602565
 21
56.48232629152645
 31
0.0
  0
LINE
  5
6DD
330
1F
100
AcDbEntity
  8
用紙-GR2
  6
Continuous
 62
     7
370
    20
100
AcDbLine
 10
288.7583449602565
 20
42.88232629152656
 30
0.0
 11
288.7583449602565
 21
56.48232629152645
 31
0.0
  0
LINE
  5
6DE
330
1F
100
AcDbEntity
  8
用紙-GR2
  6
Continuous
 62
     7
370
    20
100
AcDbLine
 10
288.5583449602565
 20
42.68232629152651
 30
0.0
 11
270.458344959923
 21
42.68232629152646
 31
0.0
  0
LINE
  5
6DF
330
1F
100
AcDbEntity
  8
用紙-GR2
  6
Continuous
 62
     7
370
    20
100
AcDbLine
 10
288.5583449602565
 20
42.68232629152651
 30
0.0
 11
288.7583449602565
 21
42.88232629152656
 31
0.0
  0
LINE
  5
6E0
330
1F
100
AcDbEntity
  8
用紙-GR2
  6
Continuous
 62
     7
370
    20
100
AcDbLine
 10
270.458344959923
 20
58.18232629152647
 30
0.0
 11
270.458344959923
 21
41.18232629152657
 31
0.0
  0
LINE
  5
6E1
330
1F
100
AcDbEntity
  8
用紙-GR2
  6
Continuous
 62
     7
370
    20
100
AcDbLine
 10
260.4583449599231
 20
65.68232629152658
 30
0.0
 11
262.9583449599231
 21
65.68232629152658
 31
0.0
  0
LINE
  5
6E2
330
1F
100
AcDbEntity
  8
用紙-GR2
  6
Continuous
 62
     7
370
    20
100
AcDbLine
 10
262.9583449599231
 20
58.68232629152656
 30
0.0
 11
269.9583449599231
 21
58.68232629152643
 31
0.0
  0
LINE
  5
6E3
330
1F
100
AcDbEntity
  8
用紙-GR2
  6
Continuous
 62
     7
370
    20
100
AcDbLine
 10
262.9583449599231
 20
65.68232629152658
 30
0.0
 11
262.9583449599231
 21
33.68232629152652
 31
0.0
  0
LINE
  5
6E4
330
1F
100
AcDbEntity
  8
用紙-GR2
  6
Continuous
 62
     7
370
    20
100
AcDbLine
 10
260.4583449599231
 20
33.68232629152652
 30
0.0
 11
262.9583449599231
 21
33.68232629152652
 31
0.0
  0
LINE
  5
6E5
330
1F
100
AcDbEntity
  8
用紙-GR2
  6
Continuous
 62
     7
370
    20
100
AcDbLine
 10
262.9583449599231
 20
40.68232629152652
 30
0.0
 11
269.9583449599231
 21
40.68232629152656
 31
0.0
  0
LINE
  5
6E6
330
1F
100
AcDbEntity
  8
用紙-GR2
  6
Continuous
 62
     7
370
    20
100
AcDbLine
 10
269.9583449599231
 20
58.68232629152643
 30
0.0
 11
270.458344959923
 21
58.18232629152647
 31
0.0
  0
LINE
  5
6E7
330
1F
100
AcDbEntity
  8
用紙-GR2
  6
Continuous
 62
     7
370
    20
100
AcDbLine
 10
269.9583449599231
 20
40.68232629152656
 30
0.0
 11
270.458344959923
 21
41.18232629152657
 31
0.0
  0
LINE
  5
6E8
330
1F
100
AcDbEntity
  8
用紙-GR2
  6
Continuous
 62
     6
370
    20
100
AcDbLine
 10
269.9583449599231
 20
40.68232629152656
 30
0.0
 11
269.9583449599231
 21
58.68232629152642
 31
0.0
  0
LINE
  5
6E9
330
1F
100
AcDbEntity
  8
用紙-GR2
  6
Continuous
 62
     6
370
    20
100
AcDbLine
 10
288.5583449602565
 20
42.68232629152651
 30
0.0
 11
288.5583449602567
 21
56.68232629152654
 31
0.0
  0
LINE
  5
6EA
330
1F
100
AcDbEntity
  8
用紙-GR2
  6
Continuous
 62
     7
370
    20
100
AcDbLine
 10
264.0583449599233
 20
34.18232629152655
 30
0.0
 11
262.9583449599231
 21
34.18232629152655
 31
0.0
  0
LINE
  5
6EB
330
1F
100
AcDbEntity
  8
用紙-GR2
  6
Continuous
 62
     7
370
    20
100
AcDbLine
 10
264.0583449599228
 20
39.18232629152652
 30
0.0
 11
262.9583449599231
 21
39.18232629152652
 31
0.0
  0
LINE
  5
6EC
330
1F
100
AcDbEntity
  8
用紙-GR2
  6
Continuous
 62
     7
370
    20
100
AcDbLine
 10
264.2583449599227
 20
38.98232629152623
 30
0.0
 11
264.0583449599228
 21
39.18232629152652
 31
0.0
  0
LINE
  5
6ED
330
1F
100
AcDbEntity
  8
用紙-GR2
  6
Continuous
 62
     7
370
    20
100
AcDbLine
 10
264.2583449599232
 20
34.38232629152658
 30
0.0
 11
264.2583449599227
 21
38.98232629152623
 31
0.0
  0
LINE
  5
6EE
330
1F
100
AcDbEntity
  8
用紙-GR2
  6
Continuous
 62
     7
370
    20
100
AcDbLine
 10
264.0583449599233
 20
34.18232629152655
 30
0.0
 11
264.2583449599232
 21
34.38232629152658
 31
0.0
  0
LINE
  5
6EF
330
1F
100
AcDbEntity
  8
用紙-GR2
  6
Continuous
 62
     7
370
    20
100
AcDbLine
 10
262.9583449599231
 20
34.18232629152655
 30
0.0
 11
262.9583449599231
 21
39.18232629152652
 31
0.0
  0
LINE
  5
6F0
330
1F
100
AcDbEntity
  8
用紙-GR2
  6
Continuous
 62
     7
370
    20
100
AcDbLine
 10
264.0583449599233
 20
34.18232629152655
 30
0.0
 11
264.0583449599228
 21
39.18232629152652
 31
0.0
  0
DIMENSION
  5
6FE
330
1F
100
AcDbEntity
  8
用紙-GR2
100
AcDbDimension
  2
*D57
 10
260.4583449599238
 20
24.48076691528686
 30
0.0
 11
255.4583449599236
 21
26.73076691528686
 31
0.0
 70
    32
 71
     5
 42
10.00000000000025
  3
FXDIMINFO
100
AcDbAlignedDimension
 13
250.4583449599235
 23
36.68232629152655
 33
0.0
 14
260.4583449599238
 24
33.18232629152606
 34
0.0
 50
180.0
100
AcDbRotatedDimension
1001
ACAD
1000
DSTYLE
1002
{
1070
   173
1070
     1
1070
   344
1005
48
1070
   343
1005
42
1002
}
  0
DIMENSION
  5
708
330
1F
100
AcDbEntity
  8
用紙-GR2
100
AcDbDimension
  2
*D58
 10
288.7583449602566
 20
24.48076691528686
 30
0.0
 11
274.6083449600902
 21
26.73076691528686
 31
0.0
 70
    32
 71
     5
 42
28.30000000033283
  3
FXDIMINFO
100
AcDbAlignedDimension
 13
260.4583449599238
 23
33.18232629152606
 33
0.0
 14
288.7583449602566
 24
42.88232629152656
 34
0.0
 50
180.0
100
AcDbRotatedDimension
1001
ACAD
1000
DSTYLE
1002
{
1070
   173
1070
     1
1070
   344
1005
48
1070
   343
1005
42
1002
}
  0
ENDSEC
  0
SECTION
  2
OBJECTS
  0
DICTIONARY
  5
C
330
0
100
AcDbDictionary
281
     1
  3
ACAD_GROUP
350
D
  3
ACAD_LAYOUT
350
1A
  3
ACAD_MLEADERSTYLE
350
714
  3
ACAD_MLINESTYLE
350
17
  3
ACAD_PLOTSETTINGS
350
19
  3
ACAD_PLOTSTYLENAME
350
E
  3
ACAD_TABLESTYLE
350
713
  3
ACAD_VISUALSTYLE
350
2A
  3
AcDbVariableDictionary
350
715
  0
DICTIONARY
  5
D
102
{ACAD_REACTORS
330
C
102
}
330
C
100
AcDbDictionary
281
     1
  0
DICTIONARY
  5
1A
102
{ACAD_REACTORS
330
C
102
}
330
C
100
AcDbDictionary
281
     1
  3
Layout1
350
1E
  3
Layout2
350
26
  3
Model
350
22
  0
DICTIONARY
  5
714
102
{ACAD_REACTORS
330
C
102
}
330
C
100
AcDbDictionary
281
     1
  0
DICTIONARY
  5
17
102
{ACAD_REACTORS
330
C
102
}
330
C
100
AcDbDictionary
281
     1
  3
Standard
350
18
  0
DICTIONARY
  5
19
102
{ACAD_REACTORS
330
C
102
}
330
C
100
AcDbDictionary
281
     1
  0
ACDBDICTIONARYWDFLT
  5
E
102
{ACAD_REACTORS
330
C
102
}
330
C
100
AcDbDictionary
281
     1
  3
Normal
350
F
100
AcDbDictionaryWithDefault
340
F
  0
DICTIONARY
  5
713
102
{ACAD_REACTORS
330
C
102
}
330
C
100
AcDbDictionary
281
     1
  0
DICTIONARY
  5
2A
102
{ACAD_REACTORS
330
C
102
}
330
C
100
AcDbDictionary
281
     1
  3
2dWireframe
350
2F
  3
3D Hidden
350
31
  3
3dWireframe
350
30
  3
Basic
350
32
  3
Brighten
350
36
  3
ColorChange
350
3A
  3
Conceptual
350
34
  3
Dim
350
35
  3
Facepattern
350
39
  3
Flat
350
2B
  3
FlatWithEdges
350
2C
  3
Gouraud
350
2D
  3
GouraudWithEdges
350
2E
  3
Linepattern
350
38
  3
Realistic
350
33
  3
Thicken
350
37
  0
DICTIONARY
  5
715
102
{ACAD_REACTORS
330
C
102
}
330
C
100
AcDbDictionary
281
     1
  3
PSOLHEIGHT
350
717
  3
PSOLWIDTH
350
716
  0
LAYOUT
  5
1E
102
{ACAD_REACTORS
330
1A
102
}
330
1A
100
AcDbPlotSettings
  1

  2
none_device
  4

  6

 40
0.0
 41
0.0
 42
0.0
 43
0.0
 44
0.0
 45
0.0
 46
0.0
 47
0.0
 48
0.0
 49
0.0
140
0.0
141
0.0
142
1.0
143
1.0
 70
   688
 72
     0
 73
     0
 74
     5
  7

 75
    16
147
1.0
148
0.0
149
0.0
100
AcDbLayout
  1
Layout1
 70
     1
 71
     1
 10
0.0
 20
0.0
 11
420.0
 21
297.0
 12
0.0
 22
0.0
 32
0.0
 14
1.000000000000000E+20
 24
1.000000000000000E+20
 34
1.000000000000000E+20
 15
-1.000000000000000E+20
 25
-1.000000000000000E+20
 35
-1.000000000000000E+20
146
0.0
 13
0.0
 23
0.0
 33
0.0
 16
1.0
 26
0.0
 36
0.0
 17
0.0
 27
1.0
 37
0.0
 76
     0
330
1B
  0
LAYOUT
  5
26
102
{ACAD_REACTORS
330
1A
102
}
330
1A
100
AcDbPlotSettings
  1

  2
none_device
  4

  6

 40
0.0
 41
0.0
 42
0.0
 43
0.0
 44
0.0
 45
0.0
 46
0.0
 47
0.0
 48
0.0
 49
0.0
140
0.0
141
0.0
142
1.0
143
1.0
 70
   688
 72
     0
 73
     0
 74
     5
  7

 75
    16
147
1.0
148
0.0
149
0.0
100
AcDbLayout
  1
Layout2
 70
     1
 71
     2
 10
0.0
 20
0.0
 11
0.0
 21
0.0
 12
0.0
 22
0.0
 32
0.0
 14
0.0
 24
0.0
 34
0.0
 15
0.0
 25
0.0
 35
0.0
146
0.0
 13
0.0
 23
0.0
 33
0.0
 16
1.0
 26
0.0
 36
0.0
 17
0.0
 27
1.0
 37
0.0
 76
     0
330
23
  0
LAYOUT
  5
22
102
{ACAD_REACTORS
330
1A
102
}
330
1A
100
AcDbPlotSettings
  1

  2
none_device
  4

  6

 40
0.0
 41
0.0
 42
0.0
 43
0.0
 44
0.0
 45
0.0
 46
0.0
 47
0.0
 48
0.0
 49
0.0
140
0.0
141
0.0
142
1.0
143
1.0
 70
  1712
 72
     0
 73
     0
 74
     0
  7

 75
     0
147
1.0
148
0.0
149
0.0
100
AcDbLayout
  1
Model
 70
     1
 71
     0
 10
0.0
 20
0.0
 11
297.0
 21
210.0
 12
0.0
 22
0.0
 32
0.0
 14
0.0
 24
0.0
 34
0.0
 15
297.0
 25
210.0
 35
0.0
146
0.0
 13
0.0
 23
0.0
 33
0.0
 16
1.0
 26
0.0
 36
0.0
 17
0.0
 27
1.0
 37
0.0
 76
     0
330
1F
331
29
  0
MLINESTYLE
  5
18
102
{ACAD_REACTORS
330
17
102
}
330
17
100
AcDbMlineStyle
  2
STANDARD
 70
     0
  3

 62
   256
 51
90.0
 52
90.0
 71
     2
 49
0.5
 62
   256
  6
BYLAYER
 49
-0.5
 62
   256
  6
BYLAYER
  0
ACDBPLACEHOLDER
  5
F
102
{ACAD_REACTORS
330
E
102
}
330
E
  0
VISUALSTYLE
  5
2F
102
{ACAD_REACTORS
330
2A
102
}
330
2A
100
AcDbVisualStyle
  2
2dWireframe
 70
     4
 71
     0
 72
     2
 73
     0
 90
        0
 40
-0.6
 41
-30.0
 62
     5
 63
     7
 74
     1
 91
        4
 64
     7
 65
   257
 75
     1
175
     1
 42
1.0
 92
        0
 66
   257
 43
1.0
 76
     1
 77
     6
 78
     2
 67
     7
 79
     5
170
     0
171
     0
290
     0
174
     0
 93
        1
 44
0.0
173
     0
291
     0
 45
0.0
1001
ACAD
1000
AcDbSavedByObjectVersion
1070
     0
  0
VISUALSTYLE
  5
31
102
{ACAD_REACTORS
330
2A
102
}
330
2A
100
AcDbVisualStyle
  2
3D Hidden
 70
     6
 71
     1
 72
     2
 73
     2
 90
        0
 40
-0.6
 41
-30.0
 62
     5
 63
     7
 74
     2
 91
        2
 64
     7
 65
   257
 75
     2
175
     1
 42
40.0
 92
        0
 66
   257
 43
1.0
 76
     1
 77
     6
 78
     2
 67
     7
 79
     3
170
     0
171
     0
290
     0
174
     0
 93
        1
 44
0.0
173
     0
291
     0
 45
0.0
1001
ACAD
1000
AcDbSavedByObjectVersion
1070
     0
  0
VISUALSTYLE
  5
30
102
{ACAD_REACTORS
330
2A
102
}
330
2A
100
AcDbVisualStyle
  2
3dWireframe
 70
     5
 71
     0
 72
     2
 73
     0
 90
        0
 40
-0.6
 41
-30.0
 62
     5
 63
     7
 74
     1
 91
        4
 64
     7
 65
   257
 75
     1
175
     1
 42
1.0
 92
        0
 66
   257
 43
1.0
 76
     1
 77
     6
 78
     2
 67
     7
 79
     5
170
     0
171
     0
290
     0
174
     0
 93
        1
 44
0.0
173
     0
291
     0
 45
0.0
1001
ACAD
1000
AcDbSavedByObjectVersion
1070
     0
  0
VISUALSTYLE
  5
32
102
{ACAD_REACTORS
330
2A
102
}
330
2A
100
AcDbVisualStyle
  2
Basic
 70
     7
 71
     1
 72
     0
 73
     1
 90
        0
 40
-0.6
 41
-30.0
 62
     5
 63
     7
 74
     0
 91
        4
 64
     7
 65
   257
 75
     1
175
     1
 42
1.0
 92
        8
 66
     7
 43
1.0
 76
     1
 77
     6
 78
     2
 67
     7
 79
     5
170
     0
171
     0
290
     0
174
     0
 93
        1
 44
0.0
173
     0
291
     1
 45
0.0
1001
ACAD
1000
AcDbSavedByObjectVersion
1070
     0
  0
VISUALSTYLE
  5
36
102
{ACAD_REACTORS
330
2A
102
}
330
2A
100
AcDbVisualStyle
  2
Brighten
 70
    12
 71
     2
 72
     2
 73
     0
 90
        0
 40
-0.6
 41
-30.0
 62
     5
 63
     7
 74
     1
 91
        4
 64
     7
 65
   257
 75
     1
175
     1
 42
1.0
 92
        8
 66
     7
 43
1.0
 76
     1
 77
     6
 78
     2
 67
     7
 79
     5
170
     0
171
     0
290
     0
174
     0
 93
        1
 44
50.0
173
     0
291
     1
 45
0.0
1001
ACAD
1000
AcDbSavedByObjectVersion
1070
     0
  0
VISUALSTYLE
  5
3A
102
{ACAD_REACTORS
330
2A
102
}
330
2A
100
AcDbVisualStyle
  2
ColorChange
 70
    16
 71
     2
 72
     2
 73
     3
 90
        0
 40
-0.6
 41
-30.0
 62
     5
 63
     8
 74
     1
 91
        4
 64
     7
 65
   257
 75
     1
175
     1
 42
1.0
 92
        8
 66
     8
 43
1.0
 76
     1
 77
     6
 78
     2
 67
     7
 79
     5
170
     0
171
     0
290
     0
174
     0
 93
        1
 44
0.0
173
     0
291
     1
 45
0.0
1001
ACAD
1000
AcDbSavedByObjectVersion
1070
     0
  0
VISUALSTYLE
  5
34
102
{ACAD_REACTORS
330
2A
102
}
330
2A
100
AcDbVisualStyle
  2
Conceptual
 70
     9
 71
     3
 72
     2
 73
     0
 90
        0
 40
-0.6
 41
-30.0
 62
     5
 63
     7
 74
     2
 91
        2
 64
     7
 65
   257
 75
     1
175
     1
 42
40.0
 92
        8
 66
     7
 43
1.0
 76
     1
 77
     6
 78
     2
 67
     7
 79
     3
170
     0
171
     0
290
     0
174
     0
 93
        1
 44
0.0
173
     0
291
     0
 45
0.0
1001
ACAD
1000
AcDbSavedByObjectVersion
1070
     0
  0
VISUALSTYLE
  5
35
102
{ACAD_REACTORS
330
2A
102
}
330
2A
100
AcDbVisualStyle
  2
Dim
 70
    11
 71
     2
 72
     2
 73
     0
 90
        0
 40
-0.6
 41
-30.0
 62
     5
 63
     7
 74
     1
 91
        4
 64
     7
 65
   257
 75
     1
175
     1
 42
1.0
 92
        8
 66
     7
 43
1.0
 76
     1
 77
     6
 78
     2
 67
     7
 79
     5
170
     0
171
     0
290
     0
174
     0
 93
        1
 44
-50.0
173
     0
291
     1
 45
0.0
1001
ACAD
1000
AcDbSavedByObjectVersion
1070
     0
  0
VISUALSTYLE
  5
39
102
{ACAD_REACTORS
330
2A
102
}
330
2A
100
AcDbVisualStyle
  2
Facepattern
 70
    15
 71
     2
 72
     2
 73
     0
 90
        0
 40
-0.6
 41
-30.0
 62
     5
 63
     7
 74
     1
 91
        4
 64
     7
 65
   257
 75
     1
175
     1
 42
1.0
 92
        8
 66
     7
 43
1.0
 76
     1
 77
     6
 78
     2
 67
     7
 79
     5
170
     0
171
     0
290
     0
174
     0
 93
        1
 44
0.0
173
     0
291
     1
 45
0.0
1001
ACAD
1000
AcDbSavedByObjectVersion
1070
     0
  0
VISUALSTYLE
  5
2B
102
{ACAD_REACTORS
330
2A
102
}
330
2A
100
AcDbVisualStyle
  2
Flat
 70
     0
 71
     2
 72
     1
 73
     1
 90
        2
 40
-0.6
 41
30.0
 62
     5
 63
     7
 74
     0
 91
        4
 64
     7
 65
   257
 75
     1
175
     1
 42
1.0
 92
        8
 66
     7
 43
1.0
 76
     1
 77
     6
 78
     2
 67
     7
 79
     5
170
     0
171
     0
290
     0
174
     0
 93
       13
 44
0.0
173
     0
291
     1
 45
0.0
1001
ACAD
1000
AcDbSavedByObjectVersion
1070
     0
  0
VISUALSTYLE
  5
2C
102
{ACAD_REACTORS
330
2A
102
}
330
2A
100
AcDbVisualStyle
  2
FlatWithEdges
 70
     1
 71
     2
 72
     1
 73
     1
 90
        2
 40
-0.6
 41
30.0
 62
     5
 63
     7
 74
     1
 91
        4
 64
     7
 65
   257
 75
     1
175
     1
 42
1.0
 92
        0
 66
   257
 43
1.0
 76
     1
 77
     6
 78
     2
 67
     7
 79
     5
170
     0
171
     0
290
     0
174
     0
 93
       13
 44
0.0
173
     0
291
     1
 45
0.0
1001
ACAD
1000
AcDbSavedByObjectVersion
1070
     0
  0
VISUALSTYLE
  5
2D
102
{ACAD_REACTORS
330
2A
102
}
330
2A
100
AcDbVisualStyle
  2
Gouraud
 70
     2
 71
     2
 72
     2
 73
     1
 90
        2
 40
-0.6
 41
30.0
 62
     5
 63
     7
 74
     0
 91
        4
 64
     7
 65
   257
 75
     1
175
     1
 42
1.0
 92
        0
 66
     7
 43
1.0
 76
     1
 77
     6
 78
     2
 67
     7
 79
     5
170
     0
171
     0
290
     0
174
     0
 93
       13
 44
0.0
173
     0
291
     1
 45
0.0
1001
ACAD
1000
AcDbSavedByObjectVersion
1070
     0
  0
VISUALSTYLE
  5
2E
102
{ACAD_REACTORS
330
2A
102
}
330
2A
100
AcDbVisualStyle
  2
GouraudWithEdges
 70
     3
 71
     2
 72
     2
 73
     1
 90
        2
 40
-0.6
 41
30.0
 62
     5
 63
     7
 74
     1
 91
        4
 64
     7
 65
   257
 75
     1
175
     1
 42
1.0
 92
        0
 66
   257
 43
1.0
 76
     1
 77
     6
 78
     2
 67
     7
 79
     5
170
     0
171
     0
290
     0
174
     0
 93
       13
 44
0.0
173
     0
291
     1
 45
0.0
1001
ACAD
1000
AcDbSavedByObjectVersion
1070
     0
  0
VISUALSTYLE
  5
38
102
{ACAD_REACTORS
330
2A
102
}
330
2A
100
AcDbVisualStyle
  2
Linepattern
 70
    14
 71
     2
 72
     2
 73
     0
 90
        0
 40
-0.6
 41
-30.0
 62
     5
 63
     7
 74
     1
 91
        4
 64
     7
 65
   257
 75
     7
175
     7
 42
1.0
 92
        8
 66
     7
 43
1.0
 76
     1
 77
     6
 78
     2
 67
     7
 79
     5
170
     0
171
     0
290
     0
174
     0
 93
        1
 44
0.0
173
     0
291
     1
 45
0.0
1001
ACAD
1000
AcDbSavedByObjectVersion
1070
     0
  0
VISUALSTYLE
  5
33
102
{ACAD_REACTORS
330
2A
102
}
330
2A
100
AcDbVisualStyle
  2
Realistic
 70
     8
 71
     2
 72
     2
 73
     0
 90
        0
 40
-0.6
 41
-30.0
 62
     5
 63
     7
 74
     1
 91
        0
 64
     7
 65
   257
 75
     1
175
     1
 42
1.0
 92
        8
 66
     8
 43
1.0
 76
     1
 77
     6
 78
     2
 67
     7
 79
     5
170
     0
171
     0
290
     0
174
     0
 93
       13
 44
0.0
173
     0
291
     0
 45
0.0
1001
ACAD
1000
AcDbSavedByObjectVersion
1070
     0
  0
VISUALSTYLE
  5
37
102
{ACAD_REACTORS
330
2A
102
}
330
2A
100
AcDbVisualStyle
  2
Thicken
 70
    13
 71
     2
 72
     2
 73
     0
 90
        0
 40
-0.6
 41
-30.0
 62
     5
 63
     7
 74
     1
 91
        4
 64
     7
 65
   257
 75
     1
175
     1
 42
1.0
 92
       12
 66
     7
 43
1.0
 76
     1
 77
     6
 78
     2
 67
     7
 79
     5
170
     0
171
     0
290
     0
174
     0
 93
        1
 44
0.0
173
     0
291
     1
 45
0.0
1001
ACAD
1000
AcDbSavedByObjectVersion
1070
     0
  0
DICTIONARYVAR
  5
717
102
{ACAD_REACTORS
330
715
102
}
330
715
100
DictionaryVariables
280
     0
  1
80.000000
  0
DICTIONARYVAR
  5
716
102
{ACAD_REACTORS
330
715
102
}
330
715
100
DictionaryVariables
280
     0
  1
5.000000
  0
ENDSEC
  0
EOF
