  0
SECTION
  2
HEADER
  9
$ACADVER
  1
AC1015
  9
$ACADMAINTVER
 70
    10
  9
$DWGCODEPAGE
  3
ANSI_932
  9
$INSBASE
 10
0.0
 20
0.0
 30
0.0
  9
$EXTMIN
 10
36.08895112212556
 20
48.65787588149135
 30
0.0
  9
$EXTMAX
 10
370.5947791028575
 20
110.6661864847985
 30
0.0
  9
$LIMMIN
 10
0.0
 20
0.0
  9
$LIMMAX
 10
297.0
 20
210.0
  9
$ORTHOMODE
 70
     1
  9
$REGENMODE
 70
     1
  9
$FILLMODE
 70
     1
  9
$QTEXTMODE
 70
     0
  9
$MIRRTEXT
 70
     1
  9
$LTSCALE
 40
1.0
  9
$ATTMODE
 70
     1
  9
$TEXTSIZE
 40
0.2
  9
$TRACEWID
 40
1.0
  9
$TEXTSTYLE
  7
STYLE003
  9
$CLAYER
  8
0
  9
$CELTYPE
  6
ByLayer
  9
$CECOLOR
 62
   256
  9
$CELTSCALE
 40
1.0
  9
$DISPSILH
 70
     0
  9
$DIMSCALE
 40
1.0
  9
$DIMASZ
 40
3.0
  9
$DIMEXO
 40
1.0
  9
$DIMDLI
 40
10.0
  9
$DIMRND
 40
0.0
  9
$DIMDLE
 40
3.0
  9
$DIMEXE
 40
1.5
  9
$DIMTP
 40
0.0
  9
$DIMTM
 40
0.0
  9
$DIMTXT
 40
3.0
  9
$DIMCEN
 40
2.5
  9
$DIMTSZ
 40
0.0
  9
$DIMTOL
 70
     0
  9
$DIMLIM
 70
     0
  9
$DIMTIH
 70
     0
  9
$DIMTOH
 70
     0
  9
$DIMSE1
 70
     0
  9
$DIMSE2
 70
     0
  9
$DIMTAD
 70
     1
  9
$DIMZIN
 70
     8
  9
$DIMBLK
  1

  9
$DIMASO
 70
     1
  9
$DIMSHO
 70
     1
  9
$DIMPOST
  1

  9
$DIMAPOST
  1

  9
$DIMALT
 70
     0
  9
$DIMALTD
 70
     3
  9
$DIMALTF
 40
0.03937
  9
$DIMLFAC
 40
1.0
  9
$DIMTOFL
 70
     1
  9
$DIMTVP
 40
0.0
  9
$DIMTIX
 70
     0
  9
$DIMSOXD
 70
     0
  9
$DIMSAH
 70
     1
  9
$DIMBLK1
  1
FXTIP_ARROW_S
  9
$DIMBLK2
  1
FXTIP_ARROW_E
  9
$DIMSTYLE
  2
FXDIMINFO
  9
$DIMCLRD
 70
     6
  9
$DIMCLRE
 70
     6
  9
$DIMCLRT
 70
     6
  9
$DIMTFAC
 40
1.0
  9
$DIMGAP
 40
0.5
  9
$DIMJUST
 70
     0
  9
$DIMSD1
 70
     0
  9
$DIMSD2
 70
     0
  9
$DIMTOLJ
 70
     1
  9
$DIMTZIN
 70
     8
  9
$DIMALTZ
 70
     0
  9
$DIMALTTZ
 70
     0
  9
$DIMUPT
 70
     0
  9
$DIMDEC
 70
     2
  9
$DIMTDEC
 70
     2
  9
$DIMALTU
 70
     2
  9
$DIMALTTD
 70
     3
  9
$DIMTXSTY
  7
STYLE003
  9
$DIMAUNIT
 70
     0
  9
$DIMADEC
 70
     2
  9
$DIMALTRND
 40
0.0
  9
$DIMAZIN
 70
     0
  9
$DIMDSEP
 70
    46
  9
$DIMATFIT
 70
     3
  9
$DIMFRAC
 70
     0
  9
$DIMLDRBLK
  1
FXTIP_ARROW_S
  9
$DIMLUNIT
 70
     2
  9
$DIMLWD
 70
    -2
  9
$DIMLWE
 70
    -2
  9
$DIMTMOVE
 70
     0
  9
$LUNITS
 70
     2
  9
$LUPREC
 70
     4
  9
$SKETCHINC
 40
1.0
  9
$FILLETRAD
 40
10.0
  9
$AUNITS
 70
     0
  9
$AUPREC
 70
     0
  9
$MENU
  1
.
  9
$ELEVATION
 40
0.0
  9
$PELEVATION
 40
0.0
  9
$THICKNESS
 40
0.0
  9
$LIMCHECK
 70
     0
  9
$CHAMFERA
 40
10.0
  9
$CHAMFERB
 40
10.0
  9
$CHAMFERC
 40
20.0
  9
$CHAMFERD
 40
0.0
  9
$SKPOLY
 70
     0
  9
$TDCREATE
 40
2456574.425730671
  9
$TDUCREATE
 40
2456574.050730671
  9
$TDUPDATE
 40
2456888.751024004
  9
$TDUUPDATE
 40
2456888.376024004
  9
$TDINDWG
 40
0.0027042014
  9
$TDUSRTIMER
 40
0.0027009375
  9
$USRTIMER
 70
     1
  9
$ANGBASE
 50
0.0
  9
$ANGDIR
 70
     0
  9
$PDMODE
 70
     0
  9
$PDSIZE
 40
0.0
  9
$PLINEWID
 40
0.0
  9
$SPLFRAME
 70
     0
  9
$SPLINETYPE
 70
     6
  9
$SPLINESEGS
 70
     8
  9
$HANDSEED
  5
7DC
  9
$SURFTAB1
 70
     6
  9
$SURFTAB2
 70
     6
  9
$SURFTYPE
 70
     6
  9
$SURFU
 70
     6
  9
$SURFV
 70
     6
  9
$UCSBASE
  2

  9
$UCSNAME
  2

  9
$UCSORG
 10
0.0
 20
0.0
 30
0.0
  9
$UCSXDIR
 10
1.0
 20
0.0
 30
0.0
  9
$UCSYDIR
 10
0.0
 20
1.0
 30
0.0
  9
$UCSORTHOREF
  2

  9
$UCSORTHOVIEW
 70
     0
  9
$UCSORGTOP
 10
0.0
 20
0.0
 30
0.0
  9
$UCSORGBOTTOM
 10
0.0
 20
0.0
 30
0.0
  9
$UCSORGLEFT
 10
0.0
 20
0.0
 30
0.0
  9
$UCSORGRIGHT
 10
0.0
 20
0.0
 30
0.0
  9
$UCSORGFRONT
 10
0.0
 20
0.0
 30
0.0
  9
$UCSORGBACK
 10
0.0
 20
0.0
 30
0.0
  9
$PUCSBASE
  2

  9
$PUCSNAME
  2

  9
$PUCSORG
 10
0.0
 20
0.0
 30
0.0
  9
$PUCSXDIR
 10
1.0
 20
0.0
 30
0.0
  9
$PUCSYDIR
 10
0.0
 20
1.0
 30
0.0
  9
$PUCSORTHOREF
  2

  9
$PUCSORTHOVIEW
 70
     0
  9
$PUCSORGTOP
 10
0.0
 20
0.0
 30
0.0
  9
$PUCSORGBOTTOM
 10
0.0
 20
0.0
 30
0.0
  9
$PUCSORGLEFT
 10
0.0
 20
0.0
 30
0.0
  9
$PUCSORGRIGHT
 10
0.0
 20
0.0
 30
0.0
  9
$PUCSORGFRONT
 10
0.0
 20
0.0
 30
0.0
  9
$PUCSORGBACK
 10
0.0
 20
0.0
 30
0.0
  9
$USERI1
 70
     0
  9
$USERI2
 70
     0
  9
$USERI3
 70
     0
  9
$USERI4
 70
     0
  9
$USERI5
 70
     0
  9
$USERR1
 40
0.0
  9
$USERR2
 40
0.0
  9
$USERR3
 40
0.0
  9
$USERR4
 40
0.0
  9
$USERR5
 40
0.0
  9
$WORLDVIEW
 70
     1
  9
$SHADEDGE
 70
     3
  9
$SHADEDIF
 70
    70
  9
$TILEMODE
 70
     1
  9
$MAXACTVP
 70
    64
  9
$PINSBASE
 10
0.0
 20
0.0
 30
0.0
  9
$PLIMCHECK
 70
     0
  9
$PEXTMIN
 10
1.000000000000000E+20
 20
1.000000000000000E+20
 30
1.000000000000000E+20
  9
$PEXTMAX
 10
-1.000000000000000E+20
 20
-1.000000000000000E+20
 30
-1.000000000000000E+20
  9
$PLIMMIN
 10
0.0
 20
0.0
  9
$PLIMMAX
 10
420.0
 20
297.0
  9
$UNITMODE
 70
     0
  9
$VISRETAIN
 70
     1
  9
$PLINEGEN
 70
     0
  9
$PSLTSCALE
 70
     1
  9
$TREEDEPTH
 70
  3020
  9
$CMLSTYLE
  2
Standard
  9
$CMLJUST
 70
     0
  9
$CMLSCALE
 40
20.0
  9
$PROXYGRAPHICS
 70
     1
  9
$MEASUREMENT
 70
     1
  9
$CELWEIGHT
370
    -1
  9
$ENDCAPS
280
     0
  9
$JOINSTYLE
280
     0
  9
$LWDISPLAY
290
     0
  9
$INSUNITS
 70
     4
  9
$HYPERLINKBASE
  1

  9
$STYLESHEET
  1

  9
$XEDIT
290
     1
  9
$CEPSNTYPE
380
     0
  9
$PSTYLEMODE
290
     1
  9
$FINGERPRINTGUID
  2
{A9E5D57F-0B0B-4B88-BAC3-9F1BD8D78657}
  9
$VERSIONGUID
  2
{22092E36-3894-481B-8BD8-4F686D12ACCB}
  9
$EXTNAMES
290
     1
  9
$PSVPSCALE
 40
0.0
  9
$OLESTARTUP
290
     0
  0
ENDSEC
  0
SECTION
  2
CLASSES
  0
CLASS
  1
ACDBDICTIONARYWDFLT
  2
AcDbDictionaryWithDefault
  3
AutoCAD 2000
 90
        0
280
     0
281
     0
  0
CLASS
  1
VISUALSTYLE
  2
AcDbVisualStyle
  3
ObjectDBX Classes
 90
     4095
280
     0
281
     0
  0
CLASS
  1
DICTIONARYVAR
  2
AcDbDictionaryVar
  3
AutoCAD 2000
 90
        0
280
     0
281
     0
  0
CLASS
  1
ACDBPLACEHOLDER
  2
AcDbPlaceHolder
  3
AutoCAD 2000
 90
        0
280
     0
281
     0
  0
CLASS
  1
LAYOUT
  2
AcDbLayout
  3
AutoCAD 2000
 90
        0
280
     0
281
     0
  0
ENDSEC
  0
SECTION
  2
TABLES
  0
TABLE
  2
VPORT
  5
8
330
0
100
AcDbSymbolTable
 70
     3
  0
VPORT
  5
7DB
330
8
100
AcDbSymbolTableRecord
100
AcDbViewportTableRecord
  2
*Active
 70
     0
 10
0.0
 20
0.0
 11
1.0
 21
1.0
 12
137.5335419248398
 22
98.57662480229022
 13
0.0
 23
0.0
 14
10.0
 24
10.0
 15
10.0
 25
10.0
 16
0.0
 26
0.0
 36
1.0
 17
0.0
 27
0.0
 37
0.0
 40
408.970297687687
 41
1.505226480836237
 42
50.0
 43
0.0
 44
0.0
 50
0.0
 51
0.0
 71
     0
 72
   100
 73
     1
 74
     3
 75
     0
 76
     0
 77
     0
 78
     0
281
     0
 65
     1
110
0.0
120
0.0
130
0.0
111
1.0
121
0.0
131
0.0
112
0.0
122
1.0
132
0.0
 79
     0
146
0.0
  0
ENDTAB
  0
TABLE
  2
LTYPE
  5
5
330
0
100
AcDbSymbolTable
 70
     3
  0
LTYPE
  5
14
330
5
100
AcDbSymbolTableRecord
100
AcDbLinetypeTableRecord
  2
ByBlock
 70
     0
  3

 72
    65
 73
     0
 40
0.0
  0
LTYPE
  5
15
330
5
100
AcDbSymbolTableRecord
100
AcDbLinetypeTableRecord
  2
ByLayer
 70
     0
  3

 72
    65
 73
     0
 40
0.0
  0
LTYPE
  5
16
330
5
100
AcDbSymbolTableRecord
100
AcDbLinetypeTableRecord
  2
Continuous
 70
     0
  3
Continuous ___________________________________
 72
    65
 73
     0
 40
0.0
  0
LTYPE
  5
3B
330
5
100
AcDbSymbolTableRecord
100
AcDbLinetypeTableRecord
  2
DASHDOT
 70
     0
  3
Dash dot __ . __ . __ . __ . __ . __ . __ . __
 72
    65
 73
     4
 40
25.3
 49
12.7
 74
     0
 49
-6.299999999999998
 74
     0
 49
0.0
 74
     0
 49
-6.299999999999998
 74
     0
  0
LTYPE
  5
1E8
330
5
100
AcDbSymbolTableRecord
100
AcDbLinetypeTableRecord
  2
DASH_DOT
 70
     0
  3

 72
    65
 73
     4
 40
0.5
 49
0.2
 74
     0
 49
-0.1
 74
     0
 49
0.1
 74
     0
 49
-0.1
 74
     0
  0
ENDTAB
  0
TABLE
  2
LAYER
  5
2
330
0
100
AcDbSymbolTable
 70
     4
  0
LAYER
  5
10
330
2
100
AcDbSymbolTableRecord
100
AcDbLayerTableRecord
  2
0
 70
     0
 62
     7
  6
Continuous
370
    -3
390
F
  0
LAYER
  5
AA
330
2
100
AcDbSymbolTableRecord
100
AcDbLayerTableRecord
  2
Defpoints
 70
     0
 62
     7
  6
Continuous
290
     0
370
    -3
390
F
  0
LAYER
  5
AB
330
2
100
AcDbSymbolTableRecord
100
AcDbLayerTableRecord
  2
LAYER004
 70
     0
 62
     7
  6
Continuous
370
    -3
390
F
  0
LAYER
  5
264
330
2
100
AcDbSymbolTableRecord
100
AcDbLayerTableRecord
  2
用紙-GR2
 70
     0
 62
     7
  6
Continuous
370
    -3
390
F
  0
ENDTAB
  0
TABLE
  2
STYLE
  5
3
330
0
100
AcDbSymbolTable
 70
     3
  0
STYLE
  5
11
330
3
100
AcDbSymbolTableRecord
100
AcDbTextStyleTableRecord
  2
Standard
 70
     0
 40
0.0
 41
1.0
 50
0.0
 71
     0
 42
2.5
  3
txt
  4

  0
STYLE
  5
41
330
3
100
AcDbSymbolTableRecord
100
AcDbTextStyleTableRecord
  2
FX_VECTOR
 70
     0
 40
0.0
 41
1.0
 50
0.0
 71
     0
 42
0.2
  3
MONOTXT.SHX
  4
BigFont.shx
  0
STYLE
  5
A9
330
3
100
AcDbSymbolTableRecord
100
AcDbTextStyleTableRecord
  2
STYLE003
 70
     0
 40
0.0
 41
1.0
 50
0.0
 71
     0
 42
0.2
  3

  4

1001
ACAD
1000
ＭＳ 明朝
1071
    32785
  0
ENDTAB
  0
TABLE
  2
VIEW
  5
6
330
0
100
AcDbSymbolTable
 70
     0
  0
ENDTAB
  0
TABLE
  2
UCS
  5
7
330
0
100
AcDbSymbolTable
 70
     0
  0
ENDTAB
  0
TABLE
  2
APPID
  5
9
330
0
100
AcDbSymbolTable
 70
     1
  0
APPID
  5
12
330
9
100
AcDbSymbolTableRecord
100
AcDbRegAppTableRecord
  2
ACAD
 70
     0
  0
ENDTAB
  0
TABLE
  2
DIMSTYLE
  5
A
330
0
100
AcDbSymbolTable
 70
     2
100
AcDbDimStyleTable
 71
     1
340
A8
  0
DIMSTYLE
105
27
330
A
100
AcDbSymbolTableRecord
100
AcDbDimStyleTableRecord
  2
ISO-25
 70
     0
 41
2.5
 42
0.625
 43
3.75
 44
1.25
 73
     0
 74
     0
 77
     1
 78
     8
140
2.5
141
2.5
143
0.03937007874016
147
0.625
171
     3
172
     1
271
     2
272
     2
274
     3
278
    44
283
     0
284
     8
340
11
  0
DIMSTYLE
105
A8
102
{ACAD_REACTORS
330
6C8
330
6DE
102
}
330
A
100
AcDbSymbolTableRecord
100
AcDbDimStyleTableRecord
  2
FXDIMINFO
 70
     0
 41
3.0
 42
1.0
 43
10.0
 44
1.5
 46
3.0
 73
     0
 74
     0
 77
     1
 78
     8
140
3.0
141
2.5
143
0.03937
147
0.5
171
     3
172
     1
173
     1
176
     6
177
     6
178
     6
179
     2
271
     2
272
     2
274
     3
284
     8
340
A9
341
42
343
42
344
48
  0
ENDTAB
  0
TABLE
  2
BLOCK_RECORD
  5
1
330
0
100
AcDbSymbolTable
 70
    94
  0
BLOCK_RECORD
  5
1F
330
1
100
AcDbSymbolTableRecord
100
AcDbBlockTableRecord
  2
*Model_Space
340
22
  0
BLOCK_RECORD
  5
1B
330
1
100
AcDbSymbolTableRecord
100
AcDbBlockTableRecord
  2
*Paper_Space
340
1E
  0
BLOCK_RECORD
  5
23
330
1
100
AcDbSymbolTableRecord
100
AcDbBlockTableRecord
  2
*Paper_Space0
340
26
  0
BLOCK_RECORD
  5
42
330
1
100
AcDbSymbolTableRecord
100
AcDbBlockTableRecord
  2
FXTIP_ARROW_S
340
0
102
{BLKREFS
331
380
331
38A
331
394
331
3AE
331
3C1
331
3E1
331
43A
331
444
331
516
331
51C
331
524
331
52D
331
538
331
544
331
556
331
560
331
56F
331
57A
331
588
331
591
331
59D
331
5A7
331
5AF
331
6CE
331
6E4
331
767
331
771
331
779
331
78F
331
798
331
7B7
331
7C2
331
7CB
331
7D4
102
}
  0
BLOCK_RECORD
  5
48
330
1
100
AcDbSymbolTableRecord
100
AcDbBlockTableRecord
  2
FXTIP_ARROW_E
340
0
102
{BLKREFS
331
381
331
38B
331
395
331
3AF
331
3E2
331
43B
331
445
331
52E
331
539
331
545
331
558
331
561
331
56D
331
57C
331
592
331
59E
331
6CF
331
6E5
331
6F5
331
701
331
768
331
785
331
799
331
7B8
331
7C3
331
7CC
331
7D5
102
}
  0
BLOCK_RECORD
  5
4E
330
1
100
AcDbSymbolTableRecord
100
AcDbBlockTableRecord
  2
FXTIP_BLACKDOT_S
340
0
102
{BLKREFS
331
39D
331
3A5
331
3B7
331
3C9
331
6F3
331
6FF
331
78C
102
}
  0
BLOCK_RECORD
  5
54
330
1
100
AcDbSymbolTableRecord
100
AcDbBlockTableRecord
  2
FXTIP_BLACKDOT_E
340
0
102
{BLKREFS
331
514
331
586
102
}
  0
BLOCK_RECORD
  5
5A
330
1
100
AcDbSymbolTableRecord
100
AcDbBlockTableRecord
  2
FXTIP_TRIANGLE_S
340
0
  0
BLOCK_RECORD
  5
61
330
1
100
AcDbSymbolTableRecord
100
AcDbBlockTableRecord
  2
FXTIP_TRIANGLE_E
340
0
  0
BLOCK_RECORD
  5
68
330
1
100
AcDbSymbolTableRecord
100
AcDbBlockTableRecord
  2
FXTIP_ARCHITECT_S
340
0
  0
BLOCK_RECORD
  5
6E
330
1
100
AcDbSymbolTableRecord
100
AcDbBlockTableRecord
  2
FXTIP_ARCHITECT_E
340
0
  0
BLOCK_RECORD
  5
74
330
1
100
AcDbSymbolTableRecord
100
AcDbBlockTableRecord
  2
FXTIP_CIVIL_S
340
0
  0
BLOCK_RECORD
  5
7A
330
1
100
AcDbSymbolTableRecord
100
AcDbBlockTableRecord
  2
FXTIP_CIVIL_E
340
0
  0
BLOCK_RECORD
  5
80
330
1
100
AcDbSymbolTableRecord
100
AcDbBlockTableRecord
  2
FXTIP_WHITEDOT_S
340
0
  0
BLOCK_RECORD
  5
85
330
1
100
AcDbSymbolTableRecord
100
AcDbBlockTableRecord
  2
FXTIP_WHITEDOT_E
340
0
  0
BLOCK_RECORD
  5
8A
330
1
100
AcDbSymbolTableRecord
100
AcDbBlockTableRecord
  2
FXTIP_UPARROW_S
340
0
  0
BLOCK_RECORD
  5
8F
330
1
100
AcDbSymbolTableRecord
100
AcDbBlockTableRecord
  2
FXTIP_UPARROW_E
340
0
  0
BLOCK_RECORD
  5
94
330
1
100
AcDbSymbolTableRecord
100
AcDbBlockTableRecord
  2
FXTIP_DOWNARROW_S
340
0
  0
BLOCK_RECORD
  5
99
330
1
100
AcDbSymbolTableRecord
100
AcDbBlockTableRecord
  2
FXTIP_DOWNARROW_E
340
0
  0
BLOCK_RECORD
  5
9E
330
1
100
AcDbSymbolTableRecord
100
AcDbBlockTableRecord
  2
FXTIP_BLACKTRIANGLE_S
340
0
  0
BLOCK_RECORD
  5
A3
330
1
100
AcDbSymbolTableRecord
100
AcDbBlockTableRecord
  2
FXTIP_BLACKTRIANGLE_E
340
0
  0
BLOCK_RECORD
  5
1A9
330
1
100
AcDbSymbolTableRecord
100
AcDbBlockTableRecord
  2
BLKF021
340
0
102
{BLKREFS
331
1AC
102
}
  0
BLOCK_RECORD
  5
1AF
330
1
100
AcDbSymbolTableRecord
100
AcDbBlockTableRecord
  2
FXDIM022
340
0
102
{BLKREFS
331
1B2
102
}
  0
BLOCK_RECORD
  5
1B7
330
1
100
AcDbSymbolTableRecord
100
AcDbBlockTableRecord
  2
BLKF023
340
0
102
{BLKREFS
331
1BA
102
}
  0
BLOCK_RECORD
  5
1CF
330
1
100
AcDbSymbolTableRecord
100
AcDbBlockTableRecord
  2
BLKF024
340
0
102
{BLKREFS
331
1D2
102
}
  0
BLOCK_RECORD
  5
1DE
330
1
100
AcDbSymbolTableRecord
100
AcDbBlockTableRecord
  2
BLKF025
340
0
102
{BLKREFS
331
1E1
102
}
  0
BLOCK_RECORD
  5
20E
330
1
100
AcDbSymbolTableRecord
100
AcDbBlockTableRecord
  2
BLKF026
340
0
102
{BLKREFS
331
211
102
}
  0
BLOCK_RECORD
  5
250
330
1
100
AcDbSymbolTableRecord
100
AcDbBlockTableRecord
  2
BLKF027
340
0
102
{BLKREFS
331
253
102
}
  0
BLOCK_RECORD
  5
37B
330
1
100
AcDbSymbolTableRecord
100
AcDbBlockTableRecord
  2
*D26
340
0
  0
BLOCK_RECORD
  5
385
330
1
100
AcDbSymbolTableRecord
100
AcDbBlockTableRecord
  2
*D27
340
0
  0
BLOCK_RECORD
  5
38F
330
1
100
AcDbSymbolTableRecord
100
AcDbBlockTableRecord
  2
*D28
340
0
  0
BLOCK_RECORD
  5
398
330
1
100
AcDbSymbolTableRecord
100
AcDbBlockTableRecord
  2
FXDIM031
340
0
102
{BLKREFS
331
39B
102
}
  0
BLOCK_RECORD
  5
3A0
330
1
100
AcDbSymbolTableRecord
100
AcDbBlockTableRecord
  2
FXDIM032
340
0
102
{BLKREFS
331
3A3
102
}
  0
BLOCK_RECORD
  5
3A9
330
1
100
AcDbSymbolTableRecord
100
AcDbBlockTableRecord
  2
*D31
340
0
  0
BLOCK_RECORD
  5
3B2
330
1
100
AcDbSymbolTableRecord
100
AcDbBlockTableRecord
  2
FXDIM034
340
0
102
{BLKREFS
331
3B5
102
}
  0
BLOCK_RECORD
  5
3BC
330
1
100
AcDbSymbolTableRecord
100
AcDbBlockTableRecord
  2
FXDIM035
340
0
102
{BLKREFS
331
3BF
102
}
  0
BLOCK_RECORD
  5
3C4
330
1
100
AcDbSymbolTableRecord
100
AcDbBlockTableRecord
  2
FXDIM036
340
0
102
{BLKREFS
331
3C7
102
}
  0
BLOCK_RECORD
  5
3DC
330
1
100
AcDbSymbolTableRecord
100
AcDbBlockTableRecord
  2
*D35
340
0
  0
BLOCK_RECORD
  5
435
330
1
100
AcDbSymbolTableRecord
100
AcDbBlockTableRecord
  2
*D36
340
0
  0
BLOCK_RECORD
  5
43F
330
1
100
AcDbSymbolTableRecord
100
AcDbBlockTableRecord
  2
*D37
340
0
  0
BLOCK_RECORD
  5
44D
330
1
100
AcDbSymbolTableRecord
100
AcDbBlockTableRecord
  2
BLKF040
340
0
102
{BLKREFS
331
450
102
}
  0
BLOCK_RECORD
  5
451
330
1
100
AcDbSymbolTableRecord
100
AcDbBlockTableRecord
  2
BLKF041
340
0
102
{BLKREFS
331
454
102
}
  0
BLOCK_RECORD
  5
465
330
1
100
AcDbSymbolTableRecord
100
AcDbBlockTableRecord
  2
BLKF042
340
0
102
{BLKREFS
331
468
102
}
  0
BLOCK_RECORD
  5
477
330
1
100
AcDbSymbolTableRecord
100
AcDbBlockTableRecord
  2
BLKF043
340
0
102
{BLKREFS
331
47A
102
}
  0
BLOCK_RECORD
  5
489
330
1
100
AcDbSymbolTableRecord
100
AcDbBlockTableRecord
  2
BLKF044
340
0
102
{BLKREFS
331
48C
102
}
  0
BLOCK_RECORD
  5
4A6
330
1
100
AcDbSymbolTableRecord
100
AcDbBlockTableRecord
  2
BLKF045
340
0
102
{BLKREFS
331
4A9
102
}
  0
BLOCK_RECORD
  5
4AE
330
1
100
AcDbSymbolTableRecord
100
AcDbBlockTableRecord
  2
BLKF046
340
0
102
{BLKREFS
331
4B1
102
}
  0
BLOCK_RECORD
  5
4C2
330
1
100
AcDbSymbolTableRecord
100
AcDbBlockTableRecord
  2
BLKF047
340
0
102
{BLKREFS
331
4C5
102
}
  0
BLOCK_RECORD
  5
4D4
330
1
100
AcDbSymbolTableRecord
100
AcDbBlockTableRecord
  2
BLKF048
340
0
102
{BLKREFS
331
4D7
102
}
  0
BLOCK_RECORD
  5
4E6
330
1
100
AcDbSymbolTableRecord
100
AcDbBlockTableRecord
  2
BLKF049
340
0
102
{BLKREFS
331
4E9
102
}
  0
BLOCK_RECORD
  5
503
330
1
100
AcDbSymbolTableRecord
100
AcDbBlockTableRecord
  2
BLKF050
340
0
102
{BLKREFS
331
506
102
}
  0
BLOCK_RECORD
  5
50C
330
1
100
AcDbSymbolTableRecord
100
AcDbBlockTableRecord
  2
*D49
340
0
  0
BLOCK_RECORD
  5
517
330
1
100
AcDbSymbolTableRecord
100
AcDbBlockTableRecord
  2
FXDIM052
340
0
102
{BLKREFS
331
51A
102
}
  0
BLOCK_RECORD
  5
51F
330
1
100
AcDbSymbolTableRecord
100
AcDbBlockTableRecord
  2
FXDIM053
340
0
102
{BLKREFS
331
522
102
}
  0
BLOCK_RECORD
  5
528
330
1
100
AcDbSymbolTableRecord
100
AcDbBlockTableRecord
  2
*D52
340
0
  0
BLOCK_RECORD
  5
533
330
1
100
AcDbSymbolTableRecord
100
AcDbBlockTableRecord
  2
*D53
340
0
  0
BLOCK_RECORD
  5
53F
330
1
100
AcDbSymbolTableRecord
100
AcDbBlockTableRecord
  2
*D54
340
0
  0
BLOCK_RECORD
  5
54D
330
1
100
AcDbSymbolTableRecord
100
AcDbBlockTableRecord
  2
*D55
340
0
  0
BLOCK_RECORD
  5
55A
330
1
100
AcDbSymbolTableRecord
100
AcDbBlockTableRecord
  2
*D56
340
0
  0
BLOCK_RECORD
  5
565
330
1
100
AcDbSymbolTableRecord
100
AcDbBlockTableRecord
  2
*D57
340
0
  0
BLOCK_RECORD
  5
571
330
1
100
AcDbSymbolTableRecord
100
AcDbBlockTableRecord
  2
*D58
340
0
  0
BLOCK_RECORD
  5
57E
330
1
100
AcDbSymbolTableRecord
100
AcDbBlockTableRecord
  2
*D59
340
0
  0
BLOCK_RECORD
  5
58A
330
1
100
AcDbSymbolTableRecord
100
AcDbBlockTableRecord
  2
*D60
340
0
  0
BLOCK_RECORD
  5
596
330
1
100
AcDbSymbolTableRecord
100
AcDbBlockTableRecord
  2
*D61
340
0
  0
BLOCK_RECORD
  5
5A2
330
1
100
AcDbSymbolTableRecord
100
AcDbBlockTableRecord
  2
FXDIM064
340
0
102
{BLKREFS
331
5A5
102
}
  0
BLOCK_RECORD
  5
5AA
330
1
100
AcDbSymbolTableRecord
100
AcDbBlockTableRecord
  2
FXDIM065
340
0
102
{BLKREFS
331
5AD
102
}
  0
BLOCK_RECORD
  5
5B4
330
1
100
AcDbSymbolTableRecord
100
AcDbBlockTableRecord
  2
BLKF066
340
0
102
{BLKREFS
331
5B7
102
}
  0
BLOCK_RECORD
  5
5B8
330
1
100
AcDbSymbolTableRecord
100
AcDbBlockTableRecord
  2
BLKF067
340
0
102
{BLKREFS
331
5BB
102
}
  0
BLOCK_RECORD
  5
5BC
330
1
100
AcDbSymbolTableRecord
100
AcDbBlockTableRecord
  2
BLKF068
340
0
102
{BLKREFS
331
5BF
102
}
  0
BLOCK_RECORD
  5
5D0
330
1
100
AcDbSymbolTableRecord
100
AcDbBlockTableRecord
  2
BLKF069
340
0
102
{BLKREFS
331
5D3
102
}
  0
BLOCK_RECORD
  5
5E2
330
1
100
AcDbSymbolTableRecord
100
AcDbBlockTableRecord
  2
BLKF070
340
0
102
{BLKREFS
331
5E5
102
}
  0
BLOCK_RECORD
  5
5F4
330
1
100
AcDbSymbolTableRecord
100
AcDbBlockTableRecord
  2
BLKF071
340
0
102
{BLKREFS
331
5F7
102
}
  0
BLOCK_RECORD
  5
60F
330
1
100
AcDbSymbolTableRecord
100
AcDbBlockTableRecord
  2
BLKF072
340
0
102
{BLKREFS
331
612
102
}
  0
BLOCK_RECORD
  5
61A
330
1
100
AcDbSymbolTableRecord
100
AcDbBlockTableRecord
  2
BLKF073
340
0
102
{BLKREFS
331
61D
102
}
  0
BLOCK_RECORD
  5
625
330
1
100
AcDbSymbolTableRecord
100
AcDbBlockTableRecord
  2
BLKF074
340
0
102
{BLKREFS
331
628
102
}
  0
BLOCK_RECORD
  5
631
330
1
100
AcDbSymbolTableRecord
100
AcDbBlockTableRecord
  2
BLKF075
340
0
102
{BLKREFS
331
634
102
}
  0
BLOCK_RECORD
  5
63D
330
1
100
AcDbSymbolTableRecord
100
AcDbBlockTableRecord
  2
BLKF076
340
0
102
{BLKREFS
331
640
102
}
  0
BLOCK_RECORD
  5
6BA
330
1
100
AcDbSymbolTableRecord
100
AcDbBlockTableRecord
  2
BLKF077
340
0
102
{BLKREFS
331
6BD
102
}
  0
BLOCK_RECORD
  5
6C1
330
1
100
AcDbSymbolTableRecord
100
AcDbBlockTableRecord
  2
BLKF078
340
0
102
{BLKREFS
331
6C4
102
}
  0
BLOCK_RECORD
  5
6C9
330
1
100
AcDbSymbolTableRecord
100
AcDbBlockTableRecord
  2
*D77
340
0
  0
BLOCK_RECORD
  5
6D6
330
1
100
AcDbSymbolTableRecord
100
AcDbBlockTableRecord
  2
BLKF080
340
0
102
{BLKREFS
331
6D9
102
}
  0
BLOCK_RECORD
  5
6DF
330
1
100
AcDbSymbolTableRecord
100
AcDbBlockTableRecord
  2
*D79
340
0
  0
BLOCK_RECORD
  5
6EB
330
1
100
AcDbSymbolTableRecord
100
AcDbBlockTableRecord
  2
*D80
340
0
  0
BLOCK_RECORD
  5
6F7
330
1
100
AcDbSymbolTableRecord
100
AcDbBlockTableRecord
  2
*D81
340
0
  0
BLOCK_RECORD
  5
702
330
1
100
AcDbSymbolTableRecord
100
AcDbBlockTableRecord
  2
BLKF084
340
0
102
{BLKREFS
331
705
102
}
  0
BLOCK_RECORD
  5
716
330
1
100
AcDbSymbolTableRecord
100
AcDbBlockTableRecord
  2
BLKF085
340
0
102
{BLKREFS
331
719
102
}
  0
BLOCK_RECORD
  5
728
330
1
100
AcDbSymbolTableRecord
100
AcDbBlockTableRecord
  2
BLKF086
340
0
102
{BLKREFS
331
72B
102
}
  0
BLOCK_RECORD
  5
73A
330
1
100
AcDbSymbolTableRecord
100
AcDbBlockTableRecord
  2
BLKF087
340
0
102
{BLKREFS
331
73D
102
}
  0
BLOCK_RECORD
  5
757
330
1
100
AcDbSymbolTableRecord
100
AcDbBlockTableRecord
  2
BLKF088
340
0
102
{BLKREFS
331
75A
102
}
  0
BLOCK_RECORD
  5
760
330
1
100
AcDbSymbolTableRecord
100
AcDbBlockTableRecord
  2
*D87
340
0
  0
BLOCK_RECORD
  5
76C
330
1
100
AcDbSymbolTableRecord
100
AcDbBlockTableRecord
  2
FXDIM090
340
0
102
{BLKREFS
331
76F
102
}
  0
BLOCK_RECORD
  5
774
330
1
100
AcDbSymbolTableRecord
100
AcDbBlockTableRecord
  2
FXDIM091
340
0
102
{BLKREFS
331
777
102
}
  0
BLOCK_RECORD
  5
77D
330
1
100
AcDbSymbolTableRecord
100
AcDbBlockTableRecord
  2
*D90
340
0
  0
BLOCK_RECORD
  5
787
330
1
100
AcDbSymbolTableRecord
100
AcDbBlockTableRecord
  2
*D91
340
0
  0
BLOCK_RECORD
  5
791
330
1
100
AcDbSymbolTableRecord
100
AcDbBlockTableRecord
  2
*D92
340
0
  0
BLOCK_RECORD
  5
7B3
330
1
100
AcDbSymbolTableRecord
100
AcDbBlockTableRecord
  2
*D93
340
0
  0
ENDTAB
  0
ENDSEC
  0
SECTION
  2
BLOCKS
  0
BLOCK
  5
20
330
1F
100
AcDbEntity
  8
0
100
AcDbBlockBegin
  2
*Model_Space
 70
     0
 10
0.0
 20
0.0
 30
0.0
  3
*Model_Space
  1

  0
ENDBLK
  5
21
330
1F
100
AcDbEntity
  8
0
100
AcDbBlockEnd
  0
BLOCK
  5
1C
330
1B
100
AcDbEntity
 67
     1
  8
0
100
AcDbBlockBegin
  2
*Paper_Space
 70
     0
 10
0.0
 20
0.0
 30
0.0
  3
*Paper_Space
  1

  0
ENDBLK
  5
1D
330
1B
100
AcDbEntity
 67
     1
  8
0
100
AcDbBlockEnd
  0
BLOCK
  5
24
330
23
100
AcDbEntity
  8
0
100
AcDbBlockBegin
  2
*Paper_Space0
 70
     0
 10
0.0
 20
0.0
 30
0.0
  3
*Paper_Space0
  1

  0
ENDBLK
  5
25
330
23
100
AcDbEntity
  8
0
100
AcDbBlockEnd
  0
BLOCK
  5
43
330
42
100
AcDbEntity
  8
0
100
AcDbBlockBegin
  2
FXTIP_ARROW_S
 70
     0
 10
0.0
 20
0.0
 30
0.0
  3
FXTIP_ARROW_S
  1

  0
LINE
  5
45
330
42
100
AcDbEntity
  8
0
  6
Continuous
 62
     0
370
    -2
100
AcDbLine
 10
0.0
 20
0.0
 30
0.0
 11
-1.0
 21
0.0000000000000001
 31
0.0
  0
LINE
  5
46
330
42
100
AcDbEntity
  8
0
  6
Continuous
 62
     0
370
    -2
100
AcDbLine
 10
0.0
 20
0.0
 30
0.0
 11
-0.9659258262890684
 21
-0.2588190451025206
 31
0.0
  0
LINE
  5
47
330
42
100
AcDbEntity
  8
0
  6
Continuous
 62
     0
370
    -2
100
AcDbLine
 10
0.0
 20
0.0
 30
0.0
 11
-0.9659258262890684
 21
0.2588190451025209
 31
0.0
  0
ENDBLK
  5
44
330
42
100
AcDbEntity
  8
0
100
AcDbBlockEnd
  0
BLOCK
  5
49
330
48
100
AcDbEntity
  8
0
100
AcDbBlockBegin
  2
FXTIP_ARROW_E
 70
     0
 10
0.0
 20
0.0
 30
0.0
  3
FXTIP_ARROW_E
  1

  0
LINE
  5
4B
330
48
100
AcDbEntity
  8
0
  6
Continuous
 62
     0
370
    -2
100
AcDbLine
 10
0.0
 20
0.0
 30
0.0
 11
-1.0
 21
0.0
 31
0.0
  0
LINE
  5
4C
330
48
100
AcDbEntity
  8
0
  6
Continuous
 62
     0
370
    -2
100
AcDbLine
 10
0.0
 20
0.0
 30
0.0
 11
-0.9659258262890684
 21
0.2588190451025207
 31
0.0
  0
LINE
  5
4D
330
48
100
AcDbEntity
  8
0
  6
Continuous
 62
     0
370
    -2
100
AcDbLine
 10
0.0
 20
0.0
 30
0.0
 11
-0.9659258262890684
 21
-0.2588190451025207
 31
0.0
  0
ENDBLK
  5
4A
330
48
100
AcDbEntity
  8
0
100
AcDbBlockEnd
  0
BLOCK
  5
4F
330
4E
100
AcDbEntity
  8
0
100
AcDbBlockBegin
  2
FXTIP_BLACKDOT_S
 70
     0
 10
0.0
 20
0.0
 30
0.0
  3
FXTIP_BLACKDOT_S
  1

  0
LINE
  5
51
330
4E
100
AcDbEntity
  8
0
  6
Continuous
 62
     0
370
    -2
100
AcDbLine
 10
0.0
 20
0.0
 30
0.0
 11
-1.0
 21
0.0000000000000001
 31
0.0
  0
LWPOLYLINE
  5
52
330
4E
100
AcDbEntity
  8
0
  6
Continuous
 62
     0
370
    -2
100
AcDbPolyline
 90
        2
 70
     1
 43
0.5
 10
-0.25
 20
0.0
 42
1.0
 10
0.25
 20
0.0
 42
1.0
  0
CIRCLE
  5
53
330
4E
100
AcDbEntity
  8
0
  6
Continuous
 62
     0
370
    -2
100
AcDbCircle
 10
0.0
 20
0.0
 30
0.0
 40
0.5
  0
ENDBLK
  5
50
330
4E
100
AcDbEntity
  8
0
100
AcDbBlockEnd
  0
BLOCK
  5
55
330
54
100
AcDbEntity
  8
0
100
AcDbBlockBegin
  2
FXTIP_BLACKDOT_E
 70
     0
 10
0.0
 20
0.0
 30
0.0
  3
FXTIP_BLACKDOT_E
  1

  0
LINE
  5
57
330
54
100
AcDbEntity
  8
0
  6
Continuous
 62
     0
370
    -2
100
AcDbLine
 10
0.0
 20
0.0
 30
0.0
 11
-1.0
 21
0.0
 31
0.0
  0
LWPOLYLINE
  5
58
330
54
100
AcDbEntity
  8
0
  6
Continuous
 62
     0
370
    -2
100
AcDbPolyline
 90
        2
 70
     1
 43
0.5
 10
-0.25
 20
0.0
 42
1.0
 10
0.25
 20
0.0
 42
1.0
  0
CIRCLE
  5
59
330
54
100
AcDbEntity
  8
0
  6
Continuous
 62
     0
370
    -2
100
AcDbCircle
 10
0.0
 20
0.0
 30
0.0
 40
0.5
  0
ENDBLK
  5
56
330
54
100
AcDbEntity
  8
0
100
AcDbBlockEnd
  0
BLOCK
  5
5B
330
5A
100
AcDbEntity
  8
0
100
AcDbBlockBegin
  2
FXTIP_TRIANGLE_S
 70
     0
 10
0.0
 20
0.0
 30
0.0
  3
FXTIP_TRIANGLE_S
  1

  0
LINE
  5
5D
330
5A
100
AcDbEntity
  8
0
  6
Continuous
 62
     0
370
    -2
100
AcDbLine
 10
0.0
 20
0.0
 30
0.0
 11
-1.0
 21
0.0000000000000001
 31
0.0
  0
LINE
  5
5E
330
5A
100
AcDbEntity
  8
0
  6
Continuous
 62
     0
370
    -2
100
AcDbLine
 10
0.0
 20
0.0
 30
0.0
 11
-0.9659258262890684
 21
-0.2588190451025206
 31
0.0
  0
LINE
  5
5F
330
5A
100
AcDbEntity
  8
0
  6
Continuous
 62
     0
370
    -2
100
AcDbLine
 10
0.0
 20
0.0
 30
0.0
 11
-0.9659258262890684
 21
0.2588190451025209
 31
0.0
  0
LINE
  5
60
330
5A
100
AcDbEntity
  8
0
  6
Continuous
 62
     0
370
    -2
100
AcDbLine
 10
-0.9659258262890684
 20
-0.2588190451025206
 30
0.0
 11
-0.9659258262890684
 21
0.2588190451025209
 31
0.0
  0
ENDBLK
  5
5C
330
5A
100
AcDbEntity
  8
0
100
AcDbBlockEnd
  0
BLOCK
  5
62
330
61
100
AcDbEntity
  8
0
100
AcDbBlockBegin
  2
FXTIP_TRIANGLE_E
 70
     0
 10
0.0
 20
0.0
 30
0.0
  3
FXTIP_TRIANGLE_E
  1

  0
LINE
  5
64
330
61
100
AcDbEntity
  8
0
  6
Continuous
 62
     0
370
    -2
100
AcDbLine
 10
0.0
 20
0.0
 30
0.0
 11
-1.0
 21
0.0
 31
0.0
  0
LINE
  5
65
330
61
100
AcDbEntity
  8
0
  6
Continuous
 62
     0
370
    -2
100
AcDbLine
 10
0.0
 20
0.0
 30
0.0
 11
-0.9659258262890684
 21
0.2588190451025207
 31
0.0
  0
LINE
  5
66
330
61
100
AcDbEntity
  8
0
  6
Continuous
 62
     0
370
    -2
100
AcDbLine
 10
0.0
 20
0.0
 30
0.0
 11
-0.9659258262890684
 21
-0.2588190451025207
 31
0.0
  0
LINE
  5
67
330
61
100
AcDbEntity
  8
0
  6
Continuous
 62
     0
370
    -2
100
AcDbLine
 10
-0.9659258262890684
 20
0.2588190451025207
 30
0.0
 11
-0.9659258262890684
 21
-0.2588190451025207
 31
0.0
  0
ENDBLK
  5
63
330
61
100
AcDbEntity
  8
0
100
AcDbBlockEnd
  0
BLOCK
  5
69
330
68
100
AcDbEntity
  8
0
100
AcDbBlockBegin
  2
FXTIP_ARCHITECT_S
 70
     0
 10
0.0
 20
0.0
 30
0.0
  3
FXTIP_ARCHITECT_S
  1

  0
LINE
  5
6B
330
68
100
AcDbEntity
  8
0
  6
Continuous
 62
     0
370
    -2
100
AcDbLine
 10
0.0
 20
0.0
 30
0.0
 11
-1.0
 21
0.0000000000000001
 31
0.0
  0
LINE
  5
6C
330
68
100
AcDbEntity
  8
0
  6
Continuous
 62
     0
370
    -2
100
AcDbLine
 10
0.0
 20
0.0
 30
0.0
 11
-0.7071067811865476
 21
-0.7071067811865474
 31
0.0
  0
LINE
  5
6D
330
68
100
AcDbEntity
  8
0
  6
Continuous
 62
     0
370
    -2
100
AcDbLine
 10
0.0
 20
0.0
 30
0.0
 11
0.7071067811865476
 21
0.7071067811865474
 31
0.0
  0
ENDBLK
  5
6A
330
68
100
AcDbEntity
  8
0
100
AcDbBlockEnd
  0
BLOCK
  5
6F
330
6E
100
AcDbEntity
  8
0
100
AcDbBlockBegin
  2
FXTIP_ARCHITECT_E
 70
     0
 10
0.0
 20
0.0
 30
0.0
  3
FXTIP_ARCHITECT_E
  1

  0
LINE
  5
71
330
6E
100
AcDbEntity
  8
0
  6
Continuous
 62
     0
370
    -2
100
AcDbLine
 10
0.0
 20
0.0
 30
0.0
 11
-1.0
 21
0.0
 31
0.0
  0
LINE
  5
72
330
6E
100
AcDbEntity
  8
0
  6
Continuous
 62
     0
370
    -2
100
AcDbLine
 10
0.0
 20
0.0
 30
0.0
 11
0.7071067811865475
 21
0.7071067811865475
 31
0.0
  0
LINE
  5
73
330
6E
100
AcDbEntity
  8
0
  6
Continuous
 62
     0
370
    -2
100
AcDbLine
 10
0.0
 20
0.0
 30
0.0
 11
-0.7071067811865475
 21
-0.7071067811865475
 31
0.0
  0
ENDBLK
  5
70
330
6E
100
AcDbEntity
  8
0
100
AcDbBlockEnd
  0
BLOCK
  5
75
330
74
100
AcDbEntity
  8
0
100
AcDbBlockBegin
  2
FXTIP_CIVIL_S
 70
     0
 10
0.0
 20
0.0
 30
0.0
  3
FXTIP_CIVIL_S
  1

  0
LINE
  5
77
330
74
100
AcDbEntity
  8
0
  6
Continuous
 62
     0
370
    -2
100
AcDbLine
 10
0.0
 20
0.0
 30
0.0
 11
-1.0
 21
0.0000000000000001
 31
0.0
  0
LINE
  5
78
330
74
100
AcDbEntity
  8
0
  6
Continuous
 62
     0
370
    -2
100
AcDbLine
 10
0.0
 20
-0.0833333333333333
 30
0.0
 11
-1.0
 21
-0.0833333333333332
 31
0.0
  0
LINE
  5
79
330
74
100
AcDbEntity
  8
0
  6
Continuous
 62
     0
370
    -2
100
AcDbLine
 10
0.0
 20
-0.1666666666666667
 30
0.0
 11
-1.0
 21
-0.1666666666666666
 31
0.0
  0
ENDBLK
  5
76
330
74
100
AcDbEntity
  8
0
100
AcDbBlockEnd
  0
BLOCK
  5
7B
330
7A
100
AcDbEntity
  8
0
100
AcDbBlockBegin
  2
FXTIP_CIVIL_E
 70
     0
 10
0.0
 20
0.0
 30
0.0
  3
FXTIP_CIVIL_E
  1

  0
LINE
  5
7D
330
7A
100
AcDbEntity
  8
0
  6
Continuous
 62
     0
370
    -2
100
AcDbLine
 10
0.0
 20
0.0
 30
0.0
 11
-1.0
 21
0.0
 31
0.0
  0
LINE
  5
7E
330
7A
100
AcDbEntity
  8
0
  6
Continuous
 62
     0
370
    -2
100
AcDbLine
 10
0.0
 20
0.0833333333333333
 30
0.0
 11
-1.0
 21
0.0833333333333333
 31
0.0
  0
LINE
  5
7F
330
7A
100
AcDbEntity
  8
0
  6
Continuous
 62
     0
370
    -2
100
AcDbLine
 10
0.0
 20
0.1666666666666667
 30
0.0
 11
-1.0
 21
0.1666666666666667
 31
0.0
  0
ENDBLK
  5
7C
330
7A
100
AcDbEntity
  8
0
100
AcDbBlockEnd
  0
BLOCK
  5
81
330
80
100
AcDbEntity
  8
0
100
AcDbBlockBegin
  2
FXTIP_WHITEDOT_S
 70
     0
 10
0.0
 20
0.0
 30
0.0
  3
FXTIP_WHITEDOT_S
  1

  0
LINE
  5
83
330
80
100
AcDbEntity
  8
0
  6
Continuous
 62
     0
370
    -2
100
AcDbLine
 10
0.0
 20
0.0
 30
0.0
 11
-1.0
 21
0.0000000000000001
 31
0.0
  0
CIRCLE
  5
84
330
80
100
AcDbEntity
  8
0
  6
Continuous
 62
     0
370
    -2
100
AcDbCircle
 10
0.0
 20
0.0
 30
0.0
 40
0.5
  0
ENDBLK
  5
82
330
80
100
AcDbEntity
  8
0
100
AcDbBlockEnd
  0
BLOCK
  5
86
330
85
100
AcDbEntity
  8
0
100
AcDbBlockBegin
  2
FXTIP_WHITEDOT_E
 70
     0
 10
0.0
 20
0.0
 30
0.0
  3
FXTIP_WHITEDOT_E
  1

  0
LINE
  5
88
330
85
100
AcDbEntity
  8
0
  6
Continuous
 62
     0
370
    -2
100
AcDbLine
 10
0.0
 20
0.0
 30
0.0
 11
-1.0
 21
0.0
 31
0.0
  0
CIRCLE
  5
89
330
85
100
AcDbEntity
  8
0
  6
Continuous
 62
     0
370
    -2
100
AcDbCircle
 10
0.0
 20
0.0
 30
0.0
 40
0.5
  0
ENDBLK
  5
87
330
85
100
AcDbEntity
  8
0
100
AcDbBlockEnd
  0
BLOCK
  5
8B
330
8A
100
AcDbEntity
  8
0
100
AcDbBlockBegin
  2
FXTIP_UPARROW_S
 70
     0
 10
0.0
 20
0.0
 30
0.0
  3
FXTIP_UPARROW_S
  1

  0
LINE
  5
8D
330
8A
100
AcDbEntity
  8
0
  6
Continuous
 62
     0
370
    -2
100
AcDbLine
 10
0.0
 20
0.0
 30
0.0
 11
-1.0
 21
0.0000000000000001
 31
0.0
  0
LINE
  5
8E
330
8A
100
AcDbEntity
  8
0
  6
Continuous
 62
     0
370
    -2
100
AcDbLine
 10
0.0
 20
0.0
 30
0.0
 11
-0.9659258262890684
 21
-0.2588190451025206
 31
0.0
  0
ENDBLK
  5
8C
330
8A
100
AcDbEntity
  8
0
100
AcDbBlockEnd
  0
BLOCK
  5
90
330
8F
100
AcDbEntity
  8
0
100
AcDbBlockBegin
  2
FXTIP_UPARROW_E
 70
     0
 10
0.0
 20
0.0
 30
0.0
  3
FXTIP_UPARROW_E
  1

  0
LINE
  5
92
330
8F
100
AcDbEntity
  8
0
  6
Continuous
 62
     0
370
    -2
100
AcDbLine
 10
0.0
 20
0.0
 30
0.0
 11
-1.0
 21
0.0
 31
0.0
  0
LINE
  5
93
330
8F
100
AcDbEntity
  8
0
  6
Continuous
 62
     0
370
    -2
100
AcDbLine
 10
0.0
 20
0.0
 30
0.0
 11
-0.9659258262890684
 21
0.2588190451025207
 31
0.0
  0
ENDBLK
  5
91
330
8F
100
AcDbEntity
  8
0
100
AcDbBlockEnd
  0
BLOCK
  5
95
330
94
100
AcDbEntity
  8
0
100
AcDbBlockBegin
  2
FXTIP_DOWNARROW_S
 70
     0
 10
0.0
 20
0.0
 30
0.0
  3
FXTIP_DOWNARROW_S
  1

  0
LINE
  5
97
330
94
100
AcDbEntity
  8
0
  6
Continuous
 62
     0
370
    -2
100
AcDbLine
 10
0.0
 20
0.0
 30
0.0
 11
-1.0
 21
0.0000000000000001
 31
0.0
  0
LINE
  5
98
330
94
100
AcDbEntity
  8
0
  6
Continuous
 62
     0
370
    -2
100
AcDbLine
 10
0.0
 20
0.0
 30
0.0
 11
-0.9659258262890684
 21
0.2588190451025209
 31
0.0
  0
ENDBLK
  5
96
330
94
100
AcDbEntity
  8
0
100
AcDbBlockEnd
  0
BLOCK
  5
9A
330
99
100
AcDbEntity
  8
0
100
AcDbBlockBegin
  2
FXTIP_DOWNARROW_E
 70
     0
 10
0.0
 20
0.0
 30
0.0
  3
FXTIP_DOWNARROW_E
  1

  0
LINE
  5
9C
330
99
100
AcDbEntity
  8
0
  6
Continuous
 62
     0
370
    -2
100
AcDbLine
 10
0.0
 20
0.0
 30
0.0
 11
-1.0
 21
0.0
 31
0.0
  0
LINE
  5
9D
330
99
100
AcDbEntity
  8
0
  6
Continuous
 62
     0
370
    -2
100
AcDbLine
 10
0.0
 20
0.0
 30
0.0
 11
-0.9659258262890684
 21
-0.2588190451025207
 31
0.0
  0
ENDBLK
  5
9B
330
99
100
AcDbEntity
  8
0
100
AcDbBlockEnd
  0
BLOCK
  5
9F
330
9E
100
AcDbEntity
  8
0
100
AcDbBlockBegin
  2
FXTIP_BLACKTRIANGLE_S
 70
     0
 10
0.0
 20
0.0
 30
0.0
  3
FXTIP_BLACKTRIANGLE_S
  1

  0
LINE
  5
A1
330
9E
100
AcDbEntity
  8
0
  6
Continuous
 62
     0
370
    -2
100
AcDbLine
 10
0.0
 20
0.0
 30
0.0
 11
-1.0
 21
0.0000000000000001
 31
0.0
  0
SOLID
  5
A2
330
9E
100
AcDbEntity
  8
0
  6
Continuous
 62
     0
370
    -2
100
AcDbTrace
 10
0.0
 20
0.0
 30
0.0
 11
-0.9659258262890684
 21
-0.2588190451025206
 31
0.0
 12
-0.9659258262890684
 22
0.2588190451025209
 32
0.0
 13
-0.9659258262890684
 23
0.2588190451025209
 33
0.0
  0
ENDBLK
  5
A0
330
9E
100
AcDbEntity
  8
0
100
AcDbBlockEnd
  0
BLOCK
  5
A4
330
A3
100
AcDbEntity
  8
0
100
AcDbBlockBegin
  2
FXTIP_BLACKTRIANGLE_E
 70
     0
 10
0.0
 20
0.0
 30
0.0
  3
FXTIP_BLACKTRIANGLE_E
  1

  0
LINE
  5
A6
330
A3
100
AcDbEntity
  8
0
  6
Continuous
 62
     0
370
    -2
100
AcDbLine
 10
0.0
 20
0.0
 30
0.0
 11
-1.0
 21
0.0
 31
0.0
  0
SOLID
  5
A7
330
A3
100
AcDbEntity
  8
0
  6
Continuous
 62
     0
370
    -2
100
AcDbTrace
 10
0.0
 20
0.0
 30
0.0
 11
-0.9659258262890684
 21
0.2588190451025207
 31
0.0
 12
-0.9659258262890684
 22
-0.2588190451025207
 32
0.0
 13
-0.9659258262890684
 23
-0.2588190451025207
 33
0.0
  0
ENDBLK
  5
A5
330
A3
100
AcDbEntity
  8
0
100
AcDbBlockEnd
  0
BLOCK
  5
1AA
330
1A9
100
AcDbEntity
  8
0
100
AcDbBlockBegin
  2
BLKF021
 70
     0
 10
0.0
 20
0.0
 30
0.0
  3
BLKF021
  1

  0
TEXT
  5
1AD
330
1A9
100
AcDbEntity
  8
LAYER004
  6
Continuous
 62
     6
370
    20
100
AcDbText
 10
193.6679992675781
 20
188.8809204101561
 30
0.0
 40
2.299999952316284
  1
 
 41
0.5217391619835557
  7
FX_VECTOR
100
AcDbText
  0
TEXT
  5
1AE
330
1A9
100
AcDbEntity
  8
LAYER004
  6
Continuous
 62
     6
370
    20
100
AcDbText
 10
241.8339996337889
 20
188.8809204101561
 30
0.0
 40
2.299999952316284
  1
 
 41
0.5217391619835557
  7
FX_VECTOR
100
AcDbText
  0
INSERT
  5
1B2
330
1A9
100
AcDbEntity
  8
0
100
AcDbBlockReference
  2
FXDIM022
 10
0.0
 20
0.0
 30
0.0
  0
ENDBLK
  5
1AB
330
1A9
100
AcDbEntity
  8
0
100
AcDbBlockEnd
  0
BLOCK
  5
1B0
330
1AF
100
AcDbEntity
  8
0
100
AcDbBlockBegin
  2
FXDIM022
 70
     0
 10
0.0
 20
0.0
 30
0.0
  3
FXDIM022
  1

  0
TEXT
  5
1B3
330
1AF
100
AcDbEntity
  8
LAYER004
  6
Continuous
 62
     6
370
    20
100
AcDbText
 10
184.4885314704908
 20
188.6425079106235
 30
0.0
 40
2.200000047683714
  1
 
 50
0.0000000099999999
 41
0.5454545553065528
  7
FX_VECTOR
100
AcDbText
  0
LINE
  5
1B4
330
1AF
100
AcDbEntity
  8
LAYER004
  6
Continuous
 62
     6
370
    20
100
AcDbLine
 10
185.0885254983104
 20
191.8425053757654
 30
0.0
 11
182.9885254989454
 21
188.2051986795044
 31
0.0
  0
LINE
  5
1B5
330
1AF
100
AcDbEntity
  8
LAYER004
  6
Continuous
 62
     6
370
    20
100
AcDbLine
 10
182.9885254989454
 20
188.2051986795044
 30
0.0
 11
187.1885254989453
 21
188.2051986802373
 31
0.0
  0
LINE
  5
1B6
330
1AF
100
AcDbEntity
  8
LAYER004
  6
Continuous
 62
     6
370
    20
100
AcDbLine
 10
187.1885254989453
 20
188.2051986802373
 30
0.0
 11
185.0885254983104
 21
191.8425053757654
 31
0.0
  0
ENDBLK
  5
1B1
330
1AF
100
AcDbEntity
  8
0
100
AcDbBlockEnd
  0
BLOCK
  5
1B8
330
1B7
100
AcDbEntity
  8
0
100
AcDbBlockBegin
  2
BLKF023
 70
     0
 10
0.0
 20
0.0
 30
0.0
  3
BLKF023
  1

  0
LINE
  5
1BB
330
1B7
100
AcDbEntity
  8
LAYER004
  6
Continuous
 62
     7
370
    20
100
AcDbLine
 10
18.47867977292269
 20
198.9797160754094
 30
0.0
 11
133.4665303663903
 21
198.9797160754094
 31
0.0
  0
LINE
  5
1BC
330
1B7
100
AcDbEntity
  8
LAYER004
  6
Continuous
 62
     7
370
    20
100
AcDbLine
 10
133.4665303663903
 20
198.9797160754094
 30
0.0
 11
133.4665303663903
 21
178.3368977228819
 31
0.0
  0
LINE
  5
1BD
330
1B7
100
AcDbEntity
  8
LAYER004
  6
Continuous
 62
     7
370
    20
100
AcDbLine
 10
133.4665303663903
 20
178.3368977228819
 30
0.0
 11
18.47867977292268
 21
178.3368977228819
 31
0.0
  0
LINE
  5
1BE
330
1B7
100
AcDbEntity
  8
LAYER004
  6
Continuous
 62
     7
370
    20
100
AcDbLine
 10
18.47867977292268
 20
178.3368977228819
 30
0.0
 11
18.47867977292269
 21
198.9797160754094
 31
0.0
  0
LINE
  5
1BF
330
1B7
100
AcDbEntity
  8
LAYER004
  6
Continuous
 62
     7
370
    20
100
AcDbLine
 10
17.72867977292269
 20
199.7297160754095
 30
0.0
 11
134.2165303663903
 21
199.7297160754095
 31
0.0
  0
LINE
  5
1C0
330
1B7
100
AcDbEntity
  8
LAYER004
  6
Continuous
 62
     7
370
    20
100
AcDbLine
 10
134.2165303663903
 20
199.7297160754095
 30
0.0
 11
134.2165303663903
 21
177.5868977228818
 31
0.0
  0
LINE
  5
1C1
330
1B7
100
AcDbEntity
  8
LAYER004
  6
Continuous
 62
     7
370
    20
100
AcDbLine
 10
134.2165303663903
 20
177.5868977228818
 30
0.0
 11
17.72867977292269
 21
177.5868977228818
 31
0.0
  0
LINE
  5
1C2
330
1B7
100
AcDbEntity
  8
LAYER004
  6
Continuous
 62
     7
370
    20
100
AcDbLine
 10
17.72867977292269
 20
177.5868977228818
 30
0.0
 11
17.72867977292269
 21
199.7297160754095
 31
0.0
  0
TEXT
  5
1C3
330
1B7
100
AcDbEntity
  8
LAYER004
  6
Continuous
 62
     7
370
    20
100
AcDbText
 10
19.22414588928223
 20
194.9769134521483
 30
0.0
 40
3.0
  1
　
 41
0.9000000158945717
  7
FX_VECTOR
100
AcDbText
  0
TEXT
  5
1C4
330
1B7
100
AcDbEntity
  8
LAYER004
  6
Continuous
 62
     7
370
    20
100
AcDbText
 10
21.92414665222166
 20
194.3809661865234
 30
0.0
 40
2.299999952316284
  1
Confidential
 41
0.8999999896339746
  7
FX_VECTOR
100
AcDbText
  0
TEXT
  5
1C5
330
1B7
100
AcDbEntity
  8
LAYER004
  6
Continuous
 62
     7
370
    20
100
AcDbText
 10
46.76414489746092
 20
194.9769134521483
 30
0.0
 40
2.299999952316284
  1
　
 41
0.8999999896339746
  7
FX_VECTOR
100
AcDbText
  0
TEXT
  5
1C6
330
1B7
100
AcDbEntity
  8
LAYER004
  6
Continuous
 62
     7
370
    20
100
AcDbText
 10
48.83414840698242
 20
194.3809661865234
 30
0.0
 40
2.299999952316284
  1
Information
 41
0.8999999896339746
  7
FX_VECTOR
100
AcDbText
  0
TEXT
  5
1C7
330
1B7
100
AcDbEntity
  8
LAYER004
  6
Continuous
 62
     7
370
    20
100
AcDbText
 10
71.60414886474609
 20
194.3809661865234
 30
0.0
 40
2.5
  1
　　機密情報
 41
0.9
  7
FX_VECTOR
100
AcDbText
  0
TEXT
  5
1C8
330
1B7
100
AcDbEntity
  8
LAYER004
  6
Continuous
 62
     7
370
    20
100
AcDbText
 10
19.22414588928223
 20
190.8836669921875
 30
0.0
 40
2.099999904632567
  1
This material and any attachment contain information that is privileged confidentialor exempt
 41
0.5714286200854266
  7
FX_VECTOR
100
AcDbText
  0
TEXT
  5
1C9
330
1B7
100
AcDbEntity
  8
LAYER004
  6
Continuous
 62
     7
370
    20
100
AcDbText
 10
39.38414764404297
 20
188.7769165039061
 30
0.0
 40
2.0
  1
 
 41
0.899999976158142
  7
FX_VECTOR
100
AcDbText
  0
TEXT
  5
1CA
330
1B7
100
AcDbEntity
  8
LAYER004
  6
Continuous
 62
     7
370
    20
100
AcDbText
 10
19.22414588928223
 20
187.5641021728514
 30
0.0
 40
2.099999904632567
  1
form disclosure under application or copying of this information is strictly prohibited.
 41
0.5714286200854266
  7
FX_VECTOR
100
AcDbText
  0
TEXT
  5
1CB
330
1B7
100
AcDbEntity
  8
LAYER004
  6
Continuous
 62
     7
370
    20
100
AcDbText
 10
19.22414588928223
 20
183.8472442626953
 30
0.0
 40
2.299999952316284
  1
本資料は、
 41
0.7826086911452065
  7
FX_VECTOR
100
AcDbText
  0
TEXT
  5
1CC
330
1B7
100
AcDbEntity
  8
LAYER004
  6
Continuous
 62
     7
370
    20
100
AcDbText
 10
27.77736091613769
 20
183.8472442626953
 30
0.0
 40
2.200000047683714
  1
HOYA CANDEO OPTRONICS
 41
0.6363636117336186
  7
FX_VECTOR
100
AcDbText
  0
TEXT
  5
1CD
330
1B7
100
AcDbEntity
  8
LAYER004
  6
Continuous
 62
     7
370
    20
100
AcDbText
 10
57.83607864379883
 20
183.8472442626953
 30
0.0
 40
2.299999952316284
  1
株式会社の財産的情報を含んでおりますので、
 41
0.7826086911452065
  7
FX_VECTOR
100
AcDbText
  0
TEXT
  5
1CE
330
1B7
100
AcDbEntity
  8
LAYER004
  6
Continuous
 62
     7
370
    20
100
AcDbText
 10
19.22414588928223
 20
180.7472534179688
 30
0.0
 40
2.299999952316284
  1
許可なく第三者に開示したり内容の全部又は一部を複写する事を御遠慮下さい。
 41
0.7826086911452065
  7
FX_VECTOR
100
AcDbText
  0
ENDBLK
  5
1B9
330
1B7
100
AcDbEntity
  8
0
100
AcDbBlockEnd
  0
BLOCK
  5
1D0
330
1CF
100
AcDbEntity
  8
0
100
AcDbBlockBegin
  2
BLKF024
 70
     0
 10
0.0
 20
0.0
 30
0.0
  3
BLKF024
  1

  0
TEXT
  5
1D3
330
1CF
100
AcDbEntity
  8
LAYER004
  6
Continuous
 62
     7
370
    20
100
AcDbText
 10
221.4999999999999
 20
32.75690078735352
 30
0.0
 40
2.0
  1
2012/04/12
 41
0.8000000119209291
  7
FX_VECTOR
100
AcDbText
  0
TEXT
  5
1D4
330
1CF
100
AcDbEntity
  8
LAYER004
  6
Continuous
 62
     7
370
    20
100
AcDbText
 10
203.076477050781
 20
28.45743370056151
 30
0.0
 40
2.5
  1
元図番
 41
1.438202285766601
  7
FX_VECTOR
100
AcDbText
  0
TEXT
  5
1D5
330
1CF
100
AcDbEntity
  8
LAYER004
  6
Continuous
 62
     7
370
    20
100
AcDbText
 10
274.4500122070312
 20
13.14485645294189
 30
0.0
 40
2.0
  1
1/1
 41
0.6000000238418579
  7
FX_VECTOR
100
AcDbText
  0
TEXT
  5
1D6
330
1CF
100
AcDbEntity
  8
LAYER004
  6
Continuous
 62
     7
370
    20
100
AcDbText
 10
275.0499877929688
 20
21.38633155822753
 30
0.0
 40
2.0
  1
A4
 41
0.6000000238418579
  7
FX_VECTOR
100
AcDbText
  0
TEXT
  5
1D7
330
1CF
100
AcDbEntity
  8
LAYER004
  6
Continuous
 62
     7
370
    20
100
AcDbText
 10
122.5
 20
28.22083282470703
 30
0.0
 40
3.299999952316282
  1
JIS B 0419-cH(ISO2768-2)
 41
0.7449494816310404
  7
FX_VECTOR
100
AcDbText
  0
TEXT
  5
1D8
330
1CF
100
AcDbEntity
  8
LAYER004
  6
Continuous
 62
     7
370
    20
100
AcDbText
 10
148.4974822998045
 20
34.64977264404296
 30
0.0
 40
3.299999952316282
  1
**
 41
0.8484848462955135
  7
FX_VECTOR
100
AcDbText
  0
TEXT
  5
1D9
330
1CF
100
AcDbEntity
  8
LAYER004
  6
Continuous
 62
     7
370
    20
100
AcDbText
 10
148.3046112060546
 20
41.13259506225586
 30
0.0
 40
3.299999952316282
  1
**
 41
0.8484848462955135
  7
FX_VECTOR
100
AcDbText
  0
TEXT
  5
1DA
330
1CF
100
AcDbEntity
  8
LAYER004
  6
Continuous
 62
     7
370
    20
100
AcDbText
 10
201.9915771484375
 20
41.21905136108398
 30
0.0
 40
3.0
  1
1: 2
 41
0.9333333174387611
  7
FX_VECTOR
100
AcDbText
  0
TEXT
  5
1DB
330
1CF
100
AcDbEntity
  8
LAYER004
  6
Continuous
 62
     6
370
    20
100
AcDbText
 10
5.59656810760498
 20
13.62403011322021
 30
0.0
 40
1.799999952316284
  1
****
 41
0.7777777851363761
  7
FX_VECTOR
100
AcDbText
  0
TEXT
  5
1DC
330
1CF
100
AcDbEntity
  8
LAYER004
  6
Continuous
 62
     6
370
    20
100
AcDbText
 10
5.59656810760498
 20
10.22377681732176
 30
0.0
 40
1.799999952316284
  1
%%%U%%%
 41
0.7777777851363761
  7
FX_VECTOR
100
AcDbText
  0
ENDBLK
  5
1D1
330
1CF
100
AcDbEntity
  8
0
100
AcDbBlockEnd
  0
BLOCK
  5
1DF
330
1DE
100
AcDbEntity
  8
0
100
AcDbBlockBegin
  2
BLKF025
 70
     0
 10
0.0
 20
0.0
 30
0.0
  3
BLKF025
  1

  0
LINE
  5
1E2
330
1DE
100
AcDbEntity
  8
LAYER004
  6
Continuous
 62
     7
370
    20
100
AcDbLine
 10
217.1958087157903
 20
37.67999678925763
 30
0.0
 11
214.6958087157903
 21
37.17999678925764
 31
0.0
  0
LINE
  5
1E3
330
1DE
100
AcDbEntity
  8
LAYER004
  6
Continuous
 62
     7
370
    20
100
AcDbLine
 10
217.1958087157903
 20
37.67999678925763
 30
0.0
 11
217.1958087157903
 21
34.67999678925764
 31
0.0
  0
CIRCLE
  5
1E4
330
1DE
100
AcDbEntity
  8
LAYER004
  6
Continuous
 62
     7
370
    20
100
AcDbCircle
 10
212.1958087157902
 20
36.14231643089117
 30
0.0
 40
1.414213562373104
  0
CIRCLE
  5
1E5
330
1DE
100
AcDbEntity
  8
LAYER004
  6
Continuous
 62
     7
370
    20
100
AcDbCircle
 10
212.1958087157902
 20
36.14231643089117
 30
0.0
 40
1.0
  0
LINE
  5
1E6
330
1DE
100
AcDbEntity
  8
LAYER004
  6
Continuous
 62
     7
370
    20
100
AcDbLine
 10
214.6958087157903
 20
37.17999678925764
 30
0.0
 11
214.6958087157903
 21
35.17999678925765
 31
0.0
  0
LINE
  5
1E7
330
1DE
100
AcDbEntity
  8
LAYER004
  6
Continuous
 62
     7
370
    20
100
AcDbLine
 10
217.1958087157903
 20
34.67999678925764
 30
0.0
 11
214.6958087157903
 21
35.17999678925765
 31
0.0
  0
LINE
  5
1E9
330
1DE
100
AcDbEntity
  8
LAYER004
  6
DASH_DOT
 62
     7
370
    20
100
AcDbLine
 10
212.1958087157902
 20
38.05663829568981
 30
0.0
 11
212.1958087157902
 21
34.23222723368709
 31
0.0
  0
LINE
  5
1EA
330
1DE
100
AcDbEntity
  8
LAYER004
  6
DASH_DOT
 62
     7
370
    20
100
AcDbLine
 10
210.353895244483
 20
36.14231643089117
 30
0.0
 11
217.6001474700413
 21
36.14231643089117
 31
0.0
  0
TEXT
  5
1EB
330
1DE
100
AcDbEntity
  8
LAYER004
  6
Continuous
 62
     7
370
    20
100
AcDbText
 10
20.80375289916992
 20
14.9008617401123
 30
0.0
 40
2.299999952316284
  1
仕様書番号
 41
0.8999999896339746
  7
FX_VECTOR
100
AcDbText
  0
TEXT
  5
1EC
330
1DE
100
AcDbEntity
  8
LAYER004
  6
Continuous
 62
     7
370
    20
100
AcDbText
 10
20.30875205993651
 20
10.75086212158201
 30
0.0
 40
1.799999952316284
  1
Spec.No
 41
0.9000000264909539
  7
FX_VECTOR
100
AcDbText
  0
TEXT
  5
1ED
330
1DE
100
AcDbEntity
  8
LAYER004
  6
Continuous
 62
     7
370
    20
100
AcDbText
 10
196.0196838378905
 20
14.39006233215332
 30
0.0
 40
2.299999952316284
  1
図番
 41
0.8000000310980761
  7
FX_VECTOR
100
AcDbText
  0
TEXT
  5
1EE
330
1DE
100
AcDbEntity
  8
LAYER004
  6
Continuous
 62
     7
370
    20
100
AcDbText
 10
196.0196838378905
 20
10.89006233215332
 30
0.0
 40
1.799999952316284
  1
DWG＿No
 41
0.6666667108182566
  7
FX_VECTOR
100
AcDbText
  0
TEXT
  5
1EF
330
1DE
100
AcDbEntity
  8
LAYER004
  6
Continuous
 62
     7
370
    20
100
AcDbText
 10
196.0196838378905
 20
22.61516952514648
 30
0.0
 40
2.299999952316284
  1
図名
 41
0.8000000310980761
  7
FX_VECTOR
100
AcDbText
  0
TEXT
  5
1F0
330
1DE
100
AcDbEntity
  8
LAYER004
  6
Continuous
 62
     7
370
    20
100
AcDbText
 10
196.0196838378905
 20
19.11516952514648
 30
0.0
 40
1.799999952316284
  1
DWG＿Name
 41
0.6666667108182566
  7
FX_VECTOR
100
AcDbText
  0
TEXT
  5
1F1
330
1DE
100
AcDbEntity
  8
LAYER004
  6
Continuous
 62
     7
370
    20
100
AcDbText
 10
266.5531921386719
 20
14.26356601715088
 30
0.0
 40
2.0
  1
ページ
 41
0.899999976158142
  7
FX_VECTOR
100
AcDbText
  0
TEXT
  5
1F2
330
1DE
100
AcDbEntity
  8
LAYER004
  6
Continuous
 62
     7
370
    20
100
AcDbText
 10
266.8500061035155
 20
10.96356582641602
 30
0.0
 40
1.799999952316284
  1
Page
 41
0.6666667108182566
  7
FX_VECTOR
100
AcDbText
  0
TEXT
  5
1F3
330
1DE
100
AcDbEntity
  8
LAYER004
  6
Continuous
 62
     7
370
    20
100
AcDbText
 10
267.3749694824219
 20
42.81801223754881
 30
0.0
 40
2.299999952316284
  1
作成
 41
0.8999999896339746
  7
FX_VECTOR
100
AcDbText
  0
TEXT
  5
1F4
330
1DE
100
AcDbEntity
  8
LAYER004
  6
Continuous
 62
     7
370
    20
100
AcDbText
 10
267.3749694824219
 20
40.32801055908203
 30
0.0
 40
1.799999952316284
  1
Drawn
 41
0.6666667108182566
  7
FX_VECTOR
100
AcDbText
  0
TEXT
  5
1F5
330
1DE
100
AcDbEntity
  8
LAYER004
  6
Continuous
 62
     7
370
    20
100
AcDbText
 10
254.3677062988281
 20
42.49589920043945
 30
0.0
 40
2.299999952316284
  1
設計
 41
0.8999999896339746
  7
FX_VECTOR
100
AcDbText
  0
TEXT
  5
1F6
330
1DE
100
AcDbEntity
  8
LAYER004
  6
Continuous
 62
     7
370
    20
100
AcDbText
 10
254.3677062988281
 20
40.00589752197265
 30
0.0
 40
1.799999952316284
  1
Designed
 41
0.6666667108182566
  7
FX_VECTOR
100
AcDbText
  0
TEXT
  5
1F7
330
1DE
100
AcDbEntity
  8
LAYER004
  6
Continuous
 62
     7
370
    20
100
AcDbText
 10
241.364273071289
 20
42.84443283081055
 30
0.0
 40
2.299999952316284
  1
検図
 41
0.8999999896339746
  7
FX_VECTOR
100
AcDbText
  0
TEXT
  5
1F8
330
1DE
100
AcDbEntity
  8
LAYER004
  6
Continuous
 62
     7
370
    20
100
AcDbText
 10
241.364273071289
 20
40.35443115234374
 30
0.0
 40
1.799999952316284
  1
Checked
 41
0.6666667108182566
  7
FX_VECTOR
100
AcDbText
  0
TEXT
  5
1F9
330
1DE
100
AcDbEntity
  8
LAYER004
  6
Continuous
 62
     7
370
    20
100
AcDbText
 10
219.3719635009764
 20
42.79372787475586
 30
0.0
 40
2.299999952316284
  1
承認 - 日付
 41
0.8999999896339746
  7
FX_VECTOR
100
AcDbText
  0
TEXT
  5
1FA
330
1DE
100
AcDbEntity
  8
LAYER004
  6
Continuous
 62
     7
370
    20
100
AcDbText
 10
219.3719635009764
 20
40.30373001098633
 30
0.0
 40
1.799999952316284
  1
Approval - Date
 41
0.6666667108182566
  7
FX_VECTOR
100
AcDbText
  0
TEXT
  5
1FB
330
1DE
100
AcDbEntity
  8
LAYER004
  6
Continuous
 62
     7
370
    20
100
AcDbText
 10
200.313034057617
 20
35.14861297607422
 30
0.0
 40
2.0
  1
第三角法
  7
FX_VECTOR
100
AcDbText
  0
TEXT
  5
1FC
330
1DE
100
AcDbEntity
  8
LAYER004
  6
Continuous
 62
     7
370
    20
100
AcDbText
 10
266.5531921386719
 20
22.50294303894043
 30
0.0
 40
2.0
  1
サイズ
 41
0.899999976158142
  7
FX_VECTOR
100
AcDbText
  0
TEXT
  5
1FD
330
1DE
100
AcDbEntity
  8
LAYER004
  6
Continuous
 62
     7
370
    20
100
AcDbText
 10
266.8500061035155
 20
19.20294380187987
 30
0.0
 40
1.799999952316284
  1
Size
 41
0.6666667108182566
  7
FX_VECTOR
100
AcDbText
  0
TEXT
  5
1FE
330
1DE
100
AcDbEntity
  8
LAYER004
  6
Continuous
 62
     7
370
    20
100
AcDbText
 10
227.1426391601561
 20
37.45894241333008
 30
0.0
 40
2.0
  1
岸根
 41
1.325000047683715
  7
FX_VECTOR
100
AcDbText
  0
TEXT
  5
1FF
330
1DE
100
AcDbEntity
  8
LAYER004
  6
Continuous
 62
     7
370
    20
100
AcDbText
 10
244.3155975341797
 20
37.45894241333008
 30
0.0
 40
2.0
  1
岸根
 41
1.325000047683715
  7
FX_VECTOR
100
AcDbText
  0
TEXT
  5
200
330
1DE
100
AcDbEntity
  8
LAYER004
  6
Continuous
 62
     7
370
    20
100
AcDbText
 10
257.10888671875
 20
37.45894241333008
 30
0.0
 40
2.0
  1
紫藤
 41
1.325000047683715
  7
FX_VECTOR
100
AcDbText
  0
TEXT
  5
201
330
1DE
100
AcDbEntity
  8
LAYER004
  6
Continuous
 62
     7
370
    20
100
AcDbText
 10
270.2760314941405
 20
37.45894241333008
 30
0.0
 40
2.0
  1
紫藤
 41
1.325000047683715
  7
FX_VECTOR
100
AcDbText
  0
TEXT
  5
202
330
1DE
100
AcDbEntity
  8
LAYER004
  6
Continuous
 62
     7
370
    20
100
AcDbText
 10
110.9876480102539
 20
42.91971206665039
 30
0.0
 40
2.299999952316284
  1
材質
 41
0.8999999896339746
  7
FX_VECTOR
100
AcDbText
  0
TEXT
  5
203
330
1DE
100
AcDbEntity
  8
LAYER004
  6
Continuous
 62
     7
370
    20
100
AcDbText
 10
110.9876480102539
 20
39.79286193847656
 30
0.0
 40
1.799999952316284
  1
Material
 41
0.6666667108182566
  7
FX_VECTOR
100
AcDbText
  0
TEXT
  5
204
330
1DE
100
AcDbEntity
  8
LAYER004
  6
Continuous
 62
     7
370
    20
100
AcDbText
 10
110.9876480102539
 20
36.3911018371582
 30
0.0
 40
2.299999952316284
  1
処理
 41
0.8999999896339746
  7
FX_VECTOR
100
AcDbText
  0
TEXT
  5
205
330
1DE
100
AcDbEntity
  8
LAYER004
  6
Continuous
 62
     7
370
    20
100
AcDbText
 10
110.9876480102539
 20
33.26425170898438
 30
0.0
 40
1.799999952316284
  1
Treatment
 41
0.6666667108182566
  7
FX_VECTOR
100
AcDbText
  0
TEXT
  5
206
330
1DE
100
AcDbEntity
  8
LAYER004
  6
Continuous
 62
     7
370
    20
100
AcDbText
 10
110.9876480102539
 20
29.89969444274901
 30
0.0
 40
2.299999952316284
  1
公差
 41
0.8999999896339746
  7
FX_VECTOR
100
AcDbText
  0
TEXT
  5
207
330
1DE
100
AcDbEntity
  8
LAYER004
  6
Continuous
 62
     7
370
    20
100
AcDbText
 10
110.9876480102539
 20
26.77284240722656
 30
0.0
 40
1.799999952316284
  1
Tolerance
 41
0.6666667108182566
  7
FX_VECTOR
100
AcDbText
  0
TEXT
  5
208
330
1DE
100
AcDbEntity
  8
LAYER004
  6
Continuous
 62
     7
370
    20
100
AcDbText
 10
181.9535369873046
 20
42.90362167358398
 30
0.0
 40
2.299999952316284
  1
尺度
 41
0.8999999896339746
  7
FX_VECTOR
100
AcDbText
  0
TEXT
  5
209
330
1DE
100
AcDbEntity
  8
LAYER004
  6
Continuous
 62
     7
370
    20
100
AcDbText
 10
181.9535369873046
 20
39.77677154541014
 30
0.0
 40
1.799999952316284
  1
Scale
 41
0.6666667108182566
  7
FX_VECTOR
100
AcDbText
  0
TEXT
  5
20A
330
1DE
100
AcDbEntity
  8
LAYER004
  6
Continuous
 62
     7
370
    20
100
AcDbText
 10
181.9535369873046
 20
36.41714477539061
 30
0.0
 40
2.299999952316284
  1
投影法
 41
0.8999999896339746
  7
FX_VECTOR
100
AcDbText
  0
TEXT
  5
20B
330
1DE
100
AcDbEntity
  8
LAYER004
  6
Continuous
 62
     7
370
    20
100
AcDbText
 10
181.9535369873046
 20
33.2902946472168
 30
0.0
 40
1.799999952316284
  1
Projection
 41
0.6666667108182566
  7
FX_VECTOR
100
AcDbText
  0
TEXT
  5
20C
330
1DE
100
AcDbEntity
  8
LAYER004
  6
Continuous
 62
     7
370
    20
100
AcDbText
 10
181.9535369873046
 20
30.07779121398926
 30
0.0
 40
2.299999952316284
  1
元図番
 41
0.8999999896339746
  7
FX_VECTOR
100
AcDbText
  0
TEXT
  5
20D
330
1DE
100
AcDbEntity
  8
LAYER004
  6
Continuous
 62
     7
370
    20
100
AcDbText
 10
181.9535369873046
 20
26.95093727111816
 30
0.0
 40
1.799999952316284
  1
Origin DWG-No
 41
0.6666667108182566
  7
FX_VECTOR
100
AcDbText
  0
ENDBLK
  5
1E0
330
1DE
100
AcDbEntity
  8
0
100
AcDbBlockEnd
  0
BLOCK
  5
20F
330
20E
100
AcDbEntity
  8
0
100
AcDbBlockBegin
  2
BLKF026
 70
     0
 10
0.0
 20
0.0
 30
0.0
  3
BLKF026
  1

  0
LINE
  5
212
330
20E
100
AcDbEntity
  8
LAYER004
  6
Continuous
 62
   161
370
    20
100
AcDbLine
 10
70.5000000000001
 20
10.0
 30
0.0
 11
70.5000000000001
 21
18.5
 31
0.0
  0
LINE
  5
213
330
20E
100
AcDbEntity
  8
LAYER004
  6
Continuous
 62
     7
370
    20
100
AcDbLine
 10
34.50000000000007
 20
10.00000000000007
 30
0.0
 11
34.50000000000005
 21
18.5
 31
0.0
  0
LINE
  5
214
330
20E
100
AcDbEntity
  8
LAYER004
  6
Continuous
 62
   161
370
    20
100
AcDbLine
 10
17.50000000000006
 20
18.5
 30
0.0
 11
70.5000000000001
 21
18.5
 31
0.0
  0
LINE
  5
215
330
20E
100
AcDbEntity
  8
LAYER004
  6
Continuous
 62
     7
370
    20
100
AcDbLine
 10
17.50000000000006
 20
9.999999999999991
 30
0.0
 11
70.5000000000001
 21
10.0
 31
0.0
  0
LINE
  5
216
330
20E
100
AcDbEntity
  8
LAYER004
  6
Continuous
 62
   161
370
    20
100
AcDbLine
 10
218.5
 20
46.0
 30
0.0
 11
218.5
 21
26.50000000000002
 31
0.0
  0
LINE
  5
217
330
20E
100
AcDbEntity
  8
LAYER004
  6
Continuous
 62
     7
370
    20
100
AcDbLine
 10
207.5000000000001
 20
26.50000000000001
 30
0.0
 11
207.5000000000001
 21
10.0
 31
0.0
  0
LINE
  5
218
330
20E
100
AcDbEntity
  8
LAYER004
  6
Continuous
 62
     7
370
    20
100
AcDbLine
 10
198.5000000000001
 20
26.50000000000001
 30
0.0
 11
198.5000000000001
 21
46.0
 31
0.0
  0
LINE
  5
219
330
20E
100
AcDbEntity
  8
LAYER004
  6
Continuous
 62
   161
370
    20
100
AcDbLine
 10
195.5
 20
26.50000000000001
 30
0.0
 11
195.5
 21
10.0
 31
0.0
  0
LINE
  5
21A
330
20E
100
AcDbEntity
  8
LAYER004
  6
Continuous
 62
     7
370
    20
100
AcDbLine
 10
240.5
 20
46.0
 30
0.0
 11
240.5
 21
26.50000000000003
 31
0.0
  0
LINE
  5
21B
330
20E
100
AcDbEntity
  8
LAYER004
  6
Continuous
 62
     7
370
    20
100
AcDbLine
 10
195.5
 20
18.25000000000001
 30
0.0
 11
279.4999999999999
 21
18.25000000000003
 31
0.0
  0
LINE
  5
21C
330
20E
100
AcDbEntity
  8
LAYER004
  6
Continuous
 62
     7
370
    20
100
AcDbLine
 10
218.5
 20
36.0
 30
0.0
 11
279.4999999999999
 21
36.00000000000003
 31
0.0
  0
LINE
  5
21D
330
20E
100
AcDbEntity
  8
LAYER004
  6
Continuous
 62
     7
370
    20
100
AcDbLine
 10
279.4999999999999
 20
10.00000000000005
 30
0.0
 11
110.5000000000001
 21
9.999999999999962
 31
0.0
  0
LINE
  5
21E
330
20E
100
AcDbEntity
  8
LAYER004
  6
Continuous
 62
   161
370
    20
100
AcDbLine
 10
110.5000000000001
 20
26.49999999999996
 30
0.0
 11
279.4999999999999
 21
26.50000000000005
 31
0.0
  0
LINE
  5
21F
330
20E
100
AcDbEntity
  8
LAYER004
  6
Continuous
 62
   161
370
    20
100
AcDbLine
 10
110.5000000000001
 20
46.0
 30
0.0
 11
279.4999999999999
 21
46.0
 31
0.0
  0
LINE
  5
220
330
20E
100
AcDbEntity
  8
LAYER004
  6
Continuous
 62
     7
370
    20
100
AcDbLine
 10
279.4999999999999
 20
46.0
 30
0.0
 11
279.4999999999999
 21
10.00000000000005
 31
0.0
  0
LINE
  5
221
330
20E
100
AcDbEntity
  8
LAYER004
  6
Continuous
 62
     7
370
    20
100
AcDbLine
 10
253.5000000000001
 20
46.0
 30
0.0
 11
253.5000000000001
 21
26.50000000000003
 31
0.0
  0
LINE
  5
222
330
20E
100
AcDbEntity
  8
LAYER004
  6
Continuous
 62
     7
370
    20
100
AcDbLine
 10
266.5
 20
46.0
 30
0.0
 11
266.5
 21
26.50000000000003
 31
0.0
  0
LINE
  5
223
330
20E
100
AcDbEntity
  8
LAYER004
  6
Continuous
 62
   161
370
    20
100
AcDbLine
 10
265.5
 20
26.50000000000003
 30
0.0
 11
265.5
 21
10.00000000000005
 31
0.0
  0
LINE
  5
224
330
20E
100
AcDbEntity
  8
LAYER004
  6
Continuous
 62
     7
370
    20
100
AcDbLine
 10
273.0
 20
26.50000000000003
 30
0.0
 11
273.0
 21
10.00000000000005
 31
0.0
  0
LINE
  5
225
330
20E
100
AcDbEntity
  8
LAYER004
  6
Continuous
 62
   161
370
    20
100
AcDbLine
 10
181.4999999999999
 20
46.0
 30
0.0
 11
181.4999999999999
 21
26.5
 31
0.0
  0
LINE
  5
226
330
20E
100
AcDbEntity
  8
LAYER004
  6
Continuous
 62
   161
370
    20
100
AcDbLine
 10
110.5000000000001
 20
9.999999999999962
 30
0.0
 11
110.5000000000001
 21
46.0
 31
0.0
  0
LINE
  5
227
330
20E
100
AcDbEntity
  8
LAYER004
  6
Continuous
 62
     7
370
    20
100
AcDbLine
 10
122.5
 20
46.0
 30
0.0
 11
122.5
 21
26.49999999999996
 31
0.0
  0
LINE
  5
228
330
20E
100
AcDbEntity
  8
LAYER004
  6
Continuous
 62
   161
370
    20
100
AcDbLine
 10
17.5
 20
200.0
 30
0.0
 11
279.4999999999999
 21
200.0
 31
0.0
  0
LINE
  5
229
330
20E
100
AcDbEntity
  8
LAYER004
  6
Continuous
 62
   161
370
    20
100
AcDbLine
 10
279.4999999999999
 20
200.0
 30
0.0
 11
279.4999999999999
 21
10.0
 31
0.0
  0
LINE
  5
22A
330
20E
100
AcDbEntity
  8
LAYER004
  6
Continuous
 62
   161
370
    20
100
AcDbLine
 10
279.4999999999999
 20
9.999999999999996
 30
0.0
 11
17.50000000000002
 21
9.999999999999962
 31
0.0
  0
LINE
  5
22B
330
20E
100
AcDbEntity
  8
LAYER004
  6
Continuous
 62
   161
370
    20
100
AcDbLine
 10
17.50000000000002
 20
9.999999999999962
 30
0.0
 11
17.5
 21
200.0
 31
0.0
  0
LINE
  5
22C
330
20E
100
AcDbEntity
  8
LAYER004
  6
Continuous
 62
     7
370
    20
100
AcDbLine
 10
61.16700000000001
 20
200.0
 30
0.0
 11
61.16700000000001
 21
205.0
 31
0.0
  0
LINE
  5
22D
330
20E
100
AcDbEntity
  8
LAYER004
  6
Continuous
 62
     7
370
    20
100
AcDbLine
 10
104.834
 20
200.0
 30
0.0
 11
104.834
 21
205.0
 31
0.0
  0
LINE
  5
22E
330
20E
100
AcDbEntity
  8
LAYER004
  6
Continuous
 62
     7
370
    20
100
AcDbLine
 10
148.501
 20
200.0
 30
0.0
 11
148.501
 21
205.0
 31
0.0
  0
LINE
  5
22F
330
20E
100
AcDbEntity
  8
LAYER004
  6
Continuous
 62
     7
370
    20
100
AcDbLine
 10
192.168
 20
200.0
 30
0.0
 11
192.168
 21
205.0
 31
0.0
  0
LINE
  5
230
330
20E
100
AcDbEntity
  8
LAYER004
  6
Continuous
 62
     7
370
    20
100
AcDbLine
 10
235.835
 20
200.0
 30
0.0
 11
235.835
 21
205.0
 31
0.0
  0
LINE
  5
231
330
20E
100
AcDbEntity
  8
LAYER004
  6
Continuous
 62
     7
370
    20
100
AcDbLine
 10
279.4999999999999
 20
152.5
 30
0.0
 11
284.5
 21
152.5
 31
0.0
  0
LINE
  5
232
330
20E
100
AcDbEntity
  8
LAYER004
  6
Continuous
 62
     7
370
    20
100
AcDbLine
 10
279.4999999999999
 20
105.0
 30
0.0
 11
284.5
 21
105.0
 31
0.0
  0
LINE
  5
233
330
20E
100
AcDbEntity
  8
LAYER004
  6
Continuous
 62
     7
370
    20
100
AcDbLine
 10
279.4999999999999
 20
57.5
 30
0.0
 11
284.5
 21
57.5
 31
0.0
  0
LINE
  5
234
330
20E
100
AcDbEntity
  8
LAYER004
  6
Continuous
 62
     7
370
    20
100
AcDbLine
 10
17.50200000000007
 20
152.4999999999999
 30
0.0
 11
12.50200000000007
 21
152.5
 31
0.0
  0
LINE
  5
235
330
20E
100
AcDbEntity
  8
LAYER004
  6
Continuous
 62
     7
370
    20
100
AcDbLine
 10
17.50200000000007
 20
104.9999999999997
 30
0.0
 11
12.50200000000007
 21
105.0
 31
0.0
  0
LINE
  5
236
330
20E
100
AcDbEntity
  8
LAYER004
  6
Continuous
 62
     7
370
    20
100
AcDbLine
 10
17.5020000000001
 20
57.49999999999996
 30
0.0
 11
12.5020000000001
 21
57.49999999999996
 31
0.0
  0
LINE
  5
237
330
20E
100
AcDbEntity
  8
LAYER004
  6
Continuous
 62
     7
370
    20
100
AcDbLine
 10
235.835
 20
10.00000000000007
 30
0.0
 11
235.835
 21
5.000000000000071
 31
0.0
  0
LINE
  5
238
330
20E
100
AcDbEntity
  8
LAYER004
  6
Continuous
 62
     7
370
    20
100
AcDbLine
 10
192.168
 20
10.00000000000003
 30
0.0
 11
192.168
 21
5.000000000000036
 31
0.0
  0
LINE
  5
239
330
20E
100
AcDbEntity
  8
LAYER004
  6
Continuous
 62
     7
370
    20
100
AcDbLine
 10
148.501
 20
10.00000000000003
 30
0.0
 11
148.501
 21
5.000000000000036
 31
0.0
  0
LINE
  5
23A
330
20E
100
AcDbEntity
  8
LAYER004
  6
Continuous
 62
     7
370
    20
100
AcDbLine
 10
61.16700000000004
 20
10.0
 30
0.0
 11
61.16700000000003
 21
5.0
 31
0.0
  0
LINE
  5
23B
330
20E
100
AcDbEntity
  8
LAYER004
  6
Continuous
 62
     7
370
    20
100
AcDbLine
 10
104.834
 20
10.00000000000003
 30
0.0
 11
104.834
 21
5.000000000000036
 31
0.0
  0
TEXT
  5
23C
330
20E
100
AcDbEntity
  8
LAYER004
  6
Continuous
 62
   161
370
    20
100
AcDbText
 10
280.4542846679688
 20
174.75
 30
0.0
 40
3.0
  1
A
 41
0.8571429252624509
  7
FX_VECTOR
100
AcDbText
  0
TEXT
  5
23D
330
20E
100
AcDbEntity
  8
LAYER004
  6
Continuous
 62
   161
370
    20
100
AcDbText
 10
280.239990234375
 20
79.75
 30
0.0
 40
3.0
  1
C
  7
FX_VECTOR
100
AcDbText
  0
TEXT
  5
23E
330
20E
100
AcDbEntity
  8
LAYER004
  6
Continuous
 62
   161
370
    20
100
AcDbText
 10
280.1685791015625
 20
32.25
 30
0.0
 40
3.0
  1
D
 41
1.047619104385374
  7
FX_VECTOR
100
AcDbText
  0
TEXT
  5
23F
330
20E
100
AcDbEntity
  8
LAYER004
  6
Continuous
 62
   161
370
    20
100
AcDbText
 10
280.1685791015625
 20
127.2499999999999
 30
0.0
 40
3.0
  1
B
 41
1.047619104385374
  7
FX_VECTOR
100
AcDbText
  0
TEXT
  5
240
330
20E
100
AcDbEntity
  8
LAYER004
  6
Continuous
 62
   161
370
    20
100
AcDbText
 10
256.167999267578
 20
200.8999938964842
 30
0.0
 40
3.0
  1
6
  7
FX_VECTOR
100
AcDbText
  0
TEXT
  5
241
330
20E
100
AcDbEntity
  8
LAYER004
  6
Continuous
 62
   161
370
    20
100
AcDbText
 10
168.833999633789
 20
200.8999938964842
 30
0.0
 40
3.0
  1
4
  7
FX_VECTOR
100
AcDbText
  0
TEXT
  5
242
330
20E
100
AcDbEntity
  8
LAYER004
  6
Continuous
 62
   161
370
    20
100
AcDbText
 10
38.11871337890625
 20
200.8999938964842
 30
0.0
 40
3.0
  1
1
 41
0.809523820877075
  7
FX_VECTOR
100
AcDbText
  0
TEXT
  5
243
330
20E
100
AcDbEntity
  8
LAYER004
  6
Continuous
 62
   161
370
    20
100
AcDbText
 10
81.57142639160156
 20
200.8999938964842
 30
0.0
 40
3.0
  1
2
 41
0.9523809750874836
  7
FX_VECTOR
100
AcDbText
  0
TEXT
  5
244
330
20E
100
AcDbEntity
  8
LAYER004
  6
Continuous
 62
   161
370
    20
100
AcDbText
 10
125.2384262084961
 20
200.8999938964842
 30
0.0
 40
3.0
  1
3
 41
0.9523809750874836
  7
FX_VECTOR
100
AcDbText
  0
TEXT
  5
245
330
20E
100
AcDbEntity
  8
LAYER004
  6
Continuous
 62
   161
370
    20
100
AcDbText
 10
212.5724334716796
 20
200.8999938964842
 30
0.0
 40
3.0
  1
5
 41
0.9523809750874836
  7
FX_VECTOR
100
AcDbText
  0
TEXT
  5
246
330
20E
100
AcDbEntity
  8
LAYER004
  6
Continuous
 62
   161
370
    20
100
AcDbText
 10
38.11871337890625
 20
6.099999904632567
 30
0.0
 40
3.0
  1
1
 41
0.809523820877075
  7
FX_VECTOR
100
AcDbText
  0
TEXT
  5
247
330
20E
100
AcDbEntity
  8
LAYER004
  6
Continuous
 62
   161
370
    20
100
AcDbText
 10
81.57142639160156
 20
6.099999904632567
 30
0.0
 40
3.0
  1
2
 41
0.9523809750874836
  7
FX_VECTOR
100
AcDbText
  0
TEXT
  5
248
330
20E
100
AcDbEntity
  8
LAYER004
  6
Continuous
 62
   161
370
    20
100
AcDbText
 10
125.2384262084961
 20
6.099999904632567
 30
0.0
 40
3.0
  1
3
 41
0.9523809750874836
  7
FX_VECTOR
100
AcDbText
  0
TEXT
  5
249
330
20E
100
AcDbEntity
  8
LAYER004
  6
Continuous
 62
   161
370
    20
100
AcDbText
 10
168.833999633789
 20
6.099999904632567
 30
0.0
 40
3.0
  1
4
  7
FX_VECTOR
100
AcDbText
  0
TEXT
  5
24A
330
20E
100
AcDbEntity
  8
LAYER004
  6
Continuous
 62
   161
370
    20
100
AcDbText
 10
212.5724334716796
 20
6.099999904632567
 30
0.0
 40
3.0
  1
5
 41
0.9523809750874836
  7
FX_VECTOR
100
AcDbText
  0
TEXT
  5
24B
330
20E
100
AcDbEntity
  8
LAYER004
  6
Continuous
 62
   161
370
    20
100
AcDbText
 10
256.167999267578
 20
6.099999904632567
 30
0.0
 40
3.0
  1
6
  7
FX_VECTOR
100
AcDbText
  0
TEXT
  5
24C
330
20E
100
AcDbEntity
  8
LAYER004
  6
Continuous
 62
   161
370
    20
100
AcDbText
 10
13.97428607940674
 20
174.75
 30
0.0
 40
3.0
  1
A
 41
0.8571429252624509
  7
FX_VECTOR
100
AcDbText
  0
TEXT
  5
24D
330
20E
100
AcDbEntity
  8
LAYER004
  6
Continuous
 62
   161
370
    20
100
AcDbText
 10
13.68857097625731
 20
127.2499999999999
 30
0.0
 40
3.0
  1
B
 41
1.047619104385374
  7
FX_VECTOR
100
AcDbText
  0
TEXT
  5
24E
330
20E
100
AcDbEntity
  8
LAYER004
  6
Continuous
 62
   161
370
    20
100
AcDbText
 10
13.76000022888184
 20
79.75
 30
0.0
 40
3.0
  1
C
  7
FX_VECTOR
100
AcDbText
  0
TEXT
  5
24F
330
20E
100
AcDbEntity
  8
LAYER004
  6
Continuous
 62
   161
370
    20
100
AcDbText
 10
13.68857097625731
 20
32.25
 30
0.0
 40
3.0
  1
D
 41
1.047619104385374
  7
FX_VECTOR
100
AcDbText
  0
ENDBLK
  5
210
330
20E
100
AcDbEntity
  8
0
100
AcDbBlockEnd
  0
BLOCK
  5
251
330
250
100
AcDbEntity
  8
0
100
AcDbBlockBegin
  2
BLKF027
 70
     0
 10
0.0
 20
0.0
 30
0.0
  3
BLKF027
  1

  0
LINE
  5
254
330
250
100
AcDbEntity
  8
LAYER004
  6
Continuous
 62
     7
370
    20
100
AcDbLine
 10
177.168
 20
200.0000028302204
 30
0.0
 11
279.4999828890983
 21
200.0000028302204
 31
0.0
  0
LINE
  5
255
330
250
100
AcDbEntity
  8
LAYER004
  6
Continuous
 62
   161
370
    20
100
AcDbLine
 10
279.4999828890983
 20
187.5
 30
0.0
 11
177.168
 21
187.5
 31
0.0
  0
LINE
  5
256
330
250
100
AcDbEntity
  8
LAYER004
  6
Continuous
 62
   161
370
    20
100
AcDbLine
 10
177.168
 20
187.5
 30
0.0
 11
177.168
 21
200.0000028302204
 31
0.0
  0
LINE
  5
257
330
250
100
AcDbEntity
  8
LAYER004
  6
Continuous
 62
     7
370
    20
100
AcDbLine
 10
177.168
 20
192.4999999999999
 30
0.0
 11
279.4999828890983
 21
192.4999999999999
 31
0.0
  0
LINE
  5
258
330
250
100
AcDbEntity
  8
LAYER004
  6
Continuous
 62
     7
370
    20
100
AcDbLine
 10
192.168
 20
187.5
 30
0.0
 11
192.168
 21
200.0000028302204
 31
0.0
  0
LINE
  5
259
330
250
100
AcDbEntity
  8
LAYER004
  6
Continuous
 62
     7
370
    20
100
AcDbLine
 10
207.168
 20
200.0000028302204
 30
0.0
 11
207.168
 21
187.5
 31
0.0
  0
TEXT
  5
25A
330
250
100
AcDbEntity
  8
LAYER004
  6
Continuous
 62
     7
370
    20
100
AcDbText
 10
238.7339935302734
 20
196.4786682128906
 30
0.0
 40
2.299999952316284
  1
改訂内容
  7
FX_VECTOR
100
AcDbText
  0
TEXT
  5
25B
330
250
100
AcDbEntity
  8
LAYER004
  6
Continuous
 62
     7
370
    20
100
AcDbText
 10
232.9340057373046
 20
193.6854553222655
 30
0.0
 40
1.600000023841858
  1
Revision note
  7
FX_VECTOR
100
AcDbText
  0
TEXT
  5
25C
330
250
100
AcDbEntity
  8
LAYER004
  6
Continuous
 62
     7
370
    20
100
AcDbText
 10
196.2272186279296
 20
196.4786682128906
 30
0.0
 40
2.299999952316284
  1
改訂日
  7
FX_VECTOR
100
AcDbText
  0
TEXT
  5
25D
330
250
100
AcDbEntity
  8
LAYER004
  6
Continuous
 62
     7
370
    20
100
AcDbText
 10
196.4772186279296
 20
193.6854553222655
 30
0.0
 40
1.600000023841858
  1
Date
  7
FX_VECTOR
100
AcDbText
  0
TEXT
  5
25E
330
250
100
AcDbEntity
  8
LAYER004
  6
Continuous
 62
     7
370
    20
100
AcDbText
 10
180.0540313720703
 20
196.4786682128906
 30
0.0
 40
2.299999952316284
  1
改訂番号
  7
FX_VECTOR
100
AcDbText
  0
TEXT
  5
25F
330
250
100
AcDbEntity
  8
LAYER004
  6
Continuous
 62
     7
370
    20
100
AcDbText
 10
179.8679962158203
 20
193.6854553222655
 30
0.0
 40
1.600000023841858
  1
Rev.No
  7
FX_VECTOR
100
AcDbText
  0
ENDBLK
  5
252
330
250
100
AcDbEntity
  8
0
100
AcDbBlockEnd
  0
BLOCK
  5
37C
330
37B
100
AcDbEntity
  8
0
100
AcDbBlockBegin
  2
*D26
 70
     1
 10
0.0
 20
0.0
 30
0.0
  3
*D26
  1

  0
TEXT
  5
37E
330
37B
100
AcDbEntity
  8
用紙-GR2
  6
Continuous
 62
     6
370
    20
100
AcDbText
 10
405.8244918974319
 20
133.7742785247413
 30
0.0
 40
2.5
  1
ケーブル長（2000）
 41
0.8
  7
FX_VECTOR
100
AcDbText
  0
LINE
  5
37F
330
37B
100
AcDbEntity
  8
用紙-GR2
  6
Continuous
 62
     6
370
    20
100
AcDbLine
 10
383.2318685059625
 20
133.2742845741175
 30
0.0
 11
450.4171584635296
 21
133.2742845741175
 31
0.0
  0
INSERT
  5
380
330
37B
100
AcDbEntity
  8
用紙-GR2
  6
Continuous
 62
     6
370
    20
100
AcDbBlockReference
  2
FXTIP_ARROW_S
 10
383.2318685059625
 20
133.2742845741175
 30
0.0
 41
3.0
 42
3.0
 50
180.0
  0
INSERT
  5
381
330
37B
100
AcDbEntity
  8
用紙-GR2
  6
Continuous
 62
     6
370
    20
100
AcDbBlockReference
  2
FXTIP_ARROW_E
 10
450.4171584635296
 20
133.2742845741175
 30
0.0
 41
3.0
 42
3.0
 50
360.0
  0
LINE
  5
382
330
37B
100
AcDbEntity
  8
用紙-GR2
  6
Continuous
 62
     6
370
    20
100
AcDbLine
 10
383.2318685059626
 20
119.8104828859114
 30
0.0
 11
383.2318685059626
 21
134.774284610538
 31
0.0
  0
LINE
  5
383
330
37B
100
AcDbEntity
  8
用紙-GR2
  6
Continuous
 62
     6
370
    20
100
AcDbLine
 10
450.4171584635296
 20
128.119427084773
 30
0.0
 11
450.4171584635296
 21
134.7742846105381
 31
0.0
  0
ENDBLK
  5
37D
330
37B
100
AcDbEntity
  8
0
100
AcDbBlockEnd
  0
BLOCK
  5
386
330
385
100
AcDbEntity
  8
0
100
AcDbBlockBegin
  2
*D27
 70
     1
 10
0.0
 20
0.0
 30
0.0
  3
*D27
  1

  0
TEXT
  5
388
330
385
100
AcDbEntity
  8
用紙-GR2
  6
Continuous
 62
     6
370
    20
100
AcDbText
 10
558.075771304809
 20
113.4504152807857
 30
0.0
 40
2.5
  1
35
 50
90.0
 41
0.8
 51
15.0
  7
FX_VECTOR
100
AcDbText
  0
LINE
  5
389
330
385
100
AcDbEntity
  8
用紙-GR2
  6
Continuous
 62
     6
370
    20
100
AcDbLine
 10
558.5757507224408
 20
103.0741653914684
 30
0.0
 11
558.5757507224408
 21
127.826640638993
 31
0.0
  0
INSERT
  5
38A
330
385
100
AcDbEntity
  8
用紙-GR2
  6
Continuous
 62
     6
370
    20
100
AcDbBlockReference
  2
FXTIP_ARROW_S
 10
558.5757507224408
 20
103.0741653914684
 30
0.0
 41
3.0
 42
3.0
 50
270.0
  0
INSERT
  5
38B
330
385
100
AcDbEntity
  8
用紙-GR2
  6
Continuous
 62
     6
370
    20
100
AcDbBlockReference
  2
FXTIP_ARROW_E
 10
558.5757507224408
 20
127.826640638993
 30
0.0
 41
3.0
 42
3.0
 50
90.0
  0
LINE
  5
38C
330
385
100
AcDbEntity
  8
用紙-GR2
  6
Continuous
 62
     6
370
    20
100
AcDbLine
 10
549.3399223000375
 20
103.0741653914682
 30
0.0
 11
560.0757507588611
 21
103.0741653914684
 31
0.0
  0
LINE
  5
38D
330
385
100
AcDbEntity
  8
用紙-GR2
  6
Continuous
 62
     6
370
    20
100
AcDbLine
 10
549.3399223000376
 20
127.826640638993
 30
0.0
 11
560.0757507588611
 21
127.826640638993
 31
0.0
  0
ENDBLK
  5
387
330
385
100
AcDbEntity
  8
0
100
AcDbBlockEnd
  0
BLOCK
  5
390
330
38F
100
AcDbEntity
  8
0
100
AcDbBlockBegin
  2
*D28
 70
     1
 10
0.0
 20
0.0
 30
0.0
  3
*D28
  1

  0
TEXT
  5
392
330
38F
100
AcDbEntity
  8
用紙-GR2
  6
Continuous
 62
     6
370
    20
100
AcDbText
 10
534.6709060345208
 20
95.78442607235027
 30
0.0
 40
2.5
  1
35
 50
0.0000000099999999
 41
0.8
 51
15.0
  7
FX_VECTOR
100
AcDbText
  0
LINE
  5
393
330
38F
100
AcDbEntity
  8
用紙-GR2
  6
Continuous
 62
     6
370
    20
100
AcDbLine
 10
524.2946606067333
 20
95.28443086860487
 30
0.0
 11
549.0471358542578
 21
95.28443086860487
 31
0.0
  0
INSERT
  5
394
330
38F
100
AcDbEntity
  8
用紙-GR2
  6
Continuous
 62
     6
370
    20
100
AcDbBlockReference
  2
FXTIP_ARROW_S
 10
524.2946606067333
 20
95.28443086860487
 30
0.0
 41
3.0
 42
3.0
 50
180.0
  0
INSERT
  5
395
330
38F
100
AcDbEntity
  8
用紙-GR2
  6
Continuous
 62
     6
370
    20
100
AcDbBlockReference
  2
FXTIP_ARROW_E
 10
549.0471358542578
 20
95.28443086860487
 30
0.0
 41
3.0
 42
3.0
 50
360.0
  0
LINE
  5
396
330
38F
100
AcDbEntity
  8
用紙-GR2
  6
Continuous
 62
     6
370
    20
100
AcDbLine
 10
524.2946606067333
 20
102.7813789456887
 30
0.0
 11
524.2946606067333
 21
93.78443083218453
 31
0.0
  0
LINE
  5
397
330
38F
100
AcDbEntity
  8
用紙-GR2
  6
Continuous
 62
     6
370
    20
100
AcDbLine
 10
549.0471358542578
 20
102.7813789456887
 30
0.0
 11
549.0471358542578
 21
93.78443083218453
 31
0.0
  0
ENDBLK
  5
391
330
38F
100
AcDbEntity
  8
0
100
AcDbBlockEnd
  0
BLOCK
  5
399
330
398
100
AcDbEntity
  8
0
100
AcDbBlockBegin
  2
FXDIM031
 70
     0
 10
0.0
 20
0.0
 30
0.0
  3
FXDIM031
  1

  0
LINE
  5
39C
330
398
100
AcDbEntity
  8
用紙-GR2
  6
Continuous
 62
     6
370
    20
100
AcDbLine
 10
350.0116576045763
 20
110.9601344494699
 30
0.0
 11
347.9507002450823
 21
94.66875722680322
 31
0.0
  0
INSERT
  5
39D
330
398
100
AcDbEntity
  8
用紙-GR2
  6
Continuous
 62
     6
370
    20
100
AcDbBlockReference
  2
FXTIP_BLACKDOT_S
 10
350.0116576045763
 20
110.9601344494699
 30
0.0
 50
82.79003815438406
  0
LINE
  5
39E
330
398
100
AcDbEntity
  8
用紙-GR2
  6
Continuous
 62
     6
370
    20
100
AcDbLine
 10
347.9507002450823
 20
94.66875722680322
 30
0.0
 11
337.5771342999675
 21
94.66875722680322
 31
0.0
  0
TEXT
  5
39F
330
398
100
AcDbEntity
  8
用紙-GR2
  6
Continuous
 62
     6
370
    20
100
AcDbText
 10
339.7638980590301
 20
95.16875443682724
 30
0.0
 40
2.5
  1
排気口
 50
0.0000000100000079
 41
0.8
  7
FX_VECTOR
100
AcDbText
  0
ENDBLK
  5
39A
330
398
100
AcDbEntity
  8
0
100
AcDbBlockEnd
  0
BLOCK
  5
3A1
330
3A0
100
AcDbEntity
  8
0
100
AcDbBlockBegin
  2
FXDIM032
 70
     0
 10
0.0
 20
0.0
 30
0.0
  3
FXDIM032
  1

  0
LINE
  5
3A4
330
3A0
100
AcDbEntity
  8
用紙-GR2
  6
Continuous
 62
     6
370
    20
100
AcDbLine
 10
388.7733398475671
 20
112.3352717352523
 30
0.0
 11
386.5505357180501
 21
94.47345283734874
 31
0.0
  0
INSERT
  5
3A5
330
3A0
100
AcDbEntity
  8
用紙-GR2
  6
Continuous
 62
     6
370
    20
100
AcDbBlockReference
  2
FXTIP_BLACKDOT_S
 10
388.7733398475671
 20
112.3352717352523
 30
0.0
 50
82.90632707221275
  0
LINE
  5
3A6
330
3A0
100
AcDbEntity
  8
用紙-GR2
  6
Continuous
 62
     6
370
    20
100
AcDbLine
 10
386.5505357180501
 20
94.47345283734874
 30
0.0
 11
358.7827242865948
 21
94.47345283734874
 31
0.0
  0
TEXT
  5
3A7
330
3A0
100
AcDbEntity
  8
用紙-GR2
  6
Continuous
 62
     6
370
    20
100
AcDbText
 10
361.6665923079473
 20
94.97345488489836
 30
0.0
 40
2.5
  1
電源ケーブル/コネクタ
 50
0.0000000100000079
 41
0.8
  7
FX_VECTOR
100
AcDbText
  0
ENDBLK
  5
3A2
330
3A0
100
AcDbEntity
  8
0
100
AcDbBlockEnd
  0
BLOCK
  5
3AA
330
3A9
100
AcDbEntity
  8
0
100
AcDbBlockBegin
  2
*D31
 70
     1
 10
0.0
 20
0.0
 30
0.0
  3
*D31
  1

  0
TEXT
  5
3AC
330
3A9
100
AcDbEntity
  8
用紙-GR2
  6
Continuous
 62
     6
370
    20
100
AcDbText
 10
473.5915036990585
 20
75.84914397114238
 30
0.0
 40
2.5
  1
20
 50
90.0
 41
0.8
 51
15.0
  7
FX_VECTOR
100
AcDbText
  0
LINE
  5
3AD
330
3A9
100
AcDbEntity
  8
用紙-GR2
  6
Continuous
 62
     6
370
    20
100
AcDbLine
 10
474.0915061239621
 20
70.77701469603155
 30
0.0
 11
474.0915061239621
 21
84.9212862660457
 31
0.0
  0
INSERT
  5
3AE
330
3A9
100
AcDbEntity
  8
用紙-GR2
  6
Continuous
 62
     6
370
    20
100
AcDbBlockReference
  2
FXTIP_ARROW_S
 10
474.0915061239621
 20
70.77701469603155
 30
0.0
 41
3.0
 42
3.0
 50
270.0
  0
INSERT
  5
3AF
330
3A9
100
AcDbEntity
  8
用紙-GR2
  6
Continuous
 62
     6
370
    20
100
AcDbBlockReference
  2
FXTIP_ARROW_E
 10
474.0915061239621
 20
84.9212862660457
 30
0.0
 41
3.0
 42
3.0
 50
90.0
  0
LINE
  5
3B0
330
3A9
100
AcDbEntity
  8
用紙-GR2
  6
Continuous
 62
     6
370
    20
100
AcDbLine
 10
479.8273423147801
 20
70.77701469603155
 30
0.0
 11
472.5915060875416
 21
70.77701469603155
 31
0.0
  0
LINE
  5
3B1
330
3A9
100
AcDbEntity
  8
用紙-GR2
  6
Continuous
 62
     6
370
    20
100
AcDbLine
 10
479.8273423147799
 20
84.92128626604568
 30
0.0
 11
472.5915060875416
 21
84.9212862660457
 31
0.0
  0
ENDBLK
  5
3AB
330
3A9
100
AcDbEntity
  8
0
100
AcDbBlockEnd
  0
BLOCK
  5
3B3
330
3B2
100
AcDbEntity
  8
0
100
AcDbBlockBegin
  2
FXDIM034
 70
     0
 10
0.0
 20
0.0
 30
0.0
  3
FXDIM034
  1

  0
LINE
  5
3B6
330
3B2
100
AcDbEntity
  8
用紙-GR2
  6
Continuous
 62
     6
370
    20
100
AcDbLine
 10
483.893644569455
 20
108.75778808345
 30
0.0
 11
486.007965247458
 21
95.38634965546824
 31
0.0
  0
INSERT
  5
3B7
330
3B2
100
AcDbEntity
  8
用紙-GR2
  6
Continuous
 62
     6
370
    20
100
AcDbBlockReference
  2
FXTIP_BLACKDOT_S
 10
483.893644569455
 20
108.75778808345
 30
0.0
 50
98.98533939812953
  0
LINE
  5
3B8
330
3B2
100
AcDbEntity
  8
用紙-GR2
  6
Continuous
 62
     6
370
    20
100
AcDbLine
 10
486.007965247458
 20
95.38634965546824
 30
0.0
 11
497.4989131565514
 21
95.38634965546824
 31
0.0
  0
TEXT
  5
3B9
330
3B2
100
AcDbEntity
  8
用紙-GR2
  6
Continuous
 62
     6
370
    20
100
AcDbText
 10
488.7534338534298
 20
95.88633838045456
 30
0.0
 40
2.5
  1
排気口
 50
0.0000000099999999
 41
0.8
  7
FX_VECTOR
100
AcDbText
  0
ENDBLK
  5
3B4
330
3B2
100
AcDbEntity
  8
0
100
AcDbBlockEnd
  0
BLOCK
  5
3BD
330
3BC
100
AcDbEntity
  8
0
100
AcDbBlockBegin
  2
FXDIM035
 70
     0
 10
0.0
 20
0.0
 30
0.0
  3
FXDIM035
  1

  0
LINE
  5
3C0
330
3BC
100
AcDbEntity
  8
用紙-GR2
  6
Continuous
 62
     6
370
    20
100
AcDbLine
 10
482.0542990769289
 20
86.0167974375277
 30
0.0
 11
474.4855918445783
 21
95.28443086860487
 31
0.0
  0
INSERT
  5
3C1
330
3BC
100
AcDbEntity
  8
用紙-GR2
  6
Continuous
 62
     6
370
    20
100
AcDbBlockReference
  2
FXTIP_ARROW_S
 10
482.0542990769289
 20
86.0167974375277
 30
0.0
 41
3.0
 42
3.0
 50
309.2378860821724
  0
LINE
  5
3C2
330
3BC
100
AcDbEntity
  8
用紙-GR2
  6
Continuous
 62
     6
370
    20
100
AcDbLine
 10
474.4855918445783
 20
95.28443086860487
 30
0.0
 11
447.1285819776583
 21
95.28443086860487
 31
0.0
  0
TEXT
  5
3C3
330
3BC
100
AcDbEntity
  8
用紙-GR2
  6
Continuous
 62
     6
370
    20
100
AcDbText
 10
448.8070556985944
 20
95.78442607269936
 30
0.0
 40
2.5
  1
2-M4深さ4（固定用）
 41
0.8
  7
FX_VECTOR
100
AcDbText
  0
ENDBLK
  5
3BE
330
3BC
100
AcDbEntity
  8
0
100
AcDbBlockEnd
  0
BLOCK
  5
3C5
330
3C4
100
AcDbEntity
  8
0
100
AcDbBlockBegin
  2
FXDIM036
 70
     0
 10
0.0
 20
0.0
 30
0.0
  3
FXDIM036
  1

  0
LINE
  5
3C8
330
3C4
100
AcDbEntity
  8
用紙-GR2
  6
Continuous
 62
     6
370
    20
100
AcDbLine
 10
537.4658318090844
 20
114.531564330859
 30
0.0
 11
553.0798481711283
 21
94.88812439151351
 31
0.0
  0
INSERT
  5
3C9
330
3C4
100
AcDbEntity
  8
用紙-GR2
  6
Continuous
 62
     6
370
    20
100
AcDbBlockReference
  2
FXTIP_BLACKDOT_S
 10
537.4658318090844
 20
114.531564330859
 30
0.0
 50
128.4801982483429
  0
LINE
  5
3CA
330
3C4
100
AcDbEntity
  8
用紙-GR2
  6
Continuous
 62
     6
370
    20
100
AcDbLine
 10
553.0798481711283
 20
94.88812439151351
 30
0.0
 11
564.3496422388939
 21
94.88812439151351
 31
0.0
  0
TEXT
  5
3CB
330
3C4
100
AcDbEntity
  8
用紙-GR2
  6
Continuous
 62
     6
370
    20
100
AcDbText
 10
554.7147411902183
 20
95.38812920528886
 30
0.0
 40
2.5
  1
光出射口
 50
0.0000000099999999
 41
0.8
  7
FX_VECTOR
100
AcDbText
  0
ENDBLK
  5
3C6
330
3C4
100
AcDbEntity
  8
0
100
AcDbBlockEnd
  0
BLOCK
  5
3DD
330
3DC
100
AcDbEntity
  8
0
100
AcDbBlockBegin
  2
*D35
 70
     1
 10
0.0
 20
0.0
 30
0.0
  3
*D35
  1

  0
TEXT
  5
3DF
330
3DC
100
AcDbEntity
  8
用紙-GR2
  6
Continuous
 62
     6
370
    20
100
AcDbText
 10
476.2262064759767
 20
133.7742785247413
 30
0.0
 40
2.5
  1
84.3
 41
0.8
 51
15.0
  7
FX_VECTOR
100
AcDbText
  0
LINE
  5
3E0
330
3DC
100
AcDbEntity
  8
用紙-GR2
  6
Continuous
 62
     6
370
    20
100
AcDbLine
 10
450.4171584635296
 20
133.2742845741175
 30
0.0
 11
510.0352631313752
 21
133.2742845741175
 31
0.0
  0
INSERT
  5
3E1
330
3DC
100
AcDbEntity
  8
用紙-GR2
  6
Continuous
 62
     6
370
    20
100
AcDbBlockReference
  2
FXTIP_ARROW_S
 10
450.4171584635296
 20
133.2742845741175
 30
0.0
 41
3.0
 42
3.0
 50
180.0
  0
INSERT
  5
3E2
330
3DC
100
AcDbEntity
  8
用紙-GR2
  6
Continuous
 62
     6
370
    20
100
AcDbBlockReference
  2
FXTIP_ARROW_E
 10
510.0352631313752
 20
133.2742845741175
 30
0.0
 41
3.0
 42
3.0
 50
360.0
  0
LINE
  5
3E3
330
3DC
100
AcDbEntity
  8
用紙-GR2
  6
Continuous
 62
     6
370
    20
100
AcDbLine
 10
450.4171584635296
 20
128.119427084773
 30
0.0
 11
450.4171584635296
 21
134.7742846105381
 31
0.0
  0
LINE
  5
3E4
330
3DC
100
AcDbEntity
  8
用紙-GR2
  6
Continuous
 62
     6
370
    20
100
AcDbLine
 10
510.0352631313752
 20
121.2594553733161
 30
0.0
 11
510.0352631313752
 21
134.774284610538
 31
0.0
  0
ENDBLK
  5
3DE
330
3DC
100
AcDbEntity
  8
0
100
AcDbBlockEnd
  0
BLOCK
  5
436
330
435
100
AcDbEntity
  8
0
100
AcDbBlockBegin
  2
*D36
 70
     1
 10
0.0
 20
0.0
 30
0.0
  3
*D36
  1

  0
TEXT
  5
438
330
435
100
AcDbEntity
  8
用紙-GR2
  6
Continuous
 62
     6
370
    20
100
AcDbText
 10
484.4850725446427
 20
60.52626376442052
 30
0.0
 40
2.5
  1
10
 41
0.8
 51
15.0
  7
FX_VECTOR
100
AcDbText
  0
LINE
  5
439
330
435
100
AcDbEntity
  8
用紙-GR2
  6
Continuous
 62
     6
370
    20
100
AcDbLine
 10
482.9489830745625
 20
60.02626549077013
 30
0.0
 11
490.0211188595697
 21
60.02626549077013
 31
0.0
  0
INSERT
  5
43A
330
435
100
AcDbEntity
  8
用紙-GR2
  6
Continuous
 62
     6
370
    20
100
AcDbBlockReference
  2
FXTIP_ARROW_S
 10
482.9489830745625
 20
60.02626549077013
 30
0.0
 41
3.0
 42
3.0
 50
180.0
  0
INSERT
  5
43B
330
435
100
AcDbEntity
  8
用紙-GR2
  6
Continuous
 62
     6
370
    20
100
AcDbBlockReference
  2
FXTIP_ARROW_E
 10
490.0211188595697
 20
60.02626549077013
 30
0.0
 41
3.0
 42
3.0
 50
360.0
  0
LINE
  5
43C
330
435
100
AcDbEntity
  8
用紙-GR2
  6
Continuous
 62
     6
370
    20
100
AcDbLine
 10
482.9489830745625
 20
67.65537393624917
 30
0.0
 11
482.9489830745625
 21
58.52626545434975
 31
0.0
  0
LINE
  5
43D
330
435
100
AcDbEntity
  8
用紙-GR2
  6
Continuous
 62
     6
370
    20
100
AcDbLine
 10
490.0211188595697
 20
65.18012641149636
 30
0.0
 11
490.0211188595697
 21
58.52626545434975
 31
0.0
  0
ENDBLK
  5
437
330
435
100
AcDbEntity
  8
0
100
AcDbBlockEnd
  0
BLOCK
  5
440
330
43F
100
AcDbEntity
  8
0
100
AcDbBlockBegin
  2
*D37
 70
     1
 10
0.0
 20
0.0
 30
0.0
  3
*D37
  1

  0
TEXT
  5
442
330
43F
100
AcDbEntity
  8
用紙-GR2
  6
Continuous
 62
     6
370
    20
100
AcDbText
 10
496.0281866739967
 20
60.52626376442052
 30
0.0
 40
2.5
  1
28.3
 41
0.8
 51
15.0
  7
FX_VECTOR
100
AcDbText
  0
LINE
  5
443
330
43F
100
AcDbEntity
  8
用紙-GR2
  6
Continuous
 62
     6
370
    20
100
AcDbLine
 10
490.0211188595697
 20
60.02626549077013
 30
0.0
 11
510.0352631313752
 21
60.0262654907701
 31
0.0
  0
INSERT
  5
444
330
43F
100
AcDbEntity
  8
用紙-GR2
  6
Continuous
 62
     6
370
    20
100
AcDbBlockReference
  2
FXTIP_ARROW_S
 10
490.0211188595697
 20
60.02626549077013
 30
0.0
 41
3.0
 42
3.0
 50
180.0
  0
INSERT
  5
445
330
43F
100
AcDbEntity
  8
用紙-GR2
  6
Continuous
 62
     6
370
    20
100
AcDbBlockReference
  2
FXTIP_ARROW_E
 10
510.0352631313752
 20
60.0262654907701
 30
0.0
 41
3.0
 42
3.0
 50
360.0
  0
LINE
  5
446
330
43F
100
AcDbEntity
  8
用紙-GR2
  6
Continuous
 62
     6
370
    20
100
AcDbLine
 10
510.0352631313752
 20
72.04009812295358
 30
0.0
 11
510.0352631313752
 21
58.52626545434975
 31
0.0
  0
TEXT
  5
447
330
43F
100
AcDbEntity
  8
用紙-GR2
  6
Continuous
 62
     6
370
    20
100
AcDbText
 10
494.0281814942095
 20
60.52626376442052
 30
0.0
 40
2.5
  1
(
 41
0.8
 51
15.0
  7
FX_VECTOR
100
AcDbText
  0
TEXT
  5
448
330
43F
100
AcDbEntity
  8
用紙-GR2
  6
Continuous
 62
     6
370
    20
100
AcDbText
 10
504.0281918537836
 20
60.52626376442052
 30
0.0
 40
2.5
  1
)
 41
0.8
 51
15.0
  7
FX_VECTOR
100
AcDbText
  0
ENDBLK
  5
441
330
43F
100
AcDbEntity
  8
0
100
AcDbBlockEnd
  0
BLOCK
  5
44E
330
44D
100
AcDbEntity
  8
0
100
AcDbBlockBegin
  2
BLKF040
 70
     0
 10
0.0
 20
0.0
 30
0.0
  3
BLKF040
  1

  0
INSERT
  5
454
330
44D
100
AcDbEntity
  8
0
100
AcDbBlockReference
  2
BLKF041
 10
0.0
 20
0.0
 30
0.0
  0
LINE
  5
464
330
44D
100
AcDbEntity
  8
用紙-GR2
  6
DASHDOT
 62
     6
370
    20
100
AcDbLine
 10
231.9211205651817
 20
140.892137192177
 30
0.0
 11
276.1803397864974
 21
140.892137192177
 31
0.0
  0
INSERT
  5
468
330
44D
100
AcDbEntity
  8
0
100
AcDbBlockReference
  2
BLKF042
 10
0.0
 20
0.0
 30
0.0
  0
INSERT
  5
47A
330
44D
100
AcDbEntity
  8
0
100
AcDbBlockReference
  2
BLKF043
 10
0.0
 20
0.0
 30
0.0
  0
INSERT
  5
48C
330
44D
100
AcDbEntity
  8
0
100
AcDbBlockReference
  2
BLKF044
 10
0.0
 20
0.0
 30
0.0
  0
ENDBLK
  5
44F
330
44D
100
AcDbEntity
  8
0
100
AcDbBlockEnd
  0
BLOCK
  5
452
330
451
100
AcDbEntity
  8
0
100
AcDbBlockBegin
  2
BLKF041
 70
     0
 10
0.0
 20
0.0
 30
0.0
  3
BLKF041
  1

  0
LINE
  5
455
330
451
100
AcDbEntity
  8
用紙-GR2
  6
Continuous
 62
     7
370
    20
100
AcDbLine
 10
238.6396495609385
 20
129.6474412940157
 30
0.0
 11
232.2747273544321
 21
129.6474412940157
 31
0.0
  0
LINE
  5
456
330
451
100
AcDbEntity
  8
用紙-GR2
  6
Continuous
 62
     6
370
    20
100
AcDbLine
 10
232.2747273544321
 20
129.6474412940157
 30
0.0
 11
232.2747273544321
 21
140.892137192177
 31
0.0
  0
LINE
  5
457
330
451
100
AcDbEntity
  8
用紙-GR2
  6
Continuous
 62
     6
370
    20
100
AcDbLine
 10
238.6396495609385
 20
129.6474412940157
 30
0.0
 11
238.6396495609385
 21
140.892137192177
 31
0.0
  0
LINE
  5
458
330
451
100
AcDbEntity
  8
用紙-GR2
  6
Continuous
 62
     7
370
    20
100
AcDbLine
 10
238.9932563501888
 20
140.892137192177
 30
0.0
 11
238.9932563501888
 21
130.0010480832662
 31
0.0
  0
LINE
  5
459
330
451
100
AcDbEntity
  8
用紙-GR2
  6
Continuous
 62
     7
370
    20
100
AcDbLine
 10
231.9211205651817
 20
130.0010480832662
 30
0.0
 11
232.2747273544321
 21
129.6474412940157
 31
0.0
  0
LINE
  5
45A
330
451
100
AcDbEntity
  8
用紙-GR2
  6
Continuous
 62
     7
370
    20
100
AcDbLine
 10
238.9932563501888
 20
130.0010480832662
 30
0.0
 11
238.6396495609385
 21
129.6474412940157
 31
0.0
  0
LINE
  5
45B
330
451
100
AcDbEntity
  8
用紙-GR2
  6
Continuous
 62
     7
370
    20
100
AcDbLine
 10
231.9211205651817
 20
140.892137192177
 30
0.0
 11
231.9211205651817
 21
130.0010480832662
 31
0.0
  0
LINE
  5
45C
330
451
100
AcDbEntity
  8
用紙-GR2
  6
Continuous
 62
     7
370
    20
100
AcDbLine
 10
238.6396495609385
 20
152.1368330903384
 30
0.0
 11
232.2747273544321
 21
152.1368330903384
 31
0.0
  0
LINE
  5
45D
330
451
100
AcDbEntity
  8
用紙-GR2
  6
Continuous
 62
     6
370
    20
100
AcDbLine
 10
232.2747273544321
 20
152.1368330903384
 30
0.0
 11
232.2747273544321
 21
140.892137192177
 31
0.0
  0
LINE
  5
45E
330
451
100
AcDbEntity
  8
用紙-GR2
  6
Continuous
 62
     6
370
    20
100
AcDbLine
 10
238.6396495609385
 20
152.1368330903384
 30
0.0
 11
238.6396495609385
 21
140.892137192177
 31
0.0
  0
LINE
  5
45F
330
451
100
AcDbEntity
  8
用紙-GR2
  6
Continuous
 62
     7
370
    20
100
AcDbLine
 10
238.9932563501888
 20
140.892137192177
 30
0.0
 11
238.9932563501888
 21
151.783226301088
 31
0.0
  0
LINE
  5
460
330
451
100
AcDbEntity
  8
用紙-GR2
  6
Continuous
 62
     7
370
    20
100
AcDbLine
 10
231.9211205651817
 20
151.783226301088
 30
0.0
 11
232.2747273544321
 21
152.1368330903384
 31
0.0
  0
LINE
  5
461
330
451
100
AcDbEntity
  8
用紙-GR2
  6
Continuous
 62
     7
370
    20
100
AcDbLine
 10
238.9932563501888
 20
151.783226301088
 30
0.0
 11
238.6396495609385
 21
152.1368330903384
 31
0.0
  0
LINE
  5
462
330
451
100
AcDbEntity
  8
用紙-GR2
  6
Continuous
 62
     7
370
    20
100
AcDbLine
 10
231.9211205651817
 20
140.892137192177
 30
0.0
 11
231.9211205651817
 21
151.783226301088
 31
0.0
  0
HATCH
  5
463
330
451
100
AcDbEntity
  8
用紙-GR2
  6
Continuous
 62
     6
370
    20
100
AcDbHatch
 10
0.0
 20
0.0
 30
0.0
210
0.0
220
0.0
230
1.0
  2

 70
     0
 71
     1
 91
        1
 92
        0
 93
        4
 72
     1
 10
238.6396495609385
 20
152.1368330903384
 11
232.2747273544321
 21
152.1368330903384
 72
     1
 10
232.2747273544321
 20
152.1368330903384
 11
232.2747273544321
 21
129.6474412940157
 72
     1
 10
232.2747273544321
 20
129.6474412940157
 11
238.6396495609385
 21
129.6474412940157
 72
     1
 10
238.6396495609385
 20
129.6474412940157
 11
238.6396495609385
 21
152.1368330903384
 97
        0
 75
     0
 76
     0
 52
0.0
 41
0.7072135785007072
 77
     0
 78
     1
 53
0.0
 43
0.0
 44
0.0
 45
0.0
 46
0.7072135785007072
 79
     0
 98
        0
  0
ENDBLK
  5
453
330
451
100
AcDbEntity
  8
0
100
AcDbBlockEnd
  0
BLOCK
  5
466
330
465
100
AcDbEntity
  8
0
100
AcDbBlockBegin
  2
BLKF042
 70
     0
 10
0.0
 20
0.0
 30
0.0
  3
BLKF042
  1

  0
LINE
  5
469
330
465
100
AcDbEntity
  8
用紙-GR2
  6
Continuous
 62
     7
370
    20
100
AcDbLine
 10
239.134699065889
 20
151.5003408696878
 30
0.0
 11
274.1488433374586
 21
151.5003408696878
 31
0.0
  0
LINE
  5
46A
330
465
100
AcDbEntity
  8
用紙-GR2
  6
Continuous
 62
     7
370
    20
100
AcDbLine
 10
274.2902860531589
 20
151.3588981539876
 30
0.0
 11
274.2902860531589
 21
140.892137192177
 31
0.0
  0
LINE
  5
46B
330
465
100
AcDbEntity
  8
用紙-GR2
  6
Continuous
 62
     7
370
    20
100
AcDbLine
 10
238.9932563501889
 20
151.3588981539876
 30
0.0
 11
238.9932563501889
 21
140.892137192177
 31
0.0
  0
LINE
  5
46C
330
465
100
AcDbEntity
  8
用紙-GR2
  6
Continuous
 62
     7
370
    20
100
AcDbLine
 10
239.134699065889
 20
151.5003408696878
 30
0.0
 11
238.9932563501889
 21
151.3588981539876
 31
0.0
  0
LINE
  5
46D
330
465
100
AcDbEntity
  8
用紙-GR2
  6
Continuous
 62
     7
370
    20
100
AcDbLine
 10
274.1488433374586
 20
151.5003408696878
 30
0.0
 11
274.2902860531589
 21
151.3588981539876
 31
0.0
  0
LINE
  5
46E
330
465
100
AcDbEntity
  8
用紙-GR2
  6
Continuous
 62
     6
370
    20
100
AcDbLine
 10
239.134699065889
 20
151.5003408696878
 30
0.0
 11
239.134699065889
 21
140.892137192177
 31
0.0
  0
LINE
  5
46F
330
465
100
AcDbEntity
  8
用紙-GR2
  6
Continuous
 62
     6
370
    20
100
AcDbLine
 10
274.1488433374586
 20
151.5003408696878
 30
0.0
 11
274.1488433374586
 21
140.892137192177
 31
0.0
  0
LINE
  5
470
330
465
100
AcDbEntity
  8
用紙-GR2
  6
Continuous
 62
     7
370
    20
100
AcDbLine
 10
239.134699065889
 20
130.2839335146664
 30
0.0
 11
274.1488433374586
 21
130.2839335146664
 31
0.0
  0
LINE
  5
471
330
465
100
AcDbEntity
  8
用紙-GR2
  6
Continuous
 62
     7
370
    20
100
AcDbLine
 10
274.2902860531589
 20
130.4253762303667
 30
0.0
 11
274.2902860531589
 21
140.892137192177
 31
0.0
  0
LINE
  5
472
330
465
100
AcDbEntity
  8
用紙-GR2
  6
Continuous
 62
     7
370
    20
100
AcDbLine
 10
238.9932563501889
 20
130.4253762303667
 30
0.0
 11
238.9932563501889
 21
140.892137192177
 31
0.0
  0
LINE
  5
473
330
465
100
AcDbEntity
  8
用紙-GR2
  6
Continuous
 62
     7
370
    20
100
AcDbLine
 10
239.134699065889
 20
130.2839335146664
 30
0.0
 11
238.9932563501889
 21
130.4253762303667
 31
0.0
  0
LINE
  5
474
330
465
100
AcDbEntity
  8
用紙-GR2
  6
Continuous
 62
     7
370
    20
100
AcDbLine
 10
274.1488433374586
 20
130.2839335146664
 30
0.0
 11
274.2902860531589
 21
130.4253762303667
 31
0.0
  0
LINE
  5
475
330
465
100
AcDbEntity
  8
用紙-GR2
  6
Continuous
 62
     6
370
    20
100
AcDbLine
 10
239.134699065889
 20
130.2839335146664
 30
0.0
 11
239.134699065889
 21
140.892137192177
 31
0.0
  0
LINE
  5
476
330
465
100
AcDbEntity
  8
用紙-GR2
  6
Continuous
 62
     6
370
    20
100
AcDbLine
 10
274.1488433374586
 20
130.2839335146664
 30
0.0
 11
274.1488433374586
 21
140.8921371921769
 31
0.0
  0
ENDBLK
  5
467
330
465
100
AcDbEntity
  8
0
100
AcDbBlockEnd
  0
BLOCK
  5
478
330
477
100
AcDbEntity
  8
0
100
AcDbBlockBegin
  2
BLKF043
 70
     0
 10
0.0
 20
0.0
 30
0.0
  3
BLKF043
  1

  0
LINE
  5
47B
330
477
100
AcDbEntity
  8
用紙-GR2
  6
Continuous
 62
     7
370
    20
100
AcDbLine
 10
205.3157457419848
 20
152.2075544481887
 30
0.0
 11
205.3157457419844
 21
140.892137192177
 31
0.0
  0
LINE
  5
47C
330
477
100
AcDbEntity
  8
用紙-GR2
  6
Continuous
 62
     7
370
    20
100
AcDbLine
 10
206.3765661097354
 20
152.2075544481888
 30
0.0
 11
205.3157457419848
 21
152.2075544481887
 31
0.0
  0
LINE
  5
47D
330
477
100
AcDbEntity
  8
用紙-GR2
  6
Continuous
 62
     7
370
    20
100
AcDbLine
 10
206.3765661097354
 20
152.2075544481888
 30
0.0
 11
206.3765661097354
 21
140.892137192177
 31
0.0
  0
LINE
  5
47E
330
477
100
AcDbEntity
  8
用紙-GR2
  6
Continuous
 62
     7
370
    20
100
AcDbLine
 10
206.3765661097354
 20
151.853947658938
 30
0.0
 11
209.5590272132251
 21
151.853947658938
 31
0.0
  0
LINE
  5
47F
330
477
100
AcDbEntity
  8
用紙-GR2
  6
Continuous
 62
     7
370
    20
100
AcDbLine
 10
209.5590272132251
 20
140.892137192177
 30
0.0
 11
209.5590272132251
 21
151.853947658938
 31
0.0
  0
LINE
  5
480
330
477
100
AcDbEntity
  8
用紙-GR2
  6
Continuous
 62
     6
370
    20
100
AcDbLine
 10
206.3765661097354
 20
151.5003408696881
 30
0.0
 11
205.3157457419849
 21
151.5003408696879
 31
0.0
  0
LINE
  5
481
330
477
100
AcDbEntity
  8
用紙-GR2
  6
DASHDOT
 62
     6
370
    20
100
AcDbLine
 10
204.9410798843374
 20
150.0859137126863
 30
0.0
 11
206.6546188432668
 21
150.0859137126863
 31
0.0
  0
LINE
  5
482
330
477
100
AcDbEntity
  8
用紙-GR2
  6
Continuous
 62
     7
370
    20
100
AcDbLine
 10
205.3157457419848
 20
129.5767199361655
 30
0.0
 11
205.3157457419844
 21
140.892137192177
 31
0.0
  0
LINE
  5
483
330
477
100
AcDbEntity
  8
用紙-GR2
  6
Continuous
 62
     7
370
    20
100
AcDbLine
 10
206.3765661097354
 20
129.5767199361655
 30
0.0
 11
205.3157457419848
 21
129.5767199361655
 31
0.0
  0
LINE
  5
484
330
477
100
AcDbEntity
  8
用紙-GR2
  6
Continuous
 62
     7
370
    20
100
AcDbLine
 10
206.3765661097354
 20
129.5767199361655
 30
0.0
 11
206.3765661097354
 21
140.892137192177
 31
0.0
  0
LINE
  5
485
330
477
100
AcDbEntity
  8
用紙-GR2
  6
Continuous
 62
     7
370
    20
100
AcDbLine
 10
206.3765661097354
 20
129.9303267254162
 30
0.0
 11
209.5590272132251
 21
129.9303267254162
 31
0.0
  0
LINE
  5
486
330
477
100
AcDbEntity
  8
用紙-GR2
  6
Continuous
 62
     7
370
    20
100
AcDbLine
 10
209.5590272132251
 20
140.892137192177
 30
0.0
 11
209.5590272132251
 21
129.9303267254162
 31
0.0
  0
LINE
  5
487
330
477
100
AcDbEntity
  8
用紙-GR2
  6
Continuous
 62
     6
370
    20
100
AcDbLine
 10
206.3765661097354
 20
130.2839335146661
 30
0.0
 11
205.3157457419849
 21
130.2839335146661
 31
0.0
  0
LINE
  5
488
330
477
100
AcDbEntity
  8
用紙-GR2
  6
DASHDOT
 62
     6
370
    20
100
AcDbLine
 10
204.9410798843374
 20
131.6983606716678
 30
0.0
 11
206.6546188432668
 21
131.6983606716678
 31
0.0
  0
ENDBLK
  5
479
330
477
100
AcDbEntity
  8
0
100
AcDbBlockEnd
  0
BLOCK
  5
48A
330
489
100
AcDbEntity
  8
0
100
AcDbBlockBegin
  2
BLKF044
 70
     0
 10
0.0
 20
0.0
 30
0.0
  3
BLKF044
  1

  0
LINE
  5
48D
330
489
100
AcDbEntity
  8
用紙-GR2
  6
DASHDOT
 62
     6
370
    20
100
AcDbLine
 10
231.9211205651817
 20
140.892137192177
 30
0.0
 11
203.0181304364325
 21
140.892137192177
 31
0.0
  0
LINE
  5
48E
330
489
100
AcDbEntity
  8
用紙-GR2
  6
Continuous
 62
     5
370
    20
100
AcDbLine
 10
231.9211205651817
 20
150.7931272911871
 30
0.0
 11
230.7754345680105
 21
150.7931272911871
 31
0.0
  0
LINE
  5
48F
330
489
100
AcDbEntity
  8
用紙-GR2
  6
Continuous
 62
     6
370
    20
100
AcDbLine
 10
230.7754345680105
 20
150.5059985783159
 30
0.0
 11
231.9211205651817
 21
150.5059985783159
 31
0.0
  0
LINE
  5
490
330
489
100
AcDbEntity
  8
用紙-GR2
  6
Continuous
 62
     7
370
    20
100
AcDbLine
 10
230.7754345680105
 20
150.7931272911871
 30
0.0
 11
230.7754345680105
 21
140.892137192177
 31
0.0
  0
LINE
  5
491
330
489
100
AcDbEntity
  8
用紙-GR2
  6
Continuous
 62
     7
370
    20
100
AcDbLine
 10
210.9734543702264
 20
147.9642729771844
 30
0.0
 11
228.6537938325085
 21
147.9642729771844
 31
0.0
  0
LINE
  5
492
330
489
100
AcDbEntity
  8
用紙-GR2
  6
Continuous
 62
     7
370
    20
100
AcDbLine
 10
228.6537938325085
 20
140.892137192177
 30
0.0
 11
228.6537938325085
 21
150.7931272911871
 31
0.0
  0
LINE
  5
493
330
489
100
AcDbEntity
  8
用紙-GR2
  6
Continuous
 62
     7
370
    20
100
AcDbLine
 10
228.6537938325085
 20
150.7931272911871
 30
0.0
 11
230.0682209895098
 21
150.7931272911871
 31
0.0
  0
LINE
  5
494
330
489
100
AcDbEntity
  8
用紙-GR2
  6
Continuous
 62
     7
370
    20
100
AcDbLine
 10
230.0682209895098
 20
150.7931272911871
 30
0.0
 11
230.0682209895098
 21
140.892137192177
 31
0.0
  0
LINE
  5
495
330
489
100
AcDbEntity
  8
用紙-GR2
  6
Continuous
 62
     7
370
    20
100
AcDbLine
 10
230.0682209895098
 20
150.5059985783159
 30
0.0
 11
230.7754345680105
 21
150.5059985783159
 31
0.0
  0
LINE
  5
496
330
489
100
AcDbEntity
  8
用紙-GR2
  6
Continuous
 62
     7
370
    20
100
AcDbLine
 10
210.9734543702264
 20
151.853947658938
 30
0.0
 11
210.9734543702264
 21
140.892137192177
 31
0.0
  0
LINE
  5
497
330
489
100
AcDbEntity
  8
用紙-GR2
  6
Continuous
 62
     7
370
    20
100
AcDbLine
 10
209.559027213225
 20
151.853947658938
 30
0.0
 11
209.559027213225
 21
140.892137192177
 31
0.0
  0
LINE
  5
498
330
489
100
AcDbEntity
  8
用紙-GR2
  6
Continuous
 62
     7
370
    20
100
AcDbLine
 10
209.559027213225
 20
151.853947658938
 30
0.0
 11
210.9734543702264
 21
151.853947658938
 31
0.0
  0
LINE
  5
499
330
489
100
AcDbEntity
  8
用紙-GR2
  6
Continuous
 62
     5
370
    20
100
AcDbLine
 10
231.9211205651817
 20
130.9911470931673
 30
0.0
 11
230.7754345680105
 21
130.9911470931673
 31
0.0
  0
LINE
  5
49A
330
489
100
AcDbEntity
  8
用紙-GR2
  6
Continuous
 62
     6
370
    20
100
AcDbLine
 10
230.7754345680105
 20
131.2782758060385
 30
0.0
 11
231.9211205651817
 21
131.2782758060385
 31
0.0
  0
LINE
  5
49B
330
489
100
AcDbEntity
  8
用紙-GR2
  6
Continuous
 62
     7
370
    20
100
AcDbLine
 10
230.7754345680105
 20
130.9911470931673
 30
0.0
 11
230.7754345680105
 21
140.892137192177
 31
0.0
  0
LINE
  5
49C
330
489
100
AcDbEntity
  8
用紙-GR2
  6
Continuous
 62
     7
370
    20
100
AcDbLine
 10
210.9734543702264
 20
133.8200014071699
 30
0.0
 11
228.6537938325085
 21
133.8200014071699
 31
0.0
  0
LINE
  5
49D
330
489
100
AcDbEntity
  8
用紙-GR2
  6
Continuous
 62
     7
370
    20
100
AcDbLine
 10
228.6537938325085
 20
140.892137192177
 30
0.0
 11
228.6537938325085
 21
130.9911470931673
 31
0.0
  0
LINE
  5
49E
330
489
100
AcDbEntity
  8
用紙-GR2
  6
Continuous
 62
     7
370
    20
100
AcDbLine
 10
228.6537938325085
 20
130.9911470931673
 30
0.0
 11
230.0682209895098
 21
130.9911470931673
 31
0.0
  0
LINE
  5
49F
330
489
100
AcDbEntity
  8
用紙-GR2
  6
Continuous
 62
     7
370
    20
100
AcDbLine
 10
230.0682209895098
 20
130.9911470931673
 30
0.0
 11
230.0682209895098
 21
140.892137192177
 31
0.0
  0
LINE
  5
4A0
330
489
100
AcDbEntity
  8
用紙-GR2
  6
Continuous
 62
     7
370
    20
100
AcDbLine
 10
230.0682209895098
 20
131.2782758060385
 30
0.0
 11
230.7754345680105
 21
131.2782758060385
 31
0.0
  0
LINE
  5
4A1
330
489
100
AcDbEntity
  8
用紙-GR2
  6
Continuous
 62
     7
370
    20
100
AcDbLine
 10
210.9734543702264
 20
129.9303267254162
 30
0.0
 11
210.9734543702264
 21
140.892137192177
 31
0.0
  0
LINE
  5
4A2
330
489
100
AcDbEntity
  8
用紙-GR2
  6
Continuous
 62
     7
370
    20
100
AcDbLine
 10
209.559027213225
 20
129.9303267254162
 30
0.0
 11
209.559027213225
 21
140.892137192177
 31
0.0
  0
LINE
  5
4A3
330
489
100
AcDbEntity
  8
用紙-GR2
  6
Continuous
 62
     7
370
    20
100
AcDbLine
 10
209.559027213225
 20
129.9303267254162
 30
0.0
 11
210.9734543702264
 21
129.9303267254162
 31
0.0
  0
ENDBLK
  5
48B
330
489
100
AcDbEntity
  8
0
100
AcDbBlockEnd
  0
BLOCK
  5
4A7
330
4A6
100
AcDbEntity
  8
0
100
AcDbBlockBegin
  2
BLKF045
 70
     0
 10
0.0
 20
0.0
 30
0.0
  3
BLKF045
  1

  0
LINE
  5
4AA
330
4A6
100
AcDbEntity
  8
用紙-GR2
  6
Continuous
 62
     6
370
    20
100
AcDbLine
 10
199.3057514202123
 20
159.7449308659377
 30
0.0
 11
231.3057514202124
 21
159.7449308659377
 31
0.0
  0
LINE
  5
4AB
330
4A6
100
AcDbEntity
  8
用紙-GR2
  6
Continuous
 62
     6
370
    20
100
AcDbLine
 10
231.3057514202124
 20
159.7449308659377
 30
0.0
 11
231.3057514202124
 21
167.7449308659377
 31
0.0
  0
LINE
  5
4AC
330
4A6
100
AcDbEntity
  8
用紙-GR2
  6
Continuous
 62
     6
370
    20
100
AcDbLine
 10
231.3057514202124
 20
167.7449308659377
 30
0.0
 11
199.3057514202123
 21
167.7449308659377
 31
0.0
  0
LINE
  5
4AD
330
4A6
100
AcDbEntity
  8
用紙-GR2
  6
Continuous
 62
     6
370
    20
100
AcDbLine
 10
199.3057514202123
 20
167.7449308659377
 30
0.0
 11
199.3057514202123
 21
159.7449308659377
 31
0.0
  0
ENDBLK
  5
4A8
330
4A6
100
AcDbEntity
  8
0
100
AcDbBlockEnd
  0
BLOCK
  5
4AF
330
4AE
100
AcDbEntity
  8
0
100
AcDbBlockBegin
  2
BLKF046
 70
     0
 10
0.0
 20
0.0
 30
0.0
  3
BLKF046
  1

  0
LINE
  5
4B2
330
4AE
100
AcDbEntity
  8
用紙-GR2
  6
Continuous
 62
     7
370
    20
100
AcDbLine
 10
66.81420050461638
 20
129.6474412940157
 30
0.0
 11
60.44927829811001
 21
129.6474412940157
 31
0.0
  0
LINE
  5
4B3
330
4AE
100
AcDbEntity
  8
用紙-GR2
  6
Continuous
 62
     6
370
    20
100
AcDbLine
 10
60.44927829811001
 20
129.6474412940157
 30
0.0
 11
60.44927829811001
 21
140.892137192177
 31
0.0
  0
LINE
  5
4B4
330
4AE
100
AcDbEntity
  8
用紙-GR2
  6
Continuous
 62
     6
370
    20
100
AcDbLine
 10
66.81420050461638
 20
129.6474412940157
 30
0.0
 11
66.81420050461638
 21
140.892137192177
 31
0.0
  0
LINE
  5
4B5
330
4AE
100
AcDbEntity
  8
用紙-GR2
  6
Continuous
 62
     7
370
    20
100
AcDbLine
 10
67.16780729386674
 20
140.892137192177
 30
0.0
 11
67.16780729386674
 21
130.0010480832662
 31
0.0
  0
LINE
  5
4B6
330
4AE
100
AcDbEntity
  8
用紙-GR2
  6
Continuous
 62
     7
370
    20
100
AcDbLine
 10
60.09567150885964
 20
130.0010480832662
 30
0.0
 11
60.44927829811001
 21
129.6474412940157
 31
0.0
  0
LINE
  5
4B7
330
4AE
100
AcDbEntity
  8
用紙-GR2
  6
Continuous
 62
     7
370
    20
100
AcDbLine
 10
67.16780729386674
 20
130.0010480832662
 30
0.0
 11
66.81420050461638
 21
129.6474412940157
 31
0.0
  0
LINE
  5
4B8
330
4AE
100
AcDbEntity
  8
用紙-GR2
  6
Continuous
 62
     7
370
    20
100
AcDbLine
 10
60.09567150885964
 20
140.892137192177
 30
0.0
 11
60.09567150885964
 21
130.0010480832662
 31
0.0
  0
LINE
  5
4B9
330
4AE
100
AcDbEntity
  8
用紙-GR2
  6
Continuous
 62
     7
370
    20
100
AcDbLine
 10
66.81420050461638
 20
152.1368330903384
 30
0.0
 11
60.44927829811001
 21
152.1368330903384
 31
0.0
  0
LINE
  5
4BA
330
4AE
100
AcDbEntity
  8
用紙-GR2
  6
Continuous
 62
     6
370
    20
100
AcDbLine
 10
60.44927829811001
 20
152.1368330903384
 30
0.0
 11
60.44927829811001
 21
140.892137192177
 31
0.0
  0
LINE
  5
4BB
330
4AE
100
AcDbEntity
  8
用紙-GR2
  6
Continuous
 62
     6
370
    20
100
AcDbLine
 10
66.81420050461638
 20
152.1368330903384
 30
0.0
 11
66.81420050461638
 21
140.892137192177
 31
0.0
  0
LINE
  5
4BC
330
4AE
100
AcDbEntity
  8
用紙-GR2
  6
Continuous
 62
     7
370
    20
100
AcDbLine
 10
67.16780729386674
 20
140.892137192177
 30
0.0
 11
67.16780729386674
 21
151.783226301088
 31
0.0
  0
LINE
  5
4BD
330
4AE
100
AcDbEntity
  8
用紙-GR2
  6
Continuous
 62
     7
370
    20
100
AcDbLine
 10
60.09567150885964
 20
151.783226301088
 30
0.0
 11
60.44927829811001
 21
152.1368330903384
 31
0.0
  0
LINE
  5
4BE
330
4AE
100
AcDbEntity
  8
用紙-GR2
  6
Continuous
 62
     7
370
    20
100
AcDbLine
 10
67.16780729386674
 20
151.783226301088
 30
0.0
 11
66.81420050461638
 21
152.1368330903384
 31
0.0
  0
LINE
  5
4BF
330
4AE
100
AcDbEntity
  8
用紙-GR2
  6
Continuous
 62
     7
370
    20
100
AcDbLine
 10
60.09567150885964
 20
140.892137192177
 30
0.0
 11
60.09567150885964
 21
151.783226301088
 31
0.0
  0
HATCH
  5
4C0
330
4AE
100
AcDbEntity
  8
用紙-GR2
  6
Continuous
 62
     6
370
    20
100
AcDbHatch
 10
0.0
 20
0.0
 30
0.0
210
0.0
220
0.0
230
1.0
  2

 70
     0
 71
     1
 91
        1
 92
        0
 93
        4
 72
     1
 10
66.81420050461638
 20
152.1368330903384
 11
60.44927829811001
 21
152.1368330903384
 72
     1
 10
60.44927829811001
 20
152.1368330903384
 11
60.44927829811001
 21
129.6474412940157
 72
     1
 10
60.44927829811001
 20
129.6474412940157
 11
66.81420050461638
 21
129.6474412940157
 72
     1
 10
66.81420050461638
 20
129.6474412940157
 11
66.81420050461638
 21
152.1368330903384
 97
        0
 75
     0
 76
     0
 52
0.0
 41
0.7072135785007072
 77
     0
 78
     1
 53
0.0
 43
0.0
 44
0.0
 45
0.0
 46
0.7072135785007072
 79
     0
 98
        0
  0
ENDBLK
  5
4B0
330
4AE
100
AcDbEntity
  8
0
100
AcDbBlockEnd
  0
BLOCK
  5
4C3
330
4C2
100
AcDbEntity
  8
0
100
AcDbBlockBegin
  2
BLKF047
 70
     0
 10
0.0
 20
0.0
 30
0.0
  3
BLKF047
  1

  0
LINE
  5
4C6
330
4C2
100
AcDbEntity
  8
用紙-GR2
  6
Continuous
 62
     7
370
    20
100
AcDbLine
 10
67.30925000956691
 20
151.5003408696878
 30
0.0
 11
102.3233942811367
 21
151.5003408696878
 31
0.0
  0
LINE
  5
4C7
330
4C2
100
AcDbEntity
  8
用紙-GR2
  6
Continuous
 62
     7
370
    20
100
AcDbLine
 10
102.4648369968367
 20
151.3588981539876
 30
0.0
 11
102.4648369968367
 21
140.892137192177
 31
0.0
  0
LINE
  5
4C8
330
4C2
100
AcDbEntity
  8
用紙-GR2
  6
Continuous
 62
     7
370
    20
100
AcDbLine
 10
67.16780729386681
 20
151.3588981539876
 30
0.0
 11
67.16780729386681
 21
140.892137192177
 31
0.0
  0
LINE
  5
4C9
330
4C2
100
AcDbEntity
  8
用紙-GR2
  6
Continuous
 62
     7
370
    20
100
AcDbLine
 10
67.30925000956691
 20
151.5003408696878
 30
0.0
 11
67.16780729386681
 21
151.3588981539876
 31
0.0
  0
LINE
  5
4CA
330
4C2
100
AcDbEntity
  8
用紙-GR2
  6
Continuous
 62
     7
370
    20
100
AcDbLine
 10
102.3233942811367
 20
151.5003408696878
 30
0.0
 11
102.4648369968367
 21
151.3588981539876
 31
0.0
  0
LINE
  5
4CB
330
4C2
100
AcDbEntity
  8
用紙-GR2
  6
Continuous
 62
     6
370
    20
100
AcDbLine
 10
67.30925000956691
 20
151.5003408696878
 30
0.0
 11
67.30925000956691
 21
140.892137192177
 31
0.0
  0
LINE
  5
4CC
330
4C2
100
AcDbEntity
  8
用紙-GR2
  6
Continuous
 62
     6
370
    20
100
AcDbLine
 10
102.3233942811367
 20
151.5003408696878
 30
0.0
 11
102.3233942811367
 21
140.892137192177
 31
0.0
  0
LINE
  5
4CD
330
4C2
100
AcDbEntity
  8
用紙-GR2
  6
Continuous
 62
     7
370
    20
100
AcDbLine
 10
67.30925000956691
 20
130.2839335146664
 30
0.0
 11
102.3233942811367
 21
130.2839335146664
 31
0.0
  0
LINE
  5
4CE
330
4C2
100
AcDbEntity
  8
用紙-GR2
  6
Continuous
 62
     7
370
    20
100
AcDbLine
 10
102.4648369968367
 20
130.4253762303667
 30
0.0
 11
102.4648369968367
 21
140.892137192177
 31
0.0
  0
LINE
  5
4CF
330
4C2
100
AcDbEntity
  8
用紙-GR2
  6
Continuous
 62
     7
370
    20
100
AcDbLine
 10
67.16780729386681
 20
130.4253762303667
 30
0.0
 11
67.16780729386681
 21
140.892137192177
 31
0.0
  0
LINE
  5
4D0
330
4C2
100
AcDbEntity
  8
用紙-GR2
  6
Continuous
 62
     7
370
    20
100
AcDbLine
 10
67.30925000956691
 20
130.2839335146664
 30
0.0
 11
67.16780729386681
 21
130.4253762303667
 31
0.0
  0
LINE
  5
4D1
330
4C2
100
AcDbEntity
  8
用紙-GR2
  6
Continuous
 62
     7
370
    20
100
AcDbLine
 10
102.3233942811367
 20
130.2839335146664
 30
0.0
 11
102.4648369968367
 21
130.4253762303667
 31
0.0
  0
LINE
  5
4D2
330
4C2
100
AcDbEntity
  8
用紙-GR2
  6
Continuous
 62
     6
370
    20
100
AcDbLine
 10
67.30925000956691
 20
130.2839335146664
 30
0.0
 11
67.30925000956691
 21
140.892137192177
 31
0.0
  0
LINE
  5
4D3
330
4C2
100
AcDbEntity
  8
用紙-GR2
  6
Continuous
 62
     6
370
    20
100
AcDbLine
 10
102.3233942811367
 20
130.2839335146664
 30
0.0
 11
102.3233942811367
 21
140.8921371921769
 31
0.0
  0
ENDBLK
  5
4C4
330
4C2
100
AcDbEntity
  8
0
100
AcDbBlockEnd
  0
BLOCK
  5
4D5
330
4D4
100
AcDbEntity
  8
0
100
AcDbBlockBegin
  2
BLKF048
 70
     0
 10
0.0
 20
0.0
 30
0.0
  3
BLKF048
  1

  0
LINE
  5
4D8
330
4D4
100
AcDbEntity
  8
用紙-GR2
  6
Continuous
 62
     7
370
    20
100
AcDbLine
 10
30.68973091479973
 20
152.2075544481887
 30
0.0
 11
30.68973091479942
 21
140.892137192177
 31
0.0
  0
LINE
  5
4D9
330
4D4
100
AcDbEntity
  8
用紙-GR2
  6
Continuous
 62
     7
370
    20
100
AcDbLine
 10
31.75055128255039
 20
152.2075544481888
 30
0.0
 11
30.68973091479973
 21
152.2075544481887
 31
0.0
  0
LINE
  5
4DA
330
4D4
100
AcDbEntity
  8
用紙-GR2
  6
Continuous
 62
     7
370
    20
100
AcDbLine
 10
31.75055128255039
 20
152.2075544481888
 30
0.0
 11
31.75055128255039
 21
140.892137192177
 31
0.0
  0
LINE
  5
4DB
330
4D4
100
AcDbEntity
  8
用紙-GR2
  6
Continuous
 62
     7
370
    20
100
AcDbLine
 10
31.75055128255039
 20
151.853947658938
 30
0.0
 11
34.93301238604004
 21
151.853947658938
 31
0.0
  0
LINE
  5
4DC
330
4D4
100
AcDbEntity
  8
用紙-GR2
  6
Continuous
 62
     7
370
    20
100
AcDbLine
 10
34.93301238604004
 20
140.892137192177
 30
0.0
 11
34.93301238604004
 21
151.853947658938
 31
0.0
  0
LINE
  5
4DD
330
4D4
100
AcDbEntity
  8
用紙-GR2
  6
Continuous
 62
     6
370
    20
100
AcDbLine
 10
31.75055128255048
 20
151.5003408696881
 30
0.0
 11
30.68973091479982
 21
151.5003408696879
 31
0.0
  0
LINE
  5
4DE
330
4D4
100
AcDbEntity
  8
用紙-GR2
  6
DASHDOT
 62
     6
370
    20
100
AcDbLine
 10
30.31506505715251
 20
150.0859137126863
 30
0.0
 11
32.02860401608179
 21
150.0859137126863
 31
0.0
  0
LINE
  5
4DF
330
4D4
100
AcDbEntity
  8
用紙-GR2
  6
Continuous
 62
     7
370
    20
100
AcDbLine
 10
30.68973091479973
 20
129.5767199361655
 30
0.0
 11
30.68973091479942
 21
140.892137192177
 31
0.0
  0
LINE
  5
4E0
330
4D4
100
AcDbEntity
  8
用紙-GR2
  6
Continuous
 62
     7
370
    20
100
AcDbLine
 10
31.75055128255039
 20
129.5767199361655
 30
0.0
 11
30.68973091479973
 21
129.5767199361655
 31
0.0
  0
LINE
  5
4E1
330
4D4
100
AcDbEntity
  8
用紙-GR2
  6
Continuous
 62
     7
370
    20
100
AcDbLine
 10
31.75055128255039
 20
129.5767199361655
 30
0.0
 11
31.75055128255039
 21
140.892137192177
 31
0.0
  0
LINE
  5
4E2
330
4D4
100
AcDbEntity
  8
用紙-GR2
  6
Continuous
 62
     7
370
    20
100
AcDbLine
 10
31.75055128255039
 20
129.9303267254162
 30
0.0
 11
34.93301238604004
 21
129.9303267254162
 31
0.0
  0
LINE
  5
4E3
330
4D4
100
AcDbEntity
  8
用紙-GR2
  6
Continuous
 62
     7
370
    20
100
AcDbLine
 10
34.93301238604004
 20
140.892137192177
 30
0.0
 11
34.93301238604004
 21
129.9303267254162
 31
0.0
  0
LINE
  5
4E4
330
4D4
100
AcDbEntity
  8
用紙-GR2
  6
Continuous
 62
     6
370
    20
100
AcDbLine
 10
31.75055128255048
 20
130.2839335146661
 30
0.0
 11
30.68973091479982
 21
130.2839335146661
 31
0.0
  0
LINE
  5
4E5
330
4D4
100
AcDbEntity
  8
用紙-GR2
  6
DASHDOT
 62
     6
370
    20
100
AcDbLine
 10
30.31506505715251
 20
131.6983606716678
 30
0.0
 11
32.02860401608179
 21
131.6983606716678
 31
0.0
  0
ENDBLK
  5
4D6
330
4D4
100
AcDbEntity
  8
0
100
AcDbBlockEnd
  0
BLOCK
  5
4E7
330
4E6
100
AcDbEntity
  8
0
100
AcDbBlockBegin
  2
BLKF049
 70
     0
 10
0.0
 20
0.0
 30
0.0
  3
BLKF049
  1

  0
LINE
  5
4EA
330
4E6
100
AcDbEntity
  8
用紙-GR2
  6
DASHDOT
 62
     6
370
    20
100
AcDbLine
 10
60.09567150885964
 20
140.892137192177
 30
0.0
 11
28.02841091389394
 21
140.892137192177
 31
0.0
  0
LINE
  5
4EB
330
4E6
100
AcDbEntity
  8
用紙-GR2
  6
Continuous
 62
     5
370
    20
100
AcDbLine
 10
60.09567150885964
 20
150.7931272911871
 30
0.0
 11
56.14941974082561
 21
150.7931272911871
 31
0.0
  0
LINE
  5
4EC
330
4E6
100
AcDbEntity
  8
用紙-GR2
  6
Continuous
 62
     6
370
    20
100
AcDbLine
 10
56.14941974082561
 20
150.5059985783159
 30
0.0
 11
60.09567150885964
 21
150.5059985783159
 31
0.0
  0
LINE
  5
4ED
330
4E6
100
AcDbEntity
  8
用紙-GR2
  6
Continuous
 62
     7
370
    20
100
AcDbLine
 10
56.14941974082561
 20
150.7931272911871
 30
0.0
 11
56.14941974082552
 21
140.892137192177
 31
0.0
  0
LINE
  5
4EE
330
4E6
100
AcDbEntity
  8
用紙-GR2
  6
Continuous
 62
     7
370
    20
100
AcDbLine
 10
36.34743954304138
 20
147.9642729771844
 30
0.0
 11
54.02777900532346
 21
147.9642729771844
 31
0.0
  0
LINE
  5
4EF
330
4E6
100
AcDbEntity
  8
用紙-GR2
  6
Continuous
 62
     7
370
    20
100
AcDbLine
 10
54.02777900532346
 20
140.892137192177
 30
0.0
 11
54.02777900532346
 21
150.7931272911871
 31
0.0
  0
LINE
  5
4F0
330
4E6
100
AcDbEntity
  8
用紙-GR2
  6
Continuous
 62
     7
370
    20
100
AcDbLine
 10
54.02777900532346
 20
150.7931272911871
 30
0.0
 11
55.44220616232489
 21
150.7931272911871
 31
0.0
  0
LINE
  5
4F1
330
4E6
100
AcDbEntity
  8
用紙-GR2
  6
Continuous
 62
     7
370
    20
100
AcDbLine
 10
55.44220616232489
 20
150.7931272911871
 30
0.0
 11
55.44220616232489
 21
140.892137192177
 31
0.0
  0
LINE
  5
4F2
330
4E6
100
AcDbEntity
  8
用紙-GR2
  6
Continuous
 62
     7
370
    20
100
AcDbLine
 10
55.44220616232489
 20
150.5059985783159
 30
0.0
 11
56.14941974082561
 21
150.5059985783159
 31
0.0
  0
LINE
  5
4F3
330
4E6
100
AcDbEntity
  8
用紙-GR2
  6
Continuous
 62
     7
370
    20
100
AcDbLine
 10
36.34743954304138
 20
151.853947658938
 30
0.0
 11
36.34743954304145
 21
140.892137192177
 31
0.0
  0
LINE
  5
4F4
330
4E6
100
AcDbEntity
  8
用紙-GR2
  6
Continuous
 62
     7
370
    20
100
AcDbLine
 10
34.93301238603996
 20
151.853947658938
 30
0.0
 11
34.93301238603996
 21
140.892137192177
 31
0.0
  0
LINE
  5
4F5
330
4E6
100
AcDbEntity
  8
用紙-GR2
  6
Continuous
 62
     7
370
    20
100
AcDbLine
 10
34.93301238603996
 20
151.853947658938
 30
0.0
 11
36.34743954304138
 21
151.853947658938
 31
0.0
  0
LINE
  5
4F6
330
4E6
100
AcDbEntity
  8
用紙-GR2
  6
Continuous
 62
     5
370
    20
100
AcDbLine
 10
60.09567150885956
 20
130.9911470931673
 30
0.0
 11
56.14941974082561
 21
130.9911470931673
 31
0.0
  0
LINE
  5
4F7
330
4E6
100
AcDbEntity
  8
用紙-GR2
  6
Continuous
 62
     6
370
    20
100
AcDbLine
 10
56.14941974082561
 20
131.2782758060385
 30
0.0
 11
60.09567150885956
 21
131.2782758060385
 31
0.0
  0
LINE
  5
4F8
330
4E6
100
AcDbEntity
  8
用紙-GR2
  6
Continuous
 62
     7
370
    20
100
AcDbLine
 10
56.14941974082561
 20
130.9911470931673
 30
0.0
 11
56.14941974082552
 21
140.892137192177
 31
0.0
  0
LINE
  5
4F9
330
4E6
100
AcDbEntity
  8
用紙-GR2
  6
Continuous
 62
     7
370
    20
100
AcDbLine
 10
36.34743954304138
 20
133.8200014071699
 30
0.0
 11
54.02777900532346
 21
133.8200014071699
 31
0.0
  0
LINE
  5
4FA
330
4E6
100
AcDbEntity
  8
用紙-GR2
  6
Continuous
 62
     7
370
    20
100
AcDbLine
 10
54.02777900532346
 20
140.892137192177
 30
0.0
 11
54.02777900532346
 21
130.9911470931673
 31
0.0
  0
LINE
  5
4FB
330
4E6
100
AcDbEntity
  8
用紙-GR2
  6
Continuous
 62
     7
370
    20
100
AcDbLine
 10
54.02777900532346
 20
130.9911470931673
 30
0.0
 11
55.44220616232489
 21
130.9911470931673
 31
0.0
  0
LINE
  5
4FC
330
4E6
100
AcDbEntity
  8
用紙-GR2
  6
Continuous
 62
     7
370
    20
100
AcDbLine
 10
55.44220616232489
 20
130.9911470931673
 30
0.0
 11
55.44220616232489
 21
140.892137192177
 31
0.0
  0
LINE
  5
4FD
330
4E6
100
AcDbEntity
  8
用紙-GR2
  6
Continuous
 62
     7
370
    20
100
AcDbLine
 10
55.44220616232489
 20
131.2782758060385
 30
0.0
 11
56.14941974082561
 21
131.2782758060385
 31
0.0
  0
LINE
  5
4FE
330
4E6
100
AcDbEntity
  8
用紙-GR2
  6
Continuous
 62
     7
370
    20
100
AcDbLine
 10
36.34743954304138
 20
129.9303267254162
 30
0.0
 11
36.34743954304145
 21
140.892137192177
 31
0.0
  0
LINE
  5
4FF
330
4E6
100
AcDbEntity
  8
用紙-GR2
  6
Continuous
 62
     7
370
    20
100
AcDbLine
 10
34.93301238603996
 20
129.9303267254162
 30
0.0
 11
34.93301238603996
 21
140.892137192177
 31
0.0
  0
LINE
  5
500
330
4E6
100
AcDbEntity
  8
用紙-GR2
  6
Continuous
 62
     7
370
    20
100
AcDbLine
 10
34.93301238603996
 20
129.9303267254162
 30
0.0
 11
36.34743954304138
 21
129.9303267254162
 31
0.0
  0
ENDBLK
  5
4E8
330
4E6
100
AcDbEntity
  8
0
100
AcDbBlockEnd
  0
BLOCK
  5
504
330
503
100
AcDbEntity
  8
0
100
AcDbBlockBegin
  2
BLKF050
 70
     0
 10
0.0
 20
0.0
 30
0.0
  3
BLKF050
  1

  0
LINE
  5
507
330
503
100
AcDbEntity
  8
用紙-GR2
  6
Continuous
 62
     6
370
    20
100
AcDbLine
 10
19.51501964198751
 20
159.3587486119139
 30
0.0
 11
49.01501964198749
 21
159.3587486119139
 31
0.0
  0
LINE
  5
508
330
503
100
AcDbEntity
  8
用紙-GR2
  6
Continuous
 62
     6
370
    20
100
AcDbLine
 10
49.01501964198749
 20
159.3587486119139
 30
0.0
 11
49.01501964198749
 21
167.3587486119141
 31
0.0
  0
LINE
  5
509
330
503
100
AcDbEntity
  8
用紙-GR2
  6
Continuous
 62
     6
370
    20
100
AcDbLine
 10
49.01501964198749
 20
167.3587486119141
 30
0.0
 11
19.51501964198751
 21
167.3587486119141
 31
0.0
  0
LINE
  5
50A
330
503
100
AcDbEntity
  8
用紙-GR2
  6
Continuous
 62
     6
370
    20
100
AcDbLine
 10
19.51501964198751
 20
167.3587486119141
 30
0.0
 11
19.51501964198751
 21
159.3587486119139
 31
0.0
  0
ENDBLK
  5
505
330
503
100
AcDbEntity
  8
0
100
AcDbBlockEnd
  0
BLOCK
  5
50D
330
50C
100
AcDbEntity
  8
0
100
AcDbBlockBegin
  2
*D49
 70
     1
 10
0.0
 20
0.0
 30
0.0
  3
*D49
  1

  0
TEXT
  5
50F
330
50C
100
AcDbEntity
  8
用紙-GR2
  6
Continuous
 62
     6
370
    20
100
AcDbText
 10
66.99780174158249
 20
123.7117977756284
 30
0.0
 40
3.0
  1
6.6
 50
0.0000000099999999
 41
0.8333333333333332
 51
15.0
  7
FX_VECTOR
100
AcDbText
  0
LINE
  5
510
330
50C
100
AcDbEntity
  8
用紙-GR2
  6
Continuous
 62
     6
370
    20
100
AcDbLine
 10
55.4422061623249
 20
123.2117977296594
 30
0.0
 11
60.0956715088597
 21
123.2117977296594
 31
0.0
  0
LINE
  5
511
330
50C
100
AcDbEntity
  8
用紙-GR2
  6
Continuous
 62
     6
370
    20
100
AcDbLine
 10
55.4422061623249
 20
129.991147068887
 30
0.0
 11
55.4422061623249
 21
121.711797693239
 31
0.0
  0
LINE
  5
512
330
50C
100
AcDbEntity
  8
用紙-GR2
  6
Continuous
 62
     6
370
    20
100
AcDbLine
 10
60.0956715088597
 20
129.0010480589859
 30
0.0
 11
60.0956715088597
 21
121.711797693239
 31
0.0
  0
LINE
  5
513
330
50C
100
AcDbEntity
  8
用紙-GR2
  6
Continuous
 62
     6
370
    20
100
AcDbLine
 10
52.44220608948413
 20
123.2117977296594
 30
0.0
 11
55.4422061623249
 21
123.2117977296594
 31
0.0
  0
INSERT
  5
514
330
50C
100
AcDbEntity
  8
用紙-GR2
  6
Continuous
 62
     6
370
    20
100
AcDbBlockReference
  2
FXTIP_BLACKDOT_E
 10
55.4422061623249
 20
123.2117977296594
 30
0.0
 50
360.0
  0
LINE
  5
515
330
50C
100
AcDbEntity
  8
用紙-GR2
  6
Continuous
 62
     6
370
    20
100
AcDbLine
 10
60.0956715088597
 20
123.2117977296594
 30
0.0
 11
81.39993784563186
 21
123.2117977296594
 31
0.0
  0
INSERT
  5
516
330
50C
100
AcDbEntity
  8
用紙-GR2
  6
Continuous
 62
     6
370
    20
100
AcDbBlockReference
  2
FXTIP_ARROW_S
 10
60.0956715088597
 20
123.2117977296594
 30
0.0
 41
3.0
 42
3.0
 50
180.0
  0
ENDBLK
  5
50E
330
50C
100
AcDbEntity
  8
0
100
AcDbBlockEnd
  0
BLOCK
  5
518
330
517
100
AcDbEntity
  8
0
100
AcDbBlockBegin
  2
FXDIM052
 70
     0
 10
0.0
 20
0.0
 30
0.0
  3
FXDIM052
  1

  0
LINE
  5
51B
330
517
100
AcDbEntity
  8
用紙-GR2
  6
Continuous
 62
     6
370
    20
100
AcDbLine
 10
63.24130280442172
 20
152.1368330903384
 30
0.0
 11
65.53435668970394
 21
157.8214091288578
 31
0.0
  0
INSERT
  5
51C
330
517
100
AcDbEntity
  8
用紙-GR2
  6
Continuous
 62
     6
370
    20
100
AcDbBlockReference
  2
FXTIP_ARROW_S
 10
63.24130280442172
 20
152.1368330903384
 30
0.0
 41
3.0
 42
3.0
 50
248.0317540478201
  0
LINE
  5
51D
330
517
100
AcDbEntity
  8
用紙-GR2
  6
Continuous
 62
     6
370
    20
100
AcDbLine
 10
65.53435668970394
 20
157.8214091288578
 30
0.0
 11
88.53435676254465
 21
157.8214091288578
 31
0.0
  0
TEXT
  5
51E
330
517
100
AcDbEntity
  8
用紙-GR2
  6
Continuous
 62
     6
370
    20
100
AcDbText
 10
67.03434729677278
 20
158.1750354452634
 30
0.0
 40
3.0
  1
ピント調整リング
 50
0.0000000099999999
 41
0.8333333333333332
  7
FX_VECTOR
100
AcDbText
  0
ENDBLK
  5
519
330
517
100
AcDbEntity
  8
0
100
AcDbBlockEnd
  0
BLOCK
  5
520
330
51F
100
AcDbEntity
  8
0
100
AcDbBlockBegin
  2
FXDIM053
 70
     0
 10
0.0
 20
0.0
 30
0.0
  3
FXDIM053
  1

  0
LINE
  5
523
330
51F
100
AcDbEntity
  8
用紙-GR2
  6
Continuous
 62
     6
370
    20
100
AcDbLine
 10
90.78274033529863
 20
151.5003408696877
 30
0.0
 11
93.3017052481645
 21
157.7146807697601
 31
0.0
  0
INSERT
  5
524
330
51F
100
AcDbEntity
  8
用紙-GR2
  6
Continuous
 62
     6
370
    20
100
AcDbBlockReference
  2
FXTIP_ARROW_S
 10
90.78274033529863
 20
151.5003408696877
 30
0.0
 41
3.0
 42
3.0
 50
247.9349675748835
  0
LINE
  5
525
330
51F
100
AcDbEntity
  8
用紙-GR2
  6
Continuous
 62
     6
370
    20
100
AcDbLine
 10
93.3017052481645
 20
157.7146807697601
 30
0.0
 11
102.3017054666867
 21
157.7146807697601
 31
0.0
  0
TEXT
  5
526
330
51F
100
AcDbEntity
  8
用紙-GR2
  6
Continuous
 62
     6
370
    20
100
AcDbText
 10
95.30169410112049
 20
158.2146823996364
 30
0.0
 40
3.0
  1
鏡筒
 41
0.8333333333333332
  7
FX_VECTOR
100
AcDbText
  0
ENDBLK
  5
521
330
51F
100
AcDbEntity
  8
0
100
AcDbBlockEnd
  0
BLOCK
  5
529
330
528
100
AcDbEntity
  8
0
100
AcDbBlockBegin
  2
*D52
 70
     1
 10
0.0
 20
0.0
 30
0.0
  3
*D52
  1

  0
TEXT
  5
52B
330
528
100
AcDbEntity
  8
用紙-GR2
  6
Continuous
 62
     6
370
    20
100
AcDbText
 10
109.0369757364966
 20
139.6421380157687
 30
0.0
 40
3.0
  1
30
 50
90.0
 41
0.8333333333333332
 51
15.0
  7
FX_VECTOR
100
AcDbText
  0
LINE
  5
52C
330
528
100
AcDbEntity
  8
用紙-GR2
  6
Continuous
 62
     6
370
    20
100
AcDbLine
 10
109.5369727818439
 20
130.2839335146664
 30
0.0
 11
109.5369727818439
 21
151.5003408696878
 31
0.0
  0
INSERT
  5
52D
330
528
100
AcDbEntity
  8
用紙-GR2
  6
Continuous
 62
     6
370
    20
100
AcDbBlockReference
  2
FXTIP_ARROW_S
 10
109.5369727818439
 20
130.2839335146664
 30
0.0
 41
3.0
 42
3.0
 50
270.0
  0
INSERT
  5
52E
330
528
100
AcDbEntity
  8
用紙-GR2
  6
Continuous
 62
     6
370
    20
100
AcDbBlockReference
  2
FXTIP_ARROW_E
 10
109.5369727818439
 20
151.5003408696878
 30
0.0
 41
3.0
 42
3.0
 50
90.0
  0
LINE
  5
52F
330
528
100
AcDbEntity
  8
用紙-GR2
  6
Continuous
 62
     6
370
    20
100
AcDbLine
 10
103.3233943054169
 20
130.2839335146664
 30
0.0
 11
111.0369728182643
 21
130.2839335146664
 31
0.0
  0
LINE
  5
530
330
528
100
AcDbEntity
  8
用紙-GR2
  6
Continuous
 62
     6
370
    20
100
AcDbLine
 10
103.3233943054169
 20
151.5003408696878
 30
0.0
 11
111.0369728182643
 21
151.5003408696878
 31
0.0
  0
TEXT
  5
531
330
528
100
AcDbEntity
  8
用紙-GR2
  6
Continuous
 62
     6
370
    20
100
AcDbText
 10
109.0369757364966
 20
137.1421341309284
 30
0.0
 40
3.0
  1
%%c
 50
90.0
 41
0.8333333333333332
 51
15.0
  7
FX_VECTOR
100
AcDbText
  0
ENDBLK
  5
52A
330
528
100
AcDbEntity
  8
0
100
AcDbBlockEnd
  0
BLOCK
  5
534
330
533
100
AcDbEntity
  8
0
100
AcDbBlockBegin
  2
*D53
 70
     1
 10
0.0
 20
0.0
 30
0.0
  3
*D53
  1

  0
TEXT
  5
536
330
533
100
AcDbEntity
  8
用紙-GR2
  6
Continuous
 62
     6
370
    20
100
AcDbText
 10
73.24630953129143
 20
115.2252348334018
 30
0.0
 40
3.0
  1
68.5
 50
0.0000000100000239
 41
0.8333333333333332
 51
15.0
  7
FX_VECTOR
100
AcDbText
  0
LINE
  5
537
330
533
100
AcDbEntity
  8
用紙-GR2
  6
Continuous
 62
     6
370
    20
100
AcDbLine
 10
54.02777900532345
 20
114.7252347876509
 30
0.0
 11
102.4648369968367
 21
114.7252347876509
 31
0.0
  0
INSERT
  5
538
330
533
100
AcDbEntity
  8
用紙-GR2
  6
Continuous
 62
     6
370
    20
100
AcDbBlockReference
  2
FXTIP_ARROW_S
 10
54.02777900532345
 20
114.7252347876509
 30
0.0
 41
3.0
 42
3.0
 50
180.0
  0
INSERT
  5
539
330
533
100
AcDbEntity
  8
用紙-GR2
  6
Continuous
 62
     6
370
    20
100
AcDbBlockReference
  2
FXTIP_ARROW_E
 10
102.4648369968367
 20
114.7252347876509
 30
0.0
 41
3.0
 42
3.0
 50
360.0
  0
LINE
  5
53A
330
533
100
AcDbEntity
  8
用紙-GR2
  6
Continuous
 62
     6
370
    20
100
AcDbLine
 10
54.02777900532346
 20
129.991147068887
 30
0.0
 11
54.02777900532345
 21
113.2252347512306
 31
0.0
  0
LINE
  5
53B
330
533
100
AcDbEntity
  8
用紙-GR2
  6
Continuous
 62
     6
370
    20
100
AcDbLine
 10
102.4648369968367
 20
129.4253762060864
 30
0.0
 11
102.4648369968367
 21
113.2252347512306
 31
0.0
  0
TEXT
  5
53C
330
533
100
AcDbEntity
  8
用紙-GR2
  6
Continuous
 62
     6
370
    20
100
AcDbText
 10
70.74630845216915
 20
115.2252348340562
 30
0.0
 40
3.0
  1
(
 50
0.0000000100000239
 41
0.8333333333333332
 51
15.0
  7
FX_VECTOR
100
AcDbText
  0
TEXT
  5
53D
330
533
100
AcDbEntity
  8
用紙-GR2
  6
Continuous
 62
     6
370
    20
100
AcDbText
 10
83.24631061041372
 20
115.2252348340562
 30
0.0
 40
3.0
  1
)
 50
0.0000000100000239
 41
0.8333333333333332
 51
15.0
  7
FX_VECTOR
100
AcDbText
  0
ENDBLK
  5
535
330
533
100
AcDbEntity
  8
0
100
AcDbBlockEnd
  0
BLOCK
  5
540
330
53F
100
AcDbEntity
  8
0
100
AcDbBlockBegin
  2
*D54
 70
     1
 10
0.0
 20
0.0
 30
0.0
  3
*D54
  1

  0
TEXT
  5
542
330
53F
100
AcDbEntity
  8
用紙-GR2
  6
Continuous
 62
     6
370
    20
100
AcDbText
 10
60.32728548602978
 20
106.738671891175
 30
0.0
 40
3.0
  1
101.5
 50
0.0000000099999999
 41
0.8333333333333332
 51
15.0
  7
FX_VECTOR
100
AcDbText
  0
LINE
  5
543
330
53F
100
AcDbEntity
  8
用紙-GR2
  6
Continuous
 62
     6
370
    20
100
AcDbLine
 10
30.68973091479968
 20
106.2386718456425
 30
0.0
 11
102.4648369968367
 21
106.2386718456425
 31
0.0
  0
INSERT
  5
544
330
53F
100
AcDbEntity
  8
用紙-GR2
  6
Continuous
 62
     6
370
    20
100
AcDbBlockReference
  2
FXTIP_ARROW_S
 10
30.68973091479968
 20
106.2386718456425
 30
0.0
 41
3.0
 42
3.0
 50
180.0
  0
INSERT
  5
545
330
53F
100
AcDbEntity
  8
用紙-GR2
  6
Continuous
 62
     6
370
    20
100
AcDbBlockReference
  2
FXTIP_ARROW_E
 10
102.4648369968367
 20
106.2386718456425
 30
0.0
 41
3.0
 42
3.0
 50
360.0
  0
LINE
  5
546
330
53F
100
AcDbEntity
  8
用紙-GR2
  6
Continuous
 62
     6
370
    20
100
AcDbLine
 10
30.68973091479973
 20
128.5767199118854
 30
0.0
 11
30.68973091479973
 21
104.738671809222
 31
0.0
  0
LINE
  5
547
330
53F
100
AcDbEntity
  8
用紙-GR2
  6
Continuous
 62
     6
370
    20
100
AcDbLine
 10
102.4648369968367
 20
129.4253762060864
 30
0.0
 11
102.4648369968367
 21
104.738671809222
 31
0.0
  0
TEXT
  5
548
330
53F
100
AcDbEntity
  8
用紙-GR2
  6
Continuous
 62
     6
370
    20
100
AcDbText
 10
57.82728311196075
 20
106.7386718920477
 30
0.0
 40
3.0
  1
(
 50
0.0000000099999999
 41
0.8333333333333332
 51
15.0
  7
FX_VECTOR
100
AcDbText
  0
TEXT
  5
549
330
53F
100
AcDbEntity
  8
用紙-GR2
  6
Continuous
 62
     6
370
    20
100
AcDbText
 10
72.8272878600988
 20
106.7386718920477
 30
0.0
 40
3.0
  1
)
 50
0.0000000099999999
 41
0.8333333333333332
 51
15.0
  7
FX_VECTOR
100
AcDbText
  0
ENDBLK
  5
541
330
53F
100
AcDbEntity
  8
0
100
AcDbBlockEnd
  0
BLOCK
  5
54E
330
54D
100
AcDbEntity
  8
0
100
AcDbBlockBegin
  2
*D55
 70
     1
 10
0.0
 20
0.0
 30
0.0
  3
*D55
  1

  0
TEXT
  5
550
330
54D
100
AcDbEntity
  8
用紙-GR2
  6
Continuous
 62
     6
370
    20
100
AcDbText
 10
45.91843903149034
 20
127.3199967919853
 30
0.0
 40
3.0
  1
20
 50
90.0
 41
0.8333333333333332
 51
15.0
  7
FX_VECTOR
100
AcDbText
  0
LINE
  5
551
330
54D
100
AcDbEntity
  8
用紙-GR2
  6
Continuous
 62
     6
370
    20
100
AcDbLine
 10
46.41843432814201
 20
133.82000140717
 30
0.0
 11
46.41843432814201
 21
147.9642729771844
 31
0.0
  0
LINE
  5
552
330
54D
100
AcDbEntity
  8
用紙-GR2
  6
Continuous
 62
     6
370
    20
100
AcDbLine
 10
42.29793461682699
 20
133.8200014071699
 30
0.0
 11
47.91843436456239
 21
133.82000140717
 31
0.0
  0
LINE
  5
553
330
54D
100
AcDbEntity
  8
用紙-GR2
  6
Continuous
 62
     6
370
    20
100
AcDbLine
 10
42.29793461682699
 20
147.9642729771844
 30
0.0
 11
47.91843436456239
 21
147.9642729771844
 31
0.0
  0
TEXT
  5
554
330
54D
100
AcDbEntity
  8
用紙-GR2
  6
Continuous
 62
     6
370
    20
100
AcDbText
 10
45.91843903149034
 20
124.8199929071451
 30
0.0
 40
3.0
  1
%%c
 50
90.0
 41
0.8333333333333332
 51
15.0
  7
FX_VECTOR
100
AcDbText
  0
LINE
  5
555
330
54D
100
AcDbEntity
  8
用紙-GR2
  6
Continuous
 62
     6
370
    20
100
AcDbLine
 10
46.41843432814201
 20
147.9642729771844
 30
0.0
 11
46.41843432814201
 21
150.9642730500253
 31
0.0
  0
INSERT
  5
556
330
54D
100
AcDbEntity
  8
用紙-GR2
  6
Continuous
 62
     6
370
    20
100
AcDbBlockReference
  2
FXTIP_ARROW_S
 10
46.41843432814201
 20
147.9642729771844
 30
0.0
 41
3.0
 42
3.0
 50
270.0
  0
LINE
  5
557
330
54D
100
AcDbEntity
  8
用紙-GR2
  6
Continuous
 62
     6
370
    20
100
AcDbLine
 10
46.41843432814201
 20
123.3200011522274
 30
0.0
 11
46.41843432814201
 21
133.82000140717
 31
0.0
  0
INSERT
  5
558
330
54D
100
AcDbEntity
  8
用紙-GR2
  6
Continuous
 62
     6
370
    20
100
AcDbBlockReference
  2
FXTIP_ARROW_E
 10
46.41843432814201
 20
133.82000140717
 30
0.0
 41
3.0
 42
3.0
 50
90.0
  0
ENDBLK
  5
54F
330
54D
100
AcDbEntity
  8
0
100
AcDbBlockEnd
  0
BLOCK
  5
55B
330
55A
100
AcDbEntity
  8
0
100
AcDbBlockBegin
  2
*D56
 70
     1
 10
0.0
 20
0.0
 30
0.0
  3
*D56
  1

  0
TEXT
  5
55D
330
55A
100
AcDbEntity
  8
用紙-GR2
  6
Continuous
 62
     6
370
    20
100
AcDbText
 10
23.26398792833385
 20
136.9529532037327
 30
0.0
 40
3.0
  1
□
 50
90.0
 41
0.8333333333333332
 51
15.0
  7
FX_VECTOR
100
AcDbText
  0
TEXT
  5
55E
330
55A
100
AcDbEntity
  8
用紙-GR2
  6
Continuous
 62
     6
370
    20
100
AcDbText
 10
23.26398792833385
 20
139.4529570885729
 30
0.0
 40
3.0
  1
32
 50
90.0
 41
0.8333333333333332
 51
15.0
  7
FX_VECTOR
100
AcDbText
  0
LINE
  5
55F
330
55A
100
AcDbEntity
  8
用紙-GR2
  6
Continuous
 62
     6
370
    20
100
AcDbLine
 10
23.61759512979235
 20
129.5767199361655
 30
0.0
 11
23.61759512979236
 21
152.2075544481887
 31
0.0
  0
INSERT
  5
560
330
55A
100
AcDbEntity
  8
用紙-GR2
  6
Continuous
 62
     6
370
    20
100
AcDbBlockReference
  2
FXTIP_ARROW_S
 10
23.61759512979235
 20
129.5767199361655
 30
0.0
 41
3.0
 42
3.0
 50
270.0
  0
INSERT
  5
561
330
55A
100
AcDbEntity
  8
用紙-GR2
  6
Continuous
 62
     6
370
    20
100
AcDbBlockReference
  2
FXTIP_ARROW_E
 10
23.61759512979236
 20
152.2075544481887
 30
0.0
 41
3.0
 42
3.0
 50
90.0
  0
LINE
  5
562
330
55A
100
AcDbEntity
  8
用紙-GR2
  6
Continuous
 62
     6
370
    20
100
AcDbLine
 10
29.68973089051948
 20
129.5767199361655
 30
0.0
 11
22.11759509337196
 21
129.5767199361655
 31
0.0
  0
LINE
  5
563
330
55A
100
AcDbEntity
  8
用紙-GR2
  6
Continuous
 62
     6
370
    20
100
AcDbLine
 10
29.68973089051949
 20
152.2075544481887
 30
0.0
 11
22.11759509337198
 21
152.2075544481887
 31
0.0
  0
ENDBLK
  5
55C
330
55A
100
AcDbEntity
  8
0
100
AcDbBlockEnd
  0
BLOCK
  5
566
330
565
100
AcDbEntity
  8
0
100
AcDbBlockBegin
  2
*D57
 70
     1
 10
0.0
 20
0.0
 30
0.0
  3
*D57
  1

  0
TEXT
  5
568
330
565
100
AcDbEntity
  8
用紙-GR2
  6
Continuous
 62
     6
370
    20
100
AcDbText
 10
37.84744197947975
 20
115.2252348340562
 30
0.0
 40
3.0
  1
8
 50
0.0000000099999999
 41
0.8333333333333332
 51
15.0
  7
FX_VECTOR
100
AcDbText
  0
LINE
  5
569
330
565
100
AcDbEntity
  8
用紙-GR2
  6
Continuous
 62
     6
370
    20
100
AcDbLine
 10
30.68973091479976
 20
114.7252347876509
 30
0.0
 11
36.34743954304147
 21
114.7252347876509
 31
0.0
  0
LINE
  5
56A
330
565
100
AcDbEntity
  8
用紙-GR2
  6
Continuous
 62
     6
370
    20
100
AcDbLine
 10
30.68973091479973
 20
128.5767199118854
 30
0.0
 11
30.68973091479973
 21
113.2252347512306
 31
0.0
  0
LINE
  5
56B
330
565
100
AcDbEntity
  8
用紙-GR2
  6
Continuous
 62
     6
370
    20
100
AcDbLine
 10
36.34743954304145
 20
128.930326701136
 30
0.0
 11
36.34743954304145
 21
113.2252347512306
 31
0.0
  0
LINE
  5
56C
330
565
100
AcDbEntity
  8
用紙-GR2
  6
Continuous
 62
     6
370
    20
100
AcDbLine
 10
27.689730841959
 20
114.7252347876509
 30
0.0
 11
30.68973091479976
 21
114.7252347876509
 31
0.0
  0
INSERT
  5
56D
330
565
100
AcDbEntity
  8
用紙-GR2
  6
Continuous
 62
     6
370
    20
100
AcDbBlockReference
  2
FXTIP_ARROW_E
 10
30.68973091479976
 20
114.7252347876509
 30
0.0
 41
3.0
 42
3.0
 50
360.0
  0
LINE
  5
56E
330
565
100
AcDbEntity
  8
用紙-GR2
  6
Continuous
 62
     6
370
    20
100
AcDbLine
 10
36.34743954304147
 20
114.7252347876509
 30
0.0
 11
41.84743967658286
 21
114.7252347876509
 31
0.0
  0
INSERT
  5
56F
330
565
100
AcDbEntity
  8
用紙-GR2
  6
Continuous
 62
     6
370
    20
100
AcDbBlockReference
  2
FXTIP_ARROW_S
 10
36.34743954304147
 20
114.7252347876509
 30
0.0
 41
3.0
 42
3.0
 50
180.0
  0
ENDBLK
  5
567
330
565
100
AcDbEntity
  8
0
100
AcDbBlockEnd
  0
BLOCK
  5
572
330
571
100
AcDbEntity
  8
0
100
AcDbBlockBegin
  2
*D58
 70
     1
 10
0.0
 20
0.0
 30
0.0
  3
*D58
  1

  0
TEXT
  5
574
330
571
100
AcDbEntity
  8
用紙-GR2
  6
Continuous
 62
     6
370
    20
100
AcDbText
 10
40.27509891666482
 20
123.4303221102313
 30
0.0
 40
3.0
  1
31
 50
90.0
 41
0.8333333333333332
 51
15.0
  7
FX_VECTOR
100
AcDbText
  0
LINE
  5
575
330
571
100
AcDbEntity
  8
用紙-GR2
  6
Continuous
 62
     6
370
    20
100
AcDbLine
 10
40.77510029651834
 20
129.9303267254164
 30
0.0
 11
40.77510029651834
 21
151.853947658938
 31
0.0
  0
LINE
  5
576
330
571
100
AcDbEntity
  8
用紙-GR2
  6
Continuous
 62
     6
370
    20
100
AcDbLine
 10
37.3474395673217
 20
129.9303267254163
 30
0.0
 11
42.27510033293872
 21
129.930326725416
 31
0.0
  0
LINE
  5
577
330
571
100
AcDbEntity
  8
用紙-GR2
  6
Continuous
 62
     6
370
    20
100
AcDbLine
 10
37.3474395673217
 20
151.853947658938
 30
0.0
 11
42.27510033293872
 21
151.853947658938
 31
0.0
  0
TEXT
  5
578
330
571
100
AcDbEntity
  8
用紙-GR2
  6
Continuous
 62
     6
370
    20
100
AcDbText
 10
40.27509891666482
 20
120.9303182253911
 30
0.0
 40
3.0
  1
%%c
 50
90.0
 41
0.8333333333333332
 51
15.0
  7
FX_VECTOR
100
AcDbText
  0
LINE
  5
579
330
571
100
AcDbEntity
  8
用紙-GR2
  6
Continuous
 62
     6
370
    20
100
AcDbLine
 10
40.77510029651834
 20
151.853947658938
 30
0.0
 11
40.77510029651834
 21
154.8539477317788
 31
0.0
  0
INSERT
  5
57A
330
571
100
AcDbEntity
  8
用紙-GR2
  6
Continuous
 62
     6
370
    20
100
AcDbBlockReference
  2
FXTIP_ARROW_S
 10
40.77510029651834
 20
151.853947658938
 30
0.0
 41
3.0
 42
3.0
 50
270.0
  0
LINE
  5
57B
330
571
100
AcDbEntity
  8
用紙-GR2
  6
Continuous
 62
     6
370
    20
100
AcDbLine
 10
40.77510029651834
 20
119.4303264704737
 30
0.0
 11
40.77510029651834
 21
129.9303267254164
 31
0.0
  0
INSERT
  5
57C
330
571
100
AcDbEntity
  8
用紙-GR2
  6
Continuous
 62
     6
370
    20
100
AcDbBlockReference
  2
FXTIP_ARROW_E
 10
40.77510029651834
 20
129.9303267254164
 30
0.0
 41
3.0
 42
3.0
 50
90.0
  0
ENDBLK
  5
573
330
571
100
AcDbEntity
  8
0
100
AcDbBlockEnd
  0
BLOCK
  5
57F
330
57E
100
AcDbEntity
  8
0
100
AcDbBlockBegin
  2
*D59
 70
     1
 10
0.0
 20
0.0
 30
0.0
  3
*D59
  1

  0
TEXT
  5
581
330
57E
100
AcDbEntity
  8
用紙-GR2
  6
Continuous
 62
     6
370
    20
100
AcDbText
 10
238.7766033857849
 20
123.7117977756284
 30
0.0
 40
3.0
  1
2.6
 50
0.0000000099999999
 41
0.8333333333333332
 51
15.0
  7
FX_VECTOR
100
AcDbText
  0
LINE
  5
582
330
57E
100
AcDbEntity
  8
用紙-GR2
  6
Continuous
 62
     6
370
    20
100
AcDbLine
 10
230.06822098951
 20
123.2117977296594
 30
0.0
 11
231.9211205651817
 21
123.2117977296594
 31
0.0
  0
LINE
  5
583
330
57E
100
AcDbEntity
  8
用紙-GR2
  6
Continuous
 62
     6
370
    20
100
AcDbLine
 10
230.0682209895098
 20
129.991147068887
 30
0.0
 11
230.06822098951
 21
121.711797693239
 31
0.0
  0
LINE
  5
584
330
57E
100
AcDbEntity
  8
用紙-GR2
  6
Continuous
 62
     6
370
    20
100
AcDbLine
 10
231.9211205651817
 20
129.0010480589861
 30
0.0
 11
231.9211205651817
 21
121.711797693239
 31
0.0
  0
LINE
  5
585
330
57E
100
AcDbEntity
  8
用紙-GR2
  6
Continuous
 62
     6
370
    20
100
AcDbLine
 10
227.068220916669
 20
123.2117977296594
 30
0.0
 11
230.06822098951
 21
123.2117977296594
 31
0.0
  0
INSERT
  5
586
330
57E
100
AcDbEntity
  8
用紙-GR2
  6
Continuous
 62
     6
370
    20
100
AcDbBlockReference
  2
FXTIP_BLACKDOT_E
 10
230.06822098951
 20
123.2117977296594
 30
0.0
 50
360.0
  0
LINE
  5
587
330
57E
100
AcDbEntity
  8
用紙-GR2
  6
Continuous
 62
     6
370
    20
100
AcDbLine
 10
231.9211205651817
 20
123.2117977296594
 30
0.0
 11
253.1320591593203
 21
123.2117977296594
 31
0.0
  0
INSERT
  5
588
330
57E
100
AcDbEntity
  8
用紙-GR2
  6
Continuous
 62
     6
370
    20
100
AcDbBlockReference
  2
FXTIP_ARROW_S
 10
231.9211205651817
 20
123.2117977296594
 30
0.0
 41
3.0
 42
3.0
 50
180.0
  0
ENDBLK
  5
580
330
57E
100
AcDbEntity
  8
0
100
AcDbBlockEnd
  0
BLOCK
  5
58B
330
58A
100
AcDbEntity
  8
0
100
AcDbBlockBegin
  2
*D60
 70
     1
 10
0.0
 20
0.0
 30
0.0
  3
*D60
  1

  0
TEXT
  5
58D
330
58A
100
AcDbEntity
  8
用紙-GR2
  6
Continuous
 62
     6
370
    20
100
AcDbText
 10
243.9720566033305
 20
115.2252348340562
 30
0.0
 40
3.0
  1
(
 50
0.0000000100000079
 41
0.8333333333333332
 51
15.0
  7
FX_VECTOR
100
AcDbText
  0
TEXT
  5
58E
330
58A
100
AcDbEntity
  8
用紙-GR2
  6
Continuous
 62
     6
370
    20
100
AcDbText
 10
246.4720522868414
 20
115.2252348334018
 30
0.0
 40
3.0
  1
64.5
 50
0.0000000100000079
 41
0.8333333333333332
 51
15.0
  7
FX_VECTOR
100
AcDbText
  0
TEXT
  5
58F
330
58A
100
AcDbEntity
  8
用紙-GR2
  6
Continuous
 62
     6
370
    20
100
AcDbText
 10
256.4720479703523
 20
115.2252348340562
 30
0.0
 40
3.0
  1
)
 50
0.0000000100000079
 41
0.8333333333333332
 51
15.0
  7
FX_VECTOR
100
AcDbText
  0
LINE
  5
590
330
58A
100
AcDbEntity
  8
用紙-GR2
  6
Continuous
 62
     6
370
    20
100
AcDbLine
 10
228.6537938325085
 20
114.7252347876509
 30
0.0
 11
274.2902860531589
 21
114.7252347876509
 31
0.0
  0
INSERT
  5
591
330
58A
100
AcDbEntity
  8
用紙-GR2
  6
Continuous
 62
     6
370
    20
100
AcDbBlockReference
  2
FXTIP_ARROW_S
 10
228.6537938325085
 20
114.7252347876509
 30
0.0
 41
3.0
 42
3.0
 50
180.0
  0
INSERT
  5
592
330
58A
100
AcDbEntity
  8
用紙-GR2
  6
Continuous
 62
     6
370
    20
100
AcDbBlockReference
  2
FXTIP_ARROW_E
 10
274.2902860531589
 20
114.7252347876509
 30
0.0
 41
3.0
 42
3.0
 50
360.0
  0
LINE
  5
593
330
58A
100
AcDbEntity
  8
用紙-GR2
  6
Continuous
 62
     6
370
    20
100
AcDbLine
 10
228.6537938325085
 20
129.991147068887
 30
0.0
 11
228.6537938325085
 21
113.2252347512306
 31
0.0
  0
LINE
  5
594
330
58A
100
AcDbEntity
  8
用紙-GR2
  6
Continuous
 62
     6
370
    20
100
AcDbLine
 10
274.2902860531589
 20
129.4253762060864
 30
0.0
 11
274.2902860531589
 21
113.2252347512306
 31
0.0
  0
ENDBLK
  5
58C
330
58A
100
AcDbEntity
  8
0
100
AcDbBlockEnd
  0
BLOCK
  5
597
330
596
100
AcDbEntity
  8
0
100
AcDbBlockBegin
  2
*D61
 70
     1
 10
0.0
 20
0.0
 30
0.0
  3
*D61
  1

  0
TEXT
  5
599
330
596
100
AcDbEntity
  8
用紙-GR2
  6
Continuous
 62
     6
370
    20
100
AcDbText
 10
232.3030325580688
 20
106.7386718920477
 30
0.0
 40
3.0
  1
(
 50
0.0000000100000079
 41
0.8333333333333332
 51
15.0
  7
FX_VECTOR
100
AcDbText
  0
TEXT
  5
59A
330
596
100
AcDbEntity
  8
用紙-GR2
  6
Continuous
 62
     6
370
    20
100
AcDbText
 10
234.8030282415797
 20
106.7386718913932
 30
0.0
 40
3.0
  1
97.5
 50
0.0000000100000079
 41
0.8333333333333332
 51
15.0
  7
FX_VECTOR
100
AcDbText
  0
TEXT
  5
59B
330
596
100
AcDbEntity
  8
用紙-GR2
  6
Continuous
 62
     6
370
    20
100
AcDbText
 10
244.8030239250905
 20
106.7386718920477
 30
0.0
 40
3.0
  1
)
 50
0.0000000100000079
 41
0.8333333333333332
 51
15.0
  7
FX_VECTOR
100
AcDbText
  0
LINE
  5
59C
330
596
100
AcDbEntity
  8
用紙-GR2
  6
Continuous
 62
     6
370
    20
100
AcDbLine
 10
205.3157457419845
 20
106.2386718456425
 30
0.0
 11
274.2902860531589
 21
106.2386718456425
 31
0.0
  0
INSERT
  5
59D
330
596
100
AcDbEntity
  8
用紙-GR2
  6
Continuous
 62
     6
370
    20
100
AcDbBlockReference
  2
FXTIP_ARROW_S
 10
205.3157457419845
 20
106.2386718456425
 30
0.0
 41
3.0
 42
3.0
 50
180.0
  0
INSERT
  5
59E
330
596
100
AcDbEntity
  8
用紙-GR2
  6
Continuous
 62
     6
370
    20
100
AcDbBlockReference
  2
FXTIP_ARROW_E
 10
274.2902860531589
 20
106.2386718456425
 30
0.0
 41
3.0
 42
3.0
 50
360.0
  0
LINE
  5
59F
330
596
100
AcDbEntity
  8
用紙-GR2
  6
Continuous
 62
     6
370
    20
100
AcDbLine
 10
205.3157457419848
 20
128.5767199118854
 30
0.0
 11
205.3157457419845
 21
104.738671809222
 31
0.0
  0
LINE
  5
5A0
330
596
100
AcDbEntity
  8
用紙-GR2
  6
Continuous
 62
     6
370
    20
100
AcDbLine
 10
274.2902860531589
 20
129.4253762060864
 30
0.0
 11
274.2902860531589
 21
104.738671809222
 31
0.0
  0
ENDBLK
  5
598
330
596
100
AcDbEntity
  8
0
100
AcDbBlockEnd
  0
BLOCK
  5
5A3
330
5A2
100
AcDbEntity
  8
0
100
AcDbBlockBegin
  2
FXDIM064
 70
     0
 10
0.0
 20
0.0
 30
0.0
  3
FXDIM064
  1

  0
LINE
  5
5A6
330
5A2
100
AcDbEntity
  8
用紙-GR2
  6
Continuous
 62
     6
370
    20
100
AcDbLine
 10
235.0667518607438
 20
152.1368330903384
 30
0.0
 11
237.3598057460259
 21
157.8214091288578
 31
0.0
  0
INSERT
  5
5A7
330
5A2
100
AcDbEntity
  8
用紙-GR2
  6
Continuous
 62
     6
370
    20
100
AcDbBlockReference
  2
FXTIP_ARROW_S
 10
235.0667518607438
 20
152.1368330903384
 30
0.0
 41
3.0
 42
3.0
 50
248.0317540478202
  0
LINE
  5
5A8
330
5A2
100
AcDbEntity
  8
用紙-GR2
  6
Continuous
 62
     6
370
    20
100
AcDbLine
 10
237.3598057460259
 20
157.8214091288578
 30
0.0
 11
260.3598058188666
 21
157.8214091288578
 31
0.0
  0
TEXT
  5
5A9
330
5A2
100
AcDbEntity
  8
用紙-GR2
  6
Continuous
 62
     6
370
    20
100
AcDbText
 10
238.8598209796565
 20
158.1750354452634
 30
0.0
 40
3.0
  1
ピント調整リング
 50
0.0000000099999999
 41
0.8333333333333332
  7
FX_VECTOR
100
AcDbText
  0
ENDBLK
  5
5A4
330
5A2
100
AcDbEntity
  8
0
100
AcDbBlockEnd
  0
BLOCK
  5
5AB
330
5AA
100
AcDbEntity
  8
0
100
AcDbBlockBegin
  2
FXDIM065
 70
     0
 10
0.0
 20
0.0
 30
0.0
  3
FXDIM065
  1

  0
LINE
  5
5AE
330
5AA
100
AcDbEntity
  8
用紙-GR2
  6
Continuous
 62
     6
370
    20
100
AcDbLine
 10
262.6081893916206
 20
151.5003408696877
 30
0.0
 11
265.1271543044865
 21
157.7146807697601
 31
0.0
  0
INSERT
  5
5AF
330
5AA
100
AcDbEntity
  8
用紙-GR2
  6
Continuous
 62
     6
370
    20
100
AcDbBlockReference
  2
FXTIP_ARROW_S
 10
262.6081893916206
 20
151.5003408696877
 30
0.0
 41
3.0
 42
3.0
 50
247.9349675748832
  0
LINE
  5
5B0
330
5AA
100
AcDbEntity
  8
用紙-GR2
  6
Continuous
 62
     6
370
    20
100
AcDbLine
 10
265.1271543044865
 20
157.7146807697601
 30
0.0
 11
274.1271545230089
 21
157.7146807697601
 31
0.0
  0
TEXT
  5
5B1
330
5AA
100
AcDbEntity
  8
用紙-GR2
  6
Continuous
 62
     6
370
    20
100
AcDbText
 10
267.1271408059471
 20
158.2146823996364
 30
0.0
 40
3.0
  1
鏡筒
 41
0.8333333333333332
  7
FX_VECTOR
100
AcDbText
  0
ENDBLK
  5
5AC
330
5AA
100
AcDbEntity
  8
0
100
AcDbBlockEnd
  0
BLOCK
  5
5B5
330
5B4
100
AcDbEntity
  8
0
100
AcDbBlockBegin
  2
BLKF066
 70
     0
 10
0.0
 20
0.0
 30
0.0
  3
BLKF066
  1

  0
INSERT
  5
5BB
330
5B4
100
AcDbEntity
  8
0
100
AcDbBlockReference
  2
BLKF067
 10
0.0
 20
0.0
 30
0.0
  0
INSERT
  5
612
330
5B4
100
AcDbEntity
  8
0
100
AcDbBlockReference
  2
BLKF072
 10
0.0
 20
0.0
 30
0.0
  0
INSERT
  5
61D
330
5B4
100
AcDbEntity
  8
0
100
AcDbBlockReference
  2
BLKF073
 10
0.0
 20
0.0
 30
0.0
  0
INSERT
  5
628
330
5B4
100
AcDbEntity
  8
0
100
AcDbBlockReference
  2
BLKF074
 10
0.0
 20
0.0
 30
0.0
  0
LINE
  5
630
330
5B4
100
AcDbEntity
  8
用紙-GR2
  6
DASHDOT
 62
     6
370
    20
100
AcDbLine
 10
159.1868247065099
 20
83.3027641533085
 30
0.0
 11
160.4601664044116
 21
83.3027641533085
 31
0.0
  0
INSERT
  5
634
330
5B4
100
AcDbEntity
  8
0
100
AcDbBlockReference
  2
BLKF075
 10
0.0
 20
0.0
 30
0.0
  0
LINE
  5
63C
330
5B4
100
AcDbEntity
  8
用紙-GR2
  6
DASHDOT
 62
     6
370
    20
100
AcDbLine
 10
159.1868247065099
 20
70.30417858046547
 30
0.0
 11
160.4601664044116
 21
70.30417858046547
 31
0.0
  0
ENDBLK
  5
5B6
330
5B4
100
AcDbEntity
  8
0
100
AcDbBlockEnd
  0
BLOCK
  5
5B9
330
5B8
100
AcDbEntity
  8
0
100
AcDbBlockBegin
  2
BLKF067
 70
     0
 10
0.0
 20
0.0
 30
0.0
  3
BLKF067
  1

  0
INSERT
  5
5BF
330
5B8
100
AcDbEntity
  8
0
100
AcDbBlockReference
  2
BLKF068
 10
0.0
 20
0.0
 30
0.0
  0
LINE
  5
5CF
330
5B8
100
AcDbEntity
  8
用紙-GR2
  6
DASHDOT
 62
     6
370
    20
100
AcDbLine
 10
182.9350566723281
 20
76.80347136688697
 30
0.0
 11
227.1942758936439
 21
76.80347136688697
 31
0.0
  0
INSERT
  5
5D3
330
5B8
100
AcDbEntity
  8
0
100
AcDbBlockReference
  2
BLKF069
 10
0.0
 20
0.0
 30
0.0
  0
INSERT
  5
5E5
330
5B8
100
AcDbEntity
  8
0
100
AcDbBlockReference
  2
BLKF070
 10
0.0
 20
0.0
 30
0.0
  0
INSERT
  5
5F7
330
5B8
100
AcDbEntity
  8
0
100
AcDbBlockReference
  2
BLKF071
 10
0.0
 20
0.0
 30
0.0
  0
ENDBLK
  5
5BA
330
5B8
100
AcDbEntity
  8
0
100
AcDbBlockEnd
  0
BLOCK
  5
5BD
330
5BC
100
AcDbEntity
  8
0
100
AcDbBlockBegin
  2
BLKF068
 70
     0
 10
0.0
 20
0.0
 30
0.0
  3
BLKF068
  1

  0
LINE
  5
5C0
330
5BC
100
AcDbEntity
  8
用紙-GR2
  6
Continuous
 62
     7
370
    20
100
AcDbLine
 10
189.6535856680849
 20
65.55877546872574
 30
0.0
 11
183.2886634615785
 21
65.55877546872574
 31
0.0
  0
LINE
  5
5C1
330
5BC
100
AcDbEntity
  8
用紙-GR2
  6
Continuous
 62
     6
370
    20
100
AcDbLine
 10
183.2886634615785
 20
65.55877546872574
 30
0.0
 11
183.2886634615785
 21
76.80347136688697
 31
0.0
  0
LINE
  5
5C2
330
5BC
100
AcDbEntity
  8
用紙-GR2
  6
Continuous
 62
     6
370
    20
100
AcDbLine
 10
189.6535856680849
 20
65.55877546872574
 30
0.0
 11
189.6535856680849
 21
76.80347136688697
 31
0.0
  0
LINE
  5
5C3
330
5BC
100
AcDbEntity
  8
用紙-GR2
  6
Continuous
 62
     7
370
    20
100
AcDbLine
 10
190.0071924573353
 20
76.80347136688697
 30
0.0
 11
190.0071924573353
 21
65.91238225797609
 31
0.0
  0
LINE
  5
5C4
330
5BC
100
AcDbEntity
  8
用紙-GR2
  6
Continuous
 62
     7
370
    20
100
AcDbLine
 10
182.9350566723281
 20
65.91238225797609
 30
0.0
 11
183.2886634615785
 21
65.55877546872574
 31
0.0
  0
LINE
  5
5C5
330
5BC
100
AcDbEntity
  8
用紙-GR2
  6
Continuous
 62
     7
370
    20
100
AcDbLine
 10
190.0071924573353
 20
65.91238225797609
 30
0.0
 11
189.6535856680849
 21
65.55877546872574
 31
0.0
  0
LINE
  5
5C6
330
5BC
100
AcDbEntity
  8
用紙-GR2
  6
Continuous
 62
     7
370
    20
100
AcDbLine
 10
182.9350566723281
 20
76.80347136688697
 30
0.0
 11
182.9350566723281
 21
65.91238225797609
 31
0.0
  0
LINE
  5
5C7
330
5BC
100
AcDbEntity
  8
用紙-GR2
  6
Continuous
 62
     7
370
    20
100
AcDbLine
 10
189.6535856680849
 20
88.04816726504817
 30
0.0
 11
183.2886634615785
 21
88.04816726504817
 31
0.0
  0
LINE
  5
5C8
330
5BC
100
AcDbEntity
  8
用紙-GR2
  6
Continuous
 62
     6
370
    20
100
AcDbLine
 10
183.2886634615785
 20
88.04816726504817
 30
0.0
 11
183.2886634615785
 21
76.80347136688697
 31
0.0
  0
LINE
  5
5C9
330
5BC
100
AcDbEntity
  8
用紙-GR2
  6
Continuous
 62
     6
370
    20
100
AcDbLine
 10
189.6535856680849
 20
88.04816726504817
 30
0.0
 11
189.6535856680849
 21
76.80347136688697
 31
0.0
  0
LINE
  5
5CA
330
5BC
100
AcDbEntity
  8
用紙-GR2
  6
Continuous
 62
     7
370
    20
100
AcDbLine
 10
190.0071924573353
 20
76.80347136688697
 30
0.0
 11
190.0071924573353
 21
87.69456047579785
 31
0.0
  0
LINE
  5
5CB
330
5BC
100
AcDbEntity
  8
用紙-GR2
  6
Continuous
 62
     7
370
    20
100
AcDbLine
 10
182.9350566723281
 20
87.69456047579785
 30
0.0
 11
183.2886634615785
 21
88.04816726504817
 31
0.0
  0
LINE
  5
5CC
330
5BC
100
AcDbEntity
  8
用紙-GR2
  6
Continuous
 62
     7
370
    20
100
AcDbLine
 10
190.0071924573353
 20
87.69456047579785
 30
0.0
 11
189.6535856680849
 21
88.04816726504817
 31
0.0
  0
LINE
  5
5CD
330
5BC
100
AcDbEntity
  8
用紙-GR2
  6
Continuous
 62
     7
370
    20
100
AcDbLine
 10
182.9350566723281
 20
76.80347136688697
 30
0.0
 11
182.9350566723281
 21
87.69456047579785
 31
0.0
  0
HATCH
  5
5CE
330
5BC
100
AcDbEntity
  8
用紙-GR2
  6
Continuous
 62
     6
370
    20
100
AcDbHatch
 10
0.0
 20
0.0
 30
0.0
210
0.0
220
0.0
230
1.0
  2

 70
     0
 71
     1
 91
        1
 92
        0
 93
        4
 72
     1
 10
189.6535856680849
 20
88.04816726504828
 11
183.2886634615785
 21
88.04816726504817
 72
     1
 10
183.2886634615785
 20
88.04816726504817
 11
183.2886634615785
 21
65.55877546872574
 72
     1
 10
183.2886634615785
 20
65.55877546872574
 11
189.6535856680849
 21
65.55877546872574
 72
     1
 10
189.6535856680849
 20
65.55877546872574
 11
189.6535856680849
 21
88.04816726504828
 97
        0
 75
     0
 76
     0
 52
0.0
 41
0.7072135785007072
 77
     0
 78
     1
 53
0.0
 43
0.0
 44
0.0
 45
0.0
 46
0.7072135785007072
 79
     0
 98
        0
  0
ENDBLK
  5
5BE
330
5BC
100
AcDbEntity
  8
0
100
AcDbBlockEnd
  0
BLOCK
  5
5D1
330
5D0
100
AcDbEntity
  8
0
100
AcDbBlockBegin
  2
BLKF069
 70
     0
 10
0.0
 20
0.0
 30
0.0
  3
BLKF069
  1

  0
LINE
  5
5D4
330
5D0
100
AcDbEntity
  8
用紙-GR2
  6
Continuous
 62
     7
370
    20
100
AcDbLine
 10
190.1486351730353
 20
87.41167504439758
 30
0.0
 11
225.162779444605
 21
87.41167504439758
 31
0.0
  0
LINE
  5
5D5
330
5D0
100
AcDbEntity
  8
用紙-GR2
  6
Continuous
 62
     7
370
    20
100
AcDbLine
 10
225.3042221603054
 20
87.27023232869742
 30
0.0
 11
225.3042221603054
 21
76.80347136688697
 31
0.0
  0
LINE
  5
5D6
330
5D0
100
AcDbEntity
  8
用紙-GR2
  6
Continuous
 62
     7
370
    20
100
AcDbLine
 10
190.0071924573353
 20
87.27023232869742
 30
0.0
 11
190.0071924573353
 21
76.80347136688697
 31
0.0
  0
LINE
  5
5D7
330
5D0
100
AcDbEntity
  8
用紙-GR2
  6
Continuous
 62
     7
370
    20
100
AcDbLine
 10
190.1486351730353
 20
87.41167504439758
 30
0.0
 11
190.0071924573353
 21
87.27023232869742
 31
0.0
  0
LINE
  5
5D8
330
5D0
100
AcDbEntity
  8
用紙-GR2
  6
Continuous
 62
     7
370
    20
100
AcDbLine
 10
225.162779444605
 20
87.41167504439758
 30
0.0
 11
225.3042221603054
 21
87.27023232869742
 31
0.0
  0
LINE
  5
5D9
330
5D0
100
AcDbEntity
  8
用紙-GR2
  6
Continuous
 62
     6
370
    20
100
AcDbLine
 10
190.1486351730353
 20
87.41167504439758
 30
0.0
 11
190.1486351730353
 21
76.80347136688697
 31
0.0
  0
LINE
  5
5DA
330
5D0
100
AcDbEntity
  8
用紙-GR2
  6
Continuous
 62
     6
370
    20
100
AcDbLine
 10
225.162779444605
 20
87.41167504439758
 30
0.0
 11
225.162779444605
 21
76.80347136688697
 31
0.0
  0
LINE
  5
5DB
330
5D0
100
AcDbEntity
  8
用紙-GR2
  6
Continuous
 62
     7
370
    20
100
AcDbLine
 10
190.1486351730353
 20
66.19526768937632
 30
0.0
 11
225.162779444605
 21
66.19526768937632
 31
0.0
  0
LINE
  5
5DC
330
5D0
100
AcDbEntity
  8
用紙-GR2
  6
Continuous
 62
     7
370
    20
100
AcDbLine
 10
225.3042221603054
 20
66.33671040507646
 30
0.0
 11
225.3042221603054
 21
76.80347136688697
 31
0.0
  0
LINE
  5
5DD
330
5D0
100
AcDbEntity
  8
用紙-GR2
  6
Continuous
 62
     7
370
    20
100
AcDbLine
 10
190.0071924573353
 20
66.33671040507646
 30
0.0
 11
190.0071924573353
 21
76.80347136688697
 31
0.0
  0
LINE
  5
5DE
330
5D0
100
AcDbEntity
  8
用紙-GR2
  6
Continuous
 62
     7
370
    20
100
AcDbLine
 10
190.1486351730353
 20
66.19526768937632
 30
0.0
 11
190.0071924573353
 21
66.33671040507646
 31
0.0
  0
LINE
  5
5DF
330
5D0
100
AcDbEntity
  8
用紙-GR2
  6
Continuous
 62
     7
370
    20
100
AcDbLine
 10
225.162779444605
 20
66.19526768937632
 30
0.0
 11
225.3042221603054
 21
66.33671040507646
 31
0.0
  0
LINE
  5
5E0
330
5D0
100
AcDbEntity
  8
用紙-GR2
  6
Continuous
 62
     6
370
    20
100
AcDbLine
 10
190.1486351730353
 20
66.19526768937632
 30
0.0
 11
190.1486351730353
 21
76.80347136688697
 31
0.0
  0
LINE
  5
5E1
330
5D0
100
AcDbEntity
  8
用紙-GR2
  6
Continuous
 62
     6
370
    20
100
AcDbLine
 10
225.162779444605
 20
66.19526768937632
 30
0.0
 11
225.162779444605
 21
76.80347136688689
 31
0.0
  0
ENDBLK
  5
5D2
330
5D0
100
AcDbEntity
  8
0
100
AcDbBlockEnd
  0
BLOCK
  5
5E3
330
5E2
100
AcDbEntity
  8
0
100
AcDbBlockBegin
  2
BLKF070
 70
     0
 10
0.0
 20
0.0
 30
0.0
  3
BLKF070
  1

  0
LINE
  5
5E6
330
5E2
100
AcDbEntity
  8
用紙-GR2
  6
Continuous
 62
     7
370
    20
100
AcDbLine
 10
153.5291160782683
 20
88.11888862289853
 30
0.0
 11
153.5291160782677
 21
76.80347136688697
 31
0.0
  0
LINE
  5
5E7
330
5E2
100
AcDbEntity
  8
用紙-GR2
  6
Continuous
 62
     7
370
    20
100
AcDbLine
 10
154.5899364460189
 20
88.11888862289862
 30
0.0
 11
153.5291160782683
 21
88.11888862289853
 31
0.0
  0
LINE
  5
5E8
330
5E2
100
AcDbEntity
  8
用紙-GR2
  6
Continuous
 62
     7
370
    20
100
AcDbLine
 10
154.5899364460189
 20
88.11888862289862
 30
0.0
 11
154.5899364460189
 21
76.80347136688697
 31
0.0
  0
LINE
  5
5E9
330
5E2
100
AcDbEntity
  8
用紙-GR2
  6
Continuous
 62
     7
370
    20
100
AcDbLine
 10
154.5899364460189
 20
87.76528183364794
 30
0.0
 11
157.7723975495084
 21
87.76528183364794
 31
0.0
  0
LINE
  5
5EA
330
5E2
100
AcDbEntity
  8
用紙-GR2
  6
Continuous
 62
     7
370
    20
100
AcDbLine
 10
157.7723975495084
 20
76.80347136688697
 30
0.0
 11
157.7723975495084
 21
87.76528183364794
 31
0.0
  0
LINE
  5
5EB
330
5E2
100
AcDbEntity
  8
用紙-GR2
  6
Continuous
 62
     6
370
    20
100
AcDbLine
 10
154.589936446019
 20
87.41167504439792
 30
0.0
 11
153.5291160782683
 21
87.41167504439781
 31
0.0
  0
LINE
  5
5EC
330
5E2
100
AcDbEntity
  8
用紙-GR2
  6
DASHDOT
 62
     6
370
    20
100
AcDbLine
 10
153.154450220621
 20
85.99724788739617
 30
0.0
 11
155.876098491757
 21
85.99724788739617
 31
0.0
  0
LINE
  5
5ED
330
5E2
100
AcDbEntity
  8
用紙-GR2
  6
Continuous
 62
     7
370
    20
100
AcDbLine
 10
153.5291160782683
 20
65.48805411087541
 30
0.0
 11
153.5291160782677
 21
76.80347136688697
 31
0.0
  0
LINE
  5
5EE
330
5E2
100
AcDbEntity
  8
用紙-GR2
  6
Continuous
 62
     7
370
    20
100
AcDbLine
 10
154.5899364460189
 20
65.48805411087534
 30
0.0
 11
153.5291160782683
 21
65.48805411087541
 31
0.0
  0
LINE
  5
5EF
330
5E2
100
AcDbEntity
  8
用紙-GR2
  6
Continuous
 62
     7
370
    20
100
AcDbLine
 10
154.5899364460189
 20
65.48805411087534
 30
0.0
 11
154.5899364460189
 21
76.80347136688697
 31
0.0
  0
LINE
  5
5F0
330
5E2
100
AcDbEntity
  8
用紙-GR2
  6
Continuous
 62
     7
370
    20
100
AcDbLine
 10
154.5899364460189
 20
65.84166090012603
 30
0.0
 11
157.7723975495084
 21
65.84166090012603
 31
0.0
  0
LINE
  5
5F1
330
5E2
100
AcDbEntity
  8
用紙-GR2
  6
Continuous
 62
     7
370
    20
100
AcDbLine
 10
157.7723975495084
 20
76.80347136688697
 30
0.0
 11
157.7723975495084
 21
65.84166090012603
 31
0.0
  0
LINE
  5
5F2
330
5E2
100
AcDbEntity
  8
用紙-GR2
  6
Continuous
 62
     6
370
    20
100
AcDbLine
 10
154.589936446019
 20
66.19526768937602
 30
0.0
 11
153.5291160782683
 21
66.1952676893761
 31
0.0
  0
LINE
  5
5F3
330
5E2
100
AcDbEntity
  8
用紙-GR2
  6
DASHDOT
 62
     6
370
    20
100
AcDbLine
 10
153.154450220621
 20
67.60969484637778
 30
0.0
 11
155.876098491757
 21
67.60969484637778
 31
0.0
  0
ENDBLK
  5
5E4
330
5E2
100
AcDbEntity
  8
0
100
AcDbBlockEnd
  0
BLOCK
  5
5F5
330
5F4
100
AcDbEntity
  8
0
100
AcDbBlockBegin
  2
BLKF071
 70
     0
 10
0.0
 20
0.0
 30
0.0
  3
BLKF071
  1

  0
LINE
  5
5F8
330
5F4
100
AcDbEntity
  8
用紙-GR2
  6
DASHDOT
 62
     6
370
    20
100
AcDbLine
 10
182.9350566723281
 20
76.80347136688697
 30
0.0
 11
153.5291160782677
 21
76.80347136688697
 31
0.0
  0
LINE
  5
5F9
330
5F4
100
AcDbEntity
  8
用紙-GR2
  6
Continuous
 62
     5
370
    20
100
AcDbLine
 10
182.9350566723281
 20
86.70446146589688
 30
0.0
 11
178.988804904294
 21
86.70446146589688
 31
0.0
  0
LINE
  5
5FA
330
5F4
100
AcDbEntity
  8
用紙-GR2
  6
Continuous
 62
     6
370
    20
100
AcDbLine
 10
178.988804904294
 20
86.41733275302563
 30
0.0
 11
182.9350566723281
 21
86.41733275302563
 31
0.0
  0
LINE
  5
5FB
330
5F4
100
AcDbEntity
  8
用紙-GR2
  6
Continuous
 62
     7
370
    20
100
AcDbLine
 10
178.988804904294
 20
86.70446146589688
 30
0.0
 11
178.988804904294
 21
76.80347136688697
 31
0.0
  0
LINE
  5
5FC
330
5F4
100
AcDbEntity
  8
用紙-GR2
  6
Continuous
 62
     7
370
    20
100
AcDbLine
 10
160.1062023585607
 20
83.87560715189438
 30
0.0
 11
176.867164168792
 21
83.87560715189428
 31
0.0
  0
LINE
  5
5FD
330
5F4
100
AcDbEntity
  8
用紙-GR2
  6
Continuous
 62
     7
370
    20
100
AcDbLine
 10
176.867164168792
 20
76.80347136688697
 30
0.0
 11
176.867164168792
 21
86.70446146589688
 31
0.0
  0
LINE
  5
5FE
330
5F4
100
AcDbEntity
  8
用紙-GR2
  6
Continuous
 62
     7
370
    20
100
AcDbLine
 10
176.867164168792
 20
86.70446146589688
 30
0.0
 11
178.2815913257934
 21
86.70446146589688
 31
0.0
  0
LINE
  5
5FF
330
5F4
100
AcDbEntity
  8
用紙-GR2
  6
Continuous
 62
     7
370
    20
100
AcDbLine
 10
178.2815913257934
 20
86.70446146589688
 30
0.0
 11
178.2815913257934
 21
76.80347136688697
 31
0.0
  0
LINE
  5
600
330
5F4
100
AcDbEntity
  8
用紙-GR2
  6
Continuous
 62
     7
370
    20
100
AcDbLine
 10
178.2815913257934
 20
86.41733275302563
 30
0.0
 11
178.988804904294
 21
86.41733275302563
 31
0.0
  0
LINE
  5
601
330
5F4
100
AcDbEntity
  8
用紙-GR2
  6
Continuous
 62
     7
370
    20
100
AcDbLine
 10
159.1868247065099
 20
87.76528183364794
 30
0.0
 11
159.18682470651
 21
76.80347136688697
 31
0.0
  0
LINE
  5
602
330
5F4
100
AcDbEntity
  8
用紙-GR2
  6
Continuous
 62
     7
370
    20
100
AcDbLine
 10
157.7723975495084
 20
87.76528183364794
 30
0.0
 11
157.7723975495084
 21
76.80347136688697
 31
0.0
  0
LINE
  5
603
330
5F4
100
AcDbEntity
  8
用紙-GR2
  6
Continuous
 62
     7
370
    20
100
AcDbLine
 10
157.7723975495084
 20
87.76528183364794
 30
0.0
 11
159.1868247065099
 21
87.76528183364794
 31
0.0
  0
LINE
  5
604
330
5F4
100
AcDbEntity
  8
用紙-GR2
  6
Continuous
 62
     5
370
    20
100
AcDbLine
 10
182.9350566723281
 20
66.90248126787706
 30
0.0
 11
178.988804904294
 21
66.90248126787706
 31
0.0
  0
LINE
  5
605
330
5F4
100
AcDbEntity
  8
用紙-GR2
  6
Continuous
 62
     6
370
    20
100
AcDbLine
 10
178.988804904294
 20
67.18960998074831
 30
0.0
 11
182.9350566723281
 21
67.18960998074831
 31
0.0
  0
LINE
  5
606
330
5F4
100
AcDbEntity
  8
用紙-GR2
  6
Continuous
 62
     7
370
    20
100
AcDbLine
 10
178.988804904294
 20
66.90248126787706
 30
0.0
 11
178.988804904294
 21
76.80347136688697
 31
0.0
  0
LINE
  5
607
330
5F4
100
AcDbEntity
  8
用紙-GR2
  6
Continuous
 62
     7
370
    20
100
AcDbLine
 10
160.1062023585607
 20
69.73133558187964
 30
0.0
 11
176.867164168792
 21
69.73133558187964
 31
0.0
  0
LINE
  5
608
330
5F4
100
AcDbEntity
  8
用紙-GR2
  6
Continuous
 62
     7
370
    20
100
AcDbLine
 10
176.867164168792
 20
76.80347136688697
 30
0.0
 11
176.867164168792
 21
66.90248126787706
 31
0.0
  0
LINE
  5
609
330
5F4
100
AcDbEntity
  8
用紙-GR2
  6
Continuous
 62
     7
370
    20
100
AcDbLine
 10
176.867164168792
 20
66.90248126787706
 30
0.0
 11
178.2815913257934
 21
66.90248126787706
 31
0.0
  0
LINE
  5
60A
330
5F4
100
AcDbEntity
  8
用紙-GR2
  6
Continuous
 62
     7
370
    20
100
AcDbLine
 10
178.2815913257934
 20
66.90248126787706
 30
0.0
 11
178.2815913257934
 21
76.80347136688697
 31
0.0
  0
LINE
  5
60B
330
5F4
100
AcDbEntity
  8
用紙-GR2
  6
Continuous
 62
     7
370
    20
100
AcDbLine
 10
178.2815913257934
 20
67.18960998074831
 30
0.0
 11
178.988804904294
 21
67.18960998074831
 31
0.0
  0
LINE
  5
60C
330
5F4
100
AcDbEntity
  8
用紙-GR2
  6
Continuous
 62
     7
370
    20
100
AcDbLine
 10
159.1868247065099
 20
65.84166090012603
 30
0.0
 11
159.18682470651
 21
76.80347136688697
 31
0.0
  0
LINE
  5
60D
330
5F4
100
AcDbEntity
  8
用紙-GR2
  6
Continuous
 62
     7
370
    20
100
AcDbLine
 10
157.7723975495084
 20
65.84166090012603
 30
0.0
 11
157.7723975495084
 21
76.80347136688697
 31
0.0
  0
LINE
  5
60E
330
5F4
100
AcDbEntity
  8
用紙-GR2
  6
Continuous
 62
     7
370
    20
100
AcDbLine
 10
157.7723975495084
 20
65.84166090012603
 30
0.0
 11
159.1868247065099
 21
65.84166090012603
 31
0.0
  0
ENDBLK
  5
5F6
330
5F4
100
AcDbEntity
  8
0
100
AcDbBlockEnd
  0
BLOCK
  5
610
330
60F
100
AcDbEntity
  8
0
100
AcDbBlockBegin
  2
BLKF072
 70
     0
 10
0.0
 20
0.0
 30
0.0
  3
BLKF072
  1

  0
LINE
  5
613
330
60F
100
AcDbEntity
  8
用紙-GR2
  6
Continuous
 62
     7
370
    20
100
AcDbLine
 10
155.3678713823699
 20
84.22921394114448
 30
0.0
 11
154.5899364460189
 21
84.22921394114448
 31
0.0
  0
LINE
  5
614
330
60F
100
AcDbEntity
  8
用紙-GR2
  6
Continuous
 62
     7
370
    20
100
AcDbLine
 10
155.3678713823694
 20
87.76528183364801
 30
0.0
 11
154.5899364460189
 21
87.76528183364801
 31
0.0
  0
LINE
  5
615
330
60F
100
AcDbEntity
  8
用紙-GR2
  6
Continuous
 62
     7
370
    20
100
AcDbLine
 10
155.5093140980694
 20
87.62383911794769
 30
0.0
 11
155.3678713823694
 21
87.76528183364801
 31
0.0
  0
LINE
  5
616
330
60F
100
AcDbEntity
  8
用紙-GR2
  6
Continuous
 62
     7
370
    20
100
AcDbLine
 10
155.5093140980699
 20
84.37065665684464
 30
0.0
 11
155.5093140980694
 21
87.62383911794769
 31
0.0
  0
LINE
  5
617
330
60F
100
AcDbEntity
  8
用紙-GR2
  6
Continuous
 62
     7
370
    20
100
AcDbLine
 10
155.3678713823699
 20
84.22921394114448
 30
0.0
 11
155.5093140980699
 21
84.37065665684464
 31
0.0
  0
LINE
  5
618
330
60F
100
AcDbEntity
  8
用紙-GR2
  6
Continuous
 62
     7
370
    20
100
AcDbLine
 10
154.5899364460189
 20
84.22921394114448
 30
0.0
 11
154.5899364460189
 21
87.76528183364801
 31
0.0
  0
LINE
  5
619
330
60F
100
AcDbEntity
  8
用紙-GR2
  6
Continuous
 62
     6
370
    20
100
AcDbLine
 10
155.3678713823699
 20
84.22921394114448
 30
0.0
 11
155.3678713823694
 21
87.76528183364801
 31
0.0
  0
ENDBLK
  5
611
330
60F
100
AcDbEntity
  8
0
100
AcDbBlockEnd
  0
BLOCK
  5
61B
330
61A
100
AcDbEntity
  8
0
100
AcDbBlockBegin
  2
BLKF073
 70
     0
 10
0.0
 20
0.0
 30
0.0
  3
BLKF073
  1

  0
LINE
  5
61E
330
61A
100
AcDbEntity
  8
用紙-GR2
  6
Continuous
 62
     7
370
    20
100
AcDbLine
 10
155.3678713823699
 20
65.84166090012613
 30
0.0
 11
154.5899364460189
 21
65.84166090012613
 31
0.0
  0
LINE
  5
61F
330
61A
100
AcDbEntity
  8
用紙-GR2
  6
Continuous
 62
     7
370
    20
100
AcDbLine
 10
155.3678713823694
 20
69.37772879262967
 30
0.0
 11
154.5899364460189
 21
69.37772879262967
 31
0.0
  0
LINE
  5
620
330
61A
100
AcDbEntity
  8
用紙-GR2
  6
Continuous
 62
     7
370
    20
100
AcDbLine
 10
155.5093140980694
 20
69.23628607692933
 30
0.0
 11
155.3678713823694
 21
69.37772879262967
 31
0.0
  0
LINE
  5
621
330
61A
100
AcDbEntity
  8
用紙-GR2
  6
Continuous
 62
     7
370
    20
100
AcDbLine
 10
155.5093140980699
 20
65.98310361582631
 30
0.0
 11
155.5093140980694
 21
69.23628607692933
 31
0.0
  0
LINE
  5
622
330
61A
100
AcDbEntity
  8
用紙-GR2
  6
Continuous
 62
     7
370
    20
100
AcDbLine
 10
155.3678713823699
 20
65.84166090012613
 30
0.0
 11
155.5093140980699
 21
65.98310361582631
 31
0.0
  0
LINE
  5
623
330
61A
100
AcDbEntity
  8
用紙-GR2
  6
Continuous
 62
     7
370
    20
100
AcDbLine
 10
154.5899364460189
 20
65.84166090012613
 30
0.0
 11
154.5899364460189
 21
69.37772879262967
 31
0.0
  0
LINE
  5
624
330
61A
100
AcDbEntity
  8
用紙-GR2
  6
Continuous
 62
     6
370
    20
100
AcDbLine
 10
155.3678713823699
 20
65.84166090012613
 30
0.0
 11
155.3678713823694
 21
69.37772879262967
 31
0.0
  0
ENDBLK
  5
61C
330
61A
100
AcDbEntity
  8
0
100
AcDbBlockEnd
  0
BLOCK
  5
626
330
625
100
AcDbEntity
  8
0
100
AcDbBlockBegin
  2
BLKF074
 70
     0
 10
0.0
 20
0.0
 30
0.0
  3
BLKF074
  1

  0
LINE
  5
629
330
625
100
AcDbEntity
  8
用紙-GR2
  6
Continuous
 62
     7
370
    20
100
AcDbLine
 10
159.9647596428609
 20
81.53473020705673
 30
0.0
 11
159.1868247065099
 21
81.53473020705673
 31
0.0
  0
LINE
  5
62A
330
625
100
AcDbEntity
  8
用紙-GR2
  6
Continuous
 62
     7
370
    20
100
AcDbLine
 10
159.9647596428605
 20
85.07079809956028
 30
0.0
 11
159.1868247065099
 21
85.07079809956028
 31
0.0
  0
LINE
  5
62B
330
625
100
AcDbEntity
  8
用紙-GR2
  6
Continuous
 62
     7
370
    20
100
AcDbLine
 10
160.1062023585606
 20
84.92935538385994
 30
0.0
 11
159.9647596428605
 21
85.07079809956028
 31
0.0
  0
LINE
  5
62C
330
625
100
AcDbEntity
  8
用紙-GR2
  6
Continuous
 62
     7
370
    20
100
AcDbLine
 10
160.1062023585608
 20
81.67617292275691
 30
0.0
 11
160.1062023585606
 21
84.92935538385994
 31
0.0
  0
LINE
  5
62D
330
625
100
AcDbEntity
  8
用紙-GR2
  6
Continuous
 62
     7
370
    20
100
AcDbLine
 10
159.9647596428609
 20
81.53473020705673
 30
0.0
 11
160.1062023585608
 21
81.67617292275691
 31
0.0
  0
LINE
  5
62E
330
625
100
AcDbEntity
  8
用紙-GR2
  6
Continuous
 62
     7
370
    20
100
AcDbLine
 10
159.1868247065099
 20
81.53473020705673
 30
0.0
 11
159.1868247065099
 21
85.07079809956028
 31
0.0
  0
LINE
  5
62F
330
625
100
AcDbEntity
  8
用紙-GR2
  6
Continuous
 62
     6
370
    20
100
AcDbLine
 10
159.9647596428609
 20
81.53473020705673
 30
0.0
 11
159.9647596428605
 21
85.07079809956028
 31
0.0
  0
ENDBLK
  5
627
330
625
100
AcDbEntity
  8
0
100
AcDbBlockEnd
  0
BLOCK
  5
632
330
631
100
AcDbEntity
  8
0
100
AcDbBlockBegin
  2
BLKF075
 70
     0
 10
0.0
 20
0.0
 30
0.0
  3
BLKF075
  1

  0
LINE
  5
635
330
631
100
AcDbEntity
  8
用紙-GR2
  6
Continuous
 62
     7
370
    20
100
AcDbLine
 10
159.9647596428609
 20
72.07221252671724
 30
0.0
 11
159.1868247065099
 21
72.07221252671724
 31
0.0
  0
LINE
  5
636
330
631
100
AcDbEntity
  8
用紙-GR2
  6
Continuous
 62
     7
370
    20
100
AcDbLine
 10
159.9647596428605
 20
68.5361446342137
 30
0.0
 11
159.1868247065099
 21
68.5361446342137
 31
0.0
  0
LINE
  5
637
330
631
100
AcDbEntity
  8
用紙-GR2
  6
Continuous
 62
     7
370
    20
100
AcDbLine
 10
160.1062023585606
 20
68.67758734991403
 30
0.0
 11
159.9647596428605
 21
68.5361446342137
 31
0.0
  0
LINE
  5
638
330
631
100
AcDbEntity
  8
用紙-GR2
  6
Continuous
 62
     7
370
    20
100
AcDbLine
 10
160.1062023585608
 20
71.93076981101707
 30
0.0
 11
160.1062023585606
 21
68.67758734991403
 31
0.0
  0
LINE
  5
639
330
631
100
AcDbEntity
  8
用紙-GR2
  6
Continuous
 62
     7
370
    20
100
AcDbLine
 10
159.9647596428609
 20
72.07221252671724
 30
0.0
 11
160.1062023585608
 21
71.93076981101707
 31
0.0
  0
LINE
  5
63A
330
631
100
AcDbEntity
  8
用紙-GR2
  6
Continuous
 62
     7
370
    20
100
AcDbLine
 10
159.1868247065099
 20
72.07221252671724
 30
0.0
 11
159.1868247065099
 21
68.5361446342137
 31
0.0
  0
LINE
  5
63B
330
631
100
AcDbEntity
  8
用紙-GR2
  6
Continuous
 62
     6
370
    20
100
AcDbLine
 10
159.9647596428609
 20
72.07221252671724
 30
0.0
 11
159.9647596428605
 21
68.5361446342137
 31
0.0
  0
ENDBLK
  5
633
330
631
100
AcDbEntity
  8
0
100
AcDbBlockEnd
  0
BLOCK
  5
63E
330
63D
100
AcDbEntity
  8
0
100
AcDbBlockBegin
  2
BLKF076
 70
     0
 10
0.0
 20
0.0
 30
0.0
  3
BLKF076
  1

  0
LINE
  5
641
330
63D
100
AcDbEntity
  8
用紙-GR2
  6
Continuous
 62
     7
370
    20
100
AcDbLine
 10
153.5291160782685
 20
65.13444732162506
 30
0.0
 11
153.5291160782683
 21
88.4724954121483
 31
0.0
  0
ARC
  5
642
330
63D
100
AcDbEntity
  8
用紙-GR2
  6
Continuous
 62
     7
370
    20
100
AcDbCircle
 10
152.8219024997679
 20
65.13444732162506
 30
0.0
 40
0.7072135785007072
100
AcDbArc
 50
270.0
 51
0.0
  0
LINE
  5
643
330
63D
100
AcDbEntity
  8
用紙-GR2
  6
Continuous
 62
     7
370
    20
100
AcDbLine
 10
116.7540099962318
 20
64.42723374312452
 30
0.0
 11
152.8219024997679
 21
64.42723374312435
 31
0.0
  0
LINE
  5
644
330
63D
100
AcDbEntity
  8
用紙-GR2
  6
Continuous
 62
     7
370
    20
100
AcDbLine
 10
145.04255313626
 20
67.25608805712719
 30
0.0
 11
148.5786210287639
 21
67.25608805712719
 31
0.0
  0
ARC
  5
645
330
63D
100
AcDbEntity
  8
用紙-GR2
  6
Continuous
 62
     7
370
    20
100
AcDbCircle
 10
148.5786210287639
 20
67.96330163562789
 30
0.0
 40
0.7072135785007072
100
AcDbArc
 50
270.0
 51
0.0
  0
LINE
  5
646
330
63D
100
AcDbEntity
  8
用紙-GR2
  6
Continuous
 62
     7
370
    20
100
AcDbLine
 10
116.7540099962316
 20
89.17970899064902
 30
0.0
 11
152.8219024997675
 21
89.17970899064902
 31
0.0
  0
ARC
  5
647
330
63D
100
AcDbEntity
  8
用紙-GR2
  6
Continuous
 62
     7
370
    20
100
AcDbCircle
 10
152.8219024997675
 20
88.4724954121483
 30
0.0
 40
0.7072135785007072
100
AcDbArc
 50
0.0
 51
90.0
  0
LINE
  5
648
330
63D
100
AcDbEntity
  8
用紙-GR2
  6
Continuous
 62
     7
370
    20
100
AcDbLine
 10
145.04255313626
 20
86.35085467664628
 30
0.0
 11
148.5786210287639
 21
86.35085467664628
 31
0.0
  0
ARC
  5
649
330
63D
100
AcDbEntity
  8
用紙-GR2
  6
Continuous
 62
     7
370
    20
100
AcDbCircle
 10
145.04255313626
 20
85.64364109814556
 30
0.0
 40
0.7072135785007072
100
AcDbArc
 50
90.0
 51
180.0
  0
LINE
  5
64A
330
63D
100
AcDbEntity
  8
用紙-GR2
  6
Continuous
 62
     7
370
    20
100
AcDbLine
 10
116.7540099962318
 20
64.42723374312452
 30
0.0
 11
116.7540099962318
 21
89.17970899064902
 31
0.0
  0
LINE
  5
64B
330
63D
100
AcDbEntity
  8
用紙-GR2
  6
DASHDOT
 62
     6
370
    20
100
AcDbLine
 10
153.5291160782684
 20
76.80347136688697
 30
0.0
 11
60.92166703076434
 21
76.80347136688704
 31
0.0
  0
LINE
  5
64C
330
63D
100
AcDbEntity
  8
用紙-GR2
  6
Continuous
 62
     7
370
    20
100
AcDbLine
 10
149.2858346072647
 20
85.64364109814556
 30
0.0
 11
149.2858346072647
 21
67.96330163562789
 31
0.0
  0
ARC
  5
64D
330
63D
100
AcDbEntity
  8
用紙-GR2
  6
Continuous
 62
     7
370
    20
100
AcDbCircle
 10
148.5786210287639
 20
85.64364109814556
 30
0.0
 40
0.7072135785007072
100
AcDbArc
 50
0.0
 51
90.0
  0
LINE
  5
64E
330
63D
100
AcDbEntity
  8
用紙-GR2
  6
Continuous
 62
     7
370
    20
100
AcDbLine
 10
144.3353395577593
 20
85.64364109814556
 30
0.0
 11
144.3353395577593
 21
67.96330163562789
 31
0.0
  0
ARC
  5
64F
330
63D
100
AcDbEntity
  8
用紙-GR2
  6
Continuous
 62
     7
370
    20
100
AcDbCircle
 10
145.04255313626
 20
67.96330163562789
 30
0.0
 40
0.7072135785007072
100
AcDbArc
 50
180.0
 51
270.0
  0
LINE
  5
650
330
63D
100
AcDbEntity
  8
用紙-GR2
  6
Continuous
 62
     7
370
    20
100
AcDbLine
 10
144.3353395577598
 20
67.90672454934789
 30
0.0
 11
149.2858346072647
 21
67.95622949984289
 31
0.0
  0
LINE
  5
651
330
63D
100
AcDbEntity
  8
用紙-GR2
  6
Continuous
 62
     7
370
    20
100
AcDbLine
 10
144.3353395577598
 20
68.7270923004086
 30
0.0
 11
149.2858346072647
 21
68.67758734991359
 31
0.0
  0
LINE
  5
652
330
63D
100
AcDbEntity
  8
用紙-GR2
  6
Continuous
 62
     7
370
    20
100
AcDbLine
 10
144.3353395577598
 20
69.32115170634928
 30
0.0
 11
149.2858346072647
 21
69.3706566568443
 31
0.0
  0
LINE
  5
653
330
63D
100
AcDbEntity
  8
用紙-GR2
  6
Continuous
 62
     7
370
    20
100
AcDbLine
 10
144.3353395577598
 20
70.14151945741001
 30
0.0
 11
149.2858346072647
 21
70.09201450691499
 31
0.0
  0
LINE
  5
654
330
63D
100
AcDbEntity
  8
用紙-GR2
  6
Continuous
 62
     7
370
    20
100
AcDbLine
 10
144.3353395577598
 20
70.73557886335071
 30
0.0
 11
149.2858346072647
 21
70.78508381384572
 31
0.0
  0
LINE
  5
655
330
63D
100
AcDbEntity
  8
用紙-GR2
  6
Continuous
 62
     7
370
    20
100
AcDbLine
 10
144.3353395577598
 20
71.55594661441144
 30
0.0
 11
149.2858346072647
 21
71.50644166391642
 31
0.0
  0
LINE
  5
656
330
63D
100
AcDbEntity
  8
用紙-GR2
  6
Continuous
 62
     7
370
    20
100
AcDbLine
 10
144.3353395577598
 20
72.15000602035212
 30
0.0
 11
149.2858346072647
 21
72.19951097084711
 31
0.0
  0
LINE
  5
657
330
63D
100
AcDbEntity
  8
用紙-GR2
  6
Continuous
 62
     7
370
    20
100
AcDbLine
 10
144.3353395577598
 20
72.97037377141283
 30
0.0
 11
149.2858346072647
 21
72.92086882091784
 31
0.0
  0
LINE
  5
658
330
63D
100
AcDbEntity
  8
用紙-GR2
  6
Continuous
 62
     7
370
    20
100
AcDbLine
 10
144.3353395577598
 20
73.56443317735354
 30
0.0
 11
149.2858346072647
 21
73.61393812784855
 31
0.0
  0
LINE
  5
659
330
63D
100
AcDbEntity
  8
用紙-GR2
  6
Continuous
 62
     7
370
    20
100
AcDbLine
 10
144.3353395577598
 20
74.38480092841427
 30
0.0
 11
149.2858346072647
 21
74.33529597791926
 31
0.0
  0
LINE
  5
65A
330
63D
100
AcDbEntity
  8
用紙-GR2
  6
Continuous
 62
     7
370
    20
100
AcDbLine
 10
144.3353395577598
 20
74.97886033435495
 30
0.0
 11
149.2858346072647
 21
75.02836528484995
 31
0.0
  0
LINE
  5
65B
330
63D
100
AcDbEntity
  8
用紙-GR2
  6
Continuous
 62
     7
370
    20
100
AcDbLine
 10
144.3353395577598
 20
75.79922808541569
 30
0.0
 11
149.2858346072647
 21
75.74972313492067
 31
0.0
  0
LINE
  5
65C
330
63D
100
AcDbEntity
  8
用紙-GR2
  6
Continuous
 62
     7
370
    20
100
AcDbLine
 10
144.3353395577598
 20
76.39328749135637
 30
0.0
 11
149.2858346072647
 21
76.44279244185138
 31
0.0
  0
LINE
  5
65D
330
63D
100
AcDbEntity
  8
用紙-GR2
  6
Continuous
 62
     7
370
    20
100
AcDbLine
 10
144.335339557759
 20
77.21365524241709
 30
0.0
 11
149.2858346072647
 21
77.16415029192207
 31
0.0
  0
LINE
  5
65E
330
63D
100
AcDbEntity
  8
用紙-GR2
  6
Continuous
 62
     7
370
    20
100
AcDbLine
 10
144.335339557759
 20
77.8077146483578
 30
0.0
 11
149.2858346072647
 21
77.85721959885279
 31
0.0
  0
LINE
  5
65F
330
63D
100
AcDbEntity
  8
用紙-GR2
  6
Continuous
 62
     7
370
    20
100
AcDbLine
 10
144.335339557759
 20
78.6280823994185
 30
0.0
 11
149.2858346072647
 21
78.57857744892348
 31
0.0
  0
LINE
  5
660
330
63D
100
AcDbEntity
  8
用紙-GR2
  6
Continuous
 62
     7
370
    20
100
AcDbLine
 10
144.335339557759
 20
79.2221418053592
 30
0.0
 11
149.2858346072647
 21
79.2716467558542
 31
0.0
  0
LINE
  5
661
330
63D
100
AcDbEntity
  8
用紙-GR2
  6
Continuous
 62
     7
370
    20
100
AcDbLine
 10
144.335339557759
 20
80.04250955641992
 30
0.0
 11
149.2858346072647
 21
79.9930046059249
 31
0.0
  0
LINE
  5
662
330
63D
100
AcDbEntity
  8
用紙-GR2
  6
Continuous
 62
     7
370
    20
100
AcDbLine
 10
144.335339557759
 20
80.63656896236061
 30
0.0
 11
149.2858346072647
 21
80.68607391285562
 31
0.0
  0
LINE
  5
663
330
63D
100
AcDbEntity
  8
用紙-GR2
  6
Continuous
 62
     7
370
    20
100
AcDbLine
 10
144.335339557759
 20
81.45693671342133
 30
0.0
 11
149.2858346072647
 21
81.40743176292629
 31
0.0
  0
LINE
  5
664
330
63D
100
AcDbEntity
  8
用紙-GR2
  6
Continuous
 62
     7
370
    20
100
AcDbLine
 10
144.335339557759
 20
82.05099611936203
 30
0.0
 11
149.2858346072647
 21
82.10050106985702
 31
0.0
  0
LINE
  5
665
330
63D
100
AcDbEntity
  8
用紙-GR2
  6
Continuous
 62
     7
370
    20
100
AcDbLine
 10
144.335339557759
 20
82.87136387042274
 30
0.0
 11
149.2858346072647
 21
82.82185891992773
 31
0.0
  0
LINE
  5
666
330
63D
100
AcDbEntity
  8
用紙-GR2
  6
Continuous
 62
     7
370
    20
100
AcDbLine
 10
144.335339557759
 20
83.46542327636344
 30
0.0
 11
149.2858346072647
 21
83.51492822685843
 31
0.0
  0
LINE
  5
667
330
63D
100
AcDbEntity
  8
用紙-GR2
  6
Continuous
 62
     7
370
    20
100
AcDbLine
 10
144.335339557759
 20
84.28579102742416
 30
0.0
 11
149.2858346072647
 21
84.23628607692917
 31
0.0
  0
LINE
  5
668
330
63D
100
AcDbEntity
  8
用紙-GR2
  6
Continuous
 62
     7
370
    20
100
AcDbLine
 10
144.335339557759
 20
84.87985043336484
 30
0.0
 11
149.2858346072647
 21
84.92935538385983
 31
0.0
  0
LINE
  5
669
330
63D
100
AcDbEntity
  8
用紙-GR2
  6
Continuous
 62
     7
370
    20
100
AcDbLine
 10
144.3376044563987
 20
85.7001955354392
 30
0.0
 11
149.2857992421648
 21
85.65071358758155
 31
0.0
  0
LINE
  5
66A
330
63D
100
AcDbEntity
  8
用紙-GR2
  6
Continuous
 62
     7
370
    20
100
AcDbLine
 10
144.7759634400549
 20
86.29868382918919
 30
0.0
 11
148.712588246223
 21
86.33805007725079
 31
0.0
  0
LINE
  5
66B
330
63D
100
AcDbEntity
  8
用紙-GR2
  6
Continuous
 62
     7
370
    20
100
AcDbLine
 10
144.7759634400549
 20
67.30825890458492
 30
0.0
 11
148.712588246223
 21
67.26889265652329
 31
0.0
  0
LINE
  5
66C
330
63D
100
AcDbEntity
  8
用紙-GR2
  6
Continuous
 62
     7
370
    20
100
AcDbLine
 10
113.925155682229
 20
65.1344473216254
 30
0.0
 11
113.9251556822287
 21
88.47249541214869
 31
0.0
  0
ARC
  5
66D
330
63D
100
AcDbEntity
  8
用紙-GR2
  6
Continuous
 62
     7
370
    20
100
AcDbCircle
 10
114.6323692607296
 20
65.1344473216254
 30
0.0
 40
0.7072135785007072
100
AcDbArc
 50
244.1581065505013
 51
270.0
  0
LINE
  5
66E
330
63D
100
AcDbEntity
  8
用紙-GR2
  6
Continuous
 62
     7
370
    20
100
AcDbLine
 10
116.7540099962318
 20
64.42723374312468
 30
0.0
 11
116.7540099962318
 21
89.17970899064943
 31
0.0
  0
LINE
  5
66F
330
63D
100
AcDbEntity
  8
用紙-GR2
  6
Continuous
 62
     7
370
    20
100
AcDbLine
 10
116.7540099962318
 20
64.42723374312468
 30
0.0
 11
114.6323692607296
 21
64.42723374312468
 31
0.0
  0
LINE
  5
670
330
63D
100
AcDbEntity
  8
用紙-GR2
  6
Continuous
 62
     7
370
    20
100
AcDbLine
 10
116.7540099962318
 20
89.17970899064943
 30
0.0
 11
114.6323692607294
 21
89.17970899064943
 31
0.0
  0
ARC
  5
671
330
63D
100
AcDbEntity
  8
用紙-GR2
  6
Continuous
 62
     7
370
    20
100
AcDbCircle
 10
114.6323692607294
 20
88.47249541214869
 30
0.0
 40
0.7072135785007072
100
AcDbArc
 50
90.0
 51
115.8419720767732
  0
LINE
  5
672
330
63D
100
AcDbEntity
  8
用紙-GR2
  6
Continuous
 62
     7
370
    20
100
AcDbLine
 10
106.8530198972204
 20
72.56018989588264
 30
0.0
 11
106.8530198972204
 21
81.04675283789129
 31
0.0
  0
ARC
  5
673
330
63D
100
AcDbEntity
  8
用紙-GR2
  6
Continuous
 62
     7
370
    20
100
AcDbCircle
 10
107.5602334757211
 20
72.56018989588264
 30
0.0
 40
0.7072135785007072
100
AcDbArc
 50
180.0
 51
270.0
  0
LINE
  5
674
330
63D
100
AcDbEntity
  8
用紙-GR2
  6
Continuous
 62
     7
370
    20
100
AcDbLine
 10
113.9251556822287
 20
71.85297631738193
 30
0.0
 11
107.5602334757211
 21
71.85297631738193
 31
0.0
  0
LINE
  5
675
330
63D
100
AcDbEntity
  8
用紙-GR2
  6
Continuous
 62
     7
370
    20
100
AcDbLine
 10
113.9251556822287
 20
81.75396641639201
 30
0.0
 11
107.5602334757211
 21
81.75396641639201
 31
0.0
  0
ARC
  5
676
330
63D
100
AcDbEntity
  8
用紙-GR2
  6
Continuous
 62
     7
370
    20
100
AcDbCircle
 10
107.5602334757211
 20
81.04675283789129
 30
0.0
 40
0.7072135785007072
100
AcDbArc
 50
90.0
 51
180.0
  0
LINE
  5
677
330
63D
100
AcDbEntity
  8
用紙-GR2
  6
Continuous
 62
     7
370
    20
100
AcDbLine
 10
115.3395828392304
 20
67.43289145175284
 30
0.0
 11
113.925155682229
 21
67.43289145175268
 31
0.0
  0
LINE
  5
678
330
63D
100
AcDbEntity
  8
用紙-GR2
  6
Continuous
 62
     7
370
    20
100
AcDbLine
 10
115.3395828392304
 20
64.42723374312468
 30
0.0
 11
115.3395828392304
 21
67.43289145175284
 31
0.0
  0
LINE
  5
679
330
63D
100
AcDbEntity
  8
用紙-GR2
  6
Continuous
 62
     7
370
    20
100
AcDbLine
 10
115.3395828392304
 20
86.17405128202127
 30
0.0
 11
113.925155682229
 21
86.17405128202141
 31
0.0
  0
LINE
  5
67A
330
63D
100
AcDbEntity
  8
用紙-GR2
  6
Continuous
 62
     7
370
    20
100
AcDbLine
 10
115.3395828392304
 20
89.17970899064943
 30
0.0
 11
115.3395828392304
 21
86.17405128202127
 31
0.0
  0
LINE
  5
67B
330
63D
100
AcDbEntity
  8
用紙-GR2
  6
Continuous
 62
     7
370
    20
100
AcDbLine
 10
115.3395828392304
 20
67.1853664877592
 30
0.0
 11
115.3395828392304
 21
64.49795488945652
 31
0.0
  0
LINE
  5
67C
330
63D
100
AcDbEntity
  8
用紙-GR2
  6
Continuous
 62
     7
370
    20
100
AcDbLine
 10
114.0665983979292
 20
67.1853664877592
 30
0.0
 11
114.0665983979292
 21
64.49795488945652
 31
0.0
  0
LINE
  5
67D
330
63D
100
AcDbEntity
  8
用紙-GR2
  6
Continuous
 62
     7
370
    20
100
AcDbLine
 10
113.925155682229
 20
67.04392377205919
 30
0.0
 11
113.925155682229
 21
64.6393976051567
 31
0.0
  0
LINE
  5
67E
330
63D
100
AcDbEntity
  8
用紙-GR2
  6
Continuous
 62
     7
370
    20
100
AcDbLine
 10
114.0665983979292
 20
64.49795488945652
 30
0.0
 11
115.3395828392304
 21
64.49795488945652
 31
0.0
  0
LINE
  5
67F
330
63D
100
AcDbEntity
  8
用紙-GR2
  6
Continuous
 62
     7
370
    20
100
AcDbLine
 10
114.0665983979292
 20
64.49795488945652
 30
0.0
 11
113.925155682229
 21
64.6393976051567
 31
0.0
  0
LINE
  5
680
330
63D
100
AcDbEntity
  8
用紙-GR2
  6
Continuous
 62
     7
370
    20
100
AcDbLine
 10
114.0665983979292
 20
67.1853664877592
 30
0.0
 11
115.3395828392304
 21
67.1853664877592
 31
0.0
  0
LINE
  5
681
330
63D
100
AcDbEntity
  8
用紙-GR2
  6
Continuous
 62
     7
370
    20
100
AcDbLine
 10
114.0665983979292
 20
67.1853664877592
 30
0.0
 11
113.925155682229
 21
67.04392377205919
 31
0.0
  0
LINE
  5
682
330
63D
100
AcDbEntity
  8
用紙-GR2
  6
Continuous
 62
     7
370
    20
100
AcDbLine
 10
115.3395828392304
 20
89.10898742128111
 30
0.0
 11
115.3395828392304
 21
86.42157582297848
 31
0.0
  0
LINE
  5
683
330
63D
100
AcDbEntity
  8
用紙-GR2
  6
Continuous
 62
     7
370
    20
100
AcDbLine
 10
114.0665983979292
 20
89.10898742128111
 30
0.0
 11
114.0665983979292
 21
86.42157582297848
 31
0.0
  0
LINE
  5
684
330
63D
100
AcDbEntity
  8
用紙-GR2
  6
Continuous
 62
     7
370
    20
100
AcDbLine
 10
113.925155682229
 20
88.96754470558109
 30
0.0
 11
113.925155682229
 21
86.56301853867864
 31
0.0
  0
LINE
  5
685
330
63D
100
AcDbEntity
  8
用紙-GR2
  6
Continuous
 62
     7
370
    20
100
AcDbLine
 10
114.0665983979292
 20
86.42157582297848
 30
0.0
 11
115.3395828392304
 21
86.42157582297848
 31
0.0
  0
LINE
  5
686
330
63D
100
AcDbEntity
  8
用紙-GR2
  6
Continuous
 62
     7
370
    20
100
AcDbLine
 10
114.0665983979292
 20
86.42157582297848
 30
0.0
 11
113.925155682229
 21
86.56301853867864
 31
0.0
  0
LINE
  5
687
330
63D
100
AcDbEntity
  8
用紙-GR2
  6
Continuous
 62
     7
370
    20
100
AcDbLine
 10
114.0665983979292
 20
89.10898742128111
 30
0.0
 11
115.3395828392304
 21
89.10898742128111
 31
0.0
  0
LINE
  5
688
330
63D
100
AcDbEntity
  8
用紙-GR2
  6
Continuous
 62
     7
370
    20
100
AcDbLine
 10
114.0665983979292
 20
89.10898742128111
 30
0.0
 11
113.925155682229
 21
88.96754470558109
 31
0.0
  0
LINE
  5
689
330
63D
100
AcDbEntity
  8
用紙-GR2
  6
Continuous
 62
     7
370
    20
100
AcDbLine
 10
106.8530198972204
 20
74.68183063138494
 30
0.0
 11
100.488097690714
 21
74.68183063138496
 31
0.0
  0
LINE
  5
68A
330
63D
100
AcDbEntity
  8
用紙-GR2
  6
Continuous
 62
     7
370
    20
100
AcDbLine
 10
106.85301989722
 20
78.92511210238932
 30
0.0
 11
100.488097690714
 21
78.92511210238932
 31
0.0
  0
LINE
  5
68B
330
63D
100
AcDbEntity
  8
用紙-GR2
  6
Continuous
 62
     7
370
    20
100
AcDbLine
 10
99.0736705337126
 20
74.68183063138619
 30
0.0
 11
92.70874832720624
 21
74.68183063138574
 31
0.0
  0
LINE
  5
68C
330
63D
100
AcDbEntity
  8
用紙-GR2
  6
Continuous
 62
     7
370
    20
100
AcDbLine
 10
99.0736705337126
 20
78.92511210238918
 30
0.0
 11
92.70874832720624
 21
78.92511210238929
 31
0.0
  0
ARC
  5
68D
330
63D
100
AcDbEntity
  8
用紙-GR2
  6
Continuous
 62
     7
370
    20
100
AcDbCircle
 10
92.35514153795596
 20
74.21529906695564
 30
0.0
 40
0.3536067892502937
100
AcDbArc
 50
279.5042986557264
 51
0.0
  0
ARC
  5
68E
330
63D
100
AcDbEntity
  8
用紙-GR2
  6
Continuous
 62
     7
370
    20
100
AcDbCircle
 10
92.35514153795596
 20
79.39327436386226
 30
0.0
 40
0.3536067892502937
100
AcDbArc
 50
0.0
 51
80.49570134427357
  0
LINE
  5
68F
330
63D
100
AcDbEntity
  8
用紙-GR2
  6
Continuous
 62
     7
370
    20
100
AcDbLine
 10
92.70874832720624
 20
74.21529906695564
 30
0.0
 11
92.70874832720624
 21
79.39327436386226
 31
0.0
  0
LINE
  5
690
330
63D
100
AcDbEntity
  8
用紙-GR2
  6
Continuous
 62
     7
370
    20
100
AcDbLine
 10
78.3990595779073
 20
71.98734689729775
 30
0.0
 11
77.0265149476096
 21
73.02054015020431
 31
0.0
  0
LINE
  5
691
330
63D
100
AcDbEntity
  8
用紙-GR2
  6
Continuous
 62
     7
370
    20
100
AcDbLine
 10
78.3990595779073
 20
71.98734689729775
 30
0.0
 11
81.71061861758047
 21
71.98734689729775
 31
0.0
  0
LINE
  5
692
330
63D
100
AcDbEntity
  8
用紙-GR2
  6
Continuous
 62
     7
370
    20
100
AcDbLine
 10
74.76944182198858
 20
71.98734689729775
 30
0.0
 11
76.14198645228626
 21
73.02054015020431
 31
0.0
  0
LINE
  5
693
330
63D
100
AcDbEntity
  8
用紙-GR2
  6
Continuous
 62
     7
370
    20
100
AcDbLine
 10
73.79218666429181
 20
71.98734689729775
 30
0.0
 11
73.45026665059866
 21
71.60626691342898
 31
0.0
  0
LINE
  5
694
330
63D
100
AcDbEntity
  8
用紙-GR2
  6
Continuous
 62
     7
370
    20
100
AcDbLine
 10
73.79218666429181
 20
71.98734689729775
 30
0.0
 11
74.76944182198858
 21
71.98734689729775
 31
0.0
  0
LINE
  5
695
330
63D
100
AcDbEntity
  8
用紙-GR2
  6
Continuous
 62
     7
370
    20
100
AcDbLine
 10
76.14198645228626
 20
73.02054015020431
 30
0.0
 11
77.0265149476096
 21
73.02054015020431
 31
0.0
  0
LINE
  5
696
330
63D
100
AcDbEntity
  8
用紙-GR2
  6
Continuous
 62
     7
370
    20
100
AcDbLine
 10
78.3990595779073
 20
81.62122653352046
 30
0.0
 11
77.0265149476096
 21
80.5880332806136
 31
0.0
  0
LINE
  5
697
330
63D
100
AcDbEntity
  8
用紙-GR2
  6
Continuous
 62
     7
370
    20
100
AcDbLine
 10
78.3990595779073
 20
81.62122653352046
 30
0.0
 11
81.71061861758047
 21
81.62122653352046
 31
0.0
  0
LINE
  5
698
330
63D
100
AcDbEntity
  8
用紙-GR2
  6
Continuous
 62
     7
370
    20
100
AcDbLine
 10
74.76944182198858
 20
81.62122653352046
 30
0.0
 11
76.14198645228626
 21
80.5880332806136
 31
0.0
  0
LINE
  5
699
330
63D
100
AcDbEntity
  8
用紙-GR2
  6
Continuous
 62
     7
370
    20
100
AcDbLine
 10
73.79218666429181
 20
81.62122653352046
 30
0.0
 11
73.45026665059866
 21
82.00230651738893
 31
0.0
  0
LINE
  5
69A
330
63D
100
AcDbEntity
  8
用紙-GR2
  6
Continuous
 62
     7
370
    20
100
AcDbLine
 10
73.79218666429181
 20
81.62122653352046
 30
0.0
 11
74.76944182198858
 21
81.62122653352046
 31
0.0
  0
LINE
  5
69B
330
63D
100
AcDbEntity
  8
用紙-GR2
  6
Continuous
 62
     7
370
    20
100
AcDbLine
 10
76.14198645228626
 20
80.5880332806136
 30
0.0
 11
77.0265149476096
 21
80.5880332806136
 31
0.0
  0
LINE
  5
69C
330
63D
100
AcDbEntity
  8
用紙-GR2
  6
Continuous
 62
     7
370
    20
100
AcDbLine
 10
81.71061861758047
 20
71.98734689729775
 30
0.0
 11
81.71061861758047
 21
81.62122653352046
 31
0.0
  0
LINE
  5
69D
330
63D
100
AcDbEntity
  8
用紙-GR2
  6
Continuous
 62
     7
370
    20
100
AcDbLine
 10
73.79218666429181
 20
71.98734689729775
 30
0.0
 11
73.79218666429181
 21
81.62122653352046
 31
0.0
  0
LINE
  5
69E
330
63D
100
AcDbEntity
  8
用紙-GR2
  6
Continuous
 62
     7
370
    20
100
AcDbLine
 10
74.76944182198858
 20
71.98734689729775
 30
0.0
 11
74.76944182198858
 21
81.62122653352046
 31
0.0
  0
LINE
  5
69F
330
63D
100
AcDbEntity
  8
用紙-GR2
  6
Continuous
 62
     7
370
    20
100
AcDbLine
 10
76.14198645228626
 20
73.02054015020431
 30
0.0
 11
76.14198645228626
 21
80.5880332806136
 31
0.0
  0
LINE
  5
6A0
330
63D
100
AcDbEntity
  8
用紙-GR2
  6
Continuous
 62
     7
370
    20
100
AcDbLine
 10
77.0265149476096
 20
73.02054015020431
 30
0.0
 11
77.0265149476096
 21
80.5880332806136
 31
0.0
  0
LINE
  5
6A1
330
63D
100
AcDbEntity
  8
用紙-GR2
  6
Continuous
 62
     7
370
    20
100
AcDbLine
 10
78.3990595779073
 20
71.98734689729775
 30
0.0
 11
78.3990595779073
 21
81.62122653352046
 31
0.0
  0
LINE
  5
6A2
330
63D
100
AcDbEntity
  8
用紙-GR2
  6
Continuous
 62
     7
370
    20
100
AcDbLine
 10
81.71061861758047
 20
80.89518066753553
 30
0.0
 11
92.41352965753099
 21
79.74202726907762
 31
0.0
  0
LINE
  5
6A3
330
63D
100
AcDbEntity
  8
用紙-GR2
  6
Continuous
 62
     7
370
    20
100
AcDbLine
 10
81.71061861758047
 20
72.71339276328233
 30
0.0
 11
92.41352965753099
 21
73.86654616174026
 31
0.0
  0
LINE
  5
6A4
330
63D
100
AcDbEntity
  8
用紙-GR2
  6
Continuous
 62
     7
370
    20
100
AcDbLine
 10
69.77394237563304
 20
71.98734689729775
 30
0.0
 11
70.40473365241706
 21
71.98734689729775
 31
0.0
  0
LINE
  5
6A5
330
63D
100
AcDbEntity
  8
用紙-GR2
  6
Continuous
 62
     7
370
    20
100
AcDbLine
 10
69.77394237563304
 20
71.98734689729775
 30
0.0
 11
69.43202236193956
 21
71.60626691342898
 31
0.0
  0
LINE
  5
6A6
330
63D
100
AcDbEntity
  8
用紙-GR2
  6
Continuous
 62
     7
370
    20
100
AcDbLine
 10
70.40473365241706
 20
71.98734689729775
 30
0.0
 11
70.74665366611087
 21
71.60626691342898
 31
0.0
  0
LINE
  5
6A7
330
63D
100
AcDbEntity
  8
用紙-GR2
  6
Continuous
 62
     7
370
    20
100
AcDbLine
 10
65.71365832337538
 20
71.98734689729775
 30
0.0
 11
66.05557833706853
 21
71.60626691342898
 31
0.0
  0
LINE
  5
6A8
330
63D
100
AcDbEntity
  8
用紙-GR2
  6
Continuous
 62
     7
370
    20
100
AcDbLine
 10
66.05557833706853
 20
71.60626691342898
 30
0.0
 11
69.43202236193956
 21
71.60626691342898
 31
0.0
  0
LINE
  5
6A9
330
63D
100
AcDbEntity
  8
用紙-GR2
  6
Continuous
 62
     7
370
    20
100
AcDbLine
 10
62.85008982313184
 20
73.44502221753026
 30
0.0
 11
62.29856445167591
 21
73.44502221753026
 31
0.0
  0
LINE
  5
6AA
330
63D
100
AcDbEntity
  8
用紙-GR2
  6
Continuous
 62
     7
370
    20
100
AcDbLine
 10
62.85008982313184
 20
71.98734689729775
 30
0.0
 11
65.71365832337538
 21
71.98734689729775
 31
0.0
  0
LINE
  5
6AB
330
63D
100
AcDbEntity
  8
用紙-GR2
  6
Continuous
 62
     7
370
    20
100
AcDbLine
 10
69.77394237563304
 20
81.62122653352046
 30
0.0
 11
70.40473365241706
 21
81.62122653352046
 31
0.0
  0
LINE
  5
6AC
330
63D
100
AcDbEntity
  8
用紙-GR2
  6
Continuous
 62
     7
370
    20
100
AcDbLine
 10
69.77394237563304
 20
81.62122653352046
 30
0.0
 11
69.43202236193956
 21
82.00230651738893
 31
0.0
  0
LINE
  5
6AD
330
63D
100
AcDbEntity
  8
用紙-GR2
  6
Continuous
 62
     7
370
    20
100
AcDbLine
 10
70.40473365241706
 20
81.62122653352046
 30
0.0
 11
70.74665366611087
 21
82.00230651738893
 31
0.0
  0
LINE
  5
6AE
330
63D
100
AcDbEntity
  8
用紙-GR2
  6
Continuous
 62
     7
370
    20
100
AcDbLine
 10
65.71365832337538
 20
81.62122653352046
 30
0.0
 11
66.05557833706853
 21
82.00230651738893
 31
0.0
  0
LINE
  5
6AF
330
63D
100
AcDbEntity
  8
用紙-GR2
  6
Continuous
 62
     7
370
    20
100
AcDbLine
 10
66.05557833706853
 20
82.00230651738893
 30
0.0
 11
69.43202236193956
 21
82.00230651738893
 31
0.0
  0
LINE
  5
6B0
330
63D
100
AcDbEntity
  8
用紙-GR2
  6
Continuous
 62
     7
370
    20
100
AcDbLine
 10
62.85008982313184
 20
80.16355121328729
 30
0.0
 11
62.29856445167591
 21
80.16355121328729
 31
0.0
  0
LINE
  5
6B1
330
63D
100
AcDbEntity
  8
用紙-GR2
  6
Continuous
 62
     7
370
    20
100
AcDbLine
 10
62.85008982313184
 20
81.62122653352046
 30
0.0
 11
65.71365832337538
 21
81.62122653352046
 31
0.0
  0
LINE
  5
6B2
330
63D
100
AcDbEntity
  8
用紙-GR2
  6
Continuous
 62
     7
370
    20
100
AcDbLine
 10
62.29856445167591
 20
73.44502221753026
 30
0.0
 11
62.29856445167591
 21
80.16355121328729
 31
0.0
  0
LINE
  5
6B3
330
63D
100
AcDbEntity
  8
用紙-GR2
  6
Continuous
 62
     7
370
    20
100
AcDbLine
 10
65.71365832337538
 20
71.98734689729775
 30
0.0
 11
65.71365832337538
 21
81.62122653352046
 31
0.0
  0
LINE
  5
6B4
330
63D
100
AcDbEntity
  8
用紙-GR2
  6
Continuous
 62
     7
370
    20
100
AcDbLine
 10
69.77394237563304
 20
71.98734689729775
 30
0.0
 11
69.77394237563304
 21
81.62122653352046
 31
0.0
  0
LINE
  5
6B5
330
63D
100
AcDbEntity
  8
用紙-GR2
  6
Continuous
 62
     7
370
    20
100
AcDbLine
 10
70.40473365241706
 20
71.98734689729775
 30
0.0
 11
70.40473365241706
 21
81.62122653352046
 31
0.0
  0
LINE
  5
6B6
330
63D
100
AcDbEntity
  8
用紙-GR2
  6
Continuous
 62
     7
370
    20
100
AcDbLine
 10
62.85008982313184
 20
81.62122653352046
 30
0.0
 11
62.85008982313184
 21
71.98734689729775
 31
0.0
  0
LINE
  5
6B7
330
63D
100
AcDbEntity
  8
用紙-GR2
  6
Continuous
 62
     7
370
    20
100
AcDbLine
 10
70.74665366611087
 20
82.00230651738893
 30
0.0
 11
73.45026665059866
 21
82.00230651738893
 31
0.0
  0
LINE
  5
6B8
330
63D
100
AcDbEntity
  8
用紙-GR2
  6
Continuous
 62
     7
370
    20
100
AcDbLine
 10
70.74665366611087
 20
71.60626691342898
 30
0.0
 11
73.45026665059866
 21
71.60626691342898
 31
0.0
  0
LINE
  5
6B9
330
63D
100
AcDbEntity
  8
用紙-GR2
  6
Continuous
 62
     7
370
    20
100
AcDbLine
 10
66.14063708277122
 20
82.00230651738939
 30
0.0
 11
66.05557833706789
 21
81.91724777168609
 31
0.0
  0
INSERT
  5
6BD
330
63D
100
AcDbEntity
  8
0
100
AcDbBlockReference
  2
BLKF077
 10
0.0
 20
0.0
 30
0.0
  0
INSERT
  5
6C4
330
63D
100
AcDbEntity
  8
0
100
AcDbBlockReference
  2
BLKF078
 10
0.0
 20
0.0
 30
0.0
  0
ENDBLK
  5
63F
330
63D
100
AcDbEntity
  8
0
100
AcDbBlockEnd
  0
BLOCK
  5
6BB
330
6BA
100
AcDbEntity
  8
0
100
AcDbBlockBegin
  2
BLKF077
 70
     0
 10
0.0
 20
0.0
 30
0.0
  3
BLKF077
  1

  0
ARC
  5
6BE
330
6BA
100
AcDbEntity
  8
用紙-GR2
  6
Continuous
 62
     7
370
    20
100
AcDbCircle
 10
102.0970085818032
 20
75.74265099913603
 30
0.0
 40
1.92715700141452
100
AcDbArc
 50
146.601511532013
 51
213.3984884679869
  0
ARC
  5
6BF
330
6BA
100
AcDbEntity
  8
用紙-GR2
  6
Continuous
 62
     7
370
    20
100
AcDbCircle
 10
98.87918679962488
 20
77.86429173463822
 30
0.0
 40
1.927157001414484
100
AcDbArc
 50
326.6015115320124
 51
33.39848846798751
  0
ARC
  5
6C0
330
6BA
100
AcDbEntity
  8
用紙-GR2
  6
Continuous
 62
     7
370
    20
100
AcDbCircle
 10
102.0970085818032
 20
77.86429173463822
 30
0.0
 40
1.92715700141452
100
AcDbArc
 50
146.601511532013
 51
213.3984884679869
  0
ENDBLK
  5
6BC
330
6BA
100
AcDbEntity
  8
0
100
AcDbBlockEnd
  0
BLOCK
  5
6C2
330
6C1
100
AcDbEntity
  8
0
100
AcDbBlockBegin
  2
BLKF078
 70
     0
 10
0.0
 20
0.0
 30
0.0
  3
BLKF078
  1

  0
ARC
  5
6C5
330
6C1
100
AcDbEntity
  8
用紙-GR2
  6
Continuous
 62
     7
370
    20
100
AcDbCircle
 10
97.46475964262396
 20
77.86429173463836
 30
0.0
 40
1.927157001413828
100
AcDbArc
 50
326.6015115320158
 51
33.39848846799041
  0
ARC
  5
6C6
330
6C1
100
AcDbEntity
  8
用紙-GR2
  6
Continuous
 62
     7
370
    20
100
AcDbCircle
 10
100.6825814248014
 20
75.74265099913715
 30
0.0
 40
1.927157001413823
100
AcDbArc
 50
146.6015115320194
 51
213.3984884679926
  0
ARC
  5
6C7
330
6C1
100
AcDbEntity
  8
用紙-GR2
  6
Continuous
 62
     7
370
    20
100
AcDbCircle
 10
97.46475964262426
 20
75.74265099913687
 30
0.0
 40
1.927157001413709
100
AcDbArc
 50
326.6015115320135
 51
33.3984884679927
  0
ENDBLK
  5
6C3
330
6C1
100
AcDbEntity
  8
0
100
AcDbBlockEnd
  0
BLOCK
  5
6CA
330
6C9
100
AcDbEntity
  8
0
100
AcDbBlockBegin
  2
*D77
 70
     1
 10
0.0
 20
0.0
 30
0.0
  3
*D77
  1

  0
LINE
  5
7C8
330
6C9
100
AcDbEntity
  8
用紙-GR2
 62
     6
370
    -2
100
AcDbLine
 10
144.5842504459565
 20
70.70006526733776
 30
0.0
 11
144.5842504459565
 21
49.72319360157335
 31
0.0
  0
LINE
  5
7C9
330
6C9
100
AcDbEntity
  8
用紙-GR2
 62
     6
370
    -2
100
AcDbLine
 10
302.0742504459566
 20
73.10006556642436
 30
0.0
 11
302.0742504459566
 21
49.72319360157335
 31
0.0
  0
LINE
  5
7CA
330
6C9
100
AcDbEntity
  8
用紙-GR2
 62
     6
370
    -2
100
AcDbLine
 10
147.5842504459565
 20
51.22319360157336
 30
0.0
 11
299.0742504459566
 21
51.22319360157336
 31
0.0
  0
INSERT
  5
7CB
330
6C9
100
AcDbEntity
  8
用紙-GR2
 62
     6
370
    -2
100
AcDbBlockReference
  2
FXTIP_ARROW_S
 10
144.5842504459565
 20
51.22319360157336
 30
0.0
 41
3.0
 42
3.0
 43
3.0
 50
180.0
  0
INSERT
  5
7CC
330
6C9
100
AcDbEntity
  8
用紙-GR2
 62
     6
370
    -2
100
AcDbBlockReference
  2
FXTIP_ARROW_E
 10
302.0742504459566
 20
51.22319360157336
 30
0.0
 41
3.0
 42
3.0
 43
3.0
  0
MTEXT
  5
7CD
330
6C9
100
AcDbEntity
  8
用紙-GR2
 62
     6
100
AcDbMText
 10
223.3292504459565
 20
53.22319360157336
 30
0.0
 40
3.0
 41
0.0
 71
     5
 72
     1
  1
\A1;157.49
  7
STYLE003
 73
     1
 44
1.0
  0
POINT
  5
7CE
330
6C9
100
AcDbEntity
  8
Defpoints
 62
     0
100
AcDbPoint
 10
144.5842504459565
 20
71.70006526733776
 30
0.0
  0
POINT
  5
7CF
330
6C9
100
AcDbEntity
  8
Defpoints
 62
     0
100
AcDbPoint
 10
302.0742504459566
 20
74.10006556642436
 30
0.0
  0
POINT
  5
7D0
330
6C9
100
AcDbEntity
  8
Defpoints
 62
     0
100
AcDbPoint
 10
302.0742504459566
 20
51.22319360157336
 30
0.0
  0
ENDBLK
  5
6CB
330
6C9
100
AcDbEntity
  8
0
100
AcDbBlockEnd
  0
BLOCK
  5
6D7
330
6D6
100
AcDbEntity
  8
0
100
AcDbBlockBegin
  2
BLKF080
 70
     0
 10
0.0
 20
0.0
 30
0.0
  3
BLKF080
  1

  0
LINE
  5
6DA
330
6D6
100
AcDbEntity
  8
用紙-GR2
  6
Continuous
 62
     6
370
    20
100
AcDbLine
 10
71.94595981564423
 20
55.67760227510074
 30
0.0
 11
101.445959815644
 21
55.67760227510074
 31
0.0
  0
LINE
  5
6DB
330
6D6
100
AcDbEntity
  8
用紙-GR2
  6
Continuous
 62
     6
370
    20
100
AcDbLine
 10
101.445959815644
 20
55.67760227510074
 30
0.0
 11
101.445959815644
 21
63.67760227510075
 31
0.0
  0
LINE
  5
6DC
330
6D6
100
AcDbEntity
  8
用紙-GR2
  6
Continuous
 62
     6
370
    20
100
AcDbLine
 10
101.445959815644
 20
63.67760227510075
 30
0.0
 11
71.94595981564423
 21
63.67760227510075
 31
0.0
  0
LINE
  5
6DD
330
6D6
100
AcDbEntity
  8
用紙-GR2
  6
Continuous
 62
     6
370
    20
100
AcDbLine
 10
71.94595981564423
 20
63.67760227510075
 30
0.0
 11
71.94595981564423
 21
55.67760227510074
 31
0.0
  0
ENDBLK
  5
6D8
330
6D6
100
AcDbEntity
  8
0
100
AcDbBlockEnd
  0
BLOCK
  5
6E0
330
6DF
100
AcDbEntity
  8
0
100
AcDbBlockBegin
  2
*D79
 70
     1
 10
0.0
 20
0.0
 30
0.0
  3
*D79
  1

  0
LINE
  5
7D1
330
6DF
100
AcDbEntity
  8
用紙-GR2
 62
     6
370
    -2
100
AcDbLine
 10
200.5842504459564
 20
71.40006556642404
 30
0.0
 11
200.5842504459564
 21
60.7853685290179
 31
0.0
  0
LINE
  5
7D2
330
6DF
100
AcDbEntity
  8
用紙-GR2
 62
     6
370
    -2
100
AcDbLine
 10
302.0742504459566
 20
73.10006556642431
 30
0.0
 11
302.0742504459566
 21
60.7853685290179
 31
0.0
  0
LINE
  5
7D3
330
6DF
100
AcDbEntity
  8
用紙-GR2
 62
     6
370
    -2
100
AcDbLine
 10
203.5842504459564
 20
62.2853685290179
 30
0.0
 11
299.0742504459566
 21
62.2853685290179
 31
0.0
  0
INSERT
  5
7D4
330
6DF
100
AcDbEntity
  8
用紙-GR2
 62
     6
370
    -2
100
AcDbBlockReference
  2
FXTIP_ARROW_S
 10
200.5842504459564
 20
62.2853685290179
 30
0.0
 41
3.0
 42
3.0
 43
3.0
 50
180.0
  0
INSERT
  5
7D5
330
6DF
100
AcDbEntity
  8
用紙-GR2
 62
     6
370
    -2
100
AcDbBlockReference
  2
FXTIP_ARROW_E
 10
302.0742504459566
 20
62.2853685290179
 30
0.0
 41
3.0
 42
3.0
 43
3.0
  0
MTEXT
  5
7D6
330
6DF
100
AcDbEntity
  8
用紙-GR2
 62
     6
100
AcDbMText
 10
251.3292504459565
 20
64.2853685290179
 30
0.0
 40
3.0
 41
0.0
 71
     5
 72
     1
  1
\A1;101.49
  7
STYLE003
 73
     1
 44
1.0
  0
POINT
  5
7D7
330
6DF
100
AcDbEntity
  8
Defpoints
 62
     0
100
AcDbPoint
 10
200.5842504459564
 20
72.40006556642405
 30
0.0
  0
POINT
  5
7D8
330
6DF
100
AcDbEntity
  8
Defpoints
 62
     0
100
AcDbPoint
 10
302.0742504459566
 20
74.1000655664243
 30
0.0
  0
POINT
  5
7D9
330
6DF
100
AcDbEntity
  8
Defpoints
 62
     0
100
AcDbPoint
 10
302.0742504459566
 20
62.2853685290179
 30
0.0
  0
ENDBLK
  5
6E1
330
6DF
100
AcDbEntity
  8
0
100
AcDbBlockEnd
  0
BLOCK
  5
6EC
330
6EB
100
AcDbEntity
  8
0
100
AcDbBlockBegin
  2
*D80
 70
     1
 10
0.0
 20
0.0
 30
0.0
  3
*D80
  1

  0
TEXT
  5
6EE
330
6EB
100
AcDbEntity
  8
用紙-GR2
  6
Continuous
 62
     6
370
    20
100
AcDbText
 10
224.6538037592821
 20
123.7117977760648
 30
0.0
 40
3.0
  1
2
 50
0.0000000099999999
 41
0.8333333333333332
 51
15.0
  7
FX_VECTOR
100
AcDbText
  0
LINE
  5
6EF
330
6EB
100
AcDbEntity
  8
用紙-GR2
  6
Continuous
 62
     6
370
    20
100
AcDbLine
 10
228.6537938325085
 20
123.2117977296594
 30
0.0
 11
230.0682209895098
 21
123.2117977296594
 31
0.0
  0
LINE
  5
6F0
330
6EB
100
AcDbEntity
  8
用紙-GR2
  6
Continuous
 62
     6
370
    20
100
AcDbLine
 10
228.6537938325085
 20
129.991147068887
 30
0.0
 11
228.6537938325085
 21
121.711797693239
 31
0.0
  0
LINE
  5
6F1
330
6EB
100
AcDbEntity
  8
用紙-GR2
  6
Continuous
 62
     6
370
    20
100
AcDbLine
 10
230.0682209895098
 20
129.991147068887
 30
0.0
 11
230.0682209895098
 21
121.711797693239
 31
0.0
  0
LINE
  5
6F2
330
6EB
100
AcDbEntity
  8
用紙-GR2
  6
Continuous
 62
     6
370
    20
100
AcDbLine
 10
230.0682209895098
 20
123.2117977296594
 30
0.0
 11
233.0682210623507
 21
123.2117977296594
 31
0.0
  0
INSERT
  5
6F3
330
6EB
100
AcDbEntity
  8
用紙-GR2
  6
Continuous
 62
     6
370
    20
100
AcDbBlockReference
  2
FXTIP_BLACKDOT_S
 10
230.0682209895098
 20
123.2117977296594
 30
0.0
 50
180.0
  0
LINE
  5
6F4
330
6EB
100
AcDbEntity
  8
用紙-GR2
  6
Continuous
 62
     6
370
    20
100
AcDbLine
 10
223.1537936989671
 20
123.2117977296594
 30
0.0
 11
228.6537938325085
 21
123.2117977296594
 31
0.0
  0
INSERT
  5
6F5
330
6EB
100
AcDbEntity
  8
用紙-GR2
  6
Continuous
 62
     6
370
    20
100
AcDbBlockReference
  2
FXTIP_ARROW_E
 10
228.6537938325085
 20
123.2117977296594
 30
0.0
 41
3.0
 42
3.0
 50
360.0
  0
ENDBLK
  5
6ED
330
6EB
100
AcDbEntity
  8
0
100
AcDbBlockEnd
  0
BLOCK
  5
6F8
330
6F7
100
AcDbEntity
  8
0
100
AcDbBlockBegin
  2
*D81
 70
     1
 10
0.0
 20
0.0
 30
0.0
  3
*D81
  1

  0
TEXT
  5
6FA
330
6F7
100
AcDbEntity
  8
用紙-GR2
  6
Continuous
 62
     6
370
    20
100
AcDbText
 10
50.02779193106601
 20
123.7117977760648
 30
0.0
 40
3.0
  1
2
 50
0.0000000099999999
 41
0.8333333333333332
 51
15.0
  7
FX_VECTOR
100
AcDbText
  0
LINE
  5
6FB
330
6F7
100
AcDbEntity
  8
用紙-GR2
  6
Continuous
 62
     6
370
    20
100
AcDbLine
 10
54.02777900532349
 20
123.2117977296594
 30
0.0
 11
55.4422061623249
 21
123.2117977296594
 31
0.0
  0
LINE
  5
6FC
330
6F7
100
AcDbEntity
  8
用紙-GR2
  6
Continuous
 62
     6
370
    20
100
AcDbLine
 10
54.02777900532349
 20
129.991147068887
 30
0.0
 11
54.02777900532349
 21
121.711797693239
 31
0.0
  0
LINE
  5
6FD
330
6F7
100
AcDbEntity
  8
用紙-GR2
  6
Continuous
 62
     6
370
    20
100
AcDbLine
 10
55.4422061623249
 20
129.991147068887
 30
0.0
 11
55.4422061623249
 21
121.711797693239
 31
0.0
  0
LINE
  5
6FE
330
6F7
100
AcDbEntity
  8
用紙-GR2
  6
Continuous
 62
     6
370
    20
100
AcDbLine
 10
55.4422061623249
 20
123.2117977296594
 30
0.0
 11
58.44220623516566
 21
123.2117977296594
 31
0.0
  0
INSERT
  5
6FF
330
6F7
100
AcDbEntity
  8
用紙-GR2
  6
Continuous
 62
     6
370
    20
100
AcDbBlockReference
  2
FXTIP_BLACKDOT_S
 10
55.4422061623249
 20
123.2117977296594
 30
0.0
 50
180.0
  0
LINE
  5
700
330
6F7
100
AcDbEntity
  8
用紙-GR2
  6
Continuous
 62
     6
370
    20
100
AcDbLine
 10
48.5277788717821
 20
123.2117977296594
 30
0.0
 11
54.02777900532349
 21
123.2117977296594
 31
0.0
  0
INSERT
  5
701
330
6F7
100
AcDbEntity
  8
用紙-GR2
  6
Continuous
 62
     6
370
    20
100
AcDbBlockReference
  2
FXTIP_ARROW_E
 10
54.02777900532349
 20
123.2117977296594
 30
0.0
 41
3.0
 42
3.0
 50
360.0
  0
ENDBLK
  5
6F9
330
6F7
100
AcDbEntity
  8
0
100
AcDbBlockEnd
  0
BLOCK
  5
703
330
702
100
AcDbEntity
  8
0
100
AcDbBlockBegin
  2
BLKF084
 70
     0
 10
0.0
 20
0.0
 30
0.0
  3
BLKF084
  1

  0
LINE
  5
706
330
702
100
AcDbEntity
  8
用紙-GR2
  6
Continuous
 62
     7
370
    20
100
AcDbLine
 10
155.825131046646
 20
129.6474412940157
 30
0.0
 11
149.4602088401399
 21
129.6474412940157
 31
0.0
  0
LINE
  5
707
330
702
100
AcDbEntity
  8
用紙-GR2
  6
Continuous
 62
     6
370
    20
100
AcDbLine
 10
149.4602088401399
 20
129.6474412940157
 30
0.0
 11
149.4602088401399
 21
140.892137192177
 31
0.0
  0
LINE
  5
708
330
702
100
AcDbEntity
  8
用紙-GR2
  6
Continuous
 62
     6
370
    20
100
AcDbLine
 10
155.825131046646
 20
129.6474412940157
 30
0.0
 11
155.825131046646
 21
140.892137192177
 31
0.0
  0
LINE
  5
709
330
702
100
AcDbEntity
  8
用紙-GR2
  6
Continuous
 62
     7
370
    20
100
AcDbLine
 10
156.1787378358966
 20
140.892137192177
 30
0.0
 11
156.1787378358966
 21
130.0010480832662
 31
0.0
  0
LINE
  5
70A
330
702
100
AcDbEntity
  8
用紙-GR2
  6
Continuous
 62
     7
370
    20
100
AcDbLine
 10
149.1066020508894
 20
130.0010480832662
 30
0.0
 11
149.4602088401399
 21
129.6474412940157
 31
0.0
  0
LINE
  5
70B
330
702
100
AcDbEntity
  8
用紙-GR2
  6
Continuous
 62
     7
370
    20
100
AcDbLine
 10
156.1787378358966
 20
130.0010480832662
 30
0.0
 11
155.825131046646
 21
129.6474412940157
 31
0.0
  0
LINE
  5
70C
330
702
100
AcDbEntity
  8
用紙-GR2
  6
Continuous
 62
     7
370
    20
100
AcDbLine
 10
149.1066020508894
 20
140.892137192177
 30
0.0
 11
149.1066020508894
 21
130.0010480832662
 31
0.0
  0
LINE
  5
70D
330
702
100
AcDbEntity
  8
用紙-GR2
  6
Continuous
 62
     7
370
    20
100
AcDbLine
 10
155.825131046646
 20
152.1368330903384
 30
0.0
 11
149.4602088401399
 21
152.1368330903384
 31
0.0
  0
LINE
  5
70E
330
702
100
AcDbEntity
  8
用紙-GR2
  6
Continuous
 62
     6
370
    20
100
AcDbLine
 10
149.4602088401399
 20
152.1368330903384
 30
0.0
 11
149.4602088401399
 21
140.892137192177
 31
0.0
  0
LINE
  5
70F
330
702
100
AcDbEntity
  8
用紙-GR2
  6
Continuous
 62
     6
370
    20
100
AcDbLine
 10
155.825131046646
 20
152.1368330903384
 30
0.0
 11
155.825131046646
 21
140.892137192177
 31
0.0
  0
LINE
  5
710
330
702
100
AcDbEntity
  8
用紙-GR2
  6
Continuous
 62
     7
370
    20
100
AcDbLine
 10
156.1787378358966
 20
140.892137192177
 30
0.0
 11
156.1787378358966
 21
151.783226301088
 31
0.0
  0
LINE
  5
711
330
702
100
AcDbEntity
  8
用紙-GR2
  6
Continuous
 62
     7
370
    20
100
AcDbLine
 10
149.1066020508894
 20
151.783226301088
 30
0.0
 11
149.4602088401399
 21
152.1368330903384
 31
0.0
  0
LINE
  5
712
330
702
100
AcDbEntity
  8
用紙-GR2
  6
Continuous
 62
     7
370
    20
100
AcDbLine
 10
156.1787378358966
 20
151.783226301088
 30
0.0
 11
155.825131046646
 21
152.1368330903384
 31
0.0
  0
LINE
  5
713
330
702
100
AcDbEntity
  8
用紙-GR2
  6
Continuous
 62
     7
370
    20
100
AcDbLine
 10
149.1066020508894
 20
140.892137192177
 30
0.0
 11
149.1066020508894
 21
151.783226301088
 31
0.0
  0
HATCH
  5
714
330
702
100
AcDbEntity
  8
用紙-GR2
  6
Continuous
 62
     6
370
    20
100
AcDbHatch
 10
0.0
 20
0.0
 30
0.0
210
0.0
220
0.0
230
1.0
  2

 70
     0
 71
     1
 91
        1
 92
        0
 93
        4
 72
     1
 10
155.825131046646
 20
152.1368330903384
 11
149.4602088401399
 21
152.1368330903384
 72
     1
 10
149.4602088401399
 20
152.1368330903384
 11
149.4602088401399
 21
129.6474412940157
 72
     1
 10
149.4602088401399
 20
129.6474412940157
 11
155.825131046646
 21
129.6474412940157
 72
     1
 10
155.825131046646
 20
129.6474412940157
 11
155.825131046646
 21
152.1368330903384
 97
        0
 75
     0
 76
     0
 52
0.0
 41
0.7072135785007072
 77
     0
 78
     1
 53
0.0
 43
0.0
 44
0.0
 45
0.0
 46
0.7072135785007072
 79
     0
 98
        0
  0
ENDBLK
  5
704
330
702
100
AcDbEntity
  8
0
100
AcDbBlockEnd
  0
BLOCK
  5
717
330
716
100
AcDbEntity
  8
0
100
AcDbBlockBegin
  2
BLKF085
 70
     0
 10
0.0
 20
0.0
 30
0.0
  3
BLKF085
  1

  0
LINE
  5
71A
330
716
100
AcDbEntity
  8
用紙-GR2
  6
Continuous
 62
     7
370
    20
100
AcDbLine
 10
156.3201805515968
 20
151.5003408696877
 30
0.0
 11
191.3343248231663
 21
151.5003408696877
 31
0.0
  0
LINE
  5
71B
330
716
100
AcDbEntity
  8
用紙-GR2
  6
Continuous
 62
     7
370
    20
100
AcDbLine
 10
191.4757675388664
 20
151.3588981539876
 30
0.0
 11
191.4757675388664
 21
140.8921371921769
 31
0.0
  0
LINE
  5
71C
330
716
100
AcDbEntity
  8
用紙-GR2
  6
Continuous
 62
     7
370
    20
100
AcDbLine
 10
156.1787378358966
 20
151.3588981539876
 30
0.0
 11
156.1787378358966
 21
140.8921371921769
 31
0.0
  0
LINE
  5
71D
330
716
100
AcDbEntity
  8
用紙-GR2
  6
Continuous
 62
     7
370
    20
100
AcDbLine
 10
156.3201805515968
 20
151.5003408696877
 30
0.0
 11
156.1787378358966
 21
151.3588981539876
 31
0.0
  0
LINE
  5
71E
330
716
100
AcDbEntity
  8
用紙-GR2
  6
Continuous
 62
     7
370
    20
100
AcDbLine
 10
191.3343248231663
 20
151.5003408696877
 30
0.0
 11
191.4757675388664
 21
151.3588981539876
 31
0.0
  0
LINE
  5
71F
330
716
100
AcDbEntity
  8
用紙-GR2
  6
Continuous
 62
     6
370
    20
100
AcDbLine
 10
156.3201805515968
 20
151.5003408696877
 30
0.0
 11
156.3201805515968
 21
140.8921371921769
 31
0.0
  0
LINE
  5
720
330
716
100
AcDbEntity
  8
用紙-GR2
  6
Continuous
 62
     6
370
    20
100
AcDbLine
 10
191.3343248231663
 20
151.5003408696877
 30
0.0
 11
191.3343248231663
 21
140.892137192177
 31
0.0
  0
LINE
  5
721
330
716
100
AcDbEntity
  8
用紙-GR2
  6
Continuous
 62
     7
370
    20
100
AcDbLine
 10
156.3201805515968
 20
130.2839335146664
 30
0.0
 11
191.3343248231663
 21
130.2839335146664
 31
0.0
  0
LINE
  5
722
330
716
100
AcDbEntity
  8
用紙-GR2
  6
Continuous
 62
     7
370
    20
100
AcDbLine
 10
191.4757675388664
 20
130.4253762303666
 30
0.0
 11
191.4757675388664
 21
140.8921371921769
 31
0.0
  0
LINE
  5
723
330
716
100
AcDbEntity
  8
用紙-GR2
  6
Continuous
 62
     7
370
    20
100
AcDbLine
 10
156.1787378358966
 20
130.4253762303666
 30
0.0
 11
156.1787378358966
 21
140.8921371921769
 31
0.0
  0
LINE
  5
724
330
716
100
AcDbEntity
  8
用紙-GR2
  6
Continuous
 62
     7
370
    20
100
AcDbLine
 10
156.3201805515968
 20
130.2839335146664
 30
0.0
 11
156.1787378358966
 21
130.4253762303666
 31
0.0
  0
LINE
  5
725
330
716
100
AcDbEntity
  8
用紙-GR2
  6
Continuous
 62
     7
370
    20
100
AcDbLine
 10
191.3343248231663
 20
130.2839335146664
 30
0.0
 11
191.4757675388664
 21
130.4253762303666
 31
0.0
  0
LINE
  5
726
330
716
100
AcDbEntity
  8
用紙-GR2
  6
Continuous
 62
     6
370
    20
100
AcDbLine
 10
156.3201805515968
 20
130.2839335146664
 30
0.0
 11
156.3201805515968
 21
140.8921371921769
 31
0.0
  0
LINE
  5
727
330
716
100
AcDbEntity
  8
用紙-GR2
  6
Continuous
 62
     6
370
    20
100
AcDbLine
 10
191.3343248231663
 20
130.2839335146664
 30
0.0
 11
191.3343248231663
 21
140.8921371921769
 31
0.0
  0
ENDBLK
  5
718
330
716
100
AcDbEntity
  8
0
100
AcDbBlockEnd
  0
BLOCK
  5
729
330
728
100
AcDbEntity
  8
0
100
AcDbBlockBegin
  2
BLKF086
 70
     0
 10
0.0
 20
0.0
 30
0.0
  3
BLKF086
  1

  0
LINE
  5
72C
330
728
100
AcDbEntity
  8
用紙-GR2
  6
Continuous
 62
     7
370
    20
100
AcDbLine
 10
121.7020758839864
 20
152.2075544481887
 30
0.0
 11
121.7020758839862
 21
140.892137192177
 31
0.0
  0
LINE
  5
72D
330
728
100
AcDbEntity
  8
用紙-GR2
  6
Continuous
 62
     7
370
    20
100
AcDbLine
 10
122.7628962517371
 20
152.2075544481888
 30
0.0
 11
121.7020758839864
 21
152.2075544481887
 31
0.0
  0
LINE
  5
72E
330
728
100
AcDbEntity
  8
用紙-GR2
  6
Continuous
 62
     7
370
    20
100
AcDbLine
 10
122.7628962517371
 20
152.2075544481888
 30
0.0
 11
122.7628962517371
 21
140.892137192177
 31
0.0
  0
LINE
  5
72F
330
728
100
AcDbEntity
  8
用紙-GR2
  6
Continuous
 62
     7
370
    20
100
AcDbLine
 10
122.7628962517371
 20
151.853947658938
 30
0.0
 11
125.9453573552268
 21
151.853947658938
 31
0.0
  0
LINE
  5
730
330
728
100
AcDbEntity
  8
用紙-GR2
  6
Continuous
 62
     7
370
    20
100
AcDbLine
 10
125.9453573552268
 20
140.892137192177
 30
0.0
 11
125.9453573552268
 21
151.853947658938
 31
0.0
  0
LINE
  5
731
330
728
100
AcDbEntity
  8
用紙-GR2
  6
Continuous
 62
     6
370
    20
100
AcDbLine
 10
122.7628962517371
 20
151.5003408696881
 30
0.0
 11
121.7020758839867
 21
151.5003408696879
 31
0.0
  0
LINE
  5
732
330
728
100
AcDbEntity
  8
用紙-GR2
  6
DASHDOT
 62
     6
370
    20
100
AcDbLine
 10
121.3274100263393
 20
150.0859137126863
 30
0.0
 11
123.0409489852684
 21
150.0859137126863
 31
0.0
  0
LINE
  5
733
330
728
100
AcDbEntity
  8
用紙-GR2
  6
Continuous
 62
     7
370
    20
100
AcDbLine
 10
121.7020758839864
 20
129.5767199361655
 30
0.0
 11
121.7020758839862
 21
140.892137192177
 31
0.0
  0
LINE
  5
734
330
728
100
AcDbEntity
  8
用紙-GR2
  6
Continuous
 62
     7
370
    20
100
AcDbLine
 10
122.7628962517371
 20
129.5767199361655
 30
0.0
 11
121.7020758839864
 21
129.5767199361655
 31
0.0
  0
LINE
  5
735
330
728
100
AcDbEntity
  8
用紙-GR2
  6
Continuous
 62
     7
370
    20
100
AcDbLine
 10
122.7628962517371
 20
129.5767199361655
 30
0.0
 11
122.7628962517371
 21
140.892137192177
 31
0.0
  0
LINE
  5
736
330
728
100
AcDbEntity
  8
用紙-GR2
  6
Continuous
 62
     7
370
    20
100
AcDbLine
 10
122.7628962517371
 20
129.9303267254162
 30
0.0
 11
125.9453573552268
 21
129.9303267254162
 31
0.0
  0
LINE
  5
737
330
728
100
AcDbEntity
  8
用紙-GR2
  6
Continuous
 62
     7
370
    20
100
AcDbLine
 10
125.9453573552268
 20
140.892137192177
 30
0.0
 11
125.9453573552268
 21
129.9303267254162
 31
0.0
  0
LINE
  5
738
330
728
100
AcDbEntity
  8
用紙-GR2
  6
Continuous
 62
     6
370
    20
100
AcDbLine
 10
122.7628962517371
 20
130.283933514666
 30
0.0
 11
121.7020758839867
 21
130.2839335146661
 31
0.0
  0
LINE
  5
739
330
728
100
AcDbEntity
  8
用紙-GR2
  6
DASHDOT
 62
     6
370
    20
100
AcDbLine
 10
121.3274100263393
 20
131.6983606716678
 30
0.0
 11
123.0409489852684
 21
131.6983606716678
 31
0.0
  0
ENDBLK
  5
72A
330
728
100
AcDbEntity
  8
0
100
AcDbBlockEnd
  0
BLOCK
  5
73B
330
73A
100
AcDbEntity
  8
0
100
AcDbBlockBegin
  2
BLKF087
 70
     0
 10
0.0
 20
0.0
 30
0.0
  3
BLKF087
  1

  0
LINE
  5
73E
330
73A
100
AcDbEntity
  8
用紙-GR2
  6
DASHDOT
 62
     6
370
    20
100
AcDbLine
 10
151.1080164780465
 20
140.892137192177
 30
0.0
 11
119.0407558830807
 21
140.892137192177
 31
0.0
  0
LINE
  5
73F
330
73A
100
AcDbEntity
  8
用紙-GR2
  6
Continuous
 62
     5
370
    20
100
AcDbLine
 10
149.1066020508894
 20
150.7931272911871
 30
0.0
 11
147.1617647100123
 21
150.7931272911871
 31
0.0
  0
LINE
  5
740
330
73A
100
AcDbEntity
  8
用紙-GR2
  6
Continuous
 62
     6
370
    20
100
AcDbLine
 10
147.1617647100123
 20
150.5059985783156
 30
0.0
 11
149.1066020508894
 21
150.5059985783156
 31
0.0
  0
LINE
  5
741
330
73A
100
AcDbEntity
  8
用紙-GR2
  6
Continuous
 62
     7
370
    20
100
AcDbLine
 10
147.1617647100123
 20
150.7931272911871
 30
0.0
 11
147.1617647100123
 21
140.892137192177
 31
0.0
  0
LINE
  5
742
330
73A
100
AcDbEntity
  8
用紙-GR2
  6
Continuous
 62
     7
370
    20
100
AcDbLine
 10
127.3597845122282
 20
147.9642729771844
 30
0.0
 11
145.0401239745101
 21
147.9642729771844
 31
0.0
  0
LINE
  5
743
330
73A
100
AcDbEntity
  8
用紙-GR2
  6
Continuous
 62
     7
370
    20
100
AcDbLine
 10
145.0401239745101
 20
140.892137192177
 30
0.0
 11
145.0401239745101
 21
150.7931272911871
 31
0.0
  0
LINE
  5
744
330
73A
100
AcDbEntity
  8
用紙-GR2
  6
Continuous
 62
     7
370
    20
100
AcDbLine
 10
145.0401239745101
 20
150.7931272911871
 30
0.0
 11
146.4545511315115
 21
150.7931272911871
 31
0.0
  0
LINE
  5
745
330
73A
100
AcDbEntity
  8
用紙-GR2
  6
Continuous
 62
     7
370
    20
100
AcDbLine
 10
146.4545511315115
 20
150.7931272911871
 30
0.0
 11
146.4545511315115
 21
140.892137192177
 31
0.0
  0
LINE
  5
746
330
73A
100
AcDbEntity
  8
用紙-GR2
  6
Continuous
 62
     7
370
    20
100
AcDbLine
 10
146.4545511315115
 20
150.5059985783156
 30
0.0
 11
147.1617647100123
 21
150.5059985783156
 31
0.0
  0
LINE
  5
747
330
73A
100
AcDbEntity
  8
用紙-GR2
  6
Continuous
 62
     7
370
    20
100
AcDbLine
 10
127.3597845122282
 20
151.853947658938
 30
0.0
 11
127.3597845122282
 21
140.892137192177
 31
0.0
  0
LINE
  5
748
330
73A
100
AcDbEntity
  8
用紙-GR2
  6
Continuous
 62
     7
370
    20
100
AcDbLine
 10
125.9453573552268
 20
151.853947658938
 30
0.0
 11
125.9453573552268
 21
140.892137192177
 31
0.0
  0
LINE
  5
749
330
73A
100
AcDbEntity
  8
用紙-GR2
  6
Continuous
 62
     7
370
    20
100
AcDbLine
 10
125.9453573552268
 20
151.853947658938
 30
0.0
 11
127.3597845122282
 21
151.853947658938
 31
0.0
  0
LINE
  5
74A
330
73A
100
AcDbEntity
  8
用紙-GR2
  6
Continuous
 62
     5
370
    20
100
AcDbLine
 10
149.1066020508894
 20
130.9911470931673
 30
0.0
 11
147.1617647100123
 21
130.9911470931673
 31
0.0
  0
LINE
  5
74B
330
73A
100
AcDbEntity
  8
用紙-GR2
  6
Continuous
 62
     6
370
    20
100
AcDbLine
 10
147.1617647100123
 20
131.2782758060385
 30
0.0
 11
149.1066020508894
 21
131.2782758060385
 31
0.0
  0
LINE
  5
74C
330
73A
100
AcDbEntity
  8
用紙-GR2
  6
Continuous
 62
     7
370
    20
100
AcDbLine
 10
147.1617647100123
 20
130.9911470931673
 30
0.0
 11
147.1617647100123
 21
140.892137192177
 31
0.0
  0
LINE
  5
74D
330
73A
100
AcDbEntity
  8
用紙-GR2
  6
Continuous
 62
     7
370
    20
100
AcDbLine
 10
127.3597845122282
 20
133.8200014071698
 30
0.0
 11
145.0401239745101
 21
133.8200014071698
 31
0.0
  0
LINE
  5
74E
330
73A
100
AcDbEntity
  8
用紙-GR2
  6
Continuous
 62
     7
370
    20
100
AcDbLine
 10
145.0401239745101
 20
140.892137192177
 30
0.0
 11
145.0401239745101
 21
130.9911470931673
 31
0.0
  0
LINE
  5
74F
330
73A
100
AcDbEntity
  8
用紙-GR2
  6
Continuous
 62
     7
370
    20
100
AcDbLine
 10
145.0401239745101
 20
130.9911470931673
 30
0.0
 11
146.4545511315115
 21
130.9911470931673
 31
0.0
  0
LINE
  5
750
330
73A
100
AcDbEntity
  8
用紙-GR2
  6
Continuous
 62
     7
370
    20
100
AcDbLine
 10
146.4545511315115
 20
130.9911470931673
 30
0.0
 11
146.4545511315115
 21
140.892137192177
 31
0.0
  0
LINE
  5
751
330
73A
100
AcDbEntity
  8
用紙-GR2
  6
Continuous
 62
     7
370
    20
100
AcDbLine
 10
146.4545511315115
 20
131.2782758060385
 30
0.0
 11
147.1617647100123
 21
131.2782758060385
 31
0.0
  0
LINE
  5
752
330
73A
100
AcDbEntity
  8
用紙-GR2
  6
Continuous
 62
     7
370
    20
100
AcDbLine
 10
127.3597845122282
 20
129.9303267254162
 30
0.0
 11
127.3597845122282
 21
140.892137192177
 31
0.0
  0
LINE
  5
753
330
73A
100
AcDbEntity
  8
用紙-GR2
  6
Continuous
 62
     7
370
    20
100
AcDbLine
 10
125.9453573552268
 20
129.9303267254162
 30
0.0
 11
125.9453573552268
 21
140.8921371921769
 31
0.0
  0
LINE
  5
754
330
73A
100
AcDbEntity
  8
用紙-GR2
  6
Continuous
 62
     7
370
    20
100
AcDbLine
 10
125.9453573552268
 20
129.9303267254162
 30
0.0
 11
127.3597845122282
 21
129.9303267254162
 31
0.0
  0
ENDBLK
  5
73C
330
73A
100
AcDbEntity
  8
0
100
AcDbBlockEnd
  0
BLOCK
  5
758
330
757
100
AcDbEntity
  8
0
100
AcDbBlockBegin
  2
BLKF088
 70
     0
 10
0.0
 20
0.0
 30
0.0
  3
BLKF088
  1

  0
LINE
  5
75B
330
757
100
AcDbEntity
  8
用紙-GR2
  6
Continuous
 62
     6
370
    20
100
AcDbLine
 10
115.6920815622139
 20
159.7449308659377
 30
0.0
 11
147.6920815622139
 21
159.7449308659377
 31
0.0
  0
LINE
  5
75C
330
757
100
AcDbEntity
  8
用紙-GR2
  6
Continuous
 62
     6
370
    20
100
AcDbLine
 10
147.6920815622139
 20
159.7449308659377
 30
0.0
 11
147.6920815622139
 21
167.7449308659377
 31
0.0
  0
LINE
  5
75D
330
757
100
AcDbEntity
  8
用紙-GR2
  6
Continuous
 62
     6
370
    20
100
AcDbLine
 10
147.6920815622139
 20
167.7449308659377
 30
0.0
 11
115.6920815622139
 21
167.7449308659377
 31
0.0
  0
LINE
  5
75E
330
757
100
AcDbEntity
  8
用紙-GR2
  6
Continuous
 62
     6
370
    20
100
AcDbLine
 10
115.6920815622139
 20
167.7449308659377
 30
0.0
 11
115.6920815622139
 21
159.7449308659377
 31
0.0
  0
ENDBLK
  5
759
330
757
100
AcDbEntity
  8
0
100
AcDbBlockEnd
  0
BLOCK
  5
761
330
760
100
AcDbEntity
  8
0
100
AcDbBlockBegin
  2
*D87
 70
     1
 10
0.0
 20
0.0
 30
0.0
  3
*D87
  1

  0
TEXT
  5
763
330
760
100
AcDbEntity
  8
用紙-GR2
  6
Continuous
 62
     6
370
    20
100
AcDbText
 10
160.7579482967479
 20
115.2252348340562
 30
0.0
 40
3.0
  1
(
 50
0.0000000099999999
 41
0.8333333333333332
 51
15.0
  7
FX_VECTOR
100
AcDbText
  0
TEXT
  5
764
330
760
100
AcDbEntity
  8
用紙-GR2
  6
Continuous
 62
     6
370
    20
100
AcDbText
 10
163.2579439802588
 20
115.2252348334018
 30
0.0
 40
3.0
  1
65.7
 50
0.0000000099999999
 41
0.8333333333333332
 51
15.0
  7
FX_VECTOR
100
AcDbText
  0
TEXT
  5
765
330
760
100
AcDbEntity
  8
用紙-GR2
  6
Continuous
 62
     6
370
    20
100
AcDbText
 10
173.2579396637697
 20
115.2252348340562
 30
0.0
 40
3.0
  1
)
 50
0.0000000099999999
 41
0.8333333333333332
 51
15.0
  7
FX_VECTOR
100
AcDbText
  0
LINE
  5
766
330
760
100
AcDbEntity
  8
用紙-GR2
  6
Continuous
 62
     6
370
    20
100
AcDbLine
 10
145.0401239745101
 20
114.7252347876509
 30
0.0
 11
191.4757675388664
 21
114.7252347876509
 31
0.0
  0
INSERT
  5
767
330
760
100
AcDbEntity
  8
用紙-GR2
  6
Continuous
 62
     6
370
    20
100
AcDbBlockReference
  2
FXTIP_ARROW_S
 10
145.0401239745101
 20
114.7252347876509
 30
0.0
 41
3.0
 42
3.0
 50
180.0
  0
INSERT
  5
768
330
760
100
AcDbEntity
  8
用紙-GR2
  6
Continuous
 62
     6
370
    20
100
AcDbBlockReference
  2
FXTIP_ARROW_E
 10
191.4757675388664
 20
114.7252347876509
 30
0.0
 41
3.0
 42
3.0
 50
360.0
  0
LINE
  5
769
330
760
100
AcDbEntity
  8
用紙-GR2
  6
Continuous
 62
     6
370
    20
100
AcDbLine
 10
145.0401239745101
 20
129.991147068887
 30
0.0
 11
145.0401239745101
 21
113.2252347512304
 31
0.0
  0
LINE
  5
76A
330
760
100
AcDbEntity
  8
用紙-GR2
  6
Continuous
 62
     6
370
    20
100
AcDbLine
 10
191.4757675388664
 20
129.4253762060864
 30
0.0
 11
191.4757675388664
 21
113.2252347512304
 31
0.0
  0
ENDBLK
  5
762
330
760
100
AcDbEntity
  8
0
100
AcDbBlockEnd
  0
BLOCK
  5
76D
330
76C
100
AcDbEntity
  8
0
100
AcDbBlockBegin
  2
FXDIM090
 70
     0
 10
0.0
 20
0.0
 30
0.0
  3
FXDIM090
  1

  0
LINE
  5
770
330
76C
100
AcDbEntity
  8
用紙-GR2
  6
Continuous
 62
     6
370
    20
100
AcDbLine
 10
151.4530820027454
 20
152.1368330903384
 30
0.0
 11
153.7461358880278
 21
157.8214091288578
 31
0.0
  0
INSERT
  5
771
330
76C
100
AcDbEntity
  8
用紙-GR2
  6
Continuous
 62
     6
370
    20
100
AcDbBlockReference
  2
FXTIP_ARROW_S
 10
151.4530820027454
 20
152.1368330903384
 30
0.0
 41
3.0
 42
3.0
 50
248.0317540478203
  0
LINE
  5
772
330
76C
100
AcDbEntity
  8
用紙-GR2
  6
Continuous
 62
     6
370
    20
100
AcDbLine
 10
153.7461358880278
 20
157.8214091288578
 30
0.0
 11
176.7461359608685
 21
157.8214091288578
 31
0.0
  0
TEXT
  5
773
330
76C
100
AcDbEntity
  8
用紙-GR2
  6
Continuous
 62
     6
370
    20
100
AcDbText
 10
155.2461460658481
 20
158.1750354452634
 30
0.0
 40
3.0
  1
ピント調整リング
 50
0.0000000099999999
 41
0.8333333333333332
  7
FX_VECTOR
100
AcDbText
  0
ENDBLK
  5
76E
330
76C
100
AcDbEntity
  8
0
100
AcDbBlockEnd
  0
BLOCK
  5
775
330
774
100
AcDbEntity
  8
0
100
AcDbBlockBegin
  2
FXDIM091
 70
     0
 10
0.0
 20
0.0
 30
0.0
  3
FXDIM091
  1

  0
LINE
  5
778
330
774
100
AcDbEntity
  8
用紙-GR2
  6
Continuous
 62
     6
370
    20
100
AcDbLine
 10
178.9945195336225
 20
151.5003408696877
 30
0.0
 11
181.5134844464881
 21
157.7146807697601
 31
0.0
  0
INSERT
  5
779
330
774
100
AcDbEntity
  8
用紙-GR2
  6
Continuous
 62
     6
370
    20
100
AcDbBlockReference
  2
FXTIP_ARROW_S
 10
178.9945195336225
 20
151.5003408696877
 30
0.0
 41
3.0
 42
3.0
 50
247.9349675748835
  0
LINE
  5
77A
330
774
100
AcDbEntity
  8
用紙-GR2
  6
Continuous
 62
     6
370
    20
100
AcDbLine
 10
181.5134844464881
 20
157.7146807697601
 30
0.0
 11
190.5134846650104
 21
157.7146807697601
 31
0.0
  0
TEXT
  5
77B
330
774
100
AcDbEntity
  8
用紙-GR2
  6
Continuous
 62
     6
370
    20
100
AcDbText
 10
183.5134874745845
 20
158.2146823996364
 30
0.0
 40
3.0
  1
鏡筒
 41
0.8333333333333332
  7
FX_VECTOR
100
AcDbText
  0
ENDBLK
  5
776
330
774
100
AcDbEntity
  8
0
100
AcDbBlockEnd
  0
BLOCK
  5
77E
330
77D
100
AcDbEntity
  8
0
100
AcDbBlockBegin
  2
*D90
 70
     1
 10
0.0
 20
0.0
 30
0.0
  3
*D90
  1

  0
TEXT
  5
780
330
77D
100
AcDbEntity
  8
用紙-GR2
  6
Continuous
 62
     6
370
    20
100
AcDbText
 10
141.040118054251
 20
123.7117977760648
 30
0.0
 40
3.0
  1
2
 50
0.0000000099999999
 41
0.8333333333333332
 51
15.0
  7
FX_VECTOR
100
AcDbText
  0
LINE
  5
781
330
77D
100
AcDbEntity
  8
用紙-GR2
  6
Continuous
 62
     6
370
    20
100
AcDbLine
 10
145.0401239745101
 20
123.2117977296594
 30
0.0
 11
146.4545511315115
 21
123.2117977296594
 31
0.0
  0
LINE
  5
782
330
77D
100
AcDbEntity
  8
用紙-GR2
  6
Continuous
 62
     6
370
    20
100
AcDbLine
 10
145.0401239745101
 20
129.991147068887
 30
0.0
 11
145.0401239745101
 21
121.711797693239
 31
0.0
  0
LINE
  5
783
330
77D
100
AcDbEntity
  8
用紙-GR2
  6
Continuous
 62
     6
370
    20
100
AcDbLine
 10
146.4545511315115
 20
129.991147068887
 30
0.0
 11
146.4545511315115
 21
121.711797693239
 31
0.0
  0
LINE
  5
784
330
77D
100
AcDbEntity
  8
用紙-GR2
  6
Continuous
 62
     6
370
    20
100
AcDbLine
 10
139.5401238409687
 20
123.2117977296594
 30
0.0
 11
145.0401239745101
 21
123.2117977296594
 31
0.0
  0
INSERT
  5
785
330
77D
100
AcDbEntity
  8
用紙-GR2
  6
Continuous
 62
     6
370
    20
100
AcDbBlockReference
  2
FXTIP_ARROW_E
 10
145.0401239745101
 20
123.2117977296594
 30
0.0
 41
3.0
 42
3.0
 50
360.0
  0
ENDBLK
  5
77F
330
77D
100
AcDbEntity
  8
0
100
AcDbBlockEnd
  0
BLOCK
  5
788
330
787
100
AcDbEntity
  8
0
100
AcDbBlockBegin
  2
*D91
 70
     1
 10
0.0
 20
0.0
 30
0.0
  3
*D91
  1

  0
TEXT
  5
78A
330
787
100
AcDbEntity
  8
用紙-GR2
  6
Continuous
 62
     6
370
    20
100
AcDbText
 10
155.424799076064
 20
123.7117977756284
 30
0.0
 40
3.0
  1
3.8
 50
0.0000000099999999
 41
0.8333333333333332
 51
15.0
  7
FX_VECTOR
100
AcDbText
  0
LINE
  5
78B
330
787
100
AcDbEntity
  8
用紙-GR2
  6
Continuous
 62
     6
370
    20
100
AcDbLine
 10
146.4545511315115
 20
123.2117977296594
 30
0.0
 11
149.1066020508894
 21
123.2117977296594
 31
0.0
  0
INSERT
  5
78C
330
787
100
AcDbEntity
  8
用紙-GR2
  6
Continuous
 62
     6
370
    20
100
AcDbBlockReference
  2
FXTIP_BLACKDOT_S
 10
146.4545511315115
 20
123.2117977296594
 30
0.0
 50
180.0
  0
LINE
  5
78D
330
787
100
AcDbEntity
  8
用紙-GR2
  6
Continuous
 62
     6
370
    20
100
AcDbLine
 10
149.1066020508894
 20
129.0010480589859
 30
0.0
 11
149.1066020508894
 21
121.711797693239
 31
0.0
  0
LINE
  5
78E
330
787
100
AcDbEntity
  8
用紙-GR2
  6
Continuous
 62
     6
370
    20
100
AcDbLine
 10
149.1066020508894
 20
123.2117977296594
 30
0.0
 11
169.243009951881
 21
123.2117977296594
 31
0.0
  0
INSERT
  5
78F
330
787
100
AcDbEntity
  8
用紙-GR2
  6
Continuous
 62
     6
370
    20
100
AcDbBlockReference
  2
FXTIP_ARROW_S
 10
149.1066020508894
 20
123.2117977296594
 30
0.0
 41
3.0
 42
3.0
 50
180.0
  0
ENDBLK
  5
789
330
787
100
AcDbEntity
  8
0
100
AcDbBlockEnd
  0
BLOCK
  5
792
330
791
100
AcDbEntity
  8
0
100
AcDbBlockBegin
  2
*D92
 70
     1
 10
0.0
 20
0.0
 30
0.0
  3
*D92
  1

  0
TEXT
  5
794
330
791
100
AcDbEntity
  8
用紙-GR2
  6
Continuous
 62
     6
370
    20
100
AcDbText
 10
149.088924251486
 20
106.7386718920477
 30
0.0
 40
3.0
  1
(
 50
0.0000000099999999
 41
0.8333333333333332
 51
15.0
  7
FX_VECTOR
100
AcDbText
  0
TEXT
  5
795
330
791
100
AcDbEntity
  8
用紙-GR2
  6
Continuous
 62
     6
370
    20
100
AcDbText
 10
151.5889199349969
 20
106.7386718913932
 30
0.0
 40
3.0
  1
98.7
 50
0.0000000099999999
 41
0.8333333333333332
 51
15.0
  7
FX_VECTOR
100
AcDbText
  0
TEXT
  5
796
330
791
100
AcDbEntity
  8
用紙-GR2
  6
Continuous
 62
     6
370
    20
100
AcDbText
 10
161.588915618508
 20
106.7386718920477
 30
0.0
 40
3.0
  1
)
 50
0.0000000099999999
 41
0.8333333333333332
 51
15.0
  7
FX_VECTOR
100
AcDbText
  0
LINE
  5
797
330
791
100
AcDbEntity
  8
用紙-GR2
  6
Continuous
 62
     6
370
    20
100
AcDbLine
 10
121.7020758839864
 20
106.2386718456425
 30
0.0
 11
191.4757675388664
 21
106.2386718456425
 31
0.0
  0
INSERT
  5
798
330
791
100
AcDbEntity
  8
用紙-GR2
  6
Continuous
 62
     6
370
    20
100
AcDbBlockReference
  2
FXTIP_ARROW_S
 10
121.7020758839864
 20
106.2386718456425
 30
0.0
 41
3.0
 42
3.0
 50
180.0
  0
INSERT
  5
799
330
791
100
AcDbEntity
  8
用紙-GR2
  6
Continuous
 62
     6
370
    20
100
AcDbBlockReference
  2
FXTIP_ARROW_E
 10
191.4757675388664
 20
106.2386718456425
 30
0.0
 41
3.0
 42
3.0
 50
360.0
  0
LINE
  5
79A
330
791
100
AcDbEntity
  8
用紙-GR2
  6
Continuous
 62
     6
370
    20
100
AcDbLine
 10
121.7020758839864
 20
128.5767199118853
 30
0.0
 11
121.7020758839864
 21
104.738671809222
 31
0.0
  0
LINE
  5
79B
330
791
100
AcDbEntity
  8
用紙-GR2
  6
Continuous
 62
     6
370
    20
100
AcDbLine
 10
191.4757675388664
 20
129.4253762060864
 30
0.0
 11
191.4757675388664
 21
104.738671809222
 31
0.0
  0
ENDBLK
  5
793
330
791
100
AcDbEntity
  8
0
100
AcDbBlockEnd
  0
BLOCK
  5
7BD
330
7B3
100
AcDbEntity
  8
0
100
AcDbBlockBegin
  2
*D93
 70
     1
 10
0.0
 20
0.0
 30
0.0
  3
*D93
  1

  0
LINE
  5
7BF
330
7B3
100
AcDbEntity
  8
0
 62
     6
370
    -2
100
AcDbLine
 10
175.084250445956
 20
106.4000655664238
 30
0.0
 11
370.5947791028575
 21
106.4000655664238
 31
0.0
  0
LINE
  5
7C0
330
7B3
100
AcDbEntity
  8
0
 62
     6
370
    -2
100
AcDbLine
 10
175.0842504459559
 20
71.40006556642413
 30
0.0
 11
370.5947791028575
 21
71.40006556642408
 31
0.0
  0
LINE
  5
7C1
330
7B3
100
AcDbEntity
  8
0
 62
     6
370
    -2
100
AcDbLine
 10
369.0947791028575
 20
103.4000655664238
 30
0.0
 11
369.0947791028575
 21
74.40006556642408
 31
0.0
  0
INSERT
  5
7C2
330
7B3
100
AcDbEntity
  8
0
 62
     6
370
    -2
100
AcDbBlockReference
  2
FXTIP_ARROW_S
 10
369.0947791028575
 20
106.4000655664238
 30
0.0
 41
3.0
 42
3.0
 43
3.0
 50
90.0
  0
INSERT
  5
7C3
330
7B3
100
AcDbEntity
  8
0
 62
     6
370
    -2
100
AcDbBlockReference
  2
FXTIP_ARROW_E
 10
369.0947791028575
 20
71.40006556642408
 30
0.0
 41
3.0
 42
3.0
 43
3.0
 50
270.0
  0
MTEXT
  5
7C4
330
7B3
100
AcDbEntity
  8
0
 62
     6
100
AcDbMText
 10
367.0947791028575
 20
88.90006556642402
 30
0.0
 40
3.0
 41
0.0
 71
     5
 72
     1
  1
\A1;35
  7
STYLE003
 11
0.0000000000000001
 21
1.0
 31
0.0
 73
     1
 44
1.0
  0
POINT
  5
7C5
330
7B3
100
AcDbEntity
  8
Defpoints
 62
     0
100
AcDbPoint
 10
174.0842504459561
 20
106.4000655664238
 30
0.0
  0
POINT
  5
7C6
330
7B3
100
AcDbEntity
  8
Defpoints
 62
     0
100
AcDbPoint
 10
174.0842504459559
 20
71.40006556642413
 30
0.0
  0
POINT
  5
7C7
330
7B3
100
AcDbEntity
  8
Defpoints
 62
     0
100
AcDbPoint
 10
369.0947791028575
 20
71.40006556642408
 30
0.0
  0
ENDBLK
  5
7BE
330
7B3
100
AcDbEntity
  8
0
100
AcDbBlockEnd
  0
ENDSEC
  0
SECTION
  2
ENTITIES
  0
TEXT
  5
5B3
330
1F
100
AcDbEntity
  8
用紙-GR2
  6
Continuous
 62
     6
370
    20
100
AcDbText
 10
37.50295238159721
 20
106.4241864847985
 30
0.0
 40
4.242
  1
HDL-Q1(H-1VH4-V1取付時)
 41
0.8333333333333332
  7
FX_VECTOR
100
AcDbText
  0
INSERT
  5
5B7
330
1F
100
AcDbEntity
  8
0
100
AcDbBlockReference
  2
BLKF066
 10
-16.50591968871529
 20
-19.70004294635382
 30
0.0
 41
1.414
 42
1.414
 43
1.414
  0
INSERT
  5
640
330
1F
100
AcDbEntity
  8
0
100
AcDbBlockReference
  2
BLKF076
 10
-16.50591968871529
 20
-19.70004294635382
 30
0.0
 41
1.414
 42
1.414
 43
1.414
  0
DIMENSION
  5
6C8
330
1F
100
AcDbEntity
  8
用紙-GR2
100
AcDbDimension
  2
*D77
 10
302.0742504459566
 20
51.22319360157336
 30
0.0
 11
223.3292504459565
 21
53.22319360157336
 31
0.0
 70
    32
 71
     5
 42
157.4900000000001
  3
FXDIMINFO
100
AcDbAlignedDimension
 13
144.5842504459565
 23
71.70006526733776
 33
0.0
 14
302.0742504459566
 24
74.10006556642436
 34
0.0
 50
180.0
100
AcDbRotatedDimension
1001
ACAD
1000
DSTYLE
1002
{
1070
   173
1070
     1
1070
   344
1005
48
1070
   343
1005
42
1002
}
  0
TEXT
  5
6D4
330
1F
100
AcDbEntity
  8
用紙-GR2
  6
Continuous
 62
     6
370
    20
100
AcDbText
 10
95.47715404175347
 20
64.68409706829461
 30
0.0
 40
4.242
  1
□15照射時
 41
0.8333333333333332
  7
FX_VECTOR
100
AcDbText
  0
TEXT
  5
6D5
330
1F
100
AcDbEntity
  8
用紙-GR2
  6
Continuous
 62
     6
370
    20
100
AcDbText
 10
86.63965404175346
 20
60.44209706829462
 30
0.0
 40
4.242
  1
(W.D.=43mm)
 41
0.8333333333333332
  7
FX_VECTOR
100
AcDbText
  0
INSERT
  5
6D9
330
1F
100
AcDbEntity
  8
0
100
AcDbBlockReference
  2
BLKF080
 10
-16.50591968871529
 20
-19.70004294635382
 30
0.0
 41
1.414
 42
1.414
 43
1.414
  0
DIMENSION
  5
6DE
330
1F
100
AcDbEntity
  8
用紙-GR2
100
AcDbDimension
  2
*D79
 10
302.0742504459566
 20
62.2853685290179
 30
0.0
 11
251.3292504459565
 21
64.2853685290179
 31
0.0
 70
    32
 71
     5
 42
101.4900000000002
  3
FXDIMINFO
100
AcDbAlignedDimension
 13
200.5842504459564
 23
72.40006556642405
 33
0.0
 14
302.0742504459566
 24
74.1000655664243
 34
0.0
 50
180.0
100
AcDbRotatedDimension
1001
ACAD
1000
DSTYLE
1002
{
1070
   173
1070
     1
1070
   344
1005
48
1070
   343
1005
42
1002
}
  0
LINE
  5
79C
330
1F
100
AcDbEntity
  8
用紙-GR2
  6
Continuous
 62
     6
370
    20
100
AcDbLine
 10
36.08895112212556
 20
105.0101864847985
 30
0.0
 11
114.1668112470335
 21
104.8146911410646
 31
0.0
  0
ENDSEC
  0
SECTION
  2
OBJECTS
  0
DICTIONARY
  5
C
330
0
100
AcDbDictionary
281
     1
  3
ACAD_GROUP
350
D
  3
ACAD_LAYOUT
350
1A
  3
ACAD_MLEADERSTYLE
350
79E
  3
ACAD_MLINESTYLE
350
17
  3
ACAD_PLOTSETTINGS
350
19
  3
ACAD_PLOTSTYLENAME
350
E
  3
ACAD_TABLESTYLE
350
79D
  3
ACAD_VISUALSTYLE
350
2A
  3
AcDbVariableDictionary
350
79F
  0
DICTIONARY
  5
D
102
{ACAD_REACTORS
330
C
102
}
330
C
100
AcDbDictionary
281
     1
  0
DICTIONARY
  5
1A
102
{ACAD_REACTORS
330
C
102
}
330
C
100
AcDbDictionary
281
     1
  3
Layout1
350
1E
  3
Layout2
350
26
  3
Model
350
22
  0
DICTIONARY
  5
79E
102
{ACAD_REACTORS
330
C
102
}
330
C
100
AcDbDictionary
281
     1
  0
DICTIONARY
  5
17
102
{ACAD_REACTORS
330
C
102
}
330
C
100
AcDbDictionary
281
     1
  3
Standard
350
18
  0
DICTIONARY
  5
19
102
{ACAD_REACTORS
330
C
102
}
330
C
100
AcDbDictionary
281
     1
  0
ACDBDICTIONARYWDFLT
  5
E
102
{ACAD_REACTORS
330
C
102
}
330
C
100
AcDbDictionary
281
     1
  3
Normal
350
F
100
AcDbDictionaryWithDefault
340
F
  0
DICTIONARY
  5
79D
102
{ACAD_REACTORS
330
C
102
}
330
C
100
AcDbDictionary
281
     1
  0
DICTIONARY
  5
2A
102
{ACAD_REACTORS
330
C
102
}
330
C
100
AcDbDictionary
281
     1
  3
2dWireframe
350
2F
  3
3D Hidden
350
31
  3
3dWireframe
350
30
  3
Basic
350
32
  3
Brighten
350
36
  3
ColorChange
350
3A
  3
Conceptual
350
34
  3
Dim
350
35
  3
Facepattern
350
39
  3
Flat
350
2B
  3
FlatWithEdges
350
2C
  3
Gouraud
350
2D
  3
GouraudWithEdges
350
2E
  3
Linepattern
350
38
  3
Realistic
350
33
  3
Thicken
350
37
  0
DICTIONARY
  5
79F
102
{ACAD_REACTORS
330
C
102
}
330
C
100
AcDbDictionary
281
     1
  3
PSOLHEIGHT
350
7A1
  3
PSOLWIDTH
350
7A0
  0
LAYOUT
  5
1E
102
{ACAD_REACTORS
330
1A
102
}
330
1A
100
AcDbPlotSettings
  1

  2
none_device
  4

  6

 40
0.0
 41
0.0
 42
0.0
 43
0.0
 44
0.0
 45
0.0
 46
0.0
 47
0.0
 48
0.0
 49
0.0
140
0.0
141
0.0
142
1.0
143
1.0
 70
   688
 72
     0
 73
     0
 74
     5
  7

 75
    16
147
1.0
148
0.0
149
0.0
100
AcDbLayout
  1
Layout1
 70
     1
 71
     1
 10
0.0
 20
0.0
 11
420.0
 21
297.0
 12
0.0
 22
0.0
 32
0.0
 14
1.000000000000000E+20
 24
1.000000000000000E+20
 34
1.000000000000000E+20
 15
-1.000000000000000E+20
 25
-1.000000000000000E+20
 35
-1.000000000000000E+20
146
0.0
 13
0.0
 23
0.0
 33
0.0
 16
1.0
 26
0.0
 36
0.0
 17
0.0
 27
1.0
 37
0.0
 76
     0
330
1B
  0
LAYOUT
  5
26
102
{ACAD_REACTORS
330
1A
102
}
330
1A
100
AcDbPlotSettings
  1

  2
none_device
  4

  6

 40
0.0
 41
0.0
 42
0.0
 43
0.0
 44
0.0
 45
0.0
 46
0.0
 47
0.0
 48
0.0
 49
0.0
140
0.0
141
0.0
142
1.0
143
1.0
 70
   688
 72
     0
 73
     0
 74
     5
  7

 75
    16
147
1.0
148
0.0
149
0.0
100
AcDbLayout
  1
Layout2
 70
     1
 71
     2
 10
0.0
 20
0.0
 11
0.0
 21
0.0
 12
0.0
 22
0.0
 32
0.0
 14
0.0
 24
0.0
 34
0.0
 15
0.0
 25
0.0
 35
0.0
146
0.0
 13
0.0
 23
0.0
 33
0.0
 16
1.0
 26
0.0
 36
0.0
 17
0.0
 27
1.0
 37
0.0
 76
     0
330
23
  0
LAYOUT
  5
22
102
{ACAD_REACTORS
330
1A
102
}
330
1A
100
AcDbPlotSettings
  1

  2
none_device
  4

  6

 40
0.0
 41
0.0
 42
0.0
 43
0.0
 44
0.0
 45
0.0
 46
0.0
 47
0.0
 48
0.0
 49
0.0
140
0.0
141
0.0
142
1.0
143
1.0
 70
  1712
 72
     0
 73
     0
 74
     0
  7

 75
     0
147
1.0
148
0.0
149
0.0
100
AcDbLayout
  1
Model
 70
     1
 71
     0
 10
0.0
 20
0.0
 11
297.0
 21
210.0
 12
0.0
 22
0.0
 32
0.0
 14
0.0
 24
0.0
 34
0.0
 15
297.0
 25
210.0
 35
0.0
146
0.0
 13
0.0
 23
0.0
 33
0.0
 16
1.0
 26
0.0
 36
0.0
 17
0.0
 27
1.0
 37
0.0
 76
     0
330
1F
331
29
  0
MLINESTYLE
  5
18
102
{ACAD_REACTORS
330
17
102
}
330
17
100
AcDbMlineStyle
  2
STANDARD
 70
     0
  3

 62
   256
 51
90.0
 52
90.0
 71
     2
 49
0.5
 62
   256
  6
BYLAYER
 49
-0.5
 62
   256
  6
BYLAYER
  0
ACDBPLACEHOLDER
  5
F
102
{ACAD_REACTORS
330
E
102
}
330
E
  0
VISUALSTYLE
  5
2F
102
{ACAD_REACTORS
330
2A
102
}
330
2A
100
AcDbVisualStyle
  2
2dWireframe
 70
     4
 71
     0
 72
     2
 73
     0
 90
        0
 40
-0.6
 41
-30.0
 62
     5
 63
     7
 74
     1
 91
        4
 64
     7
 65
   257
 75
     1
175
     1
 42
1.0
 92
        0
 66
   257
 43
1.0
 76
     1
 77
     6
 78
     2
 67
     7
 79
     5
170
     0
171
     0
290
     0
174
     0
 93
        1
 44
0.0
173
     0
291
     0
 45
0.0
1001
ACAD
1000
AcDbSavedByObjectVersion
1070
     0
  0
VISUALSTYLE
  5
31
102
{ACAD_REACTORS
330
2A
102
}
330
2A
100
AcDbVisualStyle
  2
3D Hidden
 70
     6
 71
     1
 72
     2
 73
     2
 90
        0
 40
-0.6
 41
-30.0
 62
     5
 63
     7
 74
     2
 91
        2
 64
     7
 65
   257
 75
     2
175
     1
 42
40.0
 92
        0
 66
   257
 43
1.0
 76
     1
 77
     6
 78
     2
 67
     7
 79
     3
170
     0
171
     0
290
     0
174
     0
 93
        1
 44
0.0
173
     0
291
     0
 45
0.0
1001
ACAD
1000
AcDbSavedByObjectVersion
1070
     0
  0
VISUALSTYLE
  5
30
102
{ACAD_REACTORS
330
2A
102
}
330
2A
100
AcDbVisualStyle
  2
3dWireframe
 70
     5
 71
     0
 72
     2
 73
     0
 90
        0
 40
-0.6
 41
-30.0
 62
     5
 63
     7
 74
     1
 91
        4
 64
     7
 65
   257
 75
     1
175
     1
 42
1.0
 92
        0
 66
   257
 43
1.0
 76
     1
 77
     6
 78
     2
 67
     7
 79
     5
170
     0
171
     0
290
     0
174
     0
 93
        1
 44
0.0
173
     0
291
     0
 45
0.0
1001
ACAD
1000
AcDbSavedByObjectVersion
1070
     0
  0
VISUALSTYLE
  5
32
102
{ACAD_REACTORS
330
2A
102
}
330
2A
100
AcDbVisualStyle
  2
Basic
 70
     7
 71
     1
 72
     0
 73
     1
 90
        0
 40
-0.6
 41
-30.0
 62
     5
 63
     7
 74
     0
 91
        4
 64
     7
 65
   257
 75
     1
175
     1
 42
1.0
 92
        8
 66
     7
 43
1.0
 76
     1
 77
     6
 78
     2
 67
     7
 79
     5
170
     0
171
     0
290
     0
174
     0
 93
        1
 44
0.0
173
     0
291
     1
 45
0.0
1001
ACAD
1000
AcDbSavedByObjectVersion
1070
     0
  0
VISUALSTYLE
  5
36
102
{ACAD_REACTORS
330
2A
102
}
330
2A
100
AcDbVisualStyle
  2
Brighten
 70
    12
 71
     2
 72
     2
 73
     0
 90
        0
 40
-0.6
 41
-30.0
 62
     5
 63
     7
 74
     1
 91
        4
 64
     7
 65
   257
 75
     1
175
     1
 42
1.0
 92
        8
 66
     7
 43
1.0
 76
     1
 77
     6
 78
     2
 67
     7
 79
     5
170
     0
171
     0
290
     0
174
     0
 93
        1
 44
50.0
173
     0
291
     1
 45
0.0
1001
ACAD
1000
AcDbSavedByObjectVersion
1070
     0
  0
VISUALSTYLE
  5
3A
102
{ACAD_REACTORS
330
2A
102
}
330
2A
100
AcDbVisualStyle
  2
ColorChange
 70
    16
 71
     2
 72
     2
 73
     3
 90
        0
 40
-0.6
 41
-30.0
 62
     5
 63
     8
 74
     1
 91
        4
 64
     7
 65
   257
 75
     1
175
     1
 42
1.0
 92
        8
 66
     8
 43
1.0
 76
     1
 77
     6
 78
     2
 67
     7
 79
     5
170
     0
171
     0
290
     0
174
     0
 93
        1
 44
0.0
173
     0
291
     1
 45
0.0
1001
ACAD
1000
AcDbSavedByObjectVersion
1070
     0
  0
VISUALSTYLE
  5
34
102
{ACAD_REACTORS
330
2A
102
}
330
2A
100
AcDbVisualStyle
  2
Conceptual
 70
     9
 71
     3
 72
     2
 73
     0
 90
        0
 40
-0.6
 41
-30.0
 62
     5
 63
     7
 74
     2
 91
        2
 64
     7
 65
   257
 75
     1
175
     1
 42
40.0
 92
        8
 66
     7
 43
1.0
 76
     1
 77
     6
 78
     2
 67
     7
 79
     3
170
     0
171
     0
290
     0
174
     0
 93
        1
 44
0.0
173
     0
291
     0
 45
0.0
1001
ACAD
1000
AcDbSavedByObjectVersion
1070
     0
  0
VISUALSTYLE
  5
35
102
{ACAD_REACTORS
330
2A
102
}
330
2A
100
AcDbVisualStyle
  2
Dim
 70
    11
 71
     2
 72
     2
 73
     0
 90
        0
 40
-0.6
 41
-30.0
 62
     5
 63
     7
 74
     1
 91
        4
 64
     7
 65
   257
 75
     1
175
     1
 42
1.0
 92
        8
 66
     7
 43
1.0
 76
     1
 77
     6
 78
     2
 67
     7
 79
     5
170
     0
171
     0
290
     0
174
     0
 93
        1
 44
-50.0
173
     0
291
     1
 45
0.0
1001
ACAD
1000
AcDbSavedByObjectVersion
1070
     0
  0
VISUALSTYLE
  5
39
102
{ACAD_REACTORS
330
2A
102
}
330
2A
100
AcDbVisualStyle
  2
Facepattern
 70
    15
 71
     2
 72
     2
 73
     0
 90
        0
 40
-0.6
 41
-30.0
 62
     5
 63
     7
 74
     1
 91
        4
 64
     7
 65
   257
 75
     1
175
     1
 42
1.0
 92
        8
 66
     7
 43
1.0
 76
     1
 77
     6
 78
     2
 67
     7
 79
     5
170
     0
171
     0
290
     0
174
     0
 93
        1
 44
0.0
173
     0
291
     1
 45
0.0
1001
ACAD
1000
AcDbSavedByObjectVersion
1070
     0
  0
VISUALSTYLE
  5
2B
102
{ACAD_REACTORS
330
2A
102
}
330
2A
100
AcDbVisualStyle
  2
Flat
 70
     0
 71
     2
 72
     1
 73
     1
 90
        2
 40
-0.6
 41
30.0
 62
     5
 63
     7
 74
     0
 91
        4
 64
     7
 65
   257
 75
     1
175
     1
 42
1.0
 92
        8
 66
     7
 43
1.0
 76
     1
 77
     6
 78
     2
 67
     7
 79
     5
170
     0
171
     0
290
     0
174
     0
 93
       13
 44
0.0
173
     0
291
     1
 45
0.0
1001
ACAD
1000
AcDbSavedByObjectVersion
1070
     0
  0
VISUALSTYLE
  5
2C
102
{ACAD_REACTORS
330
2A
102
}
330
2A
100
AcDbVisualStyle
  2
FlatWithEdges
 70
     1
 71
     2
 72
     1
 73
     1
 90
        2
 40
-0.6
 41
30.0
 62
     5
 63
     7
 74
     1
 91
        4
 64
     7
 65
   257
 75
     1
175
     1
 42
1.0
 92
        0
 66
   257
 43
1.0
 76
     1
 77
     6
 78
     2
 67
     7
 79
     5
170
     0
171
     0
290
     0
174
     0
 93
       13
 44
0.0
173
     0
291
     1
 45
0.0
1001
ACAD
1000
AcDbSavedByObjectVersion
1070
     0
  0
VISUALSTYLE
  5
2D
102
{ACAD_REACTORS
330
2A
102
}
330
2A
100
AcDbVisualStyle
  2
Gouraud
 70
     2
 71
     2
 72
     2
 73
     1
 90
        2
 40
-0.6
 41
30.0
 62
     5
 63
     7
 74
     0
 91
        4
 64
     7
 65
   257
 75
     1
175
     1
 42
1.0
 92
        0
 66
     7
 43
1.0
 76
     1
 77
     6
 78
     2
 67
     7
 79
     5
170
     0
171
     0
290
     0
174
     0
 93
       13
 44
0.0
173
     0
291
     1
 45
0.0
1001
ACAD
1000
AcDbSavedByObjectVersion
1070
     0
  0
VISUALSTYLE
  5
2E
102
{ACAD_REACTORS
330
2A
102
}
330
2A
100
AcDbVisualStyle
  2
GouraudWithEdges
 70
     3
 71
     2
 72
     2
 73
     1
 90
        2
 40
-0.6
 41
30.0
 62
     5
 63
     7
 74
     1
 91
        4
 64
     7
 65
   257
 75
     1
175
     1
 42
1.0
 92
        0
 66
   257
 43
1.0
 76
     1
 77
     6
 78
     2
 67
     7
 79
     5
170
     0
171
     0
290
     0
174
     0
 93
       13
 44
0.0
173
     0
291
     1
 45
0.0
1001
ACAD
1000
AcDbSavedByObjectVersion
1070
     0
  0
VISUALSTYLE
  5
38
102
{ACAD_REACTORS
330
2A
102
}
330
2A
100
AcDbVisualStyle
  2
Linepattern
 70
    14
 71
     2
 72
     2
 73
     0
 90
        0
 40
-0.6
 41
-30.0
 62
     5
 63
     7
 74
     1
 91
        4
 64
     7
 65
   257
 75
     7
175
     7
 42
1.0
 92
        8
 66
     7
 43
1.0
 76
     1
 77
     6
 78
     2
 67
     7
 79
     5
170
     0
171
     0
290
     0
174
     0
 93
        1
 44
0.0
173
     0
291
     1
 45
0.0
1001
ACAD
1000
AcDbSavedByObjectVersion
1070
     0
  0
VISUALSTYLE
  5
33
102
{ACAD_REACTORS
330
2A
102
}
330
2A
100
AcDbVisualStyle
  2
Realistic
 70
     8
 71
     2
 72
     2
 73
     0
 90
        0
 40
-0.6
 41
-30.0
 62
     5
 63
     7
 74
     1
 91
        0
 64
     7
 65
   257
 75
     1
175
     1
 42
1.0
 92
        8
 66
     8
 43
1.0
 76
     1
 77
     6
 78
     2
 67
     7
 79
     5
170
     0
171
     0
290
     0
174
     0
 93
       13
 44
0.0
173
     0
291
     0
 45
0.0
1001
ACAD
1000
AcDbSavedByObjectVersion
1070
     0
  0
VISUALSTYLE
  5
37
102
{ACAD_REACTORS
330
2A
102
}
330
2A
100
AcDbVisualStyle
  2
Thicken
 70
    13
 71
     2
 72
     2
 73
     0
 90
        0
 40
-0.6
 41
-30.0
 62
     5
 63
     7
 74
     1
 91
        4
 64
     7
 65
   257
 75
     1
175
     1
 42
1.0
 92
       12
 66
     7
 43
1.0
 76
     1
 77
     6
 78
     2
 67
     7
 79
     5
170
     0
171
     0
290
     0
174
     0
 93
        1
 44
0.0
173
     0
291
     1
 45
0.0
1001
ACAD
1000
AcDbSavedByObjectVersion
1070
     0
  0
DICTIONARYVAR
  5
7A1
102
{ACAD_REACTORS
330
79F
102
}
330
79F
100
DictionaryVariables
280
     0
  1
80.000000
  0
DICTIONARYVAR
  5
7A0
102
{ACAD_REACTORS
330
79F
102
}
330
79F
100
DictionaryVariables
280
     0
  1
5.000000
  0
ENDSEC
  0
EOF
