  0
SECTION
  2
HEADER
  9
$ACADVER
  1
AC1015
  9
$ACADMAINTVER
 70
    10
  9
$DWGCODEPAGE
  3
ANSI_932
  9
$INSBASE
 10
0.0
 20
0.0
 30
0.0
  9
$EXTMIN
 10
51.26893690841848
 20
57.559662421187
 30
-0.0015258207003583
  9
$EXTMAX
 10
250.7840887724702
 20
174.3099980059895
 30
0.0000000349246037
  9
$LIMMIN
 10
0.0
 20
0.0
  9
$LIMMAX
 10
297.0
 20
210.0
  9
$ORTHOMODE
 70
     0
  9
$REGENMODE
 70
     1
  9
$FILLMODE
 70
     1
  9
$QTEXTMODE
 70
     0
  9
$MIRRTEXT
 70
     1
  9
$LTSCALE
 40
1.0
  9
$ATTMODE
 70
     1
  9
$TEXTSIZE
 40
0.2
  9
$TRACEWID
 40
1.0
  9
$TEXTSTYLE
  7
STYLE003
  9
$CLAYER
  8
0
  9
$CELTYPE
  6
ByLayer
  9
$CECOLOR
 62
   256
  9
$CELTSCALE
 40
1.0
  9
$DISPSILH
 70
     0
  9
$DIMSCALE
 40
1.0
  9
$DIMASZ
 40
3.0
  9
$DIMEXO
 40
1.0
  9
$DIMDLI
 40
10.0
  9
$DIMRND
 40
0.0
  9
$DIMDLE
 40
3.0
  9
$DIMEXE
 40
1.5
  9
$DIMTP
 40
0.0
  9
$DIMTM
 40
0.0
  9
$DIMTXT
 40
3.0
  9
$DIMCEN
 40
2.5
  9
$DIMTSZ
 40
0.0
  9
$DIMTOL
 70
     0
  9
$DIMLIM
 70
     0
  9
$DIMTIH
 70
     0
  9
$DIMTOH
 70
     0
  9
$DIMSE1
 70
     0
  9
$DIMSE2
 70
     0
  9
$DIMTAD
 70
     1
  9
$DIMZIN
 70
     8
  9
$DIMBLK
  1

  9
$DIMASO
 70
     1
  9
$DIMSHO
 70
     1
  9
$DIMPOST
  1

  9
$DIMAPOST
  1

  9
$DIMALT
 70
     0
  9
$DIMALTD
 70
     3
  9
$DIMALTF
 40
0.03937
  9
$DIMLFAC
 40
1.0
  9
$DIMTOFL
 70
     1
  9
$DIMTVP
 40
0.0
  9
$DIMTIX
 70
     0
  9
$DIMSOXD
 70
     0
  9
$DIMSAH
 70
     1
  9
$DIMBLK1
  1
FXTIP_ARROW_S
  9
$DIMBLK2
  1
FXTIP_ARROW_E
  9
$DIMSTYLE
  2
FXDIMINFO
  9
$DIMCLRD
 70
     6
  9
$DIMCLRE
 70
     6
  9
$DIMCLRT
 70
     6
  9
$DIMTFAC
 40
1.0
  9
$DIMGAP
 40
0.5
  9
$DIMJUST
 70
     0
  9
$DIMSD1
 70
     0
  9
$DIMSD2
 70
     0
  9
$DIMTOLJ
 70
     1
  9
$DIMTZIN
 70
     8
  9
$DIMALTZ
 70
     0
  9
$DIMALTTZ
 70
     0
  9
$DIMUPT
 70
     0
  9
$DIMDEC
 70
     2
  9
$DIMTDEC
 70
     2
  9
$DIMALTU
 70
     2
  9
$DIMALTTD
 70
     3
  9
$DIMTXSTY
  7
STYLE003
  9
$DIMAUNIT
 70
     0
  9
$DIMADEC
 70
     2
  9
$DIMALTRND
 40
0.0
  9
$DIMAZIN
 70
     0
  9
$DIMDSEP
 70
    46
  9
$DIMATFIT
 70
     3
  9
$DIMFRAC
 70
     0
  9
$DIMLDRBLK
  1
FXTIP_ARROW_S
  9
$DIMLUNIT
 70
     2
  9
$DIMLWD
 70
    -2
  9
$DIMLWE
 70
    -2
  9
$DIMTMOVE
 70
     0
  9
$LUNITS
 70
     2
  9
$LUPREC
 70
     4
  9
$SKETCHINC
 40
1.0
  9
$FILLETRAD
 40
10.0
  9
$AUNITS
 70
     0
  9
$AUPREC
 70
     0
  9
$MENU
  1
.
  9
$ELEVATION
 40
0.0
  9
$PELEVATION
 40
0.0
  9
$THICKNESS
 40
0.0
  9
$LIMCHECK
 70
     0
  9
$CHAMFERA
 40
10.0
  9
$CHAMFERB
 40
10.0
  9
$CHAMFERC
 40
20.0
  9
$CHAMFERD
 40
0.0
  9
$SKPOLY
 70
     0
  9
$TDCREATE
 40
2456178.430085347
  9
$TDUCREATE
 40
2456178.055085346
  9
$TDUPDATE
 40
2456666.468721203
  9
$TDUUPDATE
 40
2456666.093721203
  9
$TDINDWG
 40
0.0002734722
  9
$TDUSRTIMER
 40
0.0002732870
  9
$USRTIMER
 70
     1
  9
$ANGBASE
 50
0.0
  9
$ANGDIR
 70
     0
  9
$PDMODE
 70
     0
  9
$PDSIZE
 40
0.0
  9
$PLINEWID
 40
0.0
  9
$SPLFRAME
 70
     0
  9
$SPLINETYPE
 70
     6
  9
$SPLINESEGS
 70
     8
  9
$HANDSEED
  5
1F0
  9
$SURFTAB1
 70
     6
  9
$SURFTAB2
 70
     6
  9
$SURFTYPE
 70
     6
  9
$SURFU
 70
     6
  9
$SURFV
 70
     6
  9
$UCSBASE
  2

  9
$UCSNAME
  2

  9
$UCSORG
 10
0.0
 20
0.0
 30
0.0
  9
$UCSXDIR
 10
1.0
 20
0.0
 30
0.0
  9
$UCSYDIR
 10
0.0
 20
1.0
 30
0.0
  9
$UCSORTHOREF
  2

  9
$UCSORTHOVIEW
 70
     0
  9
$UCSORGTOP
 10
0.0
 20
0.0
 30
0.0
  9
$UCSORGBOTTOM
 10
0.0
 20
0.0
 30
0.0
  9
$UCSORGLEFT
 10
0.0
 20
0.0
 30
0.0
  9
$UCSORGRIGHT
 10
0.0
 20
0.0
 30
0.0
  9
$UCSORGFRONT
 10
0.0
 20
0.0
 30
0.0
  9
$UCSORGBACK
 10
0.0
 20
0.0
 30
0.0
  9
$PUCSBASE
  2

  9
$PUCSNAME
  2

  9
$PUCSORG
 10
0.0
 20
0.0
 30
0.0
  9
$PUCSXDIR
 10
1.0
 20
0.0
 30
0.0
  9
$PUCSYDIR
 10
0.0
 20
1.0
 30
0.0
  9
$PUCSORTHOREF
  2

  9
$PUCSORTHOVIEW
 70
     0
  9
$PUCSORGTOP
 10
0.0
 20
0.0
 30
0.0
  9
$PUCSORGBOTTOM
 10
0.0
 20
0.0
 30
0.0
  9
$PUCSORGLEFT
 10
0.0
 20
0.0
 30
0.0
  9
$PUCSORGRIGHT
 10
0.0
 20
0.0
 30
0.0
  9
$PUCSORGFRONT
 10
0.0
 20
0.0
 30
0.0
  9
$PUCSORGBACK
 10
0.0
 20
0.0
 30
0.0
  9
$USERI1
 70
     0
  9
$USERI2
 70
     0
  9
$USERI3
 70
     0
  9
$USERI4
 70
     0
  9
$USERI5
 70
     0
  9
$USERR1
 40
0.0
  9
$USERR2
 40
0.0
  9
$USERR3
 40
0.0
  9
$USERR4
 40
0.0
  9
$USERR5
 40
0.0
  9
$WORLDVIEW
 70
     1
  9
$SHADEDGE
 70
     3
  9
$SHADEDIF
 70
    70
  9
$TILEMODE
 70
     1
  9
$MAXACTVP
 70
    64
  9
$PINSBASE
 10
0.0
 20
0.0
 30
0.0
  9
$PLIMCHECK
 70
     0
  9
$PEXTMIN
 10
1.000000000000000E+20
 20
1.000000000000000E+20
 30
1.000000000000000E+20
  9
$PEXTMAX
 10
-1.000000000000000E+20
 20
-1.000000000000000E+20
 30
-1.000000000000000E+20
  9
$PLIMMIN
 10
0.0
 20
0.0
  9
$PLIMMAX
 10
420.0
 20
297.0
  9
$UNITMODE
 70
     0
  9
$VISRETAIN
 70
     1
  9
$PLINEGEN
 70
     0
  9
$PSLTSCALE
 70
     1
  9
$TREEDEPTH
 70
  3020
  9
$CMLSTYLE
  2
Standard
  9
$CMLJUST
 70
     0
  9
$CMLSCALE
 40
20.0
  9
$PROXYGRAPHICS
 70
     1
  9
$MEASUREMENT
 70
     1
  9
$CELWEIGHT
370
    -1
  9
$ENDCAPS
280
     0
  9
$JOINSTYLE
280
     0
  9
$LWDISPLAY
290
     0
  9
$INSUNITS
 70
     4
  9
$HYPERLINKBASE
  1

  9
$STYLESHEET
  1

  9
$XEDIT
290
     1
  9
$CEPSNTYPE
380
     0
  9
$PSTYLEMODE
290
     1
  9
$FINGERPRINTGUID
  2
{56502EBE-1816-4451-9405-54CBD518F38C}
  9
$VERSIONGUID
  2
{5433E6A4-7A30-475D-AA11-C6204B257CC2}
  9
$EXTNAMES
290
     1
  9
$PSVPSCALE
 40
0.0
  9
$OLESTARTUP
290
     0
  0
ENDSEC
  0
SECTION
  2
CLASSES
  0
CLASS
  1
ACDBDICTIONARYWDFLT
  2
AcDbDictionaryWithDefault
  3
AutoCAD 2000
 90
        0
280
     0
281
     0
  0
CLASS
  1
VISUALSTYLE
  2
AcDbVisualStyle
  3
ObjectDBX Classes
 90
     4095
280
     0
281
     0
  0
CLASS
  1
DICTIONARYVAR
  2
AcDbDictionaryVar
  3
AutoCAD 2000
 90
        0
280
     0
281
     0
  0
CLASS
  1
ACDBPLACEHOLDER
  2
AcDbPlaceHolder
  3
AutoCAD 2000
 90
        0
280
     0
281
     0
  0
CLASS
  1
LAYOUT
  2
AcDbLayout
  3
AutoCAD 2000
 90
        0
280
     0
281
     0
  0
ENDSEC
  0
SECTION
  2
TABLES
  0
TABLE
  2
VPORT
  5
8
330
0
100
AcDbSymbolTable
 70
     3
  0
VPORT
  5
1EF
330
8
100
AcDbSymbolTableRecord
100
AcDbViewportTableRecord
  2
*Active
 70
     0
 10
0.0
 20
0.0
 11
1.0
 21
1.0
 12
148.5
 22
105.0
 13
0.0
 23
0.0
 14
10.0
 24
10.0
 15
10.0
 25
10.0
 16
0.0
 26
0.0
 36
1.0
 17
0.0
 27
0.0
 37
0.0
 40
212.2380106571936
 41
2.122775800711743
 42
50.0
 43
0.0
 44
0.0
 50
0.0
 51
0.0
 71
     0
 72
   100
 73
     1
 74
     3
 75
     0
 76
     0
 77
     0
 78
     0
281
     0
 65
     1
110
0.0
120
0.0
130
0.0
111
1.0
121
0.0
131
0.0
112
0.0
122
1.0
132
0.0
 79
     0
146
0.0
  0
ENDTAB
  0
TABLE
  2
LTYPE
  5
5
330
0
100
AcDbSymbolTable
 70
     2
  0
LTYPE
  5
14
330
5
100
AcDbSymbolTableRecord
100
AcDbLinetypeTableRecord
  2
ByBlock
 70
     0
  3

 72
    65
 73
     0
 40
0.0
  0
LTYPE
  5
15
330
5
100
AcDbSymbolTableRecord
100
AcDbLinetypeTableRecord
  2
ByLayer
 70
     0
  3

 72
    65
 73
     0
 40
0.0
  0
LTYPE
  5
16
330
5
100
AcDbSymbolTableRecord
100
AcDbLinetypeTableRecord
  2
Continuous
 70
     0
  3
Continuous ___________________________________
 72
    65
 73
     0
 40
0.0
  0
LTYPE
  5
3B
330
5
100
AcDbSymbolTableRecord
100
AcDbLinetypeTableRecord
  2
DASHDOT
 70
     0
  3
Dash dot __ . __ . __ . __ . __ . __ . __ . __
 72
    65
 73
     4
 40
25.3
 49
12.7
 74
     0
 49
-6.299999999999999
 74
     0
 49
0.0
 74
     0
 49
-6.299999999999999
 74
     0
  0
ENDTAB
  0
TABLE
  2
LAYER
  5
2
330
0
100
AcDbSymbolTable
 70
     3
  0
LAYER
  5
10
330
2
100
AcDbSymbolTableRecord
100
AcDbLayerTableRecord
  2
0
 70
     0
 62
     7
  6
Continuous
370
    -3
390
F
  0
LAYER
  5
AA
330
2
100
AcDbSymbolTableRecord
100
AcDbLayerTableRecord
  2
Defpoints
 70
     0
 62
     7
  6
Continuous
290
     0
370
    -3
390
F
  0
LAYER
  5
AF
330
2
100
AcDbSymbolTableRecord
100
AcDbLayerTableRecord
  2
LAYER004
 70
     0
 62
     7
  6
Continuous
370
    -3
390
F
  0
ENDTAB
  0
TABLE
  2
STYLE
  5
3
330
0
100
AcDbSymbolTable
 70
     3
  0
STYLE
  5
11
330
3
100
AcDbSymbolTableRecord
100
AcDbTextStyleTableRecord
  2
Standard
 70
     0
 40
0.0
 41
1.0
 50
0.0
 71
     0
 42
2.5
  3
txt
  4

  0
STYLE
  5
41
330
3
100
AcDbSymbolTableRecord
100
AcDbTextStyleTableRecord
  2
FX_VECTOR
 70
     0
 40
0.0
 41
1.0
 50
0.0
 71
     0
 42
0.2
  3
MONOTXT.SHX
  4
BigFont.shx
  0
STYLE
  5
A9
330
3
100
AcDbSymbolTableRecord
100
AcDbTextStyleTableRecord
  2
STYLE003
 70
     0
 40
0.0
 41
1.0
 50
0.0
 71
     0
 42
0.2
  3

  4

1001
ACAD
1000
ＭＳ 明朝
1071
    32785
  0
ENDTAB
  0
TABLE
  2
VIEW
  5
6
330
0
100
AcDbSymbolTable
 70
     0
  0
ENDTAB
  0
TABLE
  2
UCS
  5
7
330
0
100
AcDbSymbolTable
 70
     0
  0
ENDTAB
  0
TABLE
  2
APPID
  5
9
330
0
100
AcDbSymbolTable
 70
     1
  0
APPID
  5
12
330
9
100
AcDbSymbolTableRecord
100
AcDbRegAppTableRecord
  2
ACAD
 70
     0
  0
ENDTAB
  0
TABLE
  2
DIMSTYLE
  5
A
330
0
100
AcDbSymbolTable
 70
     2
100
AcDbDimStyleTable
 71
     0
  0
DIMSTYLE
105
27
330
A
100
AcDbSymbolTableRecord
100
AcDbDimStyleTableRecord
  2
ISO-25
 70
     0
 41
2.5
 42
0.625
 43
3.75
 44
1.25
 73
     0
 74
     0
 77
     1
 78
     8
140
2.5
141
2.5
143
0.03937007874016
147
0.625
171
     3
172
     1
271
     2
272
     2
274
     3
278
    44
283
     0
284
     8
340
11
  0
DIMSTYLE
105
A8
102
{ACAD_REACTORS
330
F8
330
105
330
11B
330
125
330
130
330
16D
330
179
330
182
330
19E
102
}
330
A
100
AcDbSymbolTableRecord
100
AcDbDimStyleTableRecord
  2
FXDIMINFO
 70
     0
 41
3.0
 42
1.0
 43
10.0
 44
1.5
 46
3.0
 73
     0
 74
     0
 77
     1
 78
     8
140
3.0
141
2.5
143
0.03937
147
0.5
171
     3
172
     1
173
     1
176
     6
177
     6
178
     6
179
     2
271
     2
272
     2
274
     3
284
     8
340
A9
341
42
343
42
344
48
  0
ENDTAB
  0
TABLE
  2
BLOCK_RECORD
  5
1
330
0
100
AcDbSymbolTable
 70
    38
  0
BLOCK_RECORD
  5
1F
330
1
100
AcDbSymbolTableRecord
100
AcDbBlockTableRecord
  2
*Model_Space
340
22
  0
BLOCK_RECORD
  5
1B
330
1
100
AcDbSymbolTableRecord
100
AcDbBlockTableRecord
  2
*Paper_Space
340
1E
  0
BLOCK_RECORD
  5
23
330
1
100
AcDbSymbolTableRecord
100
AcDbBlockTableRecord
  2
*Paper_Space0
340
26
  0
BLOCK_RECORD
  5
42
330
1
100
AcDbSymbolTableRecord
100
AcDbBlockTableRecord
  2
FXTIP_ARROW_S
340
0
102
{BLKREFS
331
102
331
10B
331
121
331
12B
331
139
331
141
331
149
331
151
331
173
331
17F
331
188
331
193
331
19B
331
1A4
102
}
  0
BLOCK_RECORD
  5
48
330
1
100
AcDbSymbolTableRecord
100
AcDbBlockTableRecord
  2
FXTIP_ARROW_E
340
0
102
{BLKREFS
331
104
331
10C
331
122
331
12C
331
137
331
174
331
180
331
189
331
1A5
102
}
  0
BLOCK_RECORD
  5
4E
330
1
100
AcDbSymbolTableRecord
100
AcDbBlockTableRecord
  2
FXTIP_BLACKDOT_S
340
0
  0
BLOCK_RECORD
  5
54
330
1
100
AcDbSymbolTableRecord
100
AcDbBlockTableRecord
  2
FXTIP_BLACKDOT_E
340
0
  0
BLOCK_RECORD
  5
5A
330
1
100
AcDbSymbolTableRecord
100
AcDbBlockTableRecord
  2
FXTIP_TRIANGLE_S
340
0
  0
BLOCK_RECORD
  5
61
330
1
100
AcDbSymbolTableRecord
100
AcDbBlockTableRecord
  2
FXTIP_TRIANGLE_E
340
0
  0
BLOCK_RECORD
  5
68
330
1
100
AcDbSymbolTableRecord
100
AcDbBlockTableRecord
  2
FXTIP_ARCHITECT_S
340
0
  0
BLOCK_RECORD
  5
6E
330
1
100
AcDbSymbolTableRecord
100
AcDbBlockTableRecord
  2
FXTIP_ARCHITECT_E
340
0
  0
BLOCK_RECORD
  5
74
330
1
100
AcDbSymbolTableRecord
100
AcDbBlockTableRecord
  2
FXTIP_CIVIL_S
340
0
  0
BLOCK_RECORD
  5
7A
330
1
100
AcDbSymbolTableRecord
100
AcDbBlockTableRecord
  2
FXTIP_CIVIL_E
340
0
  0
BLOCK_RECORD
  5
80
330
1
100
AcDbSymbolTableRecord
100
AcDbBlockTableRecord
  2
FXTIP_WHITEDOT_S
340
0
  0
BLOCK_RECORD
  5
85
330
1
100
AcDbSymbolTableRecord
100
AcDbBlockTableRecord
  2
FXTIP_WHITEDOT_E
340
0
  0
BLOCK_RECORD
  5
8A
330
1
100
AcDbSymbolTableRecord
100
AcDbBlockTableRecord
  2
FXTIP_UPARROW_S
340
0
  0
BLOCK_RECORD
  5
8F
330
1
100
AcDbSymbolTableRecord
100
AcDbBlockTableRecord
  2
FXTIP_UPARROW_E
340
0
  0
BLOCK_RECORD
  5
94
330
1
100
AcDbSymbolTableRecord
100
AcDbBlockTableRecord
  2
FXTIP_DOWNARROW_S
340
0
  0
BLOCK_RECORD
  5
99
330
1
100
AcDbSymbolTableRecord
100
AcDbBlockTableRecord
  2
FXTIP_DOWNARROW_E
340
0
  0
BLOCK_RECORD
  5
9E
330
1
100
AcDbSymbolTableRecord
100
AcDbBlockTableRecord
  2
FXTIP_BLACKTRIANGLE_S
340
0
  0
BLOCK_RECORD
  5
A3
330
1
100
AcDbSymbolTableRecord
100
AcDbBlockTableRecord
  2
FXTIP_BLACKTRIANGLE_E
340
0
  0
BLOCK_RECORD
  5
AB
330
1
100
AcDbSymbolTableRecord
100
AcDbBlockTableRecord
  2
BLKF021
340
0
102
{BLKREFS
331
AE
102
}
  0
BLOCK_RECORD
  5
F9
330
1
100
AcDbSymbolTableRecord
100
AcDbBlockTableRecord
  2
*D20
340
0
  0
BLOCK_RECORD
  5
106
330
1
100
AcDbSymbolTableRecord
100
AcDbBlockTableRecord
  2
*D21
340
0
  0
BLOCK_RECORD
  5
110
330
1
100
AcDbSymbolTableRecord
100
AcDbBlockTableRecord
  2
BLKF024
340
0
102
{BLKREFS
331
113
102
}
  0
BLOCK_RECORD
  5
11C
330
1
100
AcDbSymbolTableRecord
100
AcDbBlockTableRecord
  2
*D23
340
0
  0
BLOCK_RECORD
  5
126
330
1
100
AcDbSymbolTableRecord
100
AcDbBlockTableRecord
  2
*D24
340
0
  0
BLOCK_RECORD
  5
131
330
1
100
AcDbSymbolTableRecord
100
AcDbBlockTableRecord
  2
*D25
340
0
  0
BLOCK_RECORD
  5
13C
330
1
100
AcDbSymbolTableRecord
100
AcDbBlockTableRecord
  2
FXDIM028
340
0
102
{BLKREFS
331
13F
102
}
  0
BLOCK_RECORD
  5
144
330
1
100
AcDbSymbolTableRecord
100
AcDbBlockTableRecord
  2
FXDIM029
340
0
102
{BLKREFS
331
147
102
}
  0
BLOCK_RECORD
  5
14C
330
1
100
AcDbSymbolTableRecord
100
AcDbBlockTableRecord
  2
FXDIM030
340
0
102
{BLKREFS
331
14F
102
}
  0
BLOCK_RECORD
  5
155
330
1
100
AcDbSymbolTableRecord
100
AcDbBlockTableRecord
  2
BLKF031
340
0
102
{BLKREFS
331
158
102
}
  0
BLOCK_RECORD
  5
16E
330
1
100
AcDbSymbolTableRecord
100
AcDbBlockTableRecord
  2
*D30
340
0
  0
BLOCK_RECORD
  5
17A
330
1
100
AcDbSymbolTableRecord
100
AcDbBlockTableRecord
  2
*D31
340
0
  0
BLOCK_RECORD
  5
183
330
1
100
AcDbSymbolTableRecord
100
AcDbBlockTableRecord
  2
*D32
340
0
  0
BLOCK_RECORD
  5
18E
330
1
100
AcDbSymbolTableRecord
100
AcDbBlockTableRecord
  2
FXDIM035
340
0
102
{BLKREFS
331
191
102
}
  0
BLOCK_RECORD
  5
196
330
1
100
AcDbSymbolTableRecord
100
AcDbBlockTableRecord
  2
FXDIM036
340
0
102
{BLKREFS
331
199
102
}
  0
BLOCK_RECORD
  5
19F
330
1
100
AcDbSymbolTableRecord
100
AcDbBlockTableRecord
  2
*D35
340
0
  0
BLOCK_RECORD
  5
1AA
330
1
100
AcDbSymbolTableRecord
100
AcDbBlockTableRecord
  2
BLKF038
340
0
102
{BLKREFS
331
1AD
102
}
  0
BLOCK_RECORD
  5
1B0
330
1
100
AcDbSymbolTableRecord
100
AcDbBlockTableRecord
  2
BLKF039
340
0
102
{BLKREFS
331
1B3
102
}
  0
ENDTAB
  0
ENDSEC
  0
SECTION
  2
BLOCKS
  0
BLOCK
  5
20
330
1F
100
AcDbEntity
  8
0
100
AcDbBlockBegin
  2
*Model_Space
 70
     0
 10
0.0
 20
0.0
 30
0.0
  3
*Model_Space
  1

  0
ENDBLK
  5
21
330
1F
100
AcDbEntity
  8
0
100
AcDbBlockEnd
  0
BLOCK
  5
1C
330
1B
100
AcDbEntity
 67
     1
  8
0
100
AcDbBlockBegin
  2
*Paper_Space
 70
     0
 10
0.0
 20
0.0
 30
0.0
  3
*Paper_Space
  1

  0
ENDBLK
  5
1D
330
1B
100
AcDbEntity
 67
     1
  8
0
100
AcDbBlockEnd
  0
BLOCK
  5
24
330
23
100
AcDbEntity
  8
0
100
AcDbBlockBegin
  2
*Paper_Space0
 70
     0
 10
0.0
 20
0.0
 30
0.0
  3
*Paper_Space0
  1

  0
ENDBLK
  5
25
330
23
100
AcDbEntity
  8
0
100
AcDbBlockEnd
  0
BLOCK
  5
43
330
42
100
AcDbEntity
  8
0
100
AcDbBlockBegin
  2
FXTIP_ARROW_S
 70
     0
 10
0.0
 20
0.0
 30
0.0
  3
FXTIP_ARROW_S
  1

  0
LINE
  5
45
330
42
100
AcDbEntity
  8
0
  6
Continuous
 62
     0
370
    -2
100
AcDbLine
 10
0.0
 20
0.0
 30
0.0
 11
-1.0
 21
0.0000000000000001
 31
0.0
  0
LINE
  5
46
330
42
100
AcDbEntity
  8
0
  6
Continuous
 62
     0
370
    -2
100
AcDbLine
 10
0.0
 20
0.0
 30
0.0
 11
-0.9659258262890684
 21
-0.2588190451025206
 31
0.0
  0
LINE
  5
47
330
42
100
AcDbEntity
  8
0
  6
Continuous
 62
     0
370
    -2
100
AcDbLine
 10
0.0
 20
0.0
 30
0.0
 11
-0.9659258262890684
 21
0.2588190451025209
 31
0.0
  0
ENDBLK
  5
44
330
42
100
AcDbEntity
  8
0
100
AcDbBlockEnd
  0
BLOCK
  5
49
330
48
100
AcDbEntity
  8
0
100
AcDbBlockBegin
  2
FXTIP_ARROW_E
 70
     0
 10
0.0
 20
0.0
 30
0.0
  3
FXTIP_ARROW_E
  1

  0
LINE
  5
4B
330
48
100
AcDbEntity
  8
0
  6
Continuous
 62
     0
370
    -2
100
AcDbLine
 10
0.0
 20
0.0
 30
0.0
 11
-1.0
 21
0.0
 31
0.0
  0
LINE
  5
4C
330
48
100
AcDbEntity
  8
0
  6
Continuous
 62
     0
370
    -2
100
AcDbLine
 10
0.0
 20
0.0
 30
0.0
 11
-0.9659258262890684
 21
0.2588190451025207
 31
0.0
  0
LINE
  5
4D
330
48
100
AcDbEntity
  8
0
  6
Continuous
 62
     0
370
    -2
100
AcDbLine
 10
0.0
 20
0.0
 30
0.0
 11
-0.9659258262890684
 21
-0.2588190451025207
 31
0.0
  0
ENDBLK
  5
4A
330
48
100
AcDbEntity
  8
0
100
AcDbBlockEnd
  0
BLOCK
  5
4F
330
4E
100
AcDbEntity
  8
0
100
AcDbBlockBegin
  2
FXTIP_BLACKDOT_S
 70
     0
 10
0.0
 20
0.0
 30
0.0
  3
FXTIP_BLACKDOT_S
  1

  0
LINE
  5
51
330
4E
100
AcDbEntity
  8
0
  6
Continuous
 62
     0
370
    -2
100
AcDbLine
 10
0.0
 20
0.0
 30
0.0
 11
-1.0
 21
0.0000000000000001
 31
0.0
  0
LWPOLYLINE
  5
52
330
4E
100
AcDbEntity
  8
0
  6
Continuous
 62
     0
370
    -2
100
AcDbPolyline
 90
        2
 70
     1
 43
0.5
 10
-0.25
 20
0.0
 42
1.0
 10
0.25
 20
0.0
 42
1.0
  0
CIRCLE
  5
53
330
4E
100
AcDbEntity
  8
0
  6
Continuous
 62
     0
370
    -2
100
AcDbCircle
 10
0.0
 20
0.0
 30
0.0
 40
0.5
  0
ENDBLK
  5
50
330
4E
100
AcDbEntity
  8
0
100
AcDbBlockEnd
  0
BLOCK
  5
55
330
54
100
AcDbEntity
  8
0
100
AcDbBlockBegin
  2
FXTIP_BLACKDOT_E
 70
     0
 10
0.0
 20
0.0
 30
0.0
  3
FXTIP_BLACKDOT_E
  1

  0
LINE
  5
57
330
54
100
AcDbEntity
  8
0
  6
Continuous
 62
     0
370
    -2
100
AcDbLine
 10
0.0
 20
0.0
 30
0.0
 11
-1.0
 21
0.0
 31
0.0
  0
LWPOLYLINE
  5
58
330
54
100
AcDbEntity
  8
0
  6
Continuous
 62
     0
370
    -2
100
AcDbPolyline
 90
        2
 70
     1
 43
0.5
 10
-0.25
 20
0.0
 42
1.0
 10
0.25
 20
0.0
 42
1.0
  0
CIRCLE
  5
59
330
54
100
AcDbEntity
  8
0
  6
Continuous
 62
     0
370
    -2
100
AcDbCircle
 10
0.0
 20
0.0
 30
0.0
 40
0.5
  0
ENDBLK
  5
56
330
54
100
AcDbEntity
  8
0
100
AcDbBlockEnd
  0
BLOCK
  5
5B
330
5A
100
AcDbEntity
  8
0
100
AcDbBlockBegin
  2
FXTIP_TRIANGLE_S
 70
     0
 10
0.0
 20
0.0
 30
0.0
  3
FXTIP_TRIANGLE_S
  1

  0
LINE
  5
5D
330
5A
100
AcDbEntity
  8
0
  6
Continuous
 62
     0
370
    -2
100
AcDbLine
 10
0.0
 20
0.0
 30
0.0
 11
-1.0
 21
0.0000000000000001
 31
0.0
  0
LINE
  5
5E
330
5A
100
AcDbEntity
  8
0
  6
Continuous
 62
     0
370
    -2
100
AcDbLine
 10
0.0
 20
0.0
 30
0.0
 11
-0.9659258262890684
 21
-0.2588190451025206
 31
0.0
  0
LINE
  5
5F
330
5A
100
AcDbEntity
  8
0
  6
Continuous
 62
     0
370
    -2
100
AcDbLine
 10
0.0
 20
0.0
 30
0.0
 11
-0.9659258262890684
 21
0.2588190451025209
 31
0.0
  0
LINE
  5
60
330
5A
100
AcDbEntity
  8
0
  6
Continuous
 62
     0
370
    -2
100
AcDbLine
 10
-0.9659258262890684
 20
-0.2588190451025206
 30
0.0
 11
-0.9659258262890684
 21
0.2588190451025209
 31
0.0
  0
ENDBLK
  5
5C
330
5A
100
AcDbEntity
  8
0
100
AcDbBlockEnd
  0
BLOCK
  5
62
330
61
100
AcDbEntity
  8
0
100
AcDbBlockBegin
  2
FXTIP_TRIANGLE_E
 70
     0
 10
0.0
 20
0.0
 30
0.0
  3
FXTIP_TRIANGLE_E
  1

  0
LINE
  5
64
330
61
100
AcDbEntity
  8
0
  6
Continuous
 62
     0
370
    -2
100
AcDbLine
 10
0.0
 20
0.0
 30
0.0
 11
-1.0
 21
0.0
 31
0.0
  0
LINE
  5
65
330
61
100
AcDbEntity
  8
0
  6
Continuous
 62
     0
370
    -2
100
AcDbLine
 10
0.0
 20
0.0
 30
0.0
 11
-0.9659258262890684
 21
0.2588190451025207
 31
0.0
  0
LINE
  5
66
330
61
100
AcDbEntity
  8
0
  6
Continuous
 62
     0
370
    -2
100
AcDbLine
 10
0.0
 20
0.0
 30
0.0
 11
-0.9659258262890684
 21
-0.2588190451025207
 31
0.0
  0
LINE
  5
67
330
61
100
AcDbEntity
  8
0
  6
Continuous
 62
     0
370
    -2
100
AcDbLine
 10
-0.9659258262890684
 20
0.2588190451025207
 30
0.0
 11
-0.9659258262890684
 21
-0.2588190451025207
 31
0.0
  0
ENDBLK
  5
63
330
61
100
AcDbEntity
  8
0
100
AcDbBlockEnd
  0
BLOCK
  5
69
330
68
100
AcDbEntity
  8
0
100
AcDbBlockBegin
  2
FXTIP_ARCHITECT_S
 70
     0
 10
0.0
 20
0.0
 30
0.0
  3
FXTIP_ARCHITECT_S
  1

  0
LINE
  5
6B
330
68
100
AcDbEntity
  8
0
  6
Continuous
 62
     0
370
    -2
100
AcDbLine
 10
0.0
 20
0.0
 30
0.0
 11
-1.0
 21
0.0000000000000001
 31
0.0
  0
LINE
  5
6C
330
68
100
AcDbEntity
  8
0
  6
Continuous
 62
     0
370
    -2
100
AcDbLine
 10
0.0
 20
0.0
 30
0.0
 11
-0.7071067811865476
 21
-0.7071067811865474
 31
0.0
  0
LINE
  5
6D
330
68
100
AcDbEntity
  8
0
  6
Continuous
 62
     0
370
    -2
100
AcDbLine
 10
0.0
 20
0.0
 30
0.0
 11
0.7071067811865476
 21
0.7071067811865474
 31
0.0
  0
ENDBLK
  5
6A
330
68
100
AcDbEntity
  8
0
100
AcDbBlockEnd
  0
BLOCK
  5
6F
330
6E
100
AcDbEntity
  8
0
100
AcDbBlockBegin
  2
FXTIP_ARCHITECT_E
 70
     0
 10
0.0
 20
0.0
 30
0.0
  3
FXTIP_ARCHITECT_E
  1

  0
LINE
  5
71
330
6E
100
AcDbEntity
  8
0
  6
Continuous
 62
     0
370
    -2
100
AcDbLine
 10
0.0
 20
0.0
 30
0.0
 11
-1.0
 21
0.0
 31
0.0
  0
LINE
  5
72
330
6E
100
AcDbEntity
  8
0
  6
Continuous
 62
     0
370
    -2
100
AcDbLine
 10
0.0
 20
0.0
 30
0.0
 11
0.7071067811865475
 21
0.7071067811865475
 31
0.0
  0
LINE
  5
73
330
6E
100
AcDbEntity
  8
0
  6
Continuous
 62
     0
370
    -2
100
AcDbLine
 10
0.0
 20
0.0
 30
0.0
 11
-0.7071067811865475
 21
-0.7071067811865475
 31
0.0
  0
ENDBLK
  5
70
330
6E
100
AcDbEntity
  8
0
100
AcDbBlockEnd
  0
BLOCK
  5
75
330
74
100
AcDbEntity
  8
0
100
AcDbBlockBegin
  2
FXTIP_CIVIL_S
 70
     0
 10
0.0
 20
0.0
 30
0.0
  3
FXTIP_CIVIL_S
  1

  0
LINE
  5
77
330
74
100
AcDbEntity
  8
0
  6
Continuous
 62
     0
370
    -2
100
AcDbLine
 10
0.0
 20
0.0
 30
0.0
 11
-1.0
 21
0.0000000000000001
 31
0.0
  0
LINE
  5
78
330
74
100
AcDbEntity
  8
0
  6
Continuous
 62
     0
370
    -2
100
AcDbLine
 10
0.0
 20
-0.0833333333333333
 30
0.0
 11
-1.0
 21
-0.0833333333333332
 31
0.0
  0
LINE
  5
79
330
74
100
AcDbEntity
  8
0
  6
Continuous
 62
     0
370
    -2
100
AcDbLine
 10
0.0
 20
-0.1666666666666667
 30
0.0
 11
-1.0
 21
-0.1666666666666666
 31
0.0
  0
ENDBLK
  5
76
330
74
100
AcDbEntity
  8
0
100
AcDbBlockEnd
  0
BLOCK
  5
7B
330
7A
100
AcDbEntity
  8
0
100
AcDbBlockBegin
  2
FXTIP_CIVIL_E
 70
     0
 10
0.0
 20
0.0
 30
0.0
  3
FXTIP_CIVIL_E
  1

  0
LINE
  5
7D
330
7A
100
AcDbEntity
  8
0
  6
Continuous
 62
     0
370
    -2
100
AcDbLine
 10
0.0
 20
0.0
 30
0.0
 11
-1.0
 21
0.0
 31
0.0
  0
LINE
  5
7E
330
7A
100
AcDbEntity
  8
0
  6
Continuous
 62
     0
370
    -2
100
AcDbLine
 10
0.0
 20
0.0833333333333333
 30
0.0
 11
-1.0
 21
0.0833333333333333
 31
0.0
  0
LINE
  5
7F
330
7A
100
AcDbEntity
  8
0
  6
Continuous
 62
     0
370
    -2
100
AcDbLine
 10
0.0
 20
0.1666666666666667
 30
0.0
 11
-1.0
 21
0.1666666666666667
 31
0.0
  0
ENDBLK
  5
7C
330
7A
100
AcDbEntity
  8
0
100
AcDbBlockEnd
  0
BLOCK
  5
81
330
80
100
AcDbEntity
  8
0
100
AcDbBlockBegin
  2
FXTIP_WHITEDOT_S
 70
     0
 10
0.0
 20
0.0
 30
0.0
  3
FXTIP_WHITEDOT_S
  1

  0
LINE
  5
83
330
80
100
AcDbEntity
  8
0
  6
Continuous
 62
     0
370
    -2
100
AcDbLine
 10
0.0
 20
0.0
 30
0.0
 11
-1.0
 21
0.0000000000000001
 31
0.0
  0
CIRCLE
  5
84
330
80
100
AcDbEntity
  8
0
  6
Continuous
 62
     0
370
    -2
100
AcDbCircle
 10
0.0
 20
0.0
 30
0.0
 40
0.5
  0
ENDBLK
  5
82
330
80
100
AcDbEntity
  8
0
100
AcDbBlockEnd
  0
BLOCK
  5
86
330
85
100
AcDbEntity
  8
0
100
AcDbBlockBegin
  2
FXTIP_WHITEDOT_E
 70
     0
 10
0.0
 20
0.0
 30
0.0
  3
FXTIP_WHITEDOT_E
  1

  0
LINE
  5
88
330
85
100
AcDbEntity
  8
0
  6
Continuous
 62
     0
370
    -2
100
AcDbLine
 10
0.0
 20
0.0
 30
0.0
 11
-1.0
 21
0.0
 31
0.0
  0
CIRCLE
  5
89
330
85
100
AcDbEntity
  8
0
  6
Continuous
 62
     0
370
    -2
100
AcDbCircle
 10
0.0
 20
0.0
 30
0.0
 40
0.5
  0
ENDBLK
  5
87
330
85
100
AcDbEntity
  8
0
100
AcDbBlockEnd
  0
BLOCK
  5
8B
330
8A
100
AcDbEntity
  8
0
100
AcDbBlockBegin
  2
FXTIP_UPARROW_S
 70
     0
 10
0.0
 20
0.0
 30
0.0
  3
FXTIP_UPARROW_S
  1

  0
LINE
  5
8D
330
8A
100
AcDbEntity
  8
0
  6
Continuous
 62
     0
370
    -2
100
AcDbLine
 10
0.0
 20
0.0
 30
0.0
 11
-1.0
 21
0.0000000000000001
 31
0.0
  0
LINE
  5
8E
330
8A
100
AcDbEntity
  8
0
  6
Continuous
 62
     0
370
    -2
100
AcDbLine
 10
0.0
 20
0.0
 30
0.0
 11
-0.9659258262890684
 21
-0.2588190451025206
 31
0.0
  0
ENDBLK
  5
8C
330
8A
100
AcDbEntity
  8
0
100
AcDbBlockEnd
  0
BLOCK
  5
90
330
8F
100
AcDbEntity
  8
0
100
AcDbBlockBegin
  2
FXTIP_UPARROW_E
 70
     0
 10
0.0
 20
0.0
 30
0.0
  3
FXTIP_UPARROW_E
  1

  0
LINE
  5
92
330
8F
100
AcDbEntity
  8
0
  6
Continuous
 62
     0
370
    -2
100
AcDbLine
 10
0.0
 20
0.0
 30
0.0
 11
-1.0
 21
0.0
 31
0.0
  0
LINE
  5
93
330
8F
100
AcDbEntity
  8
0
  6
Continuous
 62
     0
370
    -2
100
AcDbLine
 10
0.0
 20
0.0
 30
0.0
 11
-0.9659258262890684
 21
0.2588190451025207
 31
0.0
  0
ENDBLK
  5
91
330
8F
100
AcDbEntity
  8
0
100
AcDbBlockEnd
  0
BLOCK
  5
95
330
94
100
AcDbEntity
  8
0
100
AcDbBlockBegin
  2
FXTIP_DOWNARROW_S
 70
     0
 10
0.0
 20
0.0
 30
0.0
  3
FXTIP_DOWNARROW_S
  1

  0
LINE
  5
97
330
94
100
AcDbEntity
  8
0
  6
Continuous
 62
     0
370
    -2
100
AcDbLine
 10
0.0
 20
0.0
 30
0.0
 11
-1.0
 21
0.0000000000000001
 31
0.0
  0
LINE
  5
98
330
94
100
AcDbEntity
  8
0
  6
Continuous
 62
     0
370
    -2
100
AcDbLine
 10
0.0
 20
0.0
 30
0.0
 11
-0.9659258262890684
 21
0.2588190451025209
 31
0.0
  0
ENDBLK
  5
96
330
94
100
AcDbEntity
  8
0
100
AcDbBlockEnd
  0
BLOCK
  5
9A
330
99
100
AcDbEntity
  8
0
100
AcDbBlockBegin
  2
FXTIP_DOWNARROW_E
 70
     0
 10
0.0
 20
0.0
 30
0.0
  3
FXTIP_DOWNARROW_E
  1

  0
LINE
  5
9C
330
99
100
AcDbEntity
  8
0
  6
Continuous
 62
     0
370
    -2
100
AcDbLine
 10
0.0
 20
0.0
 30
0.0
 11
-1.0
 21
0.0
 31
0.0
  0
LINE
  5
9D
330
99
100
AcDbEntity
  8
0
  6
Continuous
 62
     0
370
    -2
100
AcDbLine
 10
0.0
 20
0.0
 30
0.0
 11
-0.9659258262890684
 21
-0.2588190451025207
 31
0.0
  0
ENDBLK
  5
9B
330
99
100
AcDbEntity
  8
0
100
AcDbBlockEnd
  0
BLOCK
  5
9F
330
9E
100
AcDbEntity
  8
0
100
AcDbBlockBegin
  2
FXTIP_BLACKTRIANGLE_S
 70
     0
 10
0.0
 20
0.0
 30
0.0
  3
FXTIP_BLACKTRIANGLE_S
  1

  0
LINE
  5
A1
330
9E
100
AcDbEntity
  8
0
  6
Continuous
 62
     0
370
    -2
100
AcDbLine
 10
0.0
 20
0.0
 30
0.0
 11
-1.0
 21
0.0000000000000001
 31
0.0
  0
SOLID
  5
A2
330
9E
100
AcDbEntity
  8
0
  6
Continuous
 62
     0
370
    -2
100
AcDbTrace
 10
0.0
 20
0.0
 30
0.0
 11
-0.9659258262890684
 21
-0.2588190451025206
 31
0.0
 12
-0.9659258262890684
 22
0.2588190451025209
 32
0.0
 13
-0.9659258262890684
 23
0.2588190451025209
 33
0.0
  0
ENDBLK
  5
A0
330
9E
100
AcDbEntity
  8
0
100
AcDbBlockEnd
  0
BLOCK
  5
A4
330
A3
100
AcDbEntity
  8
0
100
AcDbBlockBegin
  2
FXTIP_BLACKTRIANGLE_E
 70
     0
 10
0.0
 20
0.0
 30
0.0
  3
FXTIP_BLACKTRIANGLE_E
  1

  0
LINE
  5
A6
330
A3
100
AcDbEntity
  8
0
  6
Continuous
 62
     0
370
    -2
100
AcDbLine
 10
0.0
 20
0.0
 30
0.0
 11
-1.0
 21
0.0
 31
0.0
  0
SOLID
  5
A7
330
A3
100
AcDbEntity
  8
0
  6
Continuous
 62
     0
370
    -2
100
AcDbTrace
 10
0.0
 20
0.0
 30
0.0
 11
-0.9659258262890684
 21
0.2588190451025207
 31
0.0
 12
-0.9659258262890684
 22
-0.2588190451025207
 32
0.0
 13
-0.9659258262890684
 23
-0.2588190451025207
 33
0.0
  0
ENDBLK
  5
A5
330
A3
100
AcDbEntity
  8
0
100
AcDbBlockEnd
  0
BLOCK
  5
AC
330
AB
100
AcDbEntity
  8
0
100
AcDbBlockBegin
  2
BLKF021
 70
     0
 10
0.0
 20
0.0
 30
0.0
  3
BLKF021
  1

  0
LINE
  5
B0
330
AB
100
AcDbEntity
  8
LAYER004
  6
Continuous
 62
     7
370
    20
100
AcDbLine
 10
13.15748797755684
 20
35.68291677200309
 30
0.0
 11
93.64898339298418
 21
35.68291677200309
 31
0.0
  0
LINE
  5
B1
330
AB
100
AcDbEntity
  8
LAYER004
  6
Continuous
 62
     7
370
    20
100
AcDbLine
 10
93.64898339298418
 20
35.68291677200309
 30
0.0
 11
93.64898339298418
 21
21.23294392523364
 31
0.0
  0
LINE
  5
B2
330
AB
100
AcDbEntity
  8
LAYER004
  6
Continuous
 62
     7
370
    20
100
AcDbLine
 10
93.64898339298418
 20
21.23294392523364
 30
0.0
 11
13.15748797755684
 21
21.23294392523364
 31
0.0
  0
LINE
  5
B3
330
AB
100
AcDbEntity
  8
LAYER004
  6
Continuous
 62
     7
370
    20
100
AcDbLine
 10
13.15748797755684
 20
21.23294392523364
 30
0.0
 11
13.15748797755684
 21
35.68291677200309
 31
0.0
  0
LINE
  5
B4
330
AB
100
AcDbEntity
  8
LAYER004
  6
Continuous
 62
     7
370
    20
100
AcDbLine
 10
12.63248797755688
 20
36.2079167720031
 30
0.0
 11
94.17398339298415
 21
36.2079167720031
 31
0.0
  0
LINE
  5
B5
330
AB
100
AcDbEntity
  8
LAYER004
  6
Continuous
 62
     7
370
    20
100
AcDbLine
 10
94.17398339298415
 20
36.2079167720031
 30
0.0
 11
94.17398339298415
 21
20.70794392523363
 31
0.0
  0
LINE
  5
B6
330
AB
100
AcDbEntity
  8
LAYER004
  6
Continuous
 62
     7
370
    20
100
AcDbLine
 10
94.17398339298415
 20
20.70794392523363
 30
0.0
 11
12.63248797755688
 21
20.70794392523363
 31
0.0
  0
LINE
  5
B7
330
AB
100
AcDbEntity
  8
LAYER004
  6
Continuous
 62
     7
370
    20
100
AcDbLine
 10
12.63248797755688
 20
20.70794392523363
 30
0.0
 11
12.63248797755688
 21
36.2079167720031
 31
0.0
  0
TEXT
  5
B8
330
AB
100
AcDbEntity
  8
LAYER004
  6
Continuous
 62
     7
370
    20
100
AcDbText
 10
13.6793212890625
 20
32.88096237182617
 30
0.0
 40
2.099999904632567
  1
　
 41
0.9000000340597985
  7
FX_VECTOR
100
AcDbText
  0
TEXT
  5
B9
330
AB
100
AcDbEntity
  8
LAYER004
  6
Continuous
 62
     7
370
    20
100
AcDbText
 10
15.56930541992188
 20
32.46380233764647
 30
0.0
 40
1.610000014305114
  1
Confidential
 41
0.8999999925956963
  7
FX_VECTOR
100
AcDbText
  0
TEXT
  5
BA
330
AB
100
AcDbEntity
  8
LAYER004
  6
Continuous
 62
     7
370
    20
100
AcDbText
 10
32.95730590820312
 20
32.88096237182617
 30
0.0
 40
1.610000014305114
  1
　
 41
0.8999999925956963
  7
FX_VECTOR
100
AcDbText
  0
TEXT
  5
BB
330
AB
100
AcDbEntity
  8
LAYER004
  6
Continuous
 62
     7
370
    20
100
AcDbText
 10
34.40631103515625
 20
32.46380233764647
 30
0.0
 40
1.610000014305114
  1
Information
 41
0.8999999925956963
  7
FX_VECTOR
100
AcDbText
  0
TEXT
  5
BC
330
AB
100
AcDbEntity
  8
LAYER004
  6
Continuous
 62
     7
370
    20
100
AcDbText
 10
50.34530639648438
 20
32.46380233764647
 30
0.0
 40
1.75
  1
　　機密情報
 41
0.9000000272478375
  7
FX_VECTOR
100
AcDbText
  0
TEXT
  5
BD
330
AB
100
AcDbEntity
  8
LAYER004
  6
Continuous
 62
     7
370
    20
100
AcDbText
 10
13.6793212890625
 20
30.01568222045898
 30
0.0
 40
1.469999909400939
  1
This material and any attachment contain information that is privileged confidentialor exempt
 41
0.5714286293533999
  7
FX_VECTOR
100
AcDbText
  0
TEXT
  5
BE
330
AB
100
AcDbEntity
  8
LAYER004
  6
Continuous
 62
     7
370
    20
100
AcDbText
 10
27.79132080078125
 20
28.54096603393555
 30
0.0
 40
1.399999976158142
  1
 
 41
0.9000000085149494
  7
FX_VECTOR
100
AcDbText
  0
TEXT
  5
BF
330
AB
100
AcDbEntity
  8
LAYER004
  6
Continuous
 62
     7
370
    20
100
AcDbText
 10
13.6793212890625
 20
27.69199752807617
 30
0.0
 40
1.469999909400939
  1
form disclosure under application or copying of this information is strictly prohibited.
 41
0.5714286293533999
  7
FX_VECTOR
100
AcDbText
  0
TEXT
  5
C0
330
AB
100
AcDbEntity
  8
LAYER004
  6
Continuous
 62
     7
370
    20
100
AcDbText
 10
13.6793212890625
 20
25.09019088745117
 30
0.0
 40
1.610000014305114
  1
本資料は、
 41
0.7826086827751241
  7
FX_VECTOR
100
AcDbText
  0
TEXT
  5
C1
330
AB
100
AcDbEntity
  8
LAYER004
  6
Continuous
 62
     7
370
    20
100
AcDbText
 10
19.66656494140625
 20
25.09019088745117
 30
0.0
 40
1.540000081062316
  1
HOYA CANDEO OPTRONICS
 41
0.6363635765478804
  7
FX_VECTOR
100
AcDbText
  0
TEXT
  5
C2
330
AB
100
AcDbEntity
  8
LAYER004
  6
Continuous
 62
     7
370
    20
100
AcDbText
 10
40.70767211914062
 20
25.09019088745117
 30
0.0
 40
1.610000014305114
  1
株式会社の財産的情報を含んでおりますので、
 41
0.7826086827751241
  7
FX_VECTOR
100
AcDbText
  0
TEXT
  5
C3
330
AB
100
AcDbEntity
  8
LAYER004
  6
Continuous
 62
     7
370
    20
100
AcDbText
 10
13.6793212890625
 20
22.92019271850585
 30
0.0
 40
1.610000014305114
  1
許可なく第三者に開示したり内容の全部又は一部を複写する事を御遠慮下さい。
 41
0.7826086827751241
  7
FX_VECTOR
100
AcDbText
  0
ENDBLK
  5
AD
330
AB
100
AcDbEntity
  8
0
100
AcDbBlockEnd
  0
BLOCK
  5
FA
330
F9
100
AcDbEntity
  8
0
100
AcDbBlockBegin
  2
*D20
 70
     1
 10
0.0
 20
0.0
 30
0.0
  3
*D20
  1

  0
TEXT
  5
FC
330
F9
100
AcDbEntity
  8
LAYER004
  6
Continuous
 62
     6
370
    20
100
AcDbText
 10
54.26943969726561
 20
109.1871337890625
 30
0.0
 40
3.0
  1
%%c
 50
90.0
 41
0.8333333333333333
  7
FX_VECTOR
100
AcDbText
  0
TEXT
  5
FD
330
F9
100
AcDbEntity
  8
LAYER004
  6
Continuous
 62
     6
370
    20
100
AcDbText
 10
54.26943969726561
 20
111.6871337890624
 30
0.0
 40
3.0
  1
12
 50
90.0
 41
0.8333333333333333
  7
FX_VECTOR
100
AcDbText
  0
LINE
  5
FE
330
F9
100
AcDbEntity
  8
LAYER004
  6
Continuous
 62
     6
370
    20
100
AcDbLine
 10
54.76942687143628
 20
118.1871366006322
 30
0.0
 11
54.76942687143628
 21
130.0871366006323
 31
0.0
  0
LINE
  5
FF
330
F9
100
AcDbEntity
  8
LAYER004
  6
Continuous
 62
     6
370
    20
100
AcDbLine
 10
64.48600725221905
 20
118.1871366006322
 30
0.0
 11
53.26942687143628
 21
118.1871366006322
 31
0.0
  0
LINE
  5
100
330
F9
100
AcDbEntity
  8
LAYER004
  6
Continuous
 62
     6
370
    20
100
AcDbLine
 10
64.48600725221905
 20
130.0871366006323
 30
0.0
 11
53.26942687143628
 21
130.0871366006323
 31
0.0
  0
LINE
  5
101
330
F9
100
AcDbEntity
  8
LAYER004
  6
Continuous
 62
     6
370
    20
100
AcDbLine
 10
54.76942687143628
 20
130.0871366006323
 30
0.0
 11
54.76942687143628
 21
133.0871366006323
 31
0.0
  0
INSERT
  5
102
330
F9
100
AcDbEntity
  8
LAYER004
  6
Continuous
 62
     6
370
    20
100
AcDbBlockReference
  2
FXTIP_ARROW_S
 10
54.76942687143628
 20
130.0871366006323
 30
0.0
 41
3.0
 42
3.0
 50
270.0
  0
LINE
  5
103
330
F9
100
AcDbEntity
  8
LAYER004
  6
Continuous
 62
     6
370
    20
100
AcDbLine
 10
54.76942687143628
 20
107.6871366006322
 30
0.0
 11
54.76942687143628
 21
118.1871366006322
 31
0.0
  0
INSERT
  5
104
330
F9
100
AcDbEntity
  8
LAYER004
  6
Continuous
 62
     6
370
    20
100
AcDbBlockReference
  2
FXTIP_ARROW_E
 10
54.76942687143628
 20
118.1871366006322
 30
0.0
 41
3.0
 42
3.0
 50
90.0
  0
ENDBLK
  5
FB
330
F9
100
AcDbEntity
  8
0
100
AcDbBlockEnd
  0
BLOCK
  5
107
330
106
100
AcDbEntity
  8
0
100
AcDbBlockBegin
  2
*D21
 70
     1
 10
0.0
 20
0.0
 30
0.0
  3
*D21
  1

  0
TEXT
  5
109
330
106
100
AcDbEntity
  8
LAYER004
  6
Continuous
 62
     6
370
    20
100
AcDbText
 10
67.9874267578125
 20
143.9122772212434
 30
0.0
 40
3.0
  1
10
 50
0.0000000099999999
 41
0.8333333333333333
  7
FX_VECTOR
100
AcDbText
  0
LINE
  5
10A
330
106
100
AcDbEntity
  8
LAYER004
  6
Continuous
 62
     6
370
    20
100
AcDbLine
 10
65.28600725221918
 20
143.4122727020135
 30
0.0
 11
75.68881925221922
 21
143.4122727020135
 31
0.0
  0
INSERT
  5
10B
330
106
100
AcDbEntity
  8
LAYER004
  6
Continuous
 62
     6
370
    20
100
AcDbBlockReference
  2
FXTIP_ARROW_S
 10
65.28600725221918
 20
143.4122727020135
 30
0.0
 41
3.0
 42
3.0
 50
180.0
  0
INSERT
  5
10C
330
106
100
AcDbEntity
  8
LAYER004
  6
Continuous
 62
     6
370
    20
100
AcDbBlockReference
  2
FXTIP_ARROW_E
 10
75.68881925221922
 20
143.4122727020135
 30
0.0
 41
3.0
 42
3.0
 50
360.0
  0
LINE
  5
10D
330
106
100
AcDbEntity
  8
LAYER004
  6
Continuous
 62
     6
370
    20
100
AcDbLine
 10
65.28600725221918
 20
130.8871366006323
 30
0.0
 11
65.28600725221918
 21
144.9122727020135
 31
0.0
  0
LINE
  5
10E
330
106
100
AcDbEntity
  8
LAYER004
  6
Continuous
 62
     6
370
    20
100
AcDbLine
 10
75.68881925221922
 20
131.0871366006322
 30
0.0
 11
75.68881925221922
 21
144.9122727020135
 31
0.0
  0
ENDBLK
  5
108
330
106
100
AcDbEntity
  8
0
100
AcDbBlockEnd
  0
BLOCK
  5
111
330
110
100
AcDbEntity
  8
0
100
AcDbBlockBegin
  2
BLKF024
 70
     0
 10
0.0
 20
0.0
 30
0.0
  3
BLKF024
  1

  0
LINE
  5
114
330
110
100
AcDbEntity
  8
LAYER004
  6
Continuous
 62
     6
370
    20
100
AcDbLine
 10
138.3268106013987
 20
127.678321763243
 30
0.0
 11
167.7083488325324
 21
127.678321763243
 31
0.0
  0
LINE
  5
115
330
110
100
AcDbEntity
  8
LAYER004
  6
Continuous
 62
     6
370
    20
100
AcDbLine
 10
167.7083488325324
 20
127.678321763243
 30
0.0
 11
167.7083488325324
 21
74.47832176324308
 31
0.0
  0
LINE
  5
116
330
110
100
AcDbEntity
  8
LAYER004
  6
Continuous
 62
     6
370
    20
100
AcDbLine
 10
167.7083488325324
 20
74.47832176324308
 30
0.0
 11
138.3268106013987
 21
74.47832176324308
 31
0.0
  0
LINE
  5
117
330
110
100
AcDbEntity
  8
LAYER004
  6
Continuous
 62
     6
370
    20
100
AcDbLine
 10
138.3268106013987
 20
74.47832176324308
 30
0.0
 11
138.3268106013987
 21
127.678321763243
 31
0.0
  0
ENDBLK
  5
112
330
110
100
AcDbEntity
  8
0
100
AcDbBlockEnd
  0
BLOCK
  5
11D
330
11C
100
AcDbEntity
  8
0
100
AcDbBlockBegin
  2
*D23
 70
     1
 10
0.0
 20
0.0
 30
0.0
  3
*D23
  1

  0
TEXT
  5
11F
330
11C
100
AcDbEntity
  8
LAYER004
  6
Continuous
 62
     6
370
    20
100
AcDbText
 10
120.2314147949219
 20
143.9122772216796
 30
0.0
 40
3.0
  1
(200)
 41
0.8333333333333333
  7
FX_VECTOR
100
AcDbText
  0
LINE
  5
120
330
11C
100
AcDbEntity
  8
LAYER004
  6
Continuous
 62
     6
370
    20
100
AcDbLine
 10
114.6360072522186
 20
143.4122727020135
 30
0.0
 11
138.3268106013987
 21
143.4122727020135
 31
0.0
  0
INSERT
  5
121
330
11C
100
AcDbEntity
  8
LAYER004
  6
Continuous
 62
     6
370
    20
100
AcDbBlockReference
  2
FXTIP_ARROW_S
 10
114.6360072522186
 20
143.4122727020135
 30
0.0
 41
3.0
 42
3.0
 50
180.0
  0
INSERT
  5
122
330
11C
100
AcDbEntity
  8
LAYER004
  6
Continuous
 62
     6
370
    20
100
AcDbBlockReference
  2
FXTIP_ARROW_E
 10
138.3268106013987
 20
143.4122727020135
 30
0.0
 41
3.0
 42
3.0
 50
360.0
  0
LINE
  5
123
330
11C
100
AcDbEntity
  8
LAYER004
  6
Continuous
 62
     6
370
    20
100
AcDbLine
 10
114.6360072522186
 20
130.8371366006322
 30
0.0
 11
114.6360072522186
 21
144.9122727020135
 31
0.0
  0
LINE
  5
124
330
11C
100
AcDbEntity
  8
LAYER004
  6
Continuous
 62
     6
370
    20
100
AcDbLine
 10
138.3268106013987
 20
128.678321763243
 30
0.0
 11
138.3268106013987
 21
144.9122727020135
 31
0.0
  0
ENDBLK
  5
11E
330
11C
100
AcDbEntity
  8
0
100
AcDbBlockEnd
  0
BLOCK
  5
127
330
126
100
AcDbEntity
  8
0
100
AcDbBlockBegin
  2
*D24
 70
     1
 10
0.0
 20
0.0
 30
0.0
  3
*D24
  1

  0
TEXT
  5
129
330
126
100
AcDbEntity
  8
LAYER004
  6
Continuous
 62
     6
370
    20
100
AcDbText
 10
248.7806396484375
 20
120.3871383666992
 30
0.0
 40
3.0
  1
14.7
 50
90.0
 41
0.8333333333333333
  7
FX_VECTOR
100
AcDbText
  0
LINE
  5
12A
330
126
100
AcDbEntity
  8
LAYER004
  6
Continuous
 62
     6
370
    20
100
AcDbLine
 10
249.2806378470978
 20
116.7871366006323
 30
0.0
 11
249.2806378470978
 21
131.4871366006323
 31
0.0
  0
INSERT
  5
12B
330
126
100
AcDbEntity
  8
LAYER004
  6
Continuous
 62
     6
370
    20
100
AcDbBlockReference
  2
FXTIP_ARROW_S
 10
249.2806378470978
 20
116.7871366006323
 30
0.0
 41
3.0
 42
3.0
 50
270.0
  0
INSERT
  5
12C
330
126
100
AcDbEntity
  8
LAYER004
  6
Continuous
 62
     6
370
    20
100
AcDbBlockReference
  2
FXTIP_ARROW_E
 10
249.2806378470978
 20
131.4871366006323
 30
0.0
 41
3.0
 42
3.0
 50
90.0
  0
LINE
  5
12D
330
126
100
AcDbEntity
  8
LAYER004
  6
Continuous
 62
     6
370
    20
100
AcDbLine
 10
232.4368856199523
 20
116.7871366006323
 30
0.0
 11
250.780637847098
 21
116.7871366006323
 31
0.0
  0
LINE
  5
12E
330
126
100
AcDbEntity
  8
LAYER004
  6
Continuous
 62
     6
370
    20
100
AcDbLine
 10
232.4368856199523
 20
131.4871366006323
 30
0.0
 11
250.780637847098
 21
131.4871366006323
 31
0.0
  0
TEXT
  5
12F
330
126
100
AcDbEntity
  8
LAYER004
  6
Continuous
 62
     6
370
    20
100
AcDbText
 10
248.7806396484375
 20
117.8871383666992
 30
0.0
 40
3.0
  1
%%c
 50
90.0
 41
0.8333333333333333
  7
FX_VECTOR
100
AcDbText
  0
ENDBLK
  5
128
330
126
100
AcDbEntity
  8
0
100
AcDbBlockEnd
  0
BLOCK
  5
132
330
131
100
AcDbEntity
  8
0
100
AcDbBlockBegin
  2
*D25
 70
     1
 10
0.0
 20
0.0
 30
0.0
  3
*D25
  1

  0
TEXT
  5
134
330
131
100
AcDbEntity
  8
LAYER004
  6
Continuous
 62
     6
370
    20
100
AcDbText
 10
186.3049926757811
 20
108.0871353149414
 30
0.0
 40
3.0
  1
6.6
 50
90.0
 41
0.8333333333333333
  7
FX_VECTOR
100
AcDbText
  0
LINE
  5
135
330
131
100
AcDbEntity
  8
LAYER004
  6
Continuous
 62
     6
370
    20
100
AcDbLine
 10
186.8049845367638
 20
120.8371366006323
 30
0.0
 11
186.8049845367638
 21
127.4371366006322
 31
0.0
  0
LINE
  5
136
330
131
100
AcDbEntity
  8
LAYER004
  6
Continuous
 62
     6
370
    20
100
AcDbLine
 10
186.8049845367638
 20
99.8371366006323
 30
0.0
 11
186.8049845367638
 21
120.8371366006323
 31
0.0
  0
INSERT
  5
137
330
131
100
AcDbEntity
  8
LAYER004
  6
Continuous
 62
     6
370
    20
100
AcDbBlockReference
  2
FXTIP_ARROW_E
 10
186.8049845367638
 20
120.8371366006323
 30
0.0
 41
3.0
 42
3.0
 50
90.0
  0
LINE
  5
138
330
131
100
AcDbEntity
  8
LAYER004
  6
Continuous
 62
     6
370
    20
100
AcDbLine
 10
186.8049845367638
 20
127.4371366006322
 30
0.0
 11
186.8049845367638
 21
130.4371366006322
 31
0.0
  0
INSERT
  5
139
330
131
100
AcDbEntity
  8
LAYER004
  6
Continuous
 62
     6
370
    20
100
AcDbBlockReference
  2
FXTIP_ARROW_S
 10
186.8049845367638
 20
127.4371366006322
 30
0.0
 41
3.0
 42
3.0
 50
270.0
  0
TEXT
  5
13A
330
131
100
AcDbEntity
  8
LAYER004
  6
Continuous
 62
     6
370
    20
100
AcDbText
 10
186.3049926757811
 20
103.0871353149414
 30
0.0
 40
3.0
  1
(%%c
 50
90.0
 41
0.8333333333333333
  7
FX_VECTOR
100
AcDbText
  0
TEXT
  5
13B
330
131
100
AcDbEntity
  8
LAYER004
  6
Continuous
 62
     6
370
    20
100
AcDbText
 10
186.3049926757811
 20
115.5871353149414
 30
0.0
 40
3.0
  1
)
 50
90.0
 41
0.8333333333333333
  7
FX_VECTOR
100
AcDbText
  0
ENDBLK
  5
133
330
131
100
AcDbEntity
  8
0
100
AcDbBlockEnd
  0
BLOCK
  5
13D
330
13C
100
AcDbEntity
  8
0
100
AcDbBlockBegin
  2
FXDIM028
 70
     0
 10
0.0
 20
0.0
 30
0.0
  3
FXDIM028
  1

  0
LINE
  5
140
330
13C
100
AcDbEntity
  8
LAYER004
  6
Continuous
 62
     6
370
    20
100
AcDbLine
 10
85.93312721783245
 20
118.1371366006326
 30
0.0
 11
94.69256894275899
 21
92.81849042136988
 31
0.0
  0
INSERT
  5
141
330
13C
100
AcDbEntity
  8
LAYER004
  6
Continuous
 62
     6
370
    20
100
AcDbBlockReference
  2
FXTIP_ARROW_S
 10
85.93312721783245
 20
118.1371366006326
 30
0.0
 41
3.0
 42
3.0
 50
109.0839833199197
  0
LINE
  5
142
330
13C
100
AcDbEntity
  8
LAYER004
  6
Continuous
 62
     6
370
    20
100
AcDbLine
 10
94.69256894275899
 20
92.81849042136988
 30
0.0
 11
64.69256894275901
 21
92.81849042136988
 31
0.0
  0
TEXT
  5
143
330
13C
100
AcDbEntity
  8
LAYER004
  6
Continuous
 62
     6
370
    20
100
AcDbText
 10
68.44256591796875
 20
93.31849670410155
 30
0.0
 40
3.0
  1
LED放射口ラベル
 41
0.8333333333333333
  7
FX_VECTOR
100
AcDbText
  0
ENDBLK
  5
13E
330
13C
100
AcDbEntity
  8
0
100
AcDbBlockEnd
  0
BLOCK
  5
145
330
144
100
AcDbEntity
  8
0
100
AcDbBlockBegin
  2
FXDIM029
 70
     0
 10
0.0
 20
0.0
 30
0.0
  3
FXDIM029
  1

  0
LINE
  5
148
330
144
100
AcDbEntity
  8
LAYER004
  6
Continuous
 62
     6
370
    20
100
AcDbLine
 10
110.2707570205323
 20
118.1371366006326
 30
0.0
 11
114.3336889628684
 21
106.1929736178462
 31
0.0
  0
INSERT
  5
149
330
144
100
AcDbEntity
  8
LAYER004
  6
Continuous
 62
     6
370
    20
100
AcDbBlockReference
  2
FXTIP_ARROW_S
 10
110.2707570205323
 20
118.1371366006326
 30
0.0
 41
3.0
 42
3.0
 50
108.7862736999234
  0
LINE
  5
14A
330
144
100
AcDbEntity
  8
LAYER004
  6
Continuous
 62
     6
370
    20
100
AcDbLine
 10
114.3336889628684
 20
106.1929736178462
 30
0.0
 11
96.33368896286841
 21
106.1929736178462
 31
0.0
  0
TEXT
  5
14B
330
144
100
AcDbEntity
  8
LAYER004
  6
Continuous
 62
     6
370
    20
100
AcDbText
 10
99.08370971679687
 20
106.6929779052733
 30
0.0
 40
3.0
  1
型式ラベル
 41
0.8333333333333333
  7
FX_VECTOR
100
AcDbText
  0
ENDBLK
  5
146
330
144
100
AcDbEntity
  8
0
100
AcDbBlockEnd
  0
BLOCK
  5
14D
330
14C
100
AcDbEntity
  8
0
100
AcDbBlockBegin
  2
FXDIM030
 70
     0
 10
0.0
 20
0.0
 30
0.0
  3
FXDIM030
  1

  0
LINE
  5
150
330
14C
100
AcDbEntity
  8
LAYER004
  6
Continuous
 62
     6
370
    20
100
AcDbLine
 10
138.3268106013987
 20
101.0445395082131
 30
0.0
 11
129.4406106805684
 21
81.73243083795396
 31
0.0
  0
INSERT
  5
151
330
14C
100
AcDbEntity
  8
LAYER004
  6
Continuous
 62
     6
370
    20
100
AcDbBlockReference
  2
FXTIP_ARROW_S
 10
138.3268106013987
 20
101.0445395082131
 30
0.0
 41
3.0
 42
3.0
 50
65.29113021778133
  0
LINE
  5
152
330
14C
100
AcDbEntity
  8
LAYER004
  6
Continuous
 62
     6
370
    20
100
AcDbLine
 10
129.4406106805684
 20
81.73243083795396
 30
0.0
 11
81.4406106805684
 21
81.73243083795396
 31
0.0
  0
TEXT
  5
153
330
14C
100
AcDbEntity
  8
LAYER004
  6
Continuous
 62
     6
370
    20
100
AcDbText
 10
86.69061279296874
 20
82.23243713378906
 30
0.0
 40
3.0
  1
警告/注意/SerNo.ラベル
 41
0.8333333333333333
  7
FX_VECTOR
100
AcDbText
  0
ENDBLK
  5
14E
330
14C
100
AcDbEntity
  8
0
100
AcDbBlockEnd
  0
BLOCK
  5
156
330
155
100
AcDbEntity
  8
0
100
AcDbBlockBegin
  2
BLKF031
 70
     0
 10
0.0
 20
0.0
 30
0.0
  3
BLKF031
  1

  0
LINE
  5
159
330
155
100
AcDbEntity
  8
LAYER004
  6
Continuous
 62
     7
370
    20
100
AcDbLine
 10
82.13600725221898
 20
130.1371366006324
 30
0.0
 11
88.93600725221904
 21
130.1371366006323
 31
0.0
  0
LINE
  5
15A
330
155
100
AcDbEntity
  8
LAYER004
  6
Continuous
 62
     7
370
    20
100
AcDbLine
 10
88.93600725221904
 20
130.1371366006323
 30
0.0
 11
88.93600725221904
 21
118.1371366006326
 31
0.0
  0
LINE
  5
15B
330
155
100
AcDbEntity
  8
LAYER004
  6
Continuous
 62
     7
370
    20
100
AcDbLine
 10
82.13600725221898
 20
118.1371366006326
 30
0.0
 11
82.13600725221898
 21
130.1371366006324
 31
0.0
  0
LINE
  5
15C
330
155
100
AcDbEntity
  8
LAYER004
  6
Continuous
 62
     7
370
    20
100
AcDbLine
 10
82.1360072522191
 20
118.1371366006326
 30
0.0
 11
88.93600725221904
 21
118.1371366006326
 31
0.0
  0
ENDBLK
  5
157
330
155
100
AcDbEntity
  8
0
100
AcDbBlockEnd
  0
BLOCK
  5
16F
330
16E
100
AcDbEntity
  8
0
100
AcDbBlockBegin
  2
*D30
 70
     1
 10
0.0
 20
0.0
 30
0.0
  3
*D30
  1

  0
TEXT
  5
171
330
16E
100
AcDbEntity
  8
LAYER004
  6
Continuous
 62
     6
370
    20
100
AcDbText
 10
212.9580078125
 20
153.9442443847655
 30
0.0
 40
3.0
  1
43
 41
0.8333333333333333
  7
FX_VECTOR
100
AcDbText
  0
LINE
  5
172
330
16E
100
AcDbEntity
  8
LAYER004
  6
Continuous
 62
     6
370
    20
100
AcDbLine
 10
194.1667424528174
 20
153.4442333155765
 30
0.0
 11
236.7493032538976
 21
153.4442333155765
 31
0.0
  0
INSERT
  5
173
330
16E
100
AcDbEntity
  8
LAYER004
  6
Continuous
 62
     6
370
    20
100
AcDbBlockReference
  2
FXTIP_ARROW_S
 10
194.1667424528174
 20
153.4442333155765
 30
0.0
 41
3.0
 42
3.0
 50
180.0
  0
INSERT
  5
174
330
16E
100
AcDbEntity
  8
LAYER004
  6
Continuous
 62
     6
370
    20
100
AcDbBlockReference
  2
FXTIP_ARROW_E
 10
236.7493032538976
 20
153.4442333155765
 30
0.0
 41
3.0
 42
3.0
 50
360.0
  0
LINE
  5
175
330
16E
100
AcDbEntity
  8
LAYER004
  6
Continuous
 62
     6
370
    20
100
AcDbLine
 10
194.1667424528174
 20
129.2911017435197
 30
0.0
 11
194.1667424528174
 21
154.9442333155765
 31
0.0
  0
LINE
  5
176
330
16E
100
AcDbEntity
  8
LAYER004
  6
Continuous
 62
     6
370
    20
100
AcDbLine
 10
236.7493032538976
 20
129.8871366006322
 30
0.0
 11
236.7493032538976
 21
154.9442333155765
 31
0.0
  0
TEXT
  5
177
330
16E
100
AcDbEntity
  8
LAYER004
  6
Continuous
 62
     6
370
    20
100
AcDbText
 10
210.4580078125
 20
153.9442443847655
 30
0.0
 40
3.0
  1
(
 41
0.8333333333333333
  7
FX_VECTOR
100
AcDbText
  0
TEXT
  5
178
330
16E
100
AcDbEntity
  8
LAYER004
  6
Continuous
 62
     6
370
    20
100
AcDbText
 10
217.9580078124999
 20
153.9442443847655
 30
0.0
 40
3.0
  1
)
 41
0.8333333333333333
  7
FX_VECTOR
100
AcDbText
  0
ENDBLK
  5
170
330
16E
100
AcDbEntity
  8
0
100
AcDbBlockEnd
  0
BLOCK
  5
17B
330
17A
100
AcDbEntity
  8
0
100
AcDbBlockBegin
  2
*D31
 70
     1
 10
0.0
 20
0.0
 30
0.0
  3
*D31
  1

  0
TEXT
  5
17D
330
17A
100
AcDbEntity
  8
LAYER004
  6
Continuous
 62
     6
370
    20
100
AcDbText
 10
149.4013671875
 20
153.9442443847655
 30
0.0
 40
3.0
  1
2000
 41
0.8333333333333333
  7
FX_VECTOR
100
AcDbText
  0
LINE
  5
17E
330
17A
100
AcDbEntity
  8
LAYER004
  6
Continuous
 62
     6
370
    20
100
AcDbLine
 10
114.6360072522186
 20
153.4442333155765
 30
0.0
 11
194.1667424528174
 21
153.4442333155765
 31
0.0
  0
INSERT
  5
17F
330
17A
100
AcDbEntity
  8
LAYER004
  6
Continuous
 62
     6
370
    20
100
AcDbBlockReference
  2
FXTIP_ARROW_S
 10
114.6360072522186
 20
153.4442333155765
 30
0.0
 41
3.0
 42
3.0
 50
180.0
  0
INSERT
  5
180
330
17A
100
AcDbEntity
  8
LAYER004
  6
Continuous
 62
     6
370
    20
100
AcDbBlockReference
  2
FXTIP_ARROW_E
 10
194.1667424528174
 20
153.4442333155765
 30
0.0
 41
3.0
 42
3.0
 50
360.0
  0
LINE
  5
181
330
17A
100
AcDbEntity
  8
LAYER004
  6
Continuous
 62
     6
370
    20
100
AcDbLine
 10
114.6360072522186
 20
130.8371366006322
 30
0.0
 11
114.6360072522185
 21
154.9442333155765
 31
0.0
  0
ENDBLK
  5
17C
330
17A
100
AcDbEntity
  8
0
100
AcDbBlockEnd
  0
BLOCK
  5
184
330
183
100
AcDbEntity
  8
0
100
AcDbBlockBegin
  2
*D32
 70
     1
 10
0.0
 20
0.0
 30
0.0
  3
*D32
  1

  0
TEXT
  5
186
330
183
100
AcDbEntity
  8
LAYER004
  6
Continuous
 62
     6
370
    20
100
AcDbText
 10
84.96099853515625
 20
153.944244383893
 30
0.0
 40
3.0
  1
49.4
 50
0.0000000099999999
 41
0.8333333333333333
  7
FX_VECTOR
100
AcDbText
  0
LINE
  5
187
330
183
100
AcDbEntity
  8
LAYER004
  6
Continuous
 62
     6
370
    20
100
AcDbLine
 10
65.28600725221924
 20
153.4442333155765
 30
0.0
 11
114.6360072522186
 21
153.4442333155765
 31
0.0
  0
INSERT
  5
188
330
183
100
AcDbEntity
  8
LAYER004
  6
Continuous
 62
     6
370
    20
100
AcDbBlockReference
  2
FXTIP_ARROW_S
 10
65.28600725221924
 20
153.4442333155765
 30
0.0
 41
3.0
 42
3.0
 50
180.0
  0
INSERT
  5
189
330
183
100
AcDbEntity
  8
LAYER004
  6
Continuous
 62
     6
370
    20
100
AcDbBlockReference
  2
FXTIP_ARROW_E
 10
114.6360072522186
 20
153.4442333155765
 30
0.0
 41
3.0
 42
3.0
 50
360.0
  0
LINE
  5
18A
330
183
100
AcDbEntity
  8
LAYER004
  6
Continuous
 62
     6
370
    20
100
AcDbLine
 10
65.28600725221918
 20
130.8871366006323
 30
0.0
 11
65.28600725221924
 21
154.9442333155765
 31
0.0
  0
LINE
  5
18B
330
183
100
AcDbEntity
  8
LAYER004
  6
Continuous
 62
     6
370
    20
100
AcDbLine
 10
114.6360072522186
 20
130.8371366006322
 30
0.0
 11
114.6360072522186
 21
154.9442333155765
 31
0.0
  0
TEXT
  5
18C
330
183
100
AcDbEntity
  8
LAYER004
  6
Continuous
 62
     6
370
    20
100
AcDbText
 10
82.46099853515625
 20
153.9442443845475
 30
0.0
 40
3.0
  1
(
 50
0.0000000099999999
 41
0.8333333333333333
  7
FX_VECTOR
100
AcDbText
  0
TEXT
  5
18D
330
183
100
AcDbEntity
  8
LAYER004
  6
Continuous
 62
     6
370
    20
100
AcDbText
 10
94.96099853515623
 20
153.9442443845475
 30
0.0
 40
3.0
  1
)
 50
0.0000000099999999
 41
0.8333333333333333
  7
FX_VECTOR
100
AcDbText
  0
ENDBLK
  5
185
330
183
100
AcDbEntity
  8
0
100
AcDbBlockEnd
  0
BLOCK
  5
18F
330
18E
100
AcDbEntity
  8
0
100
AcDbBlockBegin
  2
FXDIM035
 70
     0
 10
0.0
 20
0.0
 30
0.0
  3
FXDIM035
  1

  0
LINE
  5
192
330
18E
100
AcDbEntity
  8
LAYER004
  6
Continuous
 62
     6
370
    20
100
AcDbLine
 10
70.20633715569136
 20
124.2871366006323
 30
0.0
 11
77.19535102365632
 21
136.4717917922031
 31
0.0
  0
INSERT
  5
193
330
18E
100
AcDbEntity
  8
LAYER004
  6
Continuous
 62
     6
370
    20
100
AcDbBlockReference
  2
FXTIP_ARROW_S
 10
70.20633715569136
 20
124.2871366006323
 30
0.0
 41
3.0
 42
3.0
 50
240.1617868587649
  0
LINE
  5
194
330
18E
100
AcDbEntity
  8
LAYER004
  6
Continuous
 62
     6
370
    20
100
AcDbLine
 10
77.19535102365632
 20
136.4717917922031
 30
0.0
 11
113.6564658885567
 21
136.4717917922031
 31
0.0
  0
TEXT
  5
195
330
18E
100
AcDbEntity
  8
LAYER004
  6
Continuous
 62
     6
370
    20
100
AcDbText
 10
76.6759033203125
 20
136.97180175454
 30
0.0
 40
3.0
  1
ケガキ線2箇所（180°対向）
 50
0.0000000099999999
 41
0.8333333333333333
  7
FX_VECTOR
100
AcDbText
  0
ENDBLK
  5
190
330
18E
100
AcDbEntity
  8
0
100
AcDbBlockEnd
  0
BLOCK
  5
197
330
196
100
AcDbEntity
  8
0
100
AcDbBlockBegin
  2
FXDIM036
 70
     0
 10
0.0
 20
0.0
 30
0.0
  3
FXDIM036
  1

  0
LINE
  5
19A
330
196
100
AcDbEntity
  8
LAYER004
  6
Continuous
 62
     6
370
    20
100
AcDbLine
 10
80.4360072522191
 20
118.3871366006323
 30
0.0
 11
85.92691898265963
 21
99.5905536449681
 31
0.0
  0
INSERT
  5
19B
330
196
100
AcDbEntity
  8
LAYER004
  6
Continuous
 62
     6
370
    20
100
AcDbBlockReference
  2
FXTIP_ARROW_S
 10
80.4360072522191
 20
118.3871366006323
 30
0.0
 41
3.0
 42
3.0
 50
106.284290937666
  0
LINE
  5
19C
330
196
100
AcDbEntity
  8
LAYER004
  6
Continuous
 62
     6
370
    20
100
AcDbLine
 10
85.92691898265963
 20
99.5905536449681
 30
0.0
 11
70.42691898265963
 21
99.5905536449681
 31
0.0
  0
TEXT
  5
19D
330
196
100
AcDbEntity
  8
LAYER004
  6
Continuous
 62
     6
370
    20
100
AcDbText
 10
71.92694091796875
 20
100.0905609130859
 30
0.0
 40
3.0
  1
表示線1本
 41
0.8333333333333333
  7
FX_VECTOR
100
AcDbText
  0
ENDBLK
  5
198
330
196
100
AcDbEntity
  8
0
100
AcDbBlockEnd
  0
BLOCK
  5
1A0
330
19F
100
AcDbEntity
  8
0
100
AcDbBlockBegin
  2
*D35
 70
     1
 10
0.0
 20
0.0
 30
0.0
  3
*D35
  1

  0
TEXT
  5
1A2
330
19F
100
AcDbEntity
  8
LAYER004
  6
Continuous
 62
     6
370
    20
100
AcDbText
 10
68.71099853515625
 20
108.993461608014
 30
0.0
 40
3.0
  1
16.9
 50
0.0000000099998942
 41
0.8333333333333333
 51
15.0
  7
FX_VECTOR
100
AcDbText
  0
LINE
  5
1A3
330
19F
100
AcDbEntity
  8
LAYER004
  6
Continuous
 62
     6
370
    20
100
AcDbLine
 10
65.28600725221924
 20
108.4934581919684
 30
0.0
 11
82.13600725221903
 21
108.4934581919684
 31
0.0
  0
INSERT
  5
1A4
330
19F
100
AcDbEntity
  8
LAYER004
  6
Continuous
 62
     6
370
    20
100
AcDbBlockReference
  2
FXTIP_ARROW_S
 10
65.28600725221924
 20
108.4934581919684
 30
0.0
 41
3.0
 42
3.0
 50
180.0
  0
INSERT
  5
1A5
330
19F
100
AcDbEntity
  8
LAYER004
  6
Continuous
 62
     6
370
    20
100
AcDbBlockReference
  2
FXTIP_ARROW_E
 10
82.13600725221903
 20
108.4934581919684
 30
0.0
 41
3.0
 42
3.0
 50
360.0
  0
LINE
  5
1A6
330
19F
100
AcDbEntity
  8
LAYER004
  6
Continuous
 62
     6
370
    20
100
AcDbLine
 10
65.28600725221918
 20
117.3871366006323
 30
0.0
 11
65.28600725221924
 21
106.9934581919685
 31
0.0
  0
LINE
  5
1A7
330
19F
100
AcDbEntity
  8
LAYER004
  6
Continuous
 62
     6
370
    20
100
AcDbLine
 10
82.13600725221898
 20
117.1371366006326
 30
0.0
 11
82.13600725221903
 21
106.9934581919685
 31
0.0
  0
TEXT
  5
1A8
330
19F
100
AcDbEntity
  8
LAYER004
  6
Continuous
 62
     6
370
    20
100
AcDbText
 10
66.21099853515625
 20
108.9934616086686
 30
0.0
 40
3.0
  1
(
 50
0.0000000099998942
 41
0.8333333333333333
 51
15.0
  7
FX_VECTOR
100
AcDbText
  0
TEXT
  5
1A9
330
19F
100
AcDbEntity
  8
LAYER004
  6
Continuous
 62
     6
370
    20
100
AcDbText
 10
78.71099853515625
 20
108.9934616086686
 30
0.0
 40
3.0
  1
)
 50
0.0000000099998942
 41
0.8333333333333333
 51
15.0
  7
FX_VECTOR
100
AcDbText
  0
ENDBLK
  5
1A1
330
19F
100
AcDbEntity
  8
0
100
AcDbBlockEnd
  0
BLOCK
  5
1AB
330
1AA
100
AcDbEntity
  8
0
100
AcDbBlockBegin
  2
BLKF038
 70
     0
 10
0.0
 20
0.0
 30
0.0
  3
BLKF038
  1

  0
LINE
  5
1AE
330
1AA
100
AcDbEntity
  8
LAYER004
  6
Continuous
 62
     6
370
    20
100
AcDbLine
 10
82.13600725221898
 20
118.2871366006323
 30
0.0
 11
82.13600725221898
 21
129.9871366006323
 31
0.0
  0
LINE
  5
1AF
330
1AA
100
AcDbEntity
  8
LAYER004
  6
Continuous
 62
     7
370
    20
100
AcDbLine
 10
82.13600725221875
 20
118.1871366006322
 30
0.0
 11
82.1360072522188
 21
130.0871366006322
 31
0.0
  0
INSERT
  5
1B3
330
1AA
100
AcDbEntity
  8
0
100
AcDbBlockReference
  2
BLKF039
 10
0.0
 20
0.0
 30
0.0
  0
LINE
  5
1D5
330
1AA
100
AcDbEntity
  8
LAYER004
  6
Continuous
 62
     7
370
    20
100
AcDbLine
 10
80.6360072522191
 20
118.1871366006322
 30
0.0
 11
80.4360072522191
 21
118.3871366006323
 31
0.0
  0
LINE
  5
1D6
330
1AA
100
AcDbEntity
  8
LAYER004
  6
Continuous
 62
     7
370
    20
100
AcDbLine
 10
80.4360072522191
 20
118.3871366006323
 30
0.0
 11
80.23600725221911
 21
118.1871366006322
 31
0.0
  0
LINE
  5
1D7
330
1AA
100
AcDbEntity
  8
LAYER004
  6
Continuous
 62
     6
370
    20
100
AcDbLine
 10
80.4360072522191
 20
118.3871366006323
 30
0.0
 11
80.4360072522191
 21
124.1371366006323
 31
0.0
  0
LINE
  5
1D8
330
1AA
100
AcDbEntity
  8
LAYER004
  6
Continuous
 62
     7
370
    20
100
AcDbLine
 10
80.6360072522191
 20
118.1871366006322
 30
0.0
 11
80.6360072522191
 21
124.1371366006323
 31
0.0
  0
LINE
  5
1D9
330
1AA
100
AcDbEntity
  8
LAYER004
  6
Continuous
 62
     7
370
    20
100
AcDbLine
 10
80.23600725221911
 20
118.1871366006322
 30
0.0
 11
80.23600725221911
 21
124.1371366006323
 31
0.0
  0
LINE
  5
1DA
330
1AA
100
AcDbEntity
  8
LAYER004
  6
Continuous
 62
     7
370
    20
100
AcDbLine
 10
80.6360072522191
 20
130.0871366006323
 30
0.0
 11
80.4360072522191
 21
129.8871366006323
 31
0.0
  0
LINE
  5
1DB
330
1AA
100
AcDbEntity
  8
LAYER004
  6
Continuous
 62
     7
370
    20
100
AcDbLine
 10
80.4360072522191
 20
129.8871366006323
 30
0.0
 11
80.23600725221911
 21
130.0871366006323
 31
0.0
  0
LINE
  5
1DC
330
1AA
100
AcDbEntity
  8
LAYER004
  6
Continuous
 62
     6
370
    20
100
AcDbLine
 10
80.4360072522191
 20
129.8871366006323
 30
0.0
 11
80.4360072522191
 21
124.1371366006323
 31
0.0
  0
LINE
  5
1DD
330
1AA
100
AcDbEntity
  8
LAYER004
  6
Continuous
 62
     7
370
    20
100
AcDbLine
 10
80.6360072522191
 20
130.0871366006323
 30
0.0
 11
80.6360072522191
 21
124.1371366006323
 31
0.0
  0
LINE
  5
1DE
330
1AA
100
AcDbEntity
  8
LAYER004
  6
Continuous
 62
     7
370
    20
100
AcDbLine
 10
80.23600725221911
 20
130.0871366006323
 30
0.0
 11
80.23600725221911
 21
124.1371366006323
 31
0.0
  0
ENDBLK
  5
1AC
330
1AA
100
AcDbEntity
  8
0
100
AcDbBlockEnd
  0
BLOCK
  5
1B1
330
1B0
100
AcDbEntity
  8
0
100
AcDbBlockBegin
  2
BLKF039
 70
     0
 10
0.0
 20
0.0
 30
0.0
  3
BLKF039
  1

  0
LINE
  5
1B4
330
1B0
100
AcDbEntity
  8
LAYER004
  6
Continuous
 62
     7
370
    20
100
AcDbLine
 10
82.03600725221919
 20
130.0871366006323
 30
0.0
 11
80.63600725221903
 21
130.0871366006323
 31
0.0
  0
LINE
  5
1B5
330
1B0
100
AcDbEntity
  8
LAYER004
  6
Continuous
 62
     7
370
    20
100
AcDbLine
 10
76.13881925221905
 20
130.0871366006323
 30
0.0
 11
75.93881925221921
 21
129.8871366006323
 31
0.0
  0
LINE
  5
1B6
330
1B0
100
AcDbEntity
  8
LAYER004
  6
Continuous
 62
     7
370
    20
100
AcDbLine
 10
82.03600725221919
 20
130.0871366006323
 30
0.0
 11
82.1360072522191
 21
129.9871366006323
 31
0.0
  0
LINE
  5
1B7
330
1B0
100
AcDbEntity
  8
LAYER004
  6
Continuous
 62
     7
370
    20
100
AcDbLine
 10
82.1360072522191
 20
124.1371366006323
 30
0.0
 11
82.1360072522191
 21
129.9871366006323
 31
0.0
  0
LINE
  5
1B8
330
1B0
100
AcDbEntity
  8
LAYER004
  6
Continuous
 62
     7
370
    20
100
AcDbLine
 10
75.93881925221921
 20
129.8871366006323
 30
0.0
 11
75.93881925221921
 21
124.1371366006323
 31
0.0
  0
LINE
  5
1B9
330
1B0
100
AcDbEntity
  8
LAYER004
  6
Continuous
 62
     7
370
    20
100
AcDbLine
 10
75.93881925221921
 20
129.4751366006323
 30
0.0
 11
75.68881925221929
 21
129.4751366006323
 31
0.0
  0
LINE
  5
1BA
330
1B0
100
AcDbEntity
  8
LAYER004
  6
Continuous
 62
     7
370
    20
100
AcDbLine
 10
65.28600725221918
 20
129.4272273956702
 30
0.0
 11
65.28600725221918
 21
124.1371366006323
 31
0.0
  0
LINE
  5
1BB
330
1B0
100
AcDbEntity
  8
LAYER004
  6
DASHDOT
 62
     6
370
    20
100
AcDbLine
 10
82.1360072522191
 20
124.1371366006323
 30
0.0
 11
64.4064873691716
 21
124.1371366006323
 31
0.0
  0
LINE
  5
1BC
330
1B0
100
AcDbEntity
  8
LAYER004
  6
Continuous
 62
     7
370
    20
100
AcDbLine
 10
65.28600725221918
 20
124.1371366006323
 30
0.0
 11
65.28600725221918
 21
129.8871366006323
 31
0.0
  0
LINE
  5
1BD
330
1B0
100
AcDbEntity
  8
LAYER004
  6
Continuous
 62
     7
370
    20
100
AcDbLine
 10
75.68881925221922
 20
130.0871366006322
 30
0.0
 11
65.48600725221899
 21
130.0871366006323
 31
0.0
  0
LINE
  5
1BE
330
1B0
100
AcDbEntity
  8
LAYER004
  6
Continuous
 62
     7
370
    20
100
AcDbLine
 10
65.48600725221899
 20
130.0871366006323
 30
0.0
 11
65.28600725221918
 21
129.8871366006323
 31
0.0
  0
LINE
  5
1BF
330
1B0
100
AcDbEntity
  8
LAYER004
  6
Continuous
 62
     7
370
    20
100
AcDbLine
 10
75.68881925221922
 20
130.0871366006323
 30
0.0
 11
75.68881925221922
 21
124.1371366006323
 31
0.0
  0
LINE
  5
1C0
330
1B0
100
AcDbEntity
  8
LAYER004
  6
Continuous
 62
     6
370
    20
100
AcDbLine
 10
82.03600725221919
 20
130.0871366006323
 30
0.0
 11
82.03600725221919
 21
124.1371366006323
 31
0.0
  0
LINE
  5
1C1
330
1B0
100
AcDbEntity
  8
LAYER004
  6
Continuous
 62
     6
370
    20
100
AcDbLine
 10
76.13881925221909
 20
130.0871366006323
 30
0.0
 11
76.13881925221909
 21
124.1371366006323
 31
0.0
  0
LINE
  5
1C2
330
1B0
100
AcDbEntity
  8
LAYER004
  6
Continuous
 62
     6
370
    20
100
AcDbLine
 10
65.48600725221906
 20
130.0871366006323
 30
0.0
 11
65.48600725221906
 21
124.2871366006323
 31
0.0
  0
LINE
  5
1C3
330
1B0
100
AcDbEntity
  8
LAYER004
  6
Continuous
 62
     7
370
    20
100
AcDbLine
 10
65.28600725221918
 20
124.2871366006323
 30
0.0
 11
75.68881925221922
 21
124.2871366006323
 31
0.0
  0
LINE
  5
1C4
330
1B0
100
AcDbEntity
  8
LAYER004
  6
Continuous
 62
     7
370
    20
100
AcDbLine
 10
82.03600725221919
 20
118.1871366006324
 30
0.0
 11
80.63600725221903
 21
118.1871366006322
 31
0.0
  0
LINE
  5
1C5
330
1B0
100
AcDbEntity
  8
LAYER004
  6
Continuous
 62
     7
370
    20
100
AcDbLine
 10
76.13881925221905
 20
118.1871366006322
 30
0.0
 11
75.93881925221921
 21
118.3871366006323
 31
0.0
  0
LINE
  5
1C6
330
1B0
100
AcDbEntity
  8
LAYER004
  6
Continuous
 62
     7
370
    20
100
AcDbLine
 10
82.03600725221919
 20
118.1871366006324
 30
0.0
 11
82.1360072522191
 21
118.2871366006323
 31
0.0
  0
LINE
  5
1C7
330
1B0
100
AcDbEntity
  8
LAYER004
  6
Continuous
 62
     7
370
    20
100
AcDbLine
 10
82.1360072522191
 20
124.1371366006323
 30
0.0
 11
82.1360072522191
 21
118.2871366006323
 31
0.0
  0
LINE
  5
1C8
330
1B0
100
AcDbEntity
  8
LAYER004
  6
Continuous
 62
     7
370
    20
100
AcDbLine
 10
75.93881925221921
 20
118.3871366006323
 30
0.0
 11
75.93881925221921
 21
124.1371366006323
 31
0.0
  0
LINE
  5
1C9
330
1B0
100
AcDbEntity
  8
LAYER004
  6
Continuous
 62
     7
370
    20
100
AcDbLine
 10
75.93881925221921
 20
118.7991366006323
 30
0.0
 11
75.68881925221929
 21
118.7991366006323
 31
0.0
  0
LINE
  5
1CA
330
1B0
100
AcDbEntity
  8
LAYER004
  6
Continuous
 62
     7
370
    20
100
AcDbLine
 10
65.28600725221918
 20
118.8470458055942
 30
0.0
 11
65.28600725221918
 21
124.1371366006323
 31
0.0
  0
LINE
  5
1CB
330
1B0
100
AcDbEntity
  8
LAYER004
  6
Continuous
 62
     7
370
    20
100
AcDbLine
 10
65.28600725221918
 20
124.1371366006323
 30
0.0
 11
65.28600725221918
 21
118.3871366006323
 31
0.0
  0
LINE
  5
1CC
330
1B0
100
AcDbEntity
  8
LAYER004
  6
Continuous
 62
     7
370
    20
100
AcDbLine
 10
75.68881925221922
 20
118.1871366006324
 30
0.0
 11
65.48600725221899
 21
118.1871366006322
 31
0.0
  0
LINE
  5
1CD
330
1B0
100
AcDbEntity
  8
LAYER004
  6
Continuous
 62
     7
370
    20
100
AcDbLine
 10
65.48600725221899
 20
118.1871366006322
 30
0.0
 11
65.28600725221918
 21
118.3871366006323
 31
0.0
  0
LINE
  5
1CE
330
1B0
100
AcDbEntity
  8
LAYER004
  6
Continuous
 62
     7
370
    20
100
AcDbLine
 10
75.68881925221922
 20
118.1871366006324
 30
0.0
 11
75.68881925221922
 21
124.1371366006323
 31
0.0
  0
LINE
  5
1CF
330
1B0
100
AcDbEntity
  8
LAYER004
  6
Continuous
 62
     6
370
    20
100
AcDbLine
 10
82.03600725221919
 20
118.1871366006324
 30
0.0
 11
82.03600725221919
 21
124.1371366006323
 31
0.0
  0
LINE
  5
1D0
330
1B0
100
AcDbEntity
  8
LAYER004
  6
Continuous
 62
     6
370
    20
100
AcDbLine
 10
76.13881925221909
 20
118.1871366006322
 30
0.0
 11
76.13881925221909
 21
124.1371366006323
 31
0.0
  0
LINE
  5
1D1
330
1B0
100
AcDbEntity
  8
LAYER004
  6
Continuous
 62
     6
370
    20
100
AcDbLine
 10
65.48600725221906
 20
118.1871366006322
 30
0.0
 11
65.48600725221906
 21
123.9871366006323
 31
0.0
  0
LINE
  5
1D2
330
1B0
100
AcDbEntity
  8
LAYER004
  6
Continuous
 62
     7
370
    20
100
AcDbLine
 10
65.28600725221918
 20
123.9871366006323
 30
0.0
 11
75.68881925221922
 21
123.9871366006323
 31
0.0
  0
LINE
  5
1D3
330
1B0
100
AcDbEntity
  8
LAYER004
  6
Continuous
 62
     7
370
    20
100
AcDbLine
 10
80.23600725221911
 20
118.1871366006324
 30
0.0
 11
76.13881925221905
 21
118.1871366006322
 31
0.0
  0
LINE
  5
1D4
330
1B0
100
AcDbEntity
  8
LAYER004
  6
Continuous
 62
     7
370
    20
100
AcDbLine
 10
80.23600725221916
 20
130.0871366006323
 30
0.0
 11
76.13881925221905
 21
130.0871366006323
 31
0.0
  0
ENDBLK
  5
1B2
330
1B0
100
AcDbEntity
  8
0
100
AcDbBlockEnd
  0
ENDSEC
  0
SECTION
  2
ENTITIES
  0
LINE
  5
C4
330
1F
100
AcDbEntity
  8
LAYER004
  6
DASHDOT
 62
     6
370
    20
100
AcDbLine
 10
239.7889055247812
 20
124.1371366006323
 30
0.0
 11
82.1360072522188
 21
124.1371366006323
 31
0.0
  0
LINE
  5
C5
330
1F
100
AcDbEntity
  8
LAYER004
  6
Continuous
 62
     7
370
    20
100
AcDbLine
 10
213.9832031454066
 20
130.9482895034415
 30
0.0
 11
215.9239812526475
 21
129.4873542438314
 31
0.0
  0
LINE
  5
C6
330
1F
100
AcDbEntity
  8
LAYER004
  6
Continuous
 62
     7
370
    20
100
AcDbLine
 10
213.9832031454066
 20
130.9482895034415
 30
0.0
 11
209.3006586633076
 21
130.9482895034415
 31
0.0
  0
LINE
  5
C7
330
1F
100
AcDbEntity
  8
LAYER004
  6
Continuous
 62
     7
370
    20
100
AcDbLine
 10
219.1154826522743
 20
130.9482895034415
 30
0.0
 11
217.1747045450338
 21
129.4873542438314
 31
0.0
  0
LINE
  5
C8
330
1F
100
AcDbEntity
  8
LAYER004
  6
Continuous
 62
     7
370
    20
100
AcDbLine
 10
220.4973214452581
 20
130.9482895034415
 30
0.0
 11
220.9807963446208
 21
131.4871366006322
 31
0.0
  0
LINE
  5
C9
330
1F
100
AcDbEntity
  8
LAYER004
  6
Continuous
 62
     7
370
    20
100
AcDbLine
 10
220.4973214452581
 20
130.9482895034415
 30
0.0
 11
219.1154826522743
 21
130.9482895034415
 31
0.0
  0
LINE
  5
CA
330
1F
100
AcDbEntity
  8
LAYER004
  6
Continuous
 62
     7
370
    20
100
AcDbLine
 10
217.1747045450338
 20
129.4873542438314
 30
0.0
 11
215.9239812526475
 21
129.4873542438314
 31
0.0
  0
LINE
  5
CB
330
1F
100
AcDbEntity
  8
LAYER004
  6
Continuous
 62
     7
370
    20
100
AcDbLine
 10
213.9832031454066
 20
117.3259836978225
 30
0.0
 11
215.9239812526475
 21
118.786918957433
 31
0.0
  0
LINE
  5
CC
330
1F
100
AcDbEntity
  8
LAYER004
  6
Continuous
 62
     7
370
    20
100
AcDbLine
 10
213.9832031454066
 20
117.3259836978225
 30
0.0
 11
209.3006586633076
 21
117.3259836978225
 31
0.0
  0
LINE
  5
CD
330
1F
100
AcDbEntity
  8
LAYER004
  6
Continuous
 62
     7
370
    20
100
AcDbLine
 10
219.1154826522743
 20
117.3259836978225
 30
0.0
 11
217.1747045450338
 21
118.786918957433
 31
0.0
  0
LINE
  5
CE
330
1F
100
AcDbEntity
  8
LAYER004
  6
Continuous
 62
     7
370
    20
100
AcDbLine
 10
220.4973214452581
 20
117.3259836978225
 30
0.0
 11
220.9807963446208
 21
116.7871366006323
 31
0.0
  0
LINE
  5
CF
330
1F
100
AcDbEntity
  8
LAYER004
  6
Continuous
 62
     7
370
    20
100
AcDbLine
 10
220.4973214452581
 20
117.3259836978225
 30
0.0
 11
219.1154826522743
 21
117.3259836978225
 31
0.0
  0
LINE
  5
D0
330
1F
100
AcDbEntity
  8
LAYER004
  6
Continuous
 62
     7
370
    20
100
AcDbLine
 10
217.1747045450338
 20
118.786918957433
 30
0.0
 11
215.9239812526475
 21
118.786918957433
 31
0.0
  0
LINE
  5
D1
330
1F
100
AcDbEntity
  8
LAYER004
  6
Continuous
 62
     7
370
    20
100
AcDbLine
 10
209.3006586633076
 20
130.9482895034415
 30
0.0
 11
209.3006586633076
 21
117.3259836978225
 31
0.0
  0
LINE
  5
D2
330
1F
100
AcDbEntity
  8
LAYER004
  6
Continuous
 62
     7
370
    20
100
AcDbLine
 10
220.4973214452581
 20
130.9482895034415
 30
0.0
 11
220.4973214452581
 21
117.3259836978225
 31
0.0
  0
LINE
  5
D3
330
1F
100
AcDbEntity
  8
LAYER004
  6
Continuous
 62
     7
370
    20
100
AcDbLine
 10
219.1154826522743
 20
130.9482895034415
 30
0.0
 11
219.1154826522743
 21
117.3259836978225
 31
0.0
  0
LINE
  5
D4
330
1F
100
AcDbEntity
  8
LAYER004
  6
Continuous
 62
     7
370
    20
100
AcDbLine
 10
218.1450935986543
 20
130.2178218736363
 30
0.0
 11
218.1450935986543
 21
118.0564513276276
 31
0.0
  0
LINE
  5
D5
330
1F
100
AcDbEntity
  8
LAYER004
  6
Continuous
 62
     7
370
    20
100
AcDbLine
 10
217.1747045450338
 20
129.4873542438314
 30
0.0
 11
217.1747045450338
 21
118.786918957433
 31
0.0
  0
LINE
  5
D6
330
1F
100
AcDbEntity
  8
LAYER004
  6
Continuous
 62
     7
370
    20
100
AcDbLine
 10
215.9239812526475
 20
129.4873542438314
 30
0.0
 11
215.9239812526475
 21
118.786918957433
 31
0.0
  0
LINE
  5
D7
330
1F
100
AcDbEntity
  8
LAYER004
  6
Continuous
 62
     7
370
    20
100
AcDbLine
 10
213.9832031454066
 20
130.9482895034415
 30
0.0
 11
213.9832031454066
 21
117.3259836978225
 31
0.0
  0
LINE
  5
D8
330
1F
100
AcDbEntity
  8
LAYER004
  6
Continuous
 62
     7
370
    20
100
AcDbLine
 10
209.3006586633076
 20
118.352612552325
 30
0.0
 11
194.1667424528174
 21
119.9831714577445
 31
0.0
  0
LINE
  5
D9
330
1F
100
AcDbEntity
  8
LAYER004
  6
Continuous
 62
     7
370
    20
100
AcDbLine
 10
209.3006586633076
 20
129.9216606489393
 30
0.0
 11
194.1667424528174
 21
128.2911017435197
 31
0.0
  0
LINE
  5
DA
330
1F
100
AcDbEntity
  8
LAYER004
  6
Continuous
 62
     7
370
    20
100
AcDbLine
 10
226.1791188694226
 20
130.9482895034415
 30
0.0
 11
225.2871800040487
 21
130.9482895034415
 31
0.0
  0
LINE
  5
DB
330
1F
100
AcDbEntity
  8
LAYER004
  6
Continuous
 62
     7
370
    20
100
AcDbLine
 10
226.1791188694226
 20
130.9482895034415
 30
0.0
 11
226.6625937687842
 21
131.4871366006322
 31
0.0
  0
LINE
  5
DC
330
1F
100
AcDbEntity
  8
LAYER004
  6
Continuous
 62
     7
370
    20
100
AcDbLine
 10
225.2871800040487
 20
130.9482895034415
 30
0.0
 11
224.8037051046866
 21
131.4871366006322
 31
0.0
  0
LINE
  5
DD
330
1F
100
AcDbEntity
  8
LAYER004
  6
Continuous
 62
     7
370
    20
100
AcDbLine
 10
231.9203605193144
 20
130.9482895034415
 30
0.0
 11
231.4368856199524
 21
131.4871366006322
 31
0.0
  0
LINE
  5
DE
330
1F
100
AcDbEntity
  8
LAYER004
  6
Continuous
 62
     7
370
    20
100
AcDbLine
 10
231.4368856199524
 20
131.4871366006322
 30
0.0
 11
226.6625937687842
 21
131.4871366006322
 31
0.0
  0
LINE
  5
DF
330
1F
100
AcDbEntity
  8
LAYER004
  6
Continuous
 62
     7
370
    20
100
AcDbLine
 10
235.9694463786586
 20
128.8871366006322
 30
0.0
 11
236.7493032538976
 21
128.8871366006322
 31
0.0
  0
LINE
  5
E0
330
1F
100
AcDbEntity
  8
LAYER004
  6
Continuous
 62
     7
370
    20
100
AcDbLine
 10
235.9694463786586
 20
130.9482895034415
 30
0.0
 11
231.9203605193144
 21
130.9482895034415
 31
0.0
  0
LINE
  5
E1
330
1F
100
AcDbEntity
  8
LAYER004
  6
Continuous
 62
     7
370
    20
100
AcDbLine
 10
226.1791188694226
 20
117.3259836978225
 30
0.0
 11
225.2871800040487
 21
117.3259836978225
 31
0.0
  0
LINE
  5
E2
330
1F
100
AcDbEntity
  8
LAYER004
  6
Continuous
 62
     7
370
    20
100
AcDbLine
 10
226.1791188694226
 20
117.3259836978225
 30
0.0
 11
226.6625937687842
 21
116.7871366006323
 31
0.0
  0
LINE
  5
E3
330
1F
100
AcDbEntity
  8
LAYER004
  6
Continuous
 62
     7
370
    20
100
AcDbLine
 10
225.2871800040487
 20
117.3259836978225
 30
0.0
 11
224.8037051046866
 21
116.7871366006323
 31
0.0
  0
LINE
  5
E4
330
1F
100
AcDbEntity
  8
LAYER004
  6
Continuous
 62
     7
370
    20
100
AcDbLine
 10
231.9203605193144
 20
117.3259836978225
 30
0.0
 11
231.4368856199524
 21
116.7871366006323
 31
0.0
  0
LINE
  5
E5
330
1F
100
AcDbEntity
  8
LAYER004
  6
Continuous
 62
     7
370
    20
100
AcDbLine
 10
231.4368856199524
 20
116.7871366006323
 30
0.0
 11
226.6625937687842
 21
116.7871366006323
 31
0.0
  0
LINE
  5
E6
330
1F
100
AcDbEntity
  8
LAYER004
  6
Continuous
 62
     7
370
    20
100
AcDbLine
 10
235.9694463786586
 20
119.387136600632
 30
0.0
 11
236.7493032538976
 21
119.387136600632
 31
0.0
  0
LINE
  5
E7
330
1F
100
AcDbEntity
  8
LAYER004
  6
Continuous
 62
     7
370
    20
100
AcDbLine
 10
235.9694463786586
 20
117.3259836978225
 30
0.0
 11
231.9203605193144
 21
117.3259836978225
 31
0.0
  0
LINE
  5
E8
330
1F
100
AcDbEntity
  8
LAYER004
  6
Continuous
 62
     7
370
    20
100
AcDbLine
 10
236.7493032538976
 20
128.8871366006322
 30
0.0
 11
236.7493032538976
 21
119.387136600632
 31
0.0
  0
LINE
  5
E9
330
1F
100
AcDbEntity
  8
LAYER004
  6
Continuous
 62
     7
370
    20
100
AcDbLine
 10
231.9203605193144
 20
130.9482895034415
 30
0.0
 11
231.9203605193144
 21
117.3259836978225
 31
0.0
  0
LINE
  5
EA
330
1F
100
AcDbEntity
  8
LAYER004
  6
Continuous
 62
     7
370
    20
100
AcDbLine
 10
226.1791188694226
 20
130.9482895034415
 30
0.0
 11
226.1791188694226
 21
117.3259836978225
 31
0.0
  0
LINE
  5
EB
330
1F
100
AcDbEntity
  8
LAYER004
  6
Continuous
 62
     7
370
    20
100
AcDbLine
 10
225.2871800040487
 20
130.9482895034415
 30
0.0
 11
225.2871800040487
 21
117.3259836978225
 31
0.0
  0
LINE
  5
EC
330
1F
100
AcDbEntity
  8
LAYER004
  6
Continuous
 62
     7
370
    20
100
AcDbLine
 10
235.9694463786586
 20
117.3259836978225
 30
0.0
 11
235.9694463786586
 21
130.9482895034415
 31
0.0
  0
LINE
  5
ED
330
1F
100
AcDbEntity
  8
LAYER004
  6
Continuous
 62
     7
370
    20
100
AcDbLine
 10
224.8037051046866
 20
116.7871366006323
 30
0.0
 11
220.9807963446208
 21
116.7871366006323
 31
0.0
  0
LINE
  5
EE
330
1F
100
AcDbEntity
  8
LAYER004
  6
Continuous
 62
     7
370
    20
100
AcDbLine
 10
224.8037051046866
 20
131.4871366006322
 30
0.0
 11
220.9807963446208
 21
131.4871366006322
 31
0.0
  0
LINE
  5
EF
330
1F
100
AcDbEntity
  8
LAYER004
  6
Continuous
 62
     7
370
    20
100
AcDbLine
 10
194.1667424528174
 20
128.2911017435197
 30
0.0
 11
194.1667424528174
 21
119.9831714577445
 31
0.0
  0
LINE
  5
F0
330
1F
100
AcDbEntity
  8
LAYER004
  6
Continuous
 62
     6
370
    20
100
AcDbLine
 10
220.9807963446208
 20
116.7871366006323
 30
0.0
 11
220.9807963446208
 21
131.4871366006322
 31
0.0
  0
LINE
  5
F1
330
1F
100
AcDbEntity
  8
LAYER004
  6
Continuous
 62
     6
370
    20
100
AcDbLine
 10
224.8037051046866
 20
116.7871366006323
 30
0.0
 11
224.8037051046866
 21
131.4871366006322
 31
0.0
  0
HATCH
  5
F2
330
1F
100
AcDbEntity
  8
LAYER004
  6
Continuous
 62
     6
370
    20
100
AcDbHatch
 10
0.0
 20
0.0
 30
0.0
210
0.0
220
0.0
230
1.0
  2

 70
     0
 71
     1
 91
        2
 92
        0
 93
        4
 72
     1
 10
224.8037051046866
 20
131.4871366006322
 11
220.9807963446208
 21
131.4871366006322
 72
     1
 10
220.9807963446208
 20
131.4871366006322
 11
220.9807963446206
 21
124.1371366006323
 72
     1
 10
220.9807963446206
 20
124.1371366006323
 11
224.8037051046866
 21
124.1371366006323
 72
     1
 10
224.8037051046866
 20
124.1371366006323
 11
224.8037051046866
 21
131.4871366006322
 97
        0
 92
        0
 93
        5
 72
     1
 10
224.8037051046866
 20
124.1371366006323
 11
220.9807963446206
 21
124.1371366006323
 72
     1
 10
220.9807963446206
 20
124.1371366006323
 11
220.9807963446208
 21
116.7871366006323
 72
     1
 10
220.9807963446208
 20
116.7871366006323
 11
224.8037051046866
 21
116.7871366006323
 72
     1
 10
224.8037051046866
 20
116.7871366006323
 11
224.8037051046866
 21
121.3249522873774
 72
     1
 10
224.8037051046866
 20
121.3249522873774
 11
224.8037051046866
 21
124.1371366006323
 97
        0
 75
     0
 76
     0
 52
45.0
 41
0.635
 77
     0
 78
     1
 53
45.0
 43
0.0
 44
0.0
 45
-0.4490128060534577
 46
0.4490128060534577
 79
     0
 98
        0
  0
HATCH
  5
F3
330
1F
100
AcDbEntity
  8
LAYER004
  6
Continuous
 62
     6
370
    20
100
AcDbHatch
 10
0.0
 20
0.0
 30
0.0
210
0.0
220
0.0
230
1.0
  2

 70
     0
 71
     1
 91
        2
 92
        0
 93
        4
 72
     1
 10
224.8037051046866
 20
131.4871366006322
 11
220.9807963446208
 21
131.4871366006322
 72
     1
 10
220.9807963446208
 20
131.4871366006322
 11
220.9807963446206
 21
124.1371366006323
 72
     1
 10
220.9807963446206
 20
124.1371366006323
 11
224.8037051046866
 21
124.1371366006323
 72
     1
 10
224.8037051046866
 20
124.1371366006323
 11
224.8037051046866
 21
131.4871366006322
 97
        0
 92
        0
 93
        5
 72
     1
 10
224.8037051046866
 20
124.1371366006323
 11
220.9807963446206
 21
124.1371366006323
 72
     1
 10
220.9807963446206
 20
124.1371366006323
 11
220.9807963446208
 21
116.7871366006323
 72
     1
 10
220.9807963446208
 20
116.7871366006323
 11
224.8037051046866
 21
116.7871366006323
 72
     1
 10
224.8037051046866
 20
116.7871366006323
 11
224.8037051046866
 21
123.5463006938444
 72
     1
 10
224.8037051046866
 20
123.5463006938444
 11
224.8037051046866
 21
124.1371366006323
 97
        0
 75
     0
 76
     0
 52
-45.0
 41
0.635
 77
     0
 78
     1
 53
-45.0
 43
0.0
 44
0.0
 45
0.4490128060534577
 46
0.4490128060534577
 79
     0
 98
        0
  0
LINE
  5
F4
330
1F
100
AcDbEntity
  8
LAYER004
  6
Continuous
 62
     6
370
    20
100
AcDbLine
 10
226.6625937687842
 20
116.7871366006323
 30
0.0
 11
226.6625937687842
 21
131.4871366006322
 31
0.0
  0
LINE
  5
F5
330
1F
100
AcDbEntity
  8
LAYER004
  6
Continuous
 62
     6
370
    20
100
AcDbLine
 10
231.4368856199524
 20
116.7871366006323
 30
0.0
 11
231.4368856199524
 21
131.4871366006322
 31
0.0
  0
HATCH
  5
F6
330
1F
100
AcDbEntity
  8
LAYER004
  6
Continuous
 62
     6
370
    20
100
AcDbHatch
 10
0.0
 20
0.0
 30
0.0
210
0.0
220
0.0
230
1.0
  2

 70
     0
 71
     1
 91
        2
 92
        0
 93
        4
 72
     1
 10
231.4368856199524
 20
131.4871366006322
 11
226.6625937687842
 21
131.4871366006322
 72
     1
 10
226.6625937687842
 20
131.4871366006322
 11
226.6625937687842
 21
124.1371366006323
 72
     1
 10
226.6625937687842
 20
124.1371366006323
 11
231.4368856199524
 21
124.1371366006323
 72
     1
 10
231.4368856199524
 20
124.1371366006323
 11
231.4368856199524
 21
131.4871366006322
 97
        0
 92
        0
 93
        5
 72
     1
 10
231.4368856199524
 20
124.1371366006323
 11
226.6625937687842
 21
124.1371366006323
 72
     1
 10
226.6625937687842
 20
124.1371366006323
 11
226.6625937687842
 21
116.7871366006323
 72
     1
 10
226.6625937687842
 20
116.7871366006323
 11
231.4368856199524
 21
116.7871366006323
 72
     1
 10
231.4368856199524
 20
116.7871366006323
 11
231.4368856199524
 21
121.9796655019151
 72
     1
 10
231.4368856199524
 20
121.9796655019151
 11
231.4368856199524
 21
124.1371366006323
 97
        0
 75
     0
 76
     0
 52
-45.0
 41
0.635
 77
     0
 78
     1
 53
-45.0
 43
0.0
 44
0.0
 45
0.4490128060534577
 46
0.4490128060534577
 79
     0
 98
        0
  0
HATCH
  5
F7
330
1F
100
AcDbEntity
  8
LAYER004
  6
Continuous
 62
     6
370
    20
100
AcDbHatch
 10
0.0
 20
0.0
 30
0.0
210
0.0
220
0.0
230
1.0
  2

 70
     0
 71
     1
 91
        2
 92
        0
 93
        4
 72
     1
 10
231.4368856199525
 20
131.4871366006322
 11
226.6625937687842
 21
131.4871366006322
 72
     1
 10
226.6625937687842
 20
131.4871366006322
 11
226.6625937687842
 21
124.1371366006323
 72
     1
 10
226.6625937687842
 20
124.1371366006323
 11
231.4368856199524
 21
124.1371366006323
 72
     1
 10
231.4368856199524
 20
124.1371366006323
 11
231.4368856199525
 21
131.4871366006322
 97
        0
 92
        0
 93
        5
 72
     1
 10
231.4368856199525
 20
124.1371366006323
 11
226.6625937687842
 21
124.1371366006323
 72
     1
 10
226.6625937687842
 20
124.1371366006323
 11
226.6625937687842
 21
116.7871366006323
 72
     1
 10
226.6625937687842
 20
116.7871366006323
 11
231.4368856199524
 21
116.7871366006323
 72
     1
 10
231.4368856199524
 20
116.7871366006323
 11
231.4368856199524
 21
122.9617353237216
 72
     1
 10
231.4368856199524
 20
122.9617353237216
 11
231.4368856199525
 21
124.1371366006323
 97
        0
 75
     0
 76
     0
 52
45.0
 41
0.635
 77
     0
 78
     1
 53
45.0
 43
0.0
 44
0.0
 45
-0.4490128060534577
 46
0.4490128060534577
 79
     0
 98
        0
  0
DIMENSION
  5
F8
330
1F
100
AcDbEntity
  8
LAYER004
100
AcDbDimension
  2
*D20
 10
54.76942687143628
 20
130.0871366006323
 30
0.0
 11
54.26943969726561
 21
114.1871337890625
 31
0.0
 70
    33
 71
     5
 42
-1.0
  3
FXDIMINFO
100
AcDbAlignedDimension
 13
65.48600725221906
 23
118.1871366006322
 33
0.0
 14
65.48600725221906
 24
130.0871366006323
 34
0.0
  0
DIMENSION
  5
105
330
1F
100
AcDbEntity
  8
LAYER004
100
AcDbDimension
  2
*D21
 10
75.68881925221922
 20
143.4122727020135
 30
0.0
 11
70.4874267578125
 21
143.9122772216796
 31
0.0
 70
    32
 71
     5
 42
-1.0
  3
FXDIMINFO
100
AcDbAlignedDimension
 13
65.28600725221918
 23
129.8871366006323
 33
0.0
 14
75.68881925221922
 24
130.0871366006322
 34
0.0
 50
180.0
100
AcDbRotatedDimension
1001
ACAD
1000
DSTYLE
1002
{
1070
   173
1070
     1
1070
   344
1005
48
1070
   343
1005
42
1002
}
  0
LINE
  5
10F
330
1F
100
AcDbEntity
  8
LAYER004
  6
Continuous
 62
     7
370
    20
100
AcDbLine
 10
114.6360072522185
 20
127.4371366006322
 30
0.0
 11
176.2882476702659
 21
127.4371366006322
 31
0.0
  0
INSERT
  5
113
330
1F
100
AcDbEntity
  8
0
100
AcDbBlockReference
  2
BLKF024
 10
0.0
 20
0.0
 30
0.0
  0
LINE
  5
118
330
1F
100
AcDbEntity
  8
LAYER004
  6
Continuous
 62
     7
370
    20
100
AcDbLine
 10
177.389982721395
 20
127.4371366006322
 30
0.0
 11
194.1667424528174
 21
127.4371366006322
 31
0.0
  0
LINE
  5
119
330
1F
100
AcDbEntity
  8
LAYER004
  6
Continuous
 62
     7
370
    20
100
AcDbLine
 10
114.6360072522185
 20
120.8371366006323
 30
0.0
 11
176.0142691950671
 21
120.8371366006323
 31
0.0
  0
LINE
  5
11A
330
1F
100
AcDbEntity
  8
LAYER004
  6
Continuous
 62
     7
370
    20
100
AcDbLine
 10
177.1326285457119
 20
120.8371366006323
 30
0.0
 11
194.1667424528174
 21
120.8371366006323
 31
0.0
  0
DIMENSION
  5
11B
330
1F
100
AcDbEntity
  8
LAYER004
100
AcDbDimension
  2
*D23
 10
138.3268106013987
 20
143.4122727020135
 30
0.0
 11
126.4814147949219
 21
143.9122772216796
 31
0.0
 70
    32
 71
     5
 42
-1.0
  3
FXDIMINFO
100
AcDbAlignedDimension
 13
114.6360072522186
 23
129.8371366006323
 33
0.0
 14
138.3268106013987
 24
127.678321763243
 34
0.0
 50
180.0
100
AcDbRotatedDimension
1001
ACAD
1000
DSTYLE
1002
{
1070
   173
1070
     1
1070
   344
1005
48
1070
   343
1005
42
1002
}
  0
DIMENSION
  5
125
330
1F
100
AcDbEntity
  8
LAYER004
100
AcDbDimension
  2
*D24
 10
249.2806378470978
 20
131.4871366006323
 30
0.0
 11
248.7806396484375
 21
125.3871383666992
 31
0.0
 70
    33
 71
     5
 42
-1.0
  3
FXDIMINFO
100
AcDbAlignedDimension
 13
231.4368856199524
 23
116.7871366006323
 33
0.0
 14
231.4368856199524
 24
131.4871366006323
 34
0.0
1001
ACAD
1000
DSTYLE
1002
{
1070
   173
1070
     1
1070
   344
1005
48
1070
   343
1005
42
1002
}
  0
DIMENSION
  5
130
330
1F
100
AcDbEntity
  8
LAYER004
100
AcDbDimension
  2
*D25
 10
186.8049845367638
 20
127.4371366006322
 30
0.0
 11
186.3049926757811
 21
111.8371353149414
 31
0.0
 70
    33
 71
     5
 42
-1.0
  3
FXDIMINFO
100
AcDbAlignedDimension
 13
194.1667424528174
 23
120.8371366006323
 33
0.0
 14
194.1667424528174
 24
127.4371366006322
 34
0.0
  0
INSERT
  5
13F
330
1F
100
AcDbEntity
  8
0
100
AcDbBlockReference
  2
FXDIM028
 10
0.0
 20
0.0
 30
0.0
  0
INSERT
  5
147
330
1F
100
AcDbEntity
  8
0
100
AcDbBlockReference
  2
FXDIM029
 10
0.0
 20
0.0
 30
0.0
  0
INSERT
  5
14F
330
1F
100
AcDbEntity
  8
0
100
AcDbBlockReference
  2
FXDIM030
 10
0.0
 20
0.0
 30
0.0
  0
TEXT
  5
154
330
1F
100
AcDbEntity
  8
LAYER004
  6
Continuous
 62
     6
370
    20
100
AcDbText
 10
54.008056640625
 20
57.5604858324261
 30
0.0
 40
3.0
  1
※ケガキ線2箇所（180°対向）は、照射エリア長辺方向と直交する方向
 50
0.0000000099999999
 41
0.8333333333333333
  7
FX_VECTOR
100
AcDbText
  0
INSERT
  5
158
330
1F
100
AcDbEntity
  8
0
100
AcDbBlockReference
  2
BLKF031
 10
0.0
 20
0.0
 30
0.0
  0
LINE
  5
15D
330
1F
100
AcDbEntity
  8
LAYER004
  6
Continuous
 62
     7
370
    20
100
AcDbLine
 10
114.6360072522185
 20
129.8371366006323
 30
0.0
 11
114.6360072522185
 21
118.4371366006322
 31
0.0
  0
LINE
  5
15E
330
1F
100
AcDbEntity
  8
LAYER004
  6
Continuous
 62
     7
370
    20
100
AcDbLine
 10
114.3360072522184
 20
130.1371366006323
 30
0.0
 11
114.6360072522185
 21
129.8371366006323
 31
0.0
  0
LINE
  5
15F
330
1F
100
AcDbEntity
  8
LAYER004
  6
Continuous
 62
     7
370
    20
100
AcDbLine
 10
114.3360072522182
 20
130.1371366006324
 30
0.0
 11
96.33600725221892
 21
130.1371366006323
 31
0.0
  0
LINE
  5
160
330
1F
100
AcDbEntity
  8
LAYER004
  6
Continuous
 62
     7
370
    20
100
AcDbLine
 10
96.33600725221892
 20
118.1371366006322
 30
0.0
 11
96.33600725221892
 21
130.1371366006323
 31
0.0
  0
LINE
  5
161
330
1F
100
AcDbEntity
  8
LAYER004
  6
Continuous
 62
     7
370
    20
100
AcDbLine
 10
114.3360072522184
 20
118.1371366006322
 30
0.0
 11
114.6360072522185
 21
118.4371366006322
 31
0.0
  0
LINE
  5
162
330
1F
100
AcDbEntity
  8
LAYER004
  6
Continuous
 62
     7
370
    20
100
AcDbLine
 10
114.3360072522182
 20
118.137136600632
 30
0.0
 11
96.33600725221892
 21
118.1371366006322
 31
0.0
  0
LINE
  5
163
330
1F
100
AcDbEntity
  8
LAYER004
  6
Continuous
 62
     7
370
    20
100
AcDbLine
 10
96.33600725221892
 20
130.1371366006323
 30
0.0
 11
88.93600725221904
 21
130.137136600632
 31
0.0
  0
LINE
  5
164
330
1F
100
AcDbEntity
  8
LAYER004
  6
Continuous
 62
     7
370
    20
100
AcDbLine
 10
96.33600725221892
 20
130.1371366006323
 30
0.0
 11
96.33600725221892
 21
129.3871366006324
 31
0.0
  0
LINE
  5
165
330
1F
100
AcDbEntity
  8
LAYER004
  6
Continuous
 62
     7
370
    20
100
AcDbLine
 10
96.33600725221892
 20
118.1371366006324
 30
0.0
 11
88.93600725221926
 21
118.1371366006326
 31
0.0
  0
LINE
  5
166
330
1F
100
AcDbEntity
  8
LAYER004
  6
Continuous
 62
     7
370
    20
100
AcDbLine
 10
96.33600725221892
 20
118.1371366006322
 30
0.0
 11
96.33600725221892
 21
118.8871366006322
 31
0.0
  0
LINE
  5
167
330
1F
100
AcDbEntity
  8
LAYER004
  6
Continuous
 62
     6
370
    20
100
AcDbLine
 10
114.3360072522182
 20
118.137136600632
 30
0.0
 11
114.3360072522182
 21
130.1371366006324
 31
0.0
  0
LINE
  5
168
330
1F
100
AcDbEntity
  8
LAYER004
  6
Continuous
 62
     6
370
    20
100
AcDbLine
 10
89.13600725221897
 20
130.1371366006319
 30
0.0
 11
89.13600725221897
 21
118.1371366006322
 31
0.0
  0
HATCH
  5
169
330
1F
100
AcDbEntity
  8
LAYER004
  6
Continuous
 62
     7
370
    20
100
AcDbHatch
 10
0.0
 20
0.0
 30
0.0
210
0.0
220
0.0
230
1.0
  2

 70
     0
 71
     1
 91
        2
 92
        0
 93
        4
 72
     1
 10
82.13600725221898
 20
130.1371366006323
 11
82.13600725221898
 21
124.1371366006324
 72
     1
 10
82.13600725221898
 20
124.1371366006324
 11
89.13600725221897
 21
124.1371366006324
 72
     1
 10
89.13600725221897
 20
124.1371366006324
 11
89.13600725221897
 21
130.1371366006319
 72
     1
 10
89.13600725221897
 20
130.1371366006319
 11
82.13600725221898
 21
130.1371366006323
 97
        0
 92
        0
 93
        4
 72
     1
 10
89.13600725221897
 20
118.1371366006324
 11
89.13600725221897
 21
124.1371366006324
 72
     1
 10
89.13600725221897
 20
124.1371366006324
 11
82.13600725221898
 21
124.1371366006323
 72
     1
 10
82.13600725221898
 20
124.1371366006323
 11
82.13600725221898
 21
118.1371366006324
 72
     1
 10
82.13600725221898
 20
118.1371366006324
 11
89.13600725221897
 21
118.1371366006324
 97
        0
 75
     0
 76
     0
 52
45.0
 41
1.0
 77
     0
 78
     1
 53
45.0
 43
0.0
 44
0.0
 45
-0.7071067811865475
 46
0.7071067811865476
 79
     0
 98
        0
  0
LINE
  5
16A
330
1F
100
AcDbEntity
  8
LAYER004
  6
Continuous
 62
     6
370
    20
100
AcDbLine
 10
112.386007252219
 20
118.137136600632
 30
0.0
 11
112.386007252219
 21
130.1371366006324
 31
0.0
  0
LINE
  5
16B
330
1F
100
AcDbEntity
  8
LAYER004
  6
Continuous
 62
     6
370
    20
100
AcDbLine
 10
107.8860072522189
 20
130.1371366006323
 30
0.0
 11
107.8860072522189
 21
118.137136600632
 31
0.0
  0
HATCH
  5
16C
330
1F
100
AcDbEntity
  8
LAYER004
  6
Continuous
 62
     6
370
    20
100
AcDbHatch
 10
0.0
 20
0.0
 30
0.0
210
0.0
220
0.0
230
1.0
  2

 70
     0
 71
     1
 91
        2
 92
        0
 93
        4
 72
     1
 10
112.386007252219
 20
130.1371366006324
 11
107.8860072522189
 21
130.1371366006323
 72
     1
 10
107.8860072522189
 20
130.1371366006323
 11
107.8860072522189
 21
124.1371366006323
 72
     1
 10
107.8860072522189
 20
124.1371366006323
 11
112.386007252219
 21
124.1371366006323
 72
     1
 10
112.386007252219
 20
124.1371366006323
 11
112.386007252219
 21
130.1371366006324
 97
        0
 92
        0
 93
        5
 72
     1
 10
112.386007252219
 20
124.1371366006323
 11
107.8860072522189
 21
124.1371366006323
 72
     1
 10
107.8860072522189
 20
124.1371366006323
 11
107.8860072522189
 21
118.137136600632
 72
     1
 10
107.8860072522189
 20
118.137136600632
 11
112.3860072522191
 21
118.137136600632
 72
     1
 10
112.3860072522191
 20
118.137136600632
 11
112.386007252219
 21
120.9505873703071
 72
     1
 10
112.386007252219
 20
120.9505873703071
 11
112.386007252219
 21
124.1371366006323
 97
        0
 75
     0
 76
     0
 52
45.0
 41
1.0
 77
     0
 78
     1
 53
45.0
 43
0.0
 44
0.0
 45
-0.7071067811865475
 46
0.7071067811865476
 79
     0
 98
        0
  0
DIMENSION
  5
16D
330
1F
100
AcDbEntity
  8
LAYER004
100
AcDbDimension
  2
*D30
 10
236.7493032538976
 20
153.4442333155765
 30
0.0
 11
215.4580078124999
 21
153.9442443847655
 31
0.0
 70
    32
 71
     5
 42
-1.0
  3
FXDIMINFO
100
AcDbAlignedDimension
 13
194.1667424528174
 23
128.2911017435197
 33
0.0
 14
236.7493032538976
 24
128.8871366006322
 34
0.0
 50
180.0
100
AcDbRotatedDimension
1001
ACAD
1000
DSTYLE
1002
{
1070
   173
1070
     1
1070
   344
1005
48
1070
   343
1005
42
1002
}
  0
DIMENSION
  5
179
330
1F
100
AcDbEntity
  8
LAYER004
100
AcDbDimension
  2
*D31
 10
194.1667424528174
 20
153.4442333155765
 30
0.0
 11
154.4013671874999
 21
153.9442443847655
 31
0.0
 70
    32
 71
     5
 42
-1.0
  3
FXDIMINFO
100
AcDbAlignedDimension
 13
114.6360072522186
 23
129.8371366006323
 33
0.0
 14
194.1667424528174
 24
128.2911017435197
 34
0.0
 50
180.0
100
AcDbRotatedDimension
1001
ACAD
1000
DSTYLE
1002
{
1070
   173
1070
     1
1070
   344
1005
48
1070
   343
1005
42
1002
}
  0
DIMENSION
  5
182
330
1F
100
AcDbEntity
  8
LAYER004
100
AcDbDimension
  2
*D32
 10
114.6360072522186
 20
153.4442333155765
 30
0.0
 11
89.96099853515625
 21
153.9442443847655
 31
0.0
 70
    32
 71
     5
 42
-1.0
  3
FXDIMINFO
100
AcDbAlignedDimension
 13
65.28600725221918
 23
129.8871366006323
 33
0.0
 14
114.6360072522186
 24
129.8371366006323
 34
0.0
 50
180.0
100
AcDbRotatedDimension
1001
ACAD
1000
DSTYLE
1002
{
1070
   173
1070
     1
1070
   344
1005
48
1070
   343
1005
42
1002
}
  0
INSERT
  5
191
330
1F
100
AcDbEntity
  8
0
100
AcDbBlockReference
  2
FXDIM035
 10
0.0
 20
0.0
 30
0.0
  0
INSERT
  5
199
330
1F
100
AcDbEntity
  8
0
100
AcDbBlockReference
  2
FXDIM036
 10
0.0
 20
0.0
 30
0.0
  0
DIMENSION
  5
19E
330
1F
100
AcDbEntity
  8
LAYER004
100
AcDbDimension
  2
*D35
 10
82.13600725221903
 20
108.4934581919684
 30
0.0
 11
73.71099853515625
 21
108.9934616088866
 31
0.0
 70
    32
 71
     5
 42
-1.0
  3
FXDIMINFO
100
AcDbAlignedDimension
 13
65.28600725221918
 23
118.3871366006323
 33
0.0
 14
82.13600725221898
 24
118.1371366006326
 34
0.0
 50
180.0
100
AcDbRotatedDimension
1001
ACAD
1000
DSTYLE
1002
{
1070
   173
1070
     1
1070
   344
1005
48
1070
   343
1005
42
1002
}
  0
INSERT
  5
1AD
330
1F
100
AcDbEntity
  8
0
100
AcDbBlockReference
  2
BLKF038
 10
0.0
 20
0.0
 30
0.0
  0
SPLINE
  5
1DF
330
1F
100
AcDbEntity
  8
LAYER004
  6
Continuous
 62
     6
370
    20
100
AcDbSpline
210
0.0
220
0.0
230
1.0
 70
     8
 71
     3
 72
    11
 73
     7
 74
     0
 42
0.0000000001
 43
0.0000000001
 40
2.570962222818279
 40
2.570962222818279
 40
2.570962222818279
 40
2.570962222818279
 40
4.630902546408044
 40
8.525400007764536
 40
11.63955124479432
 40
15.96038704662982
 40
15.96038704662982
 40
15.96038704662982
 40
15.96038704662982
 10
176.7229337082763
 20
130.5036693412265
 30
0.0
 10
176.232409883032
 20
130.009306866778
 30
0.0
 10
175.3028920545814
 20
128.4932719325054
 30
0.0
 10
177.7599643912068
 20
125.4941816998039
 30
0.0
 10
176.5940301524882
 20
121.6844378151024
 30
0.0
 10
175.3277607123613
 20
119.557741496602
 30
0.0
 10
174.5453613246801
 20
118.3564731215163
 30
0.0
  0
SPLINE
  5
1E0
330
1F
100
AcDbEntity
  8
LAYER004
  6
Continuous
 62
     6
370
    20
100
AcDbSpline
210
0.0
220
0.0
230
1.0
 70
     8
 71
     3
 72
    36
 73
    32
 74
     0
 42
0.0000000001
 43
0.0000000001
 40
1.417646429957278
 40
1.417646429957278
 40
1.417646429957278
 40
1.417646429957278
 40
2.12283227477387
 40
2.12283227477387
 40
3.207435514027281
 40
3.207435514027281
 40
4.02098085748214
 40
4.02098085748214
 40
4.513261743543089
 40
4.513261743543089
 40
4.912256018748855
 40
4.912256018748855
 40
5.31125029395462
 40
5.31125029395462
 40
6.35281475598648
 40
6.35281475598648
 40
7.39437921801834
 40
7.39437921801834
 40
8.435943680050202
 40
8.435943680050202
 40
8.944469886862703
 40
8.944469886862703
 40
9.452996093675203
 40
9.452996093675203
 40
10.47004850730021
 40
10.47004850730021
 40
11.58824375909451
 40
11.58824375909451
 40
14.02084623778198
 40
14.02084623778198
 40
15.32343694984882
 40
15.32343694984882
 40
15.32343694984882
 40
15.32343694984882
 10
178.2740014507154
 20
130.5036693412018
 30
0.0
 10
178.0717895263459
 20
130.3550848039245
 30
0.0
 10
177.8850418811123
 20
130.2088570200429
 30
0.0
 10
177.4659411576146
 20
129.8462937408105
 30
0.0
 10
177.2646453084696
 20
129.6346950282561
 30
0.0
 10
177.0299299978946
 20
129.3106203421975
 30
0.0
 10
176.9673695899796
 20
129.1885630678035
 30
0.0
 10
176.9117647242454
 20
129.0241601962414
 30
0.0
 10
176.9003444773115
 20
128.9690682425595
 30
0.0
 10
176.8915423450116
 20
128.8713078797125
 30
0.0
 10
176.8916391797326
 20
128.8267418944817
 30
0.0
 10
176.9036993296176
 20
128.7088397138555
 30
0.0
 10
176.9160452754776
 20
128.6387521981928
 30
0.0
 10
176.9882621387733
 20
128.3503949763438
 30
0.0
 10
177.0953492626796
 20
128.0776955808675
 30
0.0
 10
177.3744519509846
 20
127.4630373477102
 30
0.0
 10
177.5444406187506
 20
127.1207819804812
 30
0.0
 10
177.8687022119203
 20
126.3757545594733
 30
0.0
 10
178.0244345598376
 20
125.9719369229712
 30
0.0
 10
178.1686405286107
 20
125.3082321482449
 30
0.0
 10
178.1991064024546
 20
125.084572595439
 30
0.0
 10
178.2264635000665
 20
124.6492537162511
 30
0.0
 10
178.2242381013315
 20
124.4347488957131
 30
0.0
 10
178.1797413525635
 20
123.8044799233259
 30
0.0
 10
178.1001336521206
 20
123.4023054092111
 30
0.0
 10
177.8781465243526
 20
122.5983824534461
 30
0.0
 10
177.7301808063036
 20
122.1999401155826
 30
0.0
 10
177.2373854489255
 20
121.0039922540895
 30
0.0
 10
176.8469832345346
 20
120.2392614503925
 30
0.0
 10
176.203115231836
 20
119.1143244415383
 30
0.0
 10
175.9705317847259
 20
118.7318100259904
 30
0.0
 10
175.7335924145434
 20
118.3564731215165
 30
0.0
  0
TEXT
  5
1E1
330
1F
100
AcDbEntity
  8
LAYER004
  6
Continuous
 62
     6
370
    20
100
AcDbText
 10
56.17726898193359
 20
171.3090972880756
 30
0.0
 40
3.0
  1
H-1VH-04　
 50
0.0000000099999999
 41
0.8333333333333333
  7
FX_VECTOR
100
AcDbText
  0
ENDSEC
  0
SECTION
  2
OBJECTS
  0
DICTIONARY
  5
C
330
0
100
AcDbDictionary
281
     1
  3
ACAD_GROUP
350
D
  3
ACAD_LAYOUT
350
1A
  3
ACAD_MLEADERSTYLE
350
1E3
  3
ACAD_MLINESTYLE
350
17
  3
ACAD_PLOTSETTINGS
350
19
  3
ACAD_PLOTSTYLENAME
350
E
  3
ACAD_TABLESTYLE
350
1E2
  3
ACAD_VISUALSTYLE
350
2A
  3
AcDbVariableDictionary
350
1E4
  0
DICTIONARY
  5
D
102
{ACAD_REACTORS
330
C
102
}
330
C
100
AcDbDictionary
281
     1
  0
DICTIONARY
  5
1A
102
{ACAD_REACTORS
330
C
102
}
330
C
100
AcDbDictionary
281
     1
  3
Layout1
350
1E
  3
Layout2
350
26
  3
Model
350
22
  0
DICTIONARY
  5
1E3
102
{ACAD_REACTORS
330
C
102
}
330
C
100
AcDbDictionary
281
     1
  0
DICTIONARY
  5
17
102
{ACAD_REACTORS
330
C
102
}
330
C
100
AcDbDictionary
281
     1
  3
Standard
350
18
  0
DICTIONARY
  5
19
102
{ACAD_REACTORS
330
C
102
}
330
C
100
AcDbDictionary
281
     1
  0
ACDBDICTIONARYWDFLT
  5
E
102
{ACAD_REACTORS
330
C
102
}
330
C
100
AcDbDictionary
281
     1
  3
Normal
350
F
100
AcDbDictionaryWithDefault
340
F
  0
DICTIONARY
  5
1E2
102
{ACAD_REACTORS
330
C
102
}
330
C
100
AcDbDictionary
281
     1
  0
DICTIONARY
  5
2A
102
{ACAD_REACTORS
330
C
102
}
330
C
100
AcDbDictionary
281
     1
  3
2dWireframe
350
2F
  3
3D Hidden
350
31
  3
3dWireframe
350
30
  3
Basic
350
32
  3
Brighten
350
36
  3
ColorChange
350
3A
  3
Conceptual
350
34
  3
Dim
350
35
  3
Facepattern
350
39
  3
Flat
350
2B
  3
FlatWithEdges
350
2C
  3
Gouraud
350
2D
  3
GouraudWithEdges
350
2E
  3
Linepattern
350
38
  3
Realistic
350
33
  3
Thicken
350
37
  0
DICTIONARY
  5
1E4
102
{ACAD_REACTORS
330
C
102
}
330
C
100
AcDbDictionary
281
     1
  3
PSOLHEIGHT
350
1E6
  3
PSOLWIDTH
350
1E5
  0
LAYOUT
  5
1E
102
{ACAD_REACTORS
330
1A
102
}
330
1A
100
AcDbPlotSettings
  1

  2
none_device
  4

  6

 40
0.0
 41
0.0
 42
0.0
 43
0.0
 44
0.0
 45
0.0
 46
0.0
 47
0.0
 48
0.0
 49
0.0
140
0.0
141
0.0
142
1.0
143
1.0
 70
   688
 72
     0
 73
     0
 74
     5
  7

 75
    16
147
1.0
148
0.0
149
0.0
100
AcDbLayout
  1
Layout1
 70
     1
 71
     1
 10
0.0
 20
0.0
 11
420.0
 21
297.0
 12
0.0
 22
0.0
 32
0.0
 14
1.000000000000000E+20
 24
1.000000000000000E+20
 34
1.000000000000000E+20
 15
-1.000000000000000E+20
 25
-1.000000000000000E+20
 35
-1.000000000000000E+20
146
0.0
 13
0.0
 23
0.0
 33
0.0
 16
1.0
 26
0.0
 36
0.0
 17
0.0
 27
1.0
 37
0.0
 76
     0
330
1B
  0
LAYOUT
  5
26
102
{ACAD_REACTORS
330
1A
102
}
330
1A
100
AcDbPlotSettings
  1

  2
none_device
  4

  6

 40
0.0
 41
0.0
 42
0.0
 43
0.0
 44
0.0
 45
0.0
 46
0.0
 47
0.0
 48
0.0
 49
0.0
140
0.0
141
0.0
142
1.0
143
1.0
 70
   688
 72
     0
 73
     0
 74
     5
  7

 75
    16
147
1.0
148
0.0
149
0.0
100
AcDbLayout
  1
Layout2
 70
     1
 71
     2
 10
0.0
 20
0.0
 11
0.0
 21
0.0
 12
0.0
 22
0.0
 32
0.0
 14
0.0
 24
0.0
 34
0.0
 15
0.0
 25
0.0
 35
0.0
146
0.0
 13
0.0
 23
0.0
 33
0.0
 16
1.0
 26
0.0
 36
0.0
 17
0.0
 27
1.0
 37
0.0
 76
     0
330
23
  0
LAYOUT
  5
22
102
{ACAD_REACTORS
330
1A
102
}
330
1A
100
AcDbPlotSettings
  1

  2
none_device
  4

  6

 40
0.0
 41
0.0
 42
0.0
 43
0.0
 44
0.0
 45
0.0
 46
0.0
 47
0.0
 48
0.0
 49
0.0
140
0.0
141
0.0
142
1.0
143
1.0
 70
  1712
 72
     0
 73
     0
 74
     0
  7

 75
     0
147
1.0
148
0.0
149
0.0
100
AcDbLayout
  1
Model
 70
     1
 71
     0
 10
0.0
 20
0.0
 11
297.0
 21
210.0
 12
0.0
 22
0.0
 32
0.0
 14
0.0
 24
0.0
 34
0.0
 15
297.0
 25
210.0
 35
0.0
146
0.0
 13
0.0
 23
0.0
 33
0.0
 16
1.0
 26
0.0
 36
0.0
 17
0.0
 27
1.0
 37
0.0
 76
     0
330
1F
331
29
  0
MLINESTYLE
  5
18
102
{ACAD_REACTORS
330
17
102
}
330
17
100
AcDbMlineStyle
  2
STANDARD
 70
     0
  3

 62
   256
 51
90.0
 52
90.0
 71
     2
 49
0.5
 62
   256
  6
BYLAYER
 49
-0.5
 62
   256
  6
BYLAYER
  0
ACDBPLACEHOLDER
  5
F
102
{ACAD_REACTORS
330
E
102
}
330
E
  0
VISUALSTYLE
  5
2F
102
{ACAD_REACTORS
330
2A
102
}
330
2A
100
AcDbVisualStyle
  2
2dWireframe
 70
     4
 71
     0
 72
     2
 73
     0
 90
        0
 40
-0.6
 41
-30.0
 62
     5
 63
     7
 74
     1
 91
        4
 64
     7
 65
   257
 75
     1
175
     1
 42
1.0
 92
        0
 66
   257
 43
1.0
 76
     1
 77
     6
 78
     2
 67
     7
 79
     5
170
     0
171
     0
290
     0
174
     0
 93
        1
 44
0.0
173
     0
291
     0
 45
0.0
1001
ACAD
1000
AcDbSavedByObjectVersion
1070
     0
  0
VISUALSTYLE
  5
31
102
{ACAD_REACTORS
330
2A
102
}
330
2A
100
AcDbVisualStyle
  2
3D Hidden
 70
     6
 71
     1
 72
     2
 73
     2
 90
        0
 40
-0.6
 41
-30.0
 62
     5
 63
     7
 74
     2
 91
        2
 64
     7
 65
   257
 75
     2
175
     1
 42
40.0
 92
        0
 66
   257
 43
1.0
 76
     1
 77
     6
 78
     2
 67
     7
 79
     3
170
     0
171
     0
290
     0
174
     0
 93
        1
 44
0.0
173
     0
291
     0
 45
0.0
1001
ACAD
1000
AcDbSavedByObjectVersion
1070
     0
  0
VISUALSTYLE
  5
30
102
{ACAD_REACTORS
330
2A
102
}
330
2A
100
AcDbVisualStyle
  2
3dWireframe
 70
     5
 71
     0
 72
     2
 73
     0
 90
        0
 40
-0.6
 41
-30.0
 62
     5
 63
     7
 74
     1
 91
        4
 64
     7
 65
   257
 75
     1
175
     1
 42
1.0
 92
        0
 66
   257
 43
1.0
 76
     1
 77
     6
 78
     2
 67
     7
 79
     5
170
     0
171
     0
290
     0
174
     0
 93
        1
 44
0.0
173
     0
291
     0
 45
0.0
1001
ACAD
1000
AcDbSavedByObjectVersion
1070
     0
  0
VISUALSTYLE
  5
32
102
{ACAD_REACTORS
330
2A
102
}
330
2A
100
AcDbVisualStyle
  2
Basic
 70
     7
 71
     1
 72
     0
 73
     1
 90
        0
 40
-0.6
 41
-30.0
 62
     5
 63
     7
 74
     0
 91
        4
 64
     7
 65
   257
 75
     1
175
     1
 42
1.0
 92
        8
 66
     7
 43
1.0
 76
     1
 77
     6
 78
     2
 67
     7
 79
     5
170
     0
171
     0
290
     0
174
     0
 93
        1
 44
0.0
173
     0
291
     1
 45
0.0
1001
ACAD
1000
AcDbSavedByObjectVersion
1070
     0
  0
VISUALSTYLE
  5
36
102
{ACAD_REACTORS
330
2A
102
}
330
2A
100
AcDbVisualStyle
  2
Brighten
 70
    12
 71
     2
 72
     2
 73
     0
 90
        0
 40
-0.6
 41
-30.0
 62
     5
 63
     7
 74
     1
 91
        4
 64
     7
 65
   257
 75
     1
175
     1
 42
1.0
 92
        8
 66
     7
 43
1.0
 76
     1
 77
     6
 78
     2
 67
     7
 79
     5
170
     0
171
     0
290
     0
174
     0
 93
        1
 44
50.0
173
     0
291
     1
 45
0.0
1001
ACAD
1000
AcDbSavedByObjectVersion
1070
     0
  0
VISUALSTYLE
  5
3A
102
{ACAD_REACTORS
330
2A
102
}
330
2A
100
AcDbVisualStyle
  2
ColorChange
 70
    16
 71
     2
 72
     2
 73
     3
 90
        0
 40
-0.6
 41
-30.0
 62
     5
 63
     8
 74
     1
 91
        4
 64
     7
 65
   257
 75
     1
175
     1
 42
1.0
 92
        8
 66
     8
 43
1.0
 76
     1
 77
     6
 78
     2
 67
     7
 79
     5
170
     0
171
     0
290
     0
174
     0
 93
        1
 44
0.0
173
     0
291
     1
 45
0.0
1001
ACAD
1000
AcDbSavedByObjectVersion
1070
     0
  0
VISUALSTYLE
  5
34
102
{ACAD_REACTORS
330
2A
102
}
330
2A
100
AcDbVisualStyle
  2
Conceptual
 70
     9
 71
     3
 72
     2
 73
     0
 90
        0
 40
-0.6
 41
-30.0
 62
     5
 63
     7
 74
     2
 91
        2
 64
     7
 65
   257
 75
     1
175
     1
 42
40.0
 92
        8
 66
     7
 43
1.0
 76
     1
 77
     6
 78
     2
 67
     7
 79
     3
170
     0
171
     0
290
     0
174
     0
 93
        1
 44
0.0
173
     0
291
     0
 45
0.0
1001
ACAD
1000
AcDbSavedByObjectVersion
1070
     0
  0
VISUALSTYLE
  5
35
102
{ACAD_REACTORS
330
2A
102
}
330
2A
100
AcDbVisualStyle
  2
Dim
 70
    11
 71
     2
 72
     2
 73
     0
 90
        0
 40
-0.6
 41
-30.0
 62
     5
 63
     7
 74
     1
 91
        4
 64
     7
 65
   257
 75
     1
175
     1
 42
1.0
 92
        8
 66
     7
 43
1.0
 76
     1
 77
     6
 78
     2
 67
     7
 79
     5
170
     0
171
     0
290
     0
174
     0
 93
        1
 44
-50.0
173
     0
291
     1
 45
0.0
1001
ACAD
1000
AcDbSavedByObjectVersion
1070
     0
  0
VISUALSTYLE
  5
39
102
{ACAD_REACTORS
330
2A
102
}
330
2A
100
AcDbVisualStyle
  2
Facepattern
 70
    15
 71
     2
 72
     2
 73
     0
 90
        0
 40
-0.6
 41
-30.0
 62
     5
 63
     7
 74
     1
 91
        4
 64
     7
 65
   257
 75
     1
175
     1
 42
1.0
 92
        8
 66
     7
 43
1.0
 76
     1
 77
     6
 78
     2
 67
     7
 79
     5
170
     0
171
     0
290
     0
174
     0
 93
        1
 44
0.0
173
     0
291
     1
 45
0.0
1001
ACAD
1000
AcDbSavedByObjectVersion
1070
     0
  0
VISUALSTYLE
  5
2B
102
{ACAD_REACTORS
330
2A
102
}
330
2A
100
AcDbVisualStyle
  2
Flat
 70
     0
 71
     2
 72
     1
 73
     1
 90
        2
 40
-0.6
 41
30.0
 62
     5
 63
     7
 74
     0
 91
        4
 64
     7
 65
   257
 75
     1
175
     1
 42
1.0
 92
        8
 66
     7
 43
1.0
 76
     1
 77
     6
 78
     2
 67
     7
 79
     5
170
     0
171
     0
290
     0
174
     0
 93
       13
 44
0.0
173
     0
291
     1
 45
0.0
1001
ACAD
1000
AcDbSavedByObjectVersion
1070
     0
  0
VISUALSTYLE
  5
2C
102
{ACAD_REACTORS
330
2A
102
}
330
2A
100
AcDbVisualStyle
  2
FlatWithEdges
 70
     1
 71
     2
 72
     1
 73
     1
 90
        2
 40
-0.6
 41
30.0
 62
     5
 63
     7
 74
     1
 91
        4
 64
     7
 65
   257
 75
     1
175
     1
 42
1.0
 92
        0
 66
   257
 43
1.0
 76
     1
 77
     6
 78
     2
 67
     7
 79
     5
170
     0
171
     0
290
     0
174
     0
 93
       13
 44
0.0
173
     0
291
     1
 45
0.0
1001
ACAD
1000
AcDbSavedByObjectVersion
1070
     0
  0
VISUALSTYLE
  5
2D
102
{ACAD_REACTORS
330
2A
102
}
330
2A
100
AcDbVisualStyle
  2
Gouraud
 70
     2
 71
     2
 72
     2
 73
     1
 90
        2
 40
-0.6
 41
30.0
 62
     5
 63
     7
 74
     0
 91
        4
 64
     7
 65
   257
 75
     1
175
     1
 42
1.0
 92
        0
 66
     7
 43
1.0
 76
     1
 77
     6
 78
     2
 67
     7
 79
     5
170
     0
171
     0
290
     0
174
     0
 93
       13
 44
0.0
173
     0
291
     1
 45
0.0
1001
ACAD
1000
AcDbSavedByObjectVersion
1070
     0
  0
VISUALSTYLE
  5
2E
102
{ACAD_REACTORS
330
2A
102
}
330
2A
100
AcDbVisualStyle
  2
GouraudWithEdges
 70
     3
 71
     2
 72
     2
 73
     1
 90
        2
 40
-0.6
 41
30.0
 62
     5
 63
     7
 74
     1
 91
        4
 64
     7
 65
   257
 75
     1
175
     1
 42
1.0
 92
        0
 66
   257
 43
1.0
 76
     1
 77
     6
 78
     2
 67
     7
 79
     5
170
     0
171
     0
290
     0
174
     0
 93
       13
 44
0.0
173
     0
291
     1
 45
0.0
1001
ACAD
1000
AcDbSavedByObjectVersion
1070
     0
  0
VISUALSTYLE
  5
38
102
{ACAD_REACTORS
330
2A
102
}
330
2A
100
AcDbVisualStyle
  2
Linepattern
 70
    14
 71
     2
 72
     2
 73
     0
 90
        0
 40
-0.6
 41
-30.0
 62
     5
 63
     7
 74
     1
 91
        4
 64
     7
 65
   257
 75
     7
175
     7
 42
1.0
 92
        8
 66
     7
 43
1.0
 76
     1
 77
     6
 78
     2
 67
     7
 79
     5
170
     0
171
     0
290
     0
174
     0
 93
        1
 44
0.0
173
     0
291
     1
 45
0.0
1001
ACAD
1000
AcDbSavedByObjectVersion
1070
     0
  0
VISUALSTYLE
  5
33
102
{ACAD_REACTORS
330
2A
102
}
330
2A
100
AcDbVisualStyle
  2
Realistic
 70
     8
 71
     2
 72
     2
 73
     0
 90
        0
 40
-0.6
 41
-30.0
 62
     5
 63
     7
 74
     1
 91
        0
 64
     7
 65
   257
 75
     1
175
     1
 42
1.0
 92
        8
 66
     8
 43
1.0
 76
     1
 77
     6
 78
     2
 67
     7
 79
     5
170
     0
171
     0
290
     0
174
     0
 93
       13
 44
0.0
173
     0
291
     0
 45
0.0
1001
ACAD
1000
AcDbSavedByObjectVersion
1070
     0
  0
VISUALSTYLE
  5
37
102
{ACAD_REACTORS
330
2A
102
}
330
2A
100
AcDbVisualStyle
  2
Thicken
 70
    13
 71
     2
 72
     2
 73
     0
 90
        0
 40
-0.6
 41
-30.0
 62
     5
 63
     7
 74
     1
 91
        4
 64
     7
 65
   257
 75
     1
175
     1
 42
1.0
 92
       12
 66
     7
 43
1.0
 76
     1
 77
     6
 78
     2
 67
     7
 79
     5
170
     0
171
     0
290
     0
174
     0
 93
        1
 44
0.0
173
     0
291
     1
 45
0.0
1001
ACAD
1000
AcDbSavedByObjectVersion
1070
     0
  0
DICTIONARYVAR
  5
1E6
102
{ACAD_REACTORS
330
1E4
102
}
330
1E4
100
DictionaryVariables
280
     0
  1
80.000000
  0
DICTIONARYVAR
  5
1E5
102
{ACAD_REACTORS
330
1E4
102
}
330
1E4
100
DictionaryVariables
280
     0
  1
5.000000
  0
ENDSEC
  0
EOF
