  0
SECTION
  2
HEADER
  9
$ACADVER
  1
AC1015
  9
$ACADMAINTVER
 70
    10
  9
$DWGCODEPAGE
  3
ANSI_932
  9
$INSBASE
 10
0.0
 20
0.0
 30
0.0
  9
$EXTMIN
 10
106.7201966926027
 20
132.6430098675696
 30
-0.0015258207003583
  9
$EXTMAX
 10
637.3373770315825
 20
479.2463559786531
 30
0.0000000349246037
  9
$LIMMIN
 10
0.0
 20
0.0
  9
$LIMMAX
 10
420.0
 20
297.0
  9
$ORTHOMODE
 70
     0
  9
$REGENMODE
 70
     1
  9
$FILLMODE
 70
     1
  9
$QTEXTMODE
 70
     0
  9
$MIRRTEXT
 70
     1
  9
$LTSCALE
 40
1.0
  9
$ATTMODE
 70
     1
  9
$TEXTSIZE
 40
0.0
  9
$TRACEWID
 40
0.05
  9
$TEXTSTYLE
  7
STANDARD
  9
$CLAYER
  8
LAYER_1
  9
$CELTYPE
  6
CONTINUOUS
  9
$CECOLOR
 62
   256
  9
$CELTSCALE
 40
1.0
  9
$DISPSILH
 70
     0
  9
$DIMSCALE
 40
1.0
  9
$DIMASZ
 40
0.18
  9
$DIMEXO
 40
0.0625
  9
$DIMDLI
 40
0.38
  9
$DIMRND
 40
0.0
  9
$DIMDLE
 40
0.0
  9
$DIMEXE
 40
0.18
  9
$DIMTP
 40
0.0
  9
$DIMTM
 40
0.0
  9
$DIMTXT
 40
0.18
  9
$DIMCEN
 40
0.09
  9
$DIMTSZ
 40
0.0
  9
$DIMTOL
 70
     0
  9
$DIMLIM
 70
     0
  9
$DIMTIH
 70
     1
  9
$DIMTOH
 70
     1
  9
$DIMSE1
 70
     0
  9
$DIMSE2
 70
     0
  9
$DIMTAD
 70
     0
  9
$DIMZIN
 70
     0
  9
$DIMBLK
  1

  9
$DIMASO
 70
     1
  9
$DIMSHO
 70
     1
  9
$DIMPOST
  1

  9
$DIMAPOST
  1

  9
$DIMALT
 70
     0
  9
$DIMALTD
 70
     2
  9
$DIMALTF
 40
25.4
  9
$DIMLFAC
 40
1.0
  9
$DIMTOFL
 70
     0
  9
$DIMTVP
 40
0.0
  9
$DIMTIX
 70
     0
  9
$DIMSOXD
 70
     0
  9
$DIMSAH
 70
     0
  9
$DIMBLK1
  1

  9
$DIMBLK2
  1

  9
$DIMSTYLE
  2
STANDARD
  9
$DIMCLRD
 70
     0
  9
$DIMCLRE
 70
     0
  9
$DIMCLRT
 70
     0
  9
$DIMTFAC
 40
1.0
  9
$DIMGAP
 40
0.09
  9
$DIMJUST
 70
     0
  9
$DIMSD1
 70
     0
  9
$DIMSD2
 70
     0
  9
$DIMTOLJ
 70
     1
  9
$DIMTZIN
 70
     0
  9
$DIMALTZ
 70
     0
  9
$DIMALTTZ
 70
     0
  9
$DIMUPT
 70
     0
  9
$DIMDEC
 70
     4
  9
$DIMTDEC
 70
     4
  9
$DIMALTU
 70
     2
  9
$DIMALTTD
 70
     2
  9
$DIMTXSTY
  7
STANDARD
  9
$DIMAUNIT
 70
     0
  9
$DIMADEC
 70
     0
  9
$DIMALTRND
 40
0.0
  9
$DIMAZIN
 70
     0
  9
$DIMDSEP
 70
    46
  9
$DIMATFIT
 70
     3
  9
$DIMFRAC
 70
     0
  9
$DIMLDRBLK
  1

  9
$DIMLUNIT
 70
     2
  9
$DIMLWD
 70
    -2
  9
$DIMLWE
 70
    -2
  9
$DIMTMOVE
 70
     0
  9
$LUNITS
 70
     2
  9
$LUPREC
 70
     4
  9
$SKETCHINC
 40
0.1
  9
$FILLETRAD
 40
0.0
  9
$AUNITS
 70
     0
  9
$AUPREC
 70
     0
  9
$MENU
  1
acad
  9
$ELEVATION
 40
0.0
  9
$PELEVATION
 40
0.0
  9
$THICKNESS
 40
0.0
  9
$LIMCHECK
 70
     0
  9
$CHAMFERA
 40
0.0
  9
$CHAMFERB
 40
0.0
  9
$CHAMFERC
 40
0.0
  9
$CHAMFERD
 40
0.0
  9
$SKPOLY
 70
     0
  9
$TDCREATE
 40
2311945.702129432
  9
$TDUCREATE
 40
2311945.327129433
  9
$TDUPDATE
 40
2456666.482846609
  9
$TDUUPDATE
 40
2456666.107846608
  9
$TDINDWG
 40
0.0010008102
  9
$TDUSRTIMER
 40
0.0010006250
  9
$USRTIMER
 70
     1
  9
$ANGBASE
 50
0.0
  9
$ANGDIR
 70
     0
  9
$PDMODE
 70
     0
  9
$PDSIZE
 40
0.0
  9
$PLINEWID
 40
0.0
  9
$SPLFRAME
 70
     0
  9
$SPLINETYPE
 70
     6
  9
$SPLINESEGS
 70
     8
  9
$HANDSEED
  5
1640
  9
$SURFTAB1
 70
     6
  9
$SURFTAB2
 70
     6
  9
$SURFTYPE
 70
     6
  9
$SURFU
 70
     6
  9
$SURFV
 70
     6
  9
$UCSBASE
  2

  9
$UCSNAME
  2

  9
$UCSORG
 10
0.0
 20
0.0
 30
0.0
  9
$UCSXDIR
 10
1.0
 20
0.0
 30
0.0
  9
$UCSYDIR
 10
0.0
 20
1.0
 30
0.0
  9
$UCSORTHOREF
  2

  9
$UCSORTHOVIEW
 70
     0
  9
$UCSORGTOP
 10
0.0
 20
0.0
 30
0.0
  9
$UCSORGBOTTOM
 10
0.0
 20
0.0
 30
0.0
  9
$UCSORGLEFT
 10
0.0
 20
0.0
 30
0.0
  9
$UCSORGRIGHT
 10
0.0
 20
0.0
 30
0.0
  9
$UCSORGFRONT
 10
0.0
 20
0.0
 30
0.0
  9
$UCSORGBACK
 10
0.0
 20
0.0
 30
0.0
  9
$PUCSBASE
  2

  9
$PUCSNAME
  2

  9
$PUCSORG
 10
0.0
 20
0.0
 30
0.0
  9
$PUCSXDIR
 10
1.0
 20
0.0
 30
0.0
  9
$PUCSYDIR
 10
0.0
 20
1.0
 30
0.0
  9
$PUCSORTHOREF
  2

  9
$PUCSORTHOVIEW
 70
     0
  9
$PUCSORGTOP
 10
0.0
 20
0.0
 30
0.0
  9
$PUCSORGBOTTOM
 10
0.0
 20
0.0
 30
0.0
  9
$PUCSORGLEFT
 10
0.0
 20
0.0
 30
0.0
  9
$PUCSORGRIGHT
 10
0.0
 20
0.0
 30
0.0
  9
$PUCSORGFRONT
 10
0.0
 20
0.0
 30
0.0
  9
$PUCSORGBACK
 10
0.0
 20
0.0
 30
0.0
  9
$USERI1
 70
     0
  9
$USERI2
 70
     0
  9
$USERI3
 70
     0
  9
$USERI4
 70
     0
  9
$USERI5
 70
     0
  9
$USERR1
 40
0.0
  9
$USERR2
 40
0.0
  9
$USERR3
 40
0.0
  9
$USERR4
 40
0.0
  9
$USERR5
 40
0.0
  9
$WORLDVIEW
 70
     1
  9
$SHADEDGE
 70
     3
  9
$SHADEDIF
 70
    70
  9
$TILEMODE
 70
     1
  9
$MAXACTVP
 70
    16
  9
$PINSBASE
 10
0.0
 20
0.0
 30
0.0
  9
$PLIMCHECK
 70
     0
  9
$PEXTMIN
 10
1.000000000000000E+20
 20
1.000000000000000E+20
 30
1.000000000000000E+20
  9
$PEXTMAX
 10
-1.000000000000000E+20
 20
-1.000000000000000E+20
 30
-1.000000000000000E+20
  9
$PLIMMIN
 10
0.0
 20
0.0
  9
$PLIMMAX
 10
12.0
 20
9.0
  9
$UNITMODE
 70
     0
  9
$VISRETAIN
 70
     0
  9
$PLINEGEN
 70
     1
  9
$PSLTSCALE
 70
     0
  9
$TREEDEPTH
 70
  3020
  9
$CMLSTYLE
  2
STANDARD
  9
$CMLJUST
 70
     0
  9
$CMLSCALE
 40
1.0
  9
$PROXYGRAPHICS
 70
     1
  9
$MEASUREMENT
 70
     0
  9
$CELWEIGHT
370
    -1
  9
$ENDCAPS
280
     0
  9
$JOINSTYLE
280
     0
  9
$LWDISPLAY
290
     0
  9
$INSUNITS
 70
     0
  9
$HYPERLINKBASE
  1

  9
$STYLESHEET
  1

  9
$XEDIT
290
     1
  9
$CEPSNTYPE
380
     0
  9
$PSTYLEMODE
290
     1
  9
$FINGERPRINTGUID
  2
{4F76A938-0F93-421D-96D0-6E4647D41EFD}
  9
$VERSIONGUID
  2
{285BDE0E-6EF4-4D4E-9629-CC19680A528D}
  9
$EXTNAMES
290
     1
  9
$PSVPSCALE
 40
0.0
  9
$OLESTARTUP
290
     0
  0
ENDSEC
  0
SECTION
  2
CLASSES
  0
CLASS
  1
LWPOLYLINE
  2
AcDbPolyline
  3
AutoCAD 2000
 90
    32768
280
     0
281
     1
  0
CLASS
  1
IMAGE
  2
AcDbRasterImage
  3
ISM
 90
    32895
280
     0
281
     1
  0
CLASS
  1
OLE2FRAME
  2
AcDbOle2Frame
  3
AutoCAD 2000
 90
    32768
280
     0
281
     1
  0
CLASS
  1
HATCH
  2
AcDbHatch
  3
AutoCAD 2000
 90
    32768
280
     0
281
     1
  0
CLASS
  1
DICTIONARYVAR
  2
AcDbDictionaryVar
  3
AutoCAD 2000
 90
    32768
280
     0
281
     0
  0
CLASS
  1
RASTERVARIABLES
  2
AcDbRasterVariables
  3
ISM
 90
    32768
280
     0
281
     0
  0
CLASS
  1
IMAGEDEF
  2
AcDbRasterImageDef
  3
ISM
 90
    32768
280
     0
281
     0
  0
CLASS
  1
IMAGEDEF_REACTOR
  2
AcDbRasterImageDefReactor
  3
ISM
 90
    32769
280
     0
281
     0
  0
CLASS
  1
IDBUFFER
  2
AcDbIdBuffer
  3
AutoCAD 2000
 90
    32768
280
     0
281
     0
  0
CLASS
  1
SPATIAL_FILTER
  2
AcDbSpatialFilter
  3
AutoCAD 2000
 90
    32768
280
     0
281
     0
  0
CLASS
  1
XRECORD
  2
AcDbXrecord
  3
AutoCAD 2000
 90
    32768
280
     0
281
     0
  0
CLASS
  1
SORTENTSTABLE
  2
AcDbSortentsTable
  3
AutoCAD 2000
 90
    32768
280
     0
281
     0
  0
CLASS
  1
LAYER_INDEX
  2
AcDbLayerIndex
  3
AutoCAD 2000
 90
    32768
280
     0
281
     0
  0
CLASS
  1
SPATIAL_INDEX
  2
AcDbSpatialIndex
  3
AutoCAD 2000
 90
    32768
280
     0
281
     0
  0
CLASS
  1
OBJECT_PTR
  2
CAseDLPNTableRecord
  3
"ASE-LPNTableRecord"
 90
    32769
280
     0
281
     0
  0
CLASS
  1
LAYOUT
  2
AcDbLayout
  3
AutoCAD 2000
 90
        0
280
     0
281
     0
  0
CLASS
  1
PLOTSETTINGS
  2
AcDbPlotSettings
  3
AutoCAD 2000
 90
    32768
280
     0
281
     0
  0
CLASS
  1
ACDBDICTIONARYWDFLT
  2
AcDbDictionaryWithDefault
  3
AutoCAD 2000
 90
        0
280
     0
281
     0
  0
CLASS
  1
ACDBPLACEHOLDER
  2
AcDbPlaceHolder
  3
AutoCAD 2000
 90
        0
280
     0
281
     0
  0
CLASS
  1
VBA_PROJECT
  2
AcDbVbaProject
  3
"acadvba"
 90
    32768
280
     0
281
     0
  0
CLASS
  1
WIPEOUT
  2
AcDbWipeout
  3
WipeOut|AutoCAD Express Tool|expresstools@autodesk.com
 90
    32895
280
     0
281
     1
  0
CLASS
  1
WIPEOUTVARIABLES
  2
AcDbWipeoutVariables
  3
WipeOut|AutoCAD Express Tool|expresstools@autodesk.com
 90
    32768
280
     0
281
     0
  0
CLASS
  1
RTEXT
  2
RText
  3
RText|AutoCAD Express Tool|expresstools@autodesk.com
 90
    32768
280
     0
281
     1
  0
CLASS
  1
ARCALIGNEDTEXT
  2
AcDbArcAlignedText
  3
ATEXT|AutoCAD Express Tool|expresstools@autodesk.com
 90
    32768
280
     0
281
     1
  0
ENDSEC
  0
SECTION
  2
TABLES
  0
TABLE
  2
VPORT
  5
7
330
0
100
AcDbSymbolTable
 70
     2
  0
VPORT
  5
163F
330
7
100
AcDbSymbolTableRecord
100
AcDbViewportTableRecord
  2
*Active
 70
     0
 10
0.0
 20
0.0
 11
1.0
 21
1.0
 12
318.6686885157913
 22
239.6231779893265
 13
0.0
 23
0.0
 14
1.0
 24
1.0
 15
0.0
 25
0.0
 16
0.0
 26
0.0
 36
1.0
 17
0.0
 27
0.0
 37
0.0
 40
484.3447214677877
 41
2.119005328596802
 42
50.0
 43
0.0
 44
0.0
 50
0.0
 51
0.0
 71
     0
 72
   100
 73
     1
 74
     1
 75
     0
 76
     0
 77
     0
 78
     0
281
     0
 65
     1
110
0.0
120
0.0
130
0.0
111
1.0
121
0.0
131
0.0
112
0.0
122
1.0
132
0.0
 79
     0
146
0.0
  0
ENDTAB
  0
TABLE
  2
LTYPE
  5
4
330
0
100
AcDbSymbolTable
 70
     6
  0
LTYPE
  5
11
330
4
100
AcDbSymbolTableRecord
100
AcDbLinetypeTableRecord
  2
BYBLOCK
 70
     0
  3

 72
    65
 73
     0
 40
0.0
  0
LTYPE
  5
12
330
4
100
AcDbSymbolTableRecord
100
AcDbLinetypeTableRecord
  2
BYLAYER
 70
     0
  3

 72
    65
 73
     0
 40
0.0
  0
LTYPE
  5
13
330
4
100
AcDbSymbolTableRecord
100
AcDbLinetypeTableRecord
  2
CONTINUOUS
 70
     0
  3
Solid line
 72
    65
 73
     0
 40
0.0
  0
LTYPE
  5
1D
330
4
100
AcDbSymbolTableRecord
100
AcDbLinetypeTableRecord
  2
DASHED
 70
     0
  3
__ __ __ __ __ __ __ __ __ __ __ __ __ __ __
 72
    65
 73
     2
 40
4.0
 49
3.0
 74
     0
 49
-1.0
 74
     0
  0
LTYPE
  5
1E
330
4
100
AcDbSymbolTableRecord
100
AcDbLinetypeTableRecord
  2
HIDDEN
 70
     0
  3
_ _ _ _ _ _ _ _ _ _ _ _ _ _ _ _ _ _ _ _ _ _ _
 72
    65
 73
     2
 40
2.25
 49
0.25
 74
     0
 49
-2.0
 74
     0
  0
LTYPE
  5
1F
330
4
100
AcDbSymbolTableRecord
100
AcDbLinetypeTableRecord
  2
DOT
 70
     0
  3
...............................................
 72
    65
 73
     2
 40
4.0
 49
1.0
 74
     0
 49
-3.0
 74
     0
  0
LTYPE
  5
20
330
4
100
AcDbSymbolTableRecord
100
AcDbLinetypeTableRecord
  2
DASHDOT
 70
     0
  3
__ . __ . __ . __ . __ . __ . __ . __ . __ . __
 72
    65
 73
     4
 40
7.5
 49
6.0
 74
     0
 49
-0.5
 74
     0
 49
0.5
 74
     0
 49
-0.5
 74
     0
  0
LTYPE
  5
21
330
4
100
AcDbSymbolTableRecord
100
AcDbLinetypeTableRecord
  2
DIVIDE
 70
     0
  3
__ . . __ . . __ . . __ . . __ . . __ . . __
 72
    65
 73
     6
 40
8.5
 49
6.0
 74
     0
 49
-0.5
 74
     0
 49
0.5
 74
     0
 49
-0.5
 74
     0
 49
0.5
 74
     0
 49
-0.5
 74
     0
  0
ENDTAB
  0
TABLE
  2
LAYER
  5
2
330
0
100
AcDbSymbolTable
 70
    17
  0
LAYER
  5
14
330
2
100
AcDbSymbolTableRecord
100
AcDbLayerTableRecord
  2
0
 70
     0
 62
     7
  6
CONTINUOUS
370
    -3
390
14C6
  0
LAYER
  5
22
330
2
100
AcDbSymbolTableRecord
100
AcDbLayerTableRecord
  2
LAYER_1
 70
     0
 62
     7
  6
CONTINUOUS
370
    -3
390
14C6
  0
LAYER
  5
23
330
2
100
AcDbSymbolTableRecord
100
AcDbLayerTableRecord
  2
LAYER_3
 70
     0
 62
     7
  6
CONTINUOUS
370
    -3
390
14C6
  0
LAYER
  5
24
330
2
100
AcDbSymbolTableRecord
100
AcDbLayerTableRecord
  2
LAYER_4
 70
     0
 62
     7
  6
CONTINUOUS
370
    -3
390
14C6
  0
LAYER
  5
25
330
2
100
AcDbSymbolTableRecord
100
AcDbLayerTableRecord
  2
LAYER_5
 70
     0
 62
     7
  6
CONTINUOUS
370
    -3
390
14C6
  0
LAYER
  5
26
330
2
100
AcDbSymbolTableRecord
100
AcDbLayerTableRecord
  2
LAYER_6
 70
     0
 62
     7
  6
CONTINUOUS
370
    -3
390
14C6
  0
LAYER
  5
27
330
2
100
AcDbSymbolTableRecord
100
AcDbLayerTableRecord
  2
LAYER_7
 70
     0
 62
     7
  6
CONTINUOUS
370
    -3
390
14C6
  0
LAYER
  5
28
330
2
100
AcDbSymbolTableRecord
100
AcDbLayerTableRecord
  2
LAYER_8
 70
     0
 62
     7
  6
CONTINUOUS
370
    -3
390
14C6
  0
LAYER
  5
29
330
2
100
AcDbSymbolTableRecord
100
AcDbLayerTableRecord
  2
LAYER_9
 70
     0
 62
     7
  6
CONTINUOUS
370
    -3
390
14C6
  0
LAYER
  5
2A
330
2
100
AcDbSymbolTableRecord
100
AcDbLayerTableRecord
  2
LAYER_10
 70
     0
 62
     7
  6
CONTINUOUS
370
    -3
390
14C6
  0
LAYER
  5
2B
330
2
100
AcDbSymbolTableRecord
100
AcDbLayerTableRecord
  2
LAYER_11
 70
     0
 62
     7
  6
CONTINUOUS
370
    -3
390
14C6
  0
LAYER
  5
2C
330
2
100
AcDbSymbolTableRecord
100
AcDbLayerTableRecord
  2
LAYER_12
 70
     0
 62
     7
  6
CONTINUOUS
370
    -3
390
14C6
  0
LAYER
  5
2D
330
2
100
AcDbSymbolTableRecord
100
AcDbLayerTableRecord
  2
LAYER_13
 70
     0
 62
     7
  6
CONTINUOUS
370
    -3
390
14C6
  0
LAYER
  5
2E
330
2
100
AcDbSymbolTableRecord
100
AcDbLayerTableRecord
  2
LAYER_14
 70
     0
 62
     7
  6
CONTINUOUS
370
    -3
390
14C6
  0
LAYER
  5
2F
330
2
100
AcDbSymbolTableRecord
100
AcDbLayerTableRecord
  2
LAYER_15
 70
     0
 62
     7
  6
CONTINUOUS
370
    -3
390
14C6
  0
LAYER
  5
30
330
2
100
AcDbSymbolTableRecord
100
AcDbLayerTableRecord
  2
LAYER_16
 70
     0
 62
     7
  6
CONTINUOUS
370
    -3
390
14C6
  0
LAYER
  5
14D7
330
2
100
AcDbSymbolTableRecord
100
AcDbLayerTableRecord
  2
Defpoints
 70
     0
 62
     7
  6
CONTINUOUS
290
     0
370
    -3
390
14C6
  0
ENDTAB
  0
TABLE
  2
STYLE
  5
3
330
0
100
AcDbSymbolTable
 70
     3
  0
STYLE
  5
17
330
3
100
AcDbSymbolTableRecord
100
AcDbTextStyleTableRecord
  2
STANDARD
 70
     0
 40
0.0
 41
1.0
 50
0.0
 71
     0
 42
0.0
  3
txt
  4

  0
STYLE
  5
31
330
3
100
AcDbSymbolTableRecord
100
AcDbTextStyleTableRecord
  2
BIGFONT
 70
     0
 40
1.0
 41
1.0
 50
0.0
 71
     0
 42
0.0
  3
monotxt.shx
  4
bigfont
  0
STYLE
  5
32
330
3
100
AcDbSymbolTableRecord
100
AcDbTextStyleTableRecord
  2
ＭＳ_ゴシック
 70
     0
 40
0.0
 41
1.0
 50
0.0
 71
     0
 42
0.0
  3
MS Gothic.ttf
  4

1001
ACAD
1000
MS Gothic
1071
    32817
  0
ENDTAB
  0
TABLE
  2
VIEW
  5
5
330
0
100
AcDbSymbolTable
 70
     0
  0
ENDTAB
  0
TABLE
  2
UCS
  5
6
330
0
100
AcDbSymbolTable
 70
     0
  0
ENDTAB
  0
TABLE
  2
APPID
  5
8
330
0
100
AcDbSymbolTable
 70
     1
  0
APPID
  5
16
330
8
100
AcDbSymbolTableRecord
100
AcDbRegAppTableRecord
  2
ACAD
 70
     0
  0
ENDTAB
  0
TABLE
  2
DIMSTYLE
  5
9
330
0
100
AcDbSymbolTable
 70
     2
100
AcDbDimStyleTable
 71
     0
  0
DIMSTYLE
105
18
330
9
100
AcDbSymbolTableRecord
100
AcDbDimStyleTableRecord
  2
STANDARD
 70
     0
340
17
  0
DIMSTYLE
105
33
102
{ACAD_REACTORS
330
DC1
330
DC2
330
DC3
330
DC4
330
DCC
330
13A3
330
13A4
330
13A5
330
13A6
330
13A7
330
13A8
330
13A9
330
13AA
330
13AB
102
}
330
9
100
AcDbSymbolTableRecord
100
AcDbDimStyleTableRecord
  2
MARK2_DIMSTYLE
 70
     0
 41
2.0
 42
1.0
 43
10.0
 44
1.0
 73
     0
 77
     1
140
6.0
146
0.5
147
1.0
271
     2
340
32
341
34
342
34
  0
ENDTAB
  0
TABLE
  2
BLOCK_RECORD
  5
1
330
0
100
AcDbSymbolTable
 70
    78
  0
BLOCK_RECORD
  5
A
330
1
100
AcDbSymbolTableRecord
100
AcDbBlockTableRecord
  2
*MODEL_SPACE
340
14C9
  0
BLOCK_RECORD
  5
B
330
1
100
AcDbSymbolTableRecord
100
AcDbBlockTableRecord
  2
*PAPER_SPACE
340
14CA
  0
BLOCK_RECORD
  5
34
330
1
100
AcDbSymbolTableRecord
100
AcDbBlockTableRecord
  2
_OPEN
340
0
102
{BLKREFS
331
42
331
45
331
4F
331
52
331
5B
331
5C
331
5D
331
5E
331
65
331
66
331
67
331
68
331
6F
331
70
331
71
331
72
331
7B
331
7E
331
87
331
88
331
89
331
8A
331
92
331
93
331
94
331
95
331
9E
331
A1
331
AA
331
AB
331
AC
331
AD
331
B4
331
B5
331
B6
331
B7
331
BE
331
BF
331
C0
331
C1
331
C9
331
CA
331
CB
331
CC
331
D5
331
D8
331
E2
331
E5
331
EE
331
EF
331
F0
331
F1
331
F8
331
F9
331
FA
331
FB
331
102
331
103
331
104
331
105
331
10E
331
111
331
11A
331
11B
331
11C
331
11D
331
124
331
125
331
126
331
127
331
12E
331
12F
331
130
331
131
331
13A
331
13D
331
147
331
14A
331
153
331
154
331
155
331
156
331
15E
331
15F
331
160
331
161
331
169
331
16A
331
16B
331
16C
331
174
331
175
331
176
331
177
331
180
331
183
331
18C
331
18D
331
18E
331
18F
331
198
331
19B
331
1A3
331
1A6
331
1AF
331
1B0
331
1B1
331
1B2
331
1BA
331
1BB
331
1BC
331
1BD
331
1C5
331
1C6
331
1C7
331
1C8
331
1D0
331
1D1
331
1D2
331
1D3
331
1DB
331
1DC
331
1DD
331
1DE
331
1E5
331
1E6
331
1E7
331
1E8
331
1F0
331
1F1
331
1F2
331
1F3
331
1FB
331
1FC
331
1FD
331
1FE
331
205
331
208
331
211
331
212
331
213
331
214
331
21B
331
21C
331
21D
331
21E
331
226
331
227
331
228
331
229
331
230
331
231
331
232
331
233
331
23B
331
23C
331
23D
331
23E
331
246
331
247
331
248
331
249
331
251
331
252
331
253
331
254
331
25C
331
25D
331
25E
331
25F
331
267
331
268
331
269
331
26A
331
272
331
273
331
274
331
275
331
27E
331
281
331
14DE
331
14DF
331
14EA
331
14EB
331
14F8
331
14F9
331
1504
331
1505
331
1510
331
1511
331
151C
331
1527
331
1528
331
1535
331
1536
331
1541
331
1542
331
154F
331
1550
331
155B
331
155C
331
1567
331
1568
331
1574
331
1575
331
1580
331
1581
331
158B
331
158C
331
1594
331
1595
331
159F
331
15A0
331
15A8
331
15A9
331
15B3
331
15B4
331
15BE
331
15BF
331
15C7
331
15C8
331
15D0
331
15D1
331
15D9
331
15DA
331
15E2
331
15E3
331
15ED
331
15EE
331
15F6
331
15FF
331
1600
331
1608
331
1609
331
1611
331
1612
331
161C
331
161D
331
1625
331
1626
331
1630
331
1631
331
1639
331
163A
102
}
  0
BLOCK_RECORD
  5
3A
330
1
100
AcDbSymbolTableRecord
100
AcDbBlockTableRecord
  2
_NONE
340
0
102
{BLKREFS
331
43
331
46
331
50
331
53
331
7C
331
7F
331
9F
331
A2
331
D6
331
D9
331
E3
331
E6
331
10F
331
112
331
13B
331
13E
331
148
331
14B
331
181
331
184
331
199
331
19C
331
1A4
331
1A7
331
206
331
209
331
27F
331
282
102
}
  0
BLOCK_RECORD
  5
3D
330
1
100
AcDbSymbolTableRecord
100
AcDbBlockTableRecord
  2
*D2
340
0
  0
BLOCK_RECORD
  5
4A
330
1
100
AcDbSymbolTableRecord
100
AcDbBlockTableRecord
  2
*D3
340
0
  0
BLOCK_RECORD
  5
57
330
1
100
AcDbSymbolTableRecord
100
AcDbBlockTableRecord
  2
*D4
340
0
  0
BLOCK_RECORD
  5
62
330
1
100
AcDbSymbolTableRecord
100
AcDbBlockTableRecord
  2
*D5
340
0
  0
BLOCK_RECORD
  5
6C
330
1
100
AcDbSymbolTableRecord
100
AcDbBlockTableRecord
  2
*D6
340
0
  0
BLOCK_RECORD
  5
76
330
1
100
AcDbSymbolTableRecord
100
AcDbBlockTableRecord
  2
*D7
340
0
  0
BLOCK_RECORD
  5
83
330
1
100
AcDbSymbolTableRecord
100
AcDbBlockTableRecord
  2
*D8
340
0
  0
BLOCK_RECORD
  5
8E
330
1
100
AcDbSymbolTableRecord
100
AcDbBlockTableRecord
  2
*D9
340
0
  0
BLOCK_RECORD
  5
99
330
1
100
AcDbSymbolTableRecord
100
AcDbBlockTableRecord
  2
*D10
340
0
  0
BLOCK_RECORD
  5
A6
330
1
100
AcDbSymbolTableRecord
100
AcDbBlockTableRecord
  2
*D11
340
0
  0
BLOCK_RECORD
  5
B1
330
1
100
AcDbSymbolTableRecord
100
AcDbBlockTableRecord
  2
*D12
340
0
  0
BLOCK_RECORD
  5
BB
330
1
100
AcDbSymbolTableRecord
100
AcDbBlockTableRecord
  2
*D13
340
0
  0
BLOCK_RECORD
  5
C5
330
1
100
AcDbSymbolTableRecord
100
AcDbBlockTableRecord
  2
*D14
340
0
  0
BLOCK_RECORD
  5
D0
330
1
100
AcDbSymbolTableRecord
100
AcDbBlockTableRecord
  2
*D15
340
0
  0
BLOCK_RECORD
  5
DD
330
1
100
AcDbSymbolTableRecord
100
AcDbBlockTableRecord
  2
*D16
340
0
  0
BLOCK_RECORD
  5
EA
330
1
100
AcDbSymbolTableRecord
100
AcDbBlockTableRecord
  2
*D17
340
0
  0
BLOCK_RECORD
  5
F5
330
1
100
AcDbSymbolTableRecord
100
AcDbBlockTableRecord
  2
*D18
340
0
  0
BLOCK_RECORD
  5
FF
330
1
100
AcDbSymbolTableRecord
100
AcDbBlockTableRecord
  2
*D19
340
0
  0
BLOCK_RECORD
  5
109
330
1
100
AcDbSymbolTableRecord
100
AcDbBlockTableRecord
  2
*D20
340
0
  0
BLOCK_RECORD
  5
116
330
1
100
AcDbSymbolTableRecord
100
AcDbBlockTableRecord
  2
*D21
340
0
  0
BLOCK_RECORD
  5
121
330
1
100
AcDbSymbolTableRecord
100
AcDbBlockTableRecord
  2
*D22
340
0
  0
BLOCK_RECORD
  5
12B
330
1
100
AcDbSymbolTableRecord
100
AcDbBlockTableRecord
  2
*D23
340
0
  0
BLOCK_RECORD
  5
135
330
1
100
AcDbSymbolTableRecord
100
AcDbBlockTableRecord
  2
*D24
340
0
  0
BLOCK_RECORD
  5
142
330
1
100
AcDbSymbolTableRecord
100
AcDbBlockTableRecord
  2
*D25
340
0
  0
BLOCK_RECORD
  5
14F
330
1
100
AcDbSymbolTableRecord
100
AcDbBlockTableRecord
  2
*D26
340
0
  0
BLOCK_RECORD
  5
15A
330
1
100
AcDbSymbolTableRecord
100
AcDbBlockTableRecord
  2
*D27
340
0
  0
BLOCK_RECORD
  5
165
330
1
100
AcDbSymbolTableRecord
100
AcDbBlockTableRecord
  2
*D28
340
0
  0
BLOCK_RECORD
  5
170
330
1
100
AcDbSymbolTableRecord
100
AcDbBlockTableRecord
  2
*D29
340
0
  0
BLOCK_RECORD
  5
17B
330
1
100
AcDbSymbolTableRecord
100
AcDbBlockTableRecord
  2
*D30
340
0
  0
BLOCK_RECORD
  5
188
330
1
100
AcDbSymbolTableRecord
100
AcDbBlockTableRecord
  2
*D31
340
0
  0
BLOCK_RECORD
  5
193
330
1
100
AcDbSymbolTableRecord
100
AcDbBlockTableRecord
  2
*D32
340
0
  0
BLOCK_RECORD
  5
1A0
330
1
100
AcDbSymbolTableRecord
100
AcDbBlockTableRecord
  2
*D33
340
0
  0
BLOCK_RECORD
  5
1AB
330
1
100
AcDbSymbolTableRecord
100
AcDbBlockTableRecord
  2
*D34
340
0
  0
BLOCK_RECORD
  5
1B6
330
1
100
AcDbSymbolTableRecord
100
AcDbBlockTableRecord
  2
*D35
340
0
  0
BLOCK_RECORD
  5
1C1
330
1
100
AcDbSymbolTableRecord
100
AcDbBlockTableRecord
  2
*D36
340
0
  0
BLOCK_RECORD
  5
1CC
330
1
100
AcDbSymbolTableRecord
100
AcDbBlockTableRecord
  2
*D37
340
0
  0
BLOCK_RECORD
  5
1D7
330
1
100
AcDbSymbolTableRecord
100
AcDbBlockTableRecord
  2
*D38
340
0
  0
BLOCK_RECORD
  5
1E2
330
1
100
AcDbSymbolTableRecord
100
AcDbBlockTableRecord
  2
*D39
340
0
  0
BLOCK_RECORD
  5
1EC
330
1
100
AcDbSymbolTableRecord
100
AcDbBlockTableRecord
  2
*D40
340
0
  0
BLOCK_RECORD
  5
1F7
330
1
100
AcDbSymbolTableRecord
100
AcDbBlockTableRecord
  2
*D41
340
0
  0
BLOCK_RECORD
  5
202
330
1
100
AcDbSymbolTableRecord
100
AcDbBlockTableRecord
  2
*D42
340
0
  0
BLOCK_RECORD
  5
20D
330
1
100
AcDbSymbolTableRecord
100
AcDbBlockTableRecord
  2
*D43
340
0
  0
BLOCK_RECORD
  5
218
330
1
100
AcDbSymbolTableRecord
100
AcDbBlockTableRecord
  2
*D44
340
0
  0
BLOCK_RECORD
  5
222
330
1
100
AcDbSymbolTableRecord
100
AcDbBlockTableRecord
  2
*D45
340
0
  0
BLOCK_RECORD
  5
22D
330
1
100
AcDbSymbolTableRecord
100
AcDbBlockTableRecord
  2
*D46
340
0
  0
BLOCK_RECORD
  5
237
330
1
100
AcDbSymbolTableRecord
100
AcDbBlockTableRecord
  2
*D47
340
0
  0
BLOCK_RECORD
  5
242
330
1
100
AcDbSymbolTableRecord
100
AcDbBlockTableRecord
  2
*D48
340
0
  0
BLOCK_RECORD
  5
24D
330
1
100
AcDbSymbolTableRecord
100
AcDbBlockTableRecord
  2
*D49
340
0
  0
BLOCK_RECORD
  5
258
330
1
100
AcDbSymbolTableRecord
100
AcDbBlockTableRecord
  2
*D50
340
0
  0
BLOCK_RECORD
  5
263
330
1
100
AcDbSymbolTableRecord
100
AcDbBlockTableRecord
  2
*D51
340
0
  0
BLOCK_RECORD
  5
26E
330
1
100
AcDbSymbolTableRecord
100
AcDbBlockTableRecord
  2
*D52
340
0
  0
BLOCK_RECORD
  5
279
330
1
100
AcDbSymbolTableRecord
100
AcDbBlockTableRecord
  2
*D53
340
0
  0
BLOCK_RECORD
  5
286
330
1
100
AcDbSymbolTableRecord
100
AcDbBlockTableRecord
  2
HATCHING__PATTERN_$40$
340
0
102
{BLKREFS
331
14B6
102
}
  0
BLOCK_RECORD
  5
28F
330
1
100
AcDbSymbolTableRecord
100
AcDbBlockTableRecord
  2
HATCHING__PATTERN_$41$
340
0
102
{BLKREFS
331
14B7
102
}
  0
BLOCK_RECORD
  5
298
330
1
100
AcDbSymbolTableRecord
100
AcDbBlockTableRecord
  2
HATCHING__PATTERN_$42$
340
0
102
{BLKREFS
331
14B8
102
}
  0
BLOCK_RECORD
  5
2A1
330
1
100
AcDbSymbolTableRecord
100
AcDbBlockTableRecord
  2
HATCHING__PATTERN_$43$
340
0
102
{BLKREFS
331
14B9
102
}
  0
BLOCK_RECORD
  5
2AA
330
1
100
AcDbSymbolTableRecord
100
AcDbBlockTableRecord
  2
HATCHING__PATTERN_$44$
340
0
102
{BLKREFS
331
14BA
102
}
  0
BLOCK_RECORD
  5
2C5
330
1
100
AcDbSymbolTableRecord
100
AcDbBlockTableRecord
  2
HATCHING__PATTERN_$45$
340
0
102
{BLKREFS
331
14BB
102
}
  0
BLOCK_RECORD
  5
2CE
330
1
100
AcDbSymbolTableRecord
100
AcDbBlockTableRecord
  2
HATCHING__PATTERN_$46$
340
0
102
{BLKREFS
331
14BC
102
}
  0
BLOCK_RECORD
  5
2D7
330
1
100
AcDbSymbolTableRecord
100
AcDbBlockTableRecord
  2
HATCHING__PATTERN_$47$
340
0
102
{BLKREFS
331
14BD
102
}
  0
BLOCK_RECORD
  5
2DE
330
1
100
AcDbSymbolTableRecord
100
AcDbBlockTableRecord
  2
HATCHING__PATTERN_$48$
340
0
102
{BLKREFS
331
14BE
102
}
  0
BLOCK_RECORD
  5
2E4
330
1
100
AcDbSymbolTableRecord
100
AcDbBlockTableRecord
  2
HATCHING__PATTERN_$49$
340
0
102
{BLKREFS
331
14BF
102
}
  0
BLOCK_RECORD
  5
14D8
330
1
100
AcDbSymbolTableRecord
100
AcDbBlockTableRecord
  2
*D64
340
0
  0
BLOCK_RECORD
  5
14E6
330
1
100
AcDbSymbolTableRecord
100
AcDbBlockTableRecord
  2
*D65
340
0
  0
BLOCK_RECORD
  5
14F2
330
1
100
AcDbSymbolTableRecord
100
AcDbBlockTableRecord
  2
*D66
340
0
  0
BLOCK_RECORD
  5
1500
330
1
100
AcDbSymbolTableRecord
100
AcDbBlockTableRecord
  2
*D67
340
0
  0
BLOCK_RECORD
  5
150C
330
1
100
AcDbSymbolTableRecord
100
AcDbBlockTableRecord
  2
*D68
340
0
  0
BLOCK_RECORD
  5
1518
330
1
100
AcDbSymbolTableRecord
100
AcDbBlockTableRecord
  2
*D69
340
0
  0
BLOCK_RECORD
  5
1523
330
1
100
AcDbSymbolTableRecord
100
AcDbBlockTableRecord
  2
*D70
340
0
  0
BLOCK_RECORD
  5
152F
330
1
100
AcDbSymbolTableRecord
100
AcDbBlockTableRecord
  2
*D71
340
0
  0
BLOCK_RECORD
  5
153D
330
1
100
AcDbSymbolTableRecord
100
AcDbBlockTableRecord
  2
*D72
340
0
  0
BLOCK_RECORD
  5
1549
330
1
100
AcDbSymbolTableRecord
100
AcDbBlockTableRecord
  2
*D73
340
0
  0
BLOCK_RECORD
  5
1557
330
1
100
AcDbSymbolTableRecord
100
AcDbBlockTableRecord
  2
*D74
340
0
  0
BLOCK_RECORD
  5
1563
330
1
100
AcDbSymbolTableRecord
100
AcDbBlockTableRecord
  2
*D75
340
0
  0
BLOCK_RECORD
  5
156F
330
1
100
AcDbSymbolTableRecord
100
AcDbBlockTableRecord
  2
*D76
340
0
  0
BLOCK_RECORD
  5
157C
330
1
100
AcDbSymbolTableRecord
100
AcDbBlockTableRecord
  2
*D77
340
0
  0
ENDTAB
  0
ENDSEC
  0
SECTION
  2
BLOCKS
  0
BLOCK
  5
D
330
A
100
AcDbEntity
  8
0
100
AcDbBlockBegin
  2
*MODEL_SPACE
 70
     0
 10
0.0
 20
0.0
 30
0.0
  3
*MODEL_SPACE
  1

  0
ENDBLK
  5
E
330
A
100
AcDbEntity
  8
0
100
AcDbBlockEnd
  0
BLOCK
  5
F
330
B
100
AcDbEntity
 67
     1
  8
0
100
AcDbBlockBegin
  2
*PAPER_SPACE
 70
     0
 10
0.0
 20
0.0
 30
0.0
  3
*PAPER_SPACE
  1

  0
ENDBLK
  5
10
330
B
100
AcDbEntity
 67
     1
  8
0
100
AcDbBlockEnd
  0
BLOCK
  5
35
330
34
100
AcDbEntity
  8
0
 62
     0
100
AcDbBlockBegin
  2
_OPEN
 70
     0
 10
0.0
 20
0.0
 30
0.0
  3
_OPEN
  1

  0
LINE
  5
36
330
34
100
AcDbEntity
  8
0
 62
     0
100
AcDbLine
 10
-1.0
 20
0.166666666667
 30
0.0
 11
0.0
 21
0.0
 31
0.0
  0
LINE
  5
37
330
34
100
AcDbEntity
  8
0
 62
     0
100
AcDbLine
 10
-1.0
 20
-0.166666666667
 30
0.0
 11
0.0
 21
0.0
 31
0.0
  0
LINE
  5
38
330
34
100
AcDbEntity
  8
0
 62
     0
100
AcDbLine
 10
0.0
 20
0.0
 30
0.0
 11
-1.0
 21
0.0
 31
0.0
  0
ENDBLK
  5
39
330
34
100
AcDbEntity
  8
0
100
AcDbBlockEnd
  0
BLOCK
  5
3B
330
3A
100
AcDbEntity
  8
0
 62
     0
100
AcDbBlockBegin
  2
_NONE
 70
     0
 10
0.0
 20
0.0
 30
0.0
  3
_NONE
  1

  0
ENDBLK
  5
3C
330
3A
100
AcDbEntity
  8
0
100
AcDbBlockEnd
  0
BLOCK
  5
3E
330
3D
100
AcDbEntity
  8
0
 62
     7
100
AcDbBlockBegin
  2
*D2
 70
     1
 10
0.0
 20
0.0
 30
0.0
  3
*D2
  1

  0
LINE
  5
3F
330
3D
100
AcDbEntity
  8
LAYER_1
  6
Continuous
 62
     7
100
AcDbLine
 10
161.43388638016
 20
679.4097520661161
 30
0.0
 11
137.791074380165
 21
679.4097520661161
 31
0.0
  0
LINE
  5
40
330
3D
100
AcDbEntity
  8
LAYER_1
  6
Continuous
 62
     7
100
AcDbLine
 10
161.43388638016
 20
691.4097520661162
 30
0.0
 11
137.791074380165
 21
691.4097520661162
 31
0.0
  0
LINE
  5
41
330
3D
100
AcDbEntity
  8
LAYER_1
  6
Continuous
 62
     7
100
AcDbLine
 10
139.791074380165
 20
679.4097520661161
 30
0.0
 11
139.791074380165
 21
691.4097520661162
 31
0.0
  0
INSERT
  5
42
330
3D
100
AcDbEntity
  8
LAYER_1
  6
Continuous
 62
     7
100
AcDbBlockReference
  2
_OPEN
 10
139.791074380165
 20
679.4097520661161
 30
0.0
 41
6.0
 42
6.0
 50
90.0
  0
INSERT
  5
43
330
3D
100
AcDbEntity
  8
LAYER_1
  6
Continuous
 62
     7
100
AcDbBlockReference
  2
_NONE
 10
139.791074380165
 20
658.506330401779
 30
0.0
 41
6.0
 42
6.0
 50
270.0
  0
LINE
  5
44
330
3D
100
AcDbEntity
  8
LAYER_1
  6
Continuous
 62
     7
100
AcDbLine
 10
139.791074380165
 20
679.4097520661161
 30
0.0
 11
139.791074380165
 21
658.506330401779
 31
0.0
  0
INSERT
  5
45
330
3D
100
AcDbEntity
  8
LAYER_1
  6
Continuous
 62
     7
100
AcDbBlockReference
  2
_OPEN
 10
139.791074380165
 20
691.4097520661162
 30
0.0
 41
6.0
 42
6.0
 50
270.0
  0
INSERT
  5
46
330
3D
100
AcDbEntity
  8
LAYER_1
  6
Continuous
 62
     7
100
AcDbBlockReference
  2
_NONE
 10
139.791074380165
 20
703.4097520661162
 30
0.0
 41
6.0
 42
6.0
 50
90.0
  0
LINE
  5
47
330
3D
100
AcDbEntity
  8
LAYER_1
  6
Continuous
 62
     7
100
AcDbLine
 10
139.791074380165
 20
691.4097520661162
 30
0.0
 11
139.791074380165
 21
703.4097520661162
 31
0.0
  0
TEXT
  5
48
330
3D
100
AcDbEntity
  8
LAYER_1
 62
     7
100
AcDbText
 10
136.791074380165
 20
658.506330401779
 30
0.0
 40
5.4
  1
φ12
 50
90.0
 41
1.033333333332999
  7
ＭＳ_ゴシック
100
AcDbText
  0
ENDBLK
  5
49
330
3D
100
AcDbEntity
  8
0
100
AcDbBlockEnd
  0
BLOCK
  5
4B
330
4A
100
AcDbEntity
  8
0
 62
     7
100
AcDbBlockBegin
  2
*D3
 70
     1
 10
0.0
 20
0.0
 30
0.0
  3
*D3
  1

  0
LINE
  5
4C
330
4A
100
AcDbEntity
  8
LAYER_1
  6
Continuous
 62
     7
100
AcDbLine
 10
321.47865674622
 20
678.059752066115
 30
0.0
 11
346.791074380165
 21
678.059752066115
 31
0.0
  0
LINE
  5
4D
330
4A
100
AcDbEntity
  8
LAYER_1
  6
Continuous
 62
     7
100
AcDbLine
 10
321.47865674622
 20
692.759752066115
 30
0.0
 11
346.791074380165
 21
692.759752066115
 31
0.0
  0
LINE
  5
4E
330
4A
100
AcDbEntity
  8
LAYER_1
  6
Continuous
 62
     7
100
AcDbLine
 10
344.791074380165
 20
678.059752066115
 30
0.0
 11
344.791074380165
 21
692.759752066115
 31
0.0
  0
INSERT
  5
4F
330
4A
100
AcDbEntity
  8
LAYER_1
  6
Continuous
 62
     7
100
AcDbBlockReference
  2
_OPEN
 10
344.791074380165
 20
678.059752066115
 30
0.0
 41
6.0
 42
6.0
 50
90.0
  0
INSERT
  5
50
330
4A
100
AcDbEntity
  8
LAYER_1
  6
Continuous
 62
     7
100
AcDbBlockReference
  2
_NONE
 10
344.791074380165
 20
643.022696473253
 30
0.0
 41
6.0
 42
6.0
 50
270.0
  0
LINE
  5
51
330
4A
100
AcDbEntity
  8
LAYER_1
  6
Continuous
 62
     7
100
AcDbLine
 10
344.791074380165
 20
678.059752066115
 30
0.0
 11
344.791074380165
 21
643.022696473253
 31
0.0
  0
INSERT
  5
52
330
4A
100
AcDbEntity
  8
LAYER_1
  6
Continuous
 62
     7
100
AcDbBlockReference
  2
_OPEN
 10
344.791074380165
 20
692.759752066115
 30
0.0
 41
6.0
 42
6.0
 50
270.0
  0
INSERT
  5
53
330
4A
100
AcDbEntity
  8
LAYER_1
  6
Continuous
 62
     7
100
AcDbBlockReference
  2
_NONE
 10
344.791074380165
 20
704.7597520661148
 30
0.0
 41
6.0
 42
6.0
 50
90.0
  0
LINE
  5
54
330
4A
100
AcDbEntity
  8
LAYER_1
  6
Continuous
 62
     7
100
AcDbLine
 10
344.791074380165
 20
692.759752066115
 30
0.0
 11
344.791074380165
 21
704.7597520661148
 31
0.0
  0
TEXT
  5
55
330
4A
100
AcDbEntity
  8
LAYER_1
 62
     7
100
AcDbText
 10
341.7910743801648
 20
643.022696473253
 30
0.0
 40
5.4
  1
(φ14.7)
 50
90.0
 41
1.033333333332999
  7
ＭＳ_ゴシック
100
AcDbText
  0
ENDBLK
  5
56
330
4A
100
AcDbEntity
  8
0
100
AcDbBlockEnd
  0
BLOCK
  5
58
330
57
100
AcDbEntity
  8
0
 62
     7
100
AcDbBlockBegin
  2
*D4
 70
     1
 10
0.0
 20
0.0
 30
0.0
  3
*D4
  1

  0
LINE
  5
59
330
57
100
AcDbEntity
  8
LAYER_1
  6
Continuous
 62
     7
100
AcDbLine
 10
159.791074380165
 20
692.309752066116
 30
0.0
 11
159.791074380165
 21
708.4097520661148
 31
0.0
  0
LINE
  5
5A
330
57
100
AcDbEntity
  8
LAYER_1
  6
Continuous
 62
     7
100
AcDbLine
 10
201.7910743801649
 20
693.109752066115
 30
0.0
 11
201.7910743801649
 21
708.4097520661148
 31
0.0
  0
INSERT
  5
5B
330
57
100
AcDbEntity
  8
LAYER_1
  6
Continuous
 62
     7
100
AcDbBlockReference
  2
_OPEN
 10
159.791074380165
 20
706.409752066115
 30
0.0
 41
6.0
 42
6.0
 50
180.0
  0
INSERT
  5
5C
330
57
100
AcDbEntity
  8
LAYER_1
  6
Continuous
 62
     7
100
AcDbBlockReference
  2
_OPEN
 10
201.7910743801649
 20
706.409752066115
 30
0.0
 41
6.0
 42
6.0
  0
INSERT
  5
5D
330
57
100
AcDbEntity
  8
LAYER_1
  6
Continuous
 62
     7
100
AcDbBlockReference
  2
_OPEN
 10
159.791074380165
 20
706.409752066115
 30
0.0
 41
6.0
 42
6.0
 50
180.0
  0
INSERT
  5
5E
330
57
100
AcDbEntity
  8
LAYER_1
  6
Continuous
 62
     7
100
AcDbBlockReference
  2
_OPEN
 10
201.7910743801649
 20
706.409752066115
 30
0.0
 41
6.0
 42
6.0
  0
LINE
  5
5F
330
57
100
AcDbEntity
  8
LAYER_1
  6
Continuous
 62
     7
100
AcDbLine
 10
159.791074380165
 20
706.409752066115
 30
0.0
 11
201.7910743801649
 21
706.409752066115
 31
0.0
  0
TEXT
  5
60
330
57
100
AcDbEntity
  8
LAYER_1
 62
     7
100
AcDbText
 10
173.5399068674769
 20
709.4097520661148
 30
0.0
 40
5.4
  1
(42)
 41
1.033333333332999
  7
ＭＳ_ゴシック
 72
     1
 11
180.7910743801649
 21
709.4097520661148
 31
0.0
100
AcDbText
  0
ENDBLK
  5
61
330
57
100
AcDbEntity
  8
0
100
AcDbBlockEnd
  0
BLOCK
  5
63
330
62
100
AcDbEntity
  8
0
 62
     7
100
AcDbBlockBegin
  2
*D5
 70
     1
 10
0.0
 20
0.0
 30
0.0
  3
*D5
  1

  0
LINE
  5
64
330
62
100
AcDbEntity
  8
LAYER_1
  6
Continuous
 62
     7
100
AcDbLine
 10
281.7910743801648
 20
691.070580601028
 30
0.0
 11
281.7910743801648
 21
708.4097520661148
 31
0.0
  0
INSERT
  5
65
330
62
100
AcDbEntity
  8
LAYER_1
  6
Continuous
 62
     7
100
AcDbBlockReference
  2
_OPEN
 10
201.7910743801649
 20
706.409752066115
 30
0.0
 41
6.0
 42
6.0
 50
180.0
  0
INSERT
  5
66
330
62
100
AcDbEntity
  8
LAYER_1
  6
Continuous
 62
     7
100
AcDbBlockReference
  2
_OPEN
 10
281.7910743801648
 20
706.409752066115
 30
0.0
 41
6.0
 42
6.0
  0
INSERT
  5
67
330
62
100
AcDbEntity
  8
LAYER_1
  6
Continuous
 62
     7
100
AcDbBlockReference
  2
_OPEN
 10
201.7910743801649
 20
706.409752066115
 30
0.0
 41
6.0
 42
6.0
 50
180.0
  0
INSERT
  5
68
330
62
100
AcDbEntity
  8
LAYER_1
  6
Continuous
 62
     7
100
AcDbBlockReference
  2
_OPEN
 10
281.7910743801648
 20
706.409752066115
 30
0.0
 41
6.0
 42
6.0
  0
LINE
  5
69
330
62
100
AcDbEntity
  8
LAYER_1
  6
Continuous
 62
     7
100
AcDbLine
 10
201.7910743801649
 20
706.409752066115
 30
0.0
 11
281.7910743801648
 21
706.409752066115
 31
0.0
  0
TEXT
  5
6A
330
62
100
AcDbEntity
  8
LAYER_1
 62
     7
100
AcDbText
 10
230.9143231111329
 20
709.4097520661148
 30
0.0
 40
5.4
  1
(2000)
 41
1.033333333332999
  7
ＭＳ_ゴシック
 72
     1
 11
241.791074380165
 21
709.4097520661148
 31
0.0
100
AcDbText
  0
ENDBLK
  5
6B
330
62
100
AcDbEntity
  8
0
100
AcDbBlockEnd
  0
BLOCK
  5
6D
330
6C
100
AcDbEntity
  8
0
 62
     7
100
AcDbBlockBegin
  2
*D6
 70
     1
 10
0.0
 20
0.0
 30
0.0
  3
*D6
  1

  0
LINE
  5
6E
330
6C
100
AcDbEntity
  8
LAYER_1
  6
Continuous
 62
     7
100
AcDbLine
 10
324.7910743801648
 20
692.1597520661148
 30
0.0
 11
324.7910743801648
 21
708.4097520661148
 31
0.0
  0
INSERT
  5
6F
330
6C
100
AcDbEntity
  8
LAYER_1
  6
Continuous
 62
     7
100
AcDbBlockReference
  2
_OPEN
 10
281.7910743801648
 20
706.409752066115
 30
0.0
 41
6.0
 42
6.0
 50
180.0
  0
INSERT
  5
70
330
6C
100
AcDbEntity
  8
LAYER_1
  6
Continuous
 62
     7
100
AcDbBlockReference
  2
_OPEN
 10
324.7910743801648
 20
706.409752066115
 30
0.0
 41
6.0
 42
6.0
  0
INSERT
  5
71
330
6C
100
AcDbEntity
  8
LAYER_1
  6
Continuous
 62
     7
100
AcDbBlockReference
  2
_OPEN
 10
281.7910743801648
 20
706.409752066115
 30
0.0
 41
6.0
 42
6.0
 50
180.0
  0
INSERT
  5
72
330
6C
100
AcDbEntity
  8
LAYER_1
  6
Continuous
 62
     7
100
AcDbBlockReference
  2
_OPEN
 10
324.7910743801648
 20
706.409752066115
 30
0.0
 41
6.0
 42
6.0
  0
LINE
  5
73
330
6C
100
AcDbEntity
  8
LAYER_1
  6
Continuous
 62
     7
100
AcDbLine
 10
281.7910743801648
 20
706.409752066115
 30
0.0
 11
324.7910743801648
 21
706.409752066115
 31
0.0
  0
TEXT
  5
74
330
6C
100
AcDbEntity
  8
LAYER_1
 62
     7
100
AcDbText
 10
296.0399068674768
 20
709.4097520661148
 30
0.0
 40
5.4
  1
(43)
 41
1.033333333332999
  7
ＭＳ_ゴシック
 72
     1
 11
303.2910743801648
 21
709.4097520661148
 31
0.0
100
AcDbText
  0
ENDBLK
  5
75
330
6C
100
AcDbEntity
  8
0
100
AcDbBlockEnd
  0
BLOCK
  5
77
330
76
100
AcDbEntity
  8
0
 62
     7
100
AcDbBlockBegin
  2
*D7
 70
     1
 10
0.0
 20
0.0
 30
0.0
  3
*D7
  1

  0
LINE
  5
78
330
76
100
AcDbEntity
  8
LAYER_1
  6
Continuous
 62
     7
100
AcDbLine
 10
149.991074380165
 20
539.459752066122
 30
0.0
 11
137.791074380165
 21
539.459752066122
 31
0.0
  0
LINE
  5
79
330
76
100
AcDbEntity
  8
LAYER_1
  6
Continuous
 62
     7
100
AcDbLine
 10
149.991074380165
 20
551.4597520661219
 30
0.0
 11
137.791074380165
 21
551.4597520661219
 31
0.0
  0
LINE
  5
7A
330
76
100
AcDbEntity
  8
LAYER_1
  6
Continuous
 62
     7
100
AcDbLine
 10
139.791074380165
 20
539.459752066122
 30
0.0
 11
139.791074380165
 21
551.4597520661219
 31
0.0
  0
INSERT
  5
7B
330
76
100
AcDbEntity
  8
LAYER_1
  6
Continuous
 62
     7
100
AcDbBlockReference
  2
_OPEN
 10
139.791074380165
 20
539.459752066122
 30
0.0
 41
6.0
 42
6.0
 50
90.0
  0
INSERT
  5
7C
330
76
100
AcDbEntity
  8
LAYER_1
  6
Continuous
 62
     7
100
AcDbBlockReference
  2
_NONE
 10
139.791074380165
 20
517.8522364073049
 30
0.0
 41
6.0
 42
6.0
 50
270.0
  0
LINE
  5
7D
330
76
100
AcDbEntity
  8
LAYER_1
  6
Continuous
 62
     7
100
AcDbLine
 10
139.791074380165
 20
539.459752066122
 30
0.0
 11
139.791074380165
 21
517.8522364073049
 31
0.0
  0
INSERT
  5
7E
330
76
100
AcDbEntity
  8
LAYER_1
  6
Continuous
 62
     7
100
AcDbBlockReference
  2
_OPEN
 10
139.791074380165
 20
551.4597520661219
 30
0.0
 41
6.0
 42
6.0
 50
270.0
  0
INSERT
  5
7F
330
76
100
AcDbEntity
  8
LAYER_1
  6
Continuous
 62
     7
100
AcDbBlockReference
  2
_NONE
 10
139.791074380165
 20
563.4597520661219
 30
0.0
 41
6.0
 42
6.0
 50
90.0
  0
LINE
  5
80
330
76
100
AcDbEntity
  8
LAYER_1
  6
Continuous
 62
     7
100
AcDbLine
 10
139.791074380165
 20
551.4597520661219
 30
0.0
 11
139.791074380165
 21
563.4597520661219
 31
0.0
  0
TEXT
  5
81
330
76
100
AcDbEntity
  8
LAYER_1
 62
     7
100
AcDbText
 10
136.791074380165
 20
517.8522364073049
 30
0.0
 40
5.4
  1
φ12
 50
90.0
 41
1.033333333332999
  7
ＭＳ_ゴシック
100
AcDbText
  0
ENDBLK
  5
82
330
76
100
AcDbEntity
  8
0
100
AcDbBlockEnd
  0
BLOCK
  5
84
330
83
100
AcDbEntity
  8
0
 62
     7
100
AcDbBlockBegin
  2
*D8
 70
     1
 10
0.0
 20
0.0
 30
0.0
  3
*D8
  1

  0
LINE
  5
85
330
83
100
AcDbEntity
  8
LAYER_1
  6
Continuous
 62
     7
100
AcDbLine
 10
151.791074380165
 20
553.2597520661219
 30
0.0
 11
151.791074380165
 21
568.459752066121
 31
0.0
  0
LINE
  5
86
330
83
100
AcDbEntity
  8
LAYER_1
  6
Continuous
 62
     7
100
AcDbLine
 10
201.7910743801649
 20
553.159752066122
 30
0.0
 11
201.7910743801649
 21
568.459752066121
 31
0.0
  0
INSERT
  5
87
330
83
100
AcDbEntity
  8
LAYER_1
  6
Continuous
 62
     7
100
AcDbBlockReference
  2
_OPEN
 10
151.791074380165
 20
566.459752066121
 30
0.0
 41
6.0
 42
6.0
 50
180.0
  0
INSERT
  5
88
330
83
100
AcDbEntity
  8
LAYER_1
  6
Continuous
 62
     7
100
AcDbBlockReference
  2
_OPEN
 10
201.7910743801649
 20
566.459752066121
 30
0.0
 41
6.0
 42
6.0
  0
INSERT
  5
89
330
83
100
AcDbEntity
  8
LAYER_1
  6
Continuous
 62
     7
100
AcDbBlockReference
  2
_OPEN
 10
151.791074380165
 20
566.459752066121
 30
0.0
 41
6.0
 42
6.0
 50
180.0
  0
INSERT
  5
8A
330
83
100
AcDbEntity
  8
LAYER_1
  6
Continuous
 62
     7
100
AcDbBlockReference
  2
_OPEN
 10
201.7910743801649
 20
566.459752066121
 30
0.0
 41
6.0
 42
6.0
  0
LINE
  5
8B
330
83
100
AcDbEntity
  8
LAYER_1
  6
Continuous
 62
     7
100
AcDbLine
 10
151.791074380165
 20
566.459752066121
 30
0.0
 11
201.7910743801649
 21
566.459752066121
 31
0.0
  0
TEXT
  5
8C
330
83
100
AcDbEntity
  8
LAYER_1
 62
     7
100
AcDbText
 10
169.5399068674769
 20
569.459752066121
 30
0.0
 40
5.4
  1
(50)
 41
1.033333333332999
  7
ＭＳ_ゴシック
 72
     1
 11
176.7910743801649
 21
569.459752066121
 31
0.0
100
AcDbText
  0
ENDBLK
  5
8D
330
83
100
AcDbEntity
  8
0
100
AcDbBlockEnd
  0
BLOCK
  5
8F
330
8E
100
AcDbEntity
  8
0
 62
     7
100
AcDbBlockBegin
  2
*D9
 70
     1
 10
0.0
 20
0.0
 30
0.0
  3
*D9
  1

  0
LINE
  5
90
330
8E
100
AcDbEntity
  8
LAYER_1
  6
Continuous
 62
     7
100
AcDbLine
 10
253.7910743801649
 20
555.209752066116
 30
0.0
 11
253.7910743801649
 21
568.409752066116
 31
0.0
  0
LINE
  5
91
330
8E
100
AcDbEntity
  8
LAYER_1
  6
Continuous
 62
     7
100
AcDbLine
 10
344.791074380165
 20
555.1097520661159
 30
0.0
 11
344.791074380165
 21
568.409752066116
 31
0.0
  0
INSERT
  5
92
330
8E
100
AcDbEntity
  8
LAYER_1
  6
Continuous
 62
     7
100
AcDbBlockReference
  2
_OPEN
 10
253.7910743801649
 20
566.4097520661161
 30
0.0
 41
6.0
 42
6.0
 50
180.0
  0
INSERT
  5
93
330
8E
100
AcDbEntity
  8
LAYER_1
  6
Continuous
 62
     7
100
AcDbBlockReference
  2
_OPEN
 10
344.791074380165
 20
566.4097520661161
 30
0.0
 41
6.0
 42
6.0
  0
INSERT
  5
94
330
8E
100
AcDbEntity
  8
LAYER_1
  6
Continuous
 62
     7
100
AcDbBlockReference
  2
_OPEN
 10
253.7910743801649
 20
566.4097520661161
 30
0.0
 41
6.0
 42
6.0
 50
180.0
  0
INSERT
  5
95
330
8E
100
AcDbEntity
  8
LAYER_1
  6
Continuous
 62
     7
100
AcDbBlockReference
  2
_OPEN
 10
344.791074380165
 20
566.4097520661161
 30
0.0
 41
6.0
 42
6.0
  0
LINE
  5
96
330
8E
100
AcDbEntity
  8
LAYER_1
  6
Continuous
 62
     7
100
AcDbLine
 10
253.7910743801649
 20
566.4097520661161
 30
0.0
 11
344.791074380165
 21
566.4097520661161
 31
0.0
  0
TEXT
  5
97
330
8E
100
AcDbEntity
  8
LAYER_1
 62
     7
100
AcDbText
 10
292.0399068674768
 20
569.409752066116
 30
0.0
 40
5.4
  1
(91)
 41
1.033333333332999
  7
ＭＳ_ゴシック
 72
     1
 11
299.2910743801648
 21
569.409752066116
 31
0.0
100
AcDbText
  0
ENDBLK
  5
98
330
8E
100
AcDbEntity
  8
0
100
AcDbBlockEnd
  0
BLOCK
  5
9A
330
99
100
AcDbEntity
  8
0
 62
     7
100
AcDbBlockBegin
  2
*D10
 70
     1
 10
0.0
 20
0.0
 30
0.0
  3
*D10
  1

  0
LINE
  5
9B
330
99
100
AcDbEntity
  8
LAYER_1
  6
Continuous
 62
     7
100
AcDbLine
 10
251.7910743801649
 20
539.509752066116
 30
0.0
 11
239.791074380165
 21
539.509752066116
 31
0.0
  0
LINE
  5
9C
330
99
100
AcDbEntity
  8
LAYER_1
  6
Continuous
 62
     7
100
AcDbLine
 10
251.7910743801649
 20
551.409752066116
 30
0.0
 11
239.791074380165
 21
551.409752066116
 31
0.0
  0
LINE
  5
9D
330
99
100
AcDbEntity
  8
LAYER_1
  6
Continuous
 62
     7
100
AcDbLine
 10
241.791074380165
 20
539.509752066116
 30
0.0
 11
241.791074380165
 21
551.409752066116
 31
0.0
  0
INSERT
  5
9E
330
99
100
AcDbEntity
  8
LAYER_1
  6
Continuous
 62
     7
100
AcDbBlockReference
  2
_OPEN
 10
241.791074380165
 20
539.509752066116
 30
0.0
 41
6.0
 42
6.0
 50
90.0
  0
INSERT
  5
9F
330
99
100
AcDbEntity
  8
LAYER_1
  6
Continuous
 62
     7
100
AcDbBlockReference
  2
_NONE
 10
241.791074380165
 20
516.844990476373
 30
0.0
 41
6.0
 42
6.0
 50
270.0
  0
LINE
  5
A0
330
99
100
AcDbEntity
  8
LAYER_1
  6
Continuous
 62
     7
100
AcDbLine
 10
241.791074380165
 20
539.509752066116
 30
0.0
 11
241.791074380165
 21
516.844990476373
 31
0.0
  0
INSERT
  5
A1
330
99
100
AcDbEntity
  8
LAYER_1
  6
Continuous
 62
     7
100
AcDbBlockReference
  2
_OPEN
 10
241.791074380165
 20
551.409752066116
 30
0.0
 41
6.0
 42
6.0
 50
270.0
  0
INSERT
  5
A2
330
99
100
AcDbEntity
  8
LAYER_1
  6
Continuous
 62
     7
100
AcDbBlockReference
  2
_NONE
 10
241.791074380165
 20
563.409752066116
 30
0.0
 41
6.0
 42
6.0
 50
90.0
  0
LINE
  5
A3
330
99
100
AcDbEntity
  8
LAYER_1
  6
Continuous
 62
     7
100
AcDbLine
 10
241.791074380165
 20
551.409752066116
 30
0.0
 11
241.791074380165
 21
563.409752066116
 31
0.0
  0
TEXT
  5
A4
330
99
100
AcDbEntity
  8
LAYER_1
 62
     7
100
AcDbText
 10
238.7910743801648
 20
516.844990476373
 30
0.0
 40
5.4
  1
φ12
 50
90.0
 41
1.033333333332999
  7
ＭＳ_ゴシック
100
AcDbText
  0
ENDBLK
  5
A5
330
99
100
AcDbEntity
  8
0
100
AcDbBlockEnd
  0
BLOCK
  5
A7
330
A6
100
AcDbEntity
  8
0
 62
     7
100
AcDbBlockBegin
  2
*D11
 70
     1
 10
0.0
 20
0.0
 30
0.0
  3
*D11
  1

  0
LINE
  5
A8
330
A6
100
AcDbEntity
  8
LAYER_1
  6
Continuous
 62
     7
100
AcDbLine
 10
434.791074380165
 20
693.109752066119
 30
0.0
 11
434.791074380165
 21
708.4097520661148
 31
0.0
  0
LINE
  5
A9
330
A6
100
AcDbEntity
  8
LAYER_1
  6
Continuous
 62
     7
100
AcDbLine
 10
584.791074380165
 20
693.109752066116
 30
0.0
 11
584.791074380165
 21
708.4097520661148
 31
0.0
  0
INSERT
  5
AA
330
A6
100
AcDbEntity
  8
LAYER_1
  6
Continuous
 62
     7
100
AcDbBlockReference
  2
_OPEN
 10
434.791074380165
 20
706.409752066115
 30
0.0
 41
6.0
 42
6.0
 50
180.0
  0
INSERT
  5
AB
330
A6
100
AcDbEntity
  8
LAYER_1
  6
Continuous
 62
     7
100
AcDbBlockReference
  2
_OPEN
 10
584.791074380165
 20
706.409752066115
 30
0.0
 41
6.0
 42
6.0
  0
INSERT
  5
AC
330
A6
100
AcDbEntity
  8
LAYER_1
  6
Continuous
 62
     7
100
AcDbBlockReference
  2
_OPEN
 10
434.791074380165
 20
706.409752066115
 30
0.0
 41
6.0
 42
6.0
 50
180.0
  0
INSERT
  5
AD
330
A6
100
AcDbEntity
  8
LAYER_1
  6
Continuous
 62
     7
100
AcDbBlockReference
  2
_OPEN
 10
584.791074380165
 20
706.409752066115
 30
0.0
 41
6.0
 42
6.0
  0
LINE
  5
AE
330
A6
100
AcDbEntity
  8
LAYER_1
  6
Continuous
 62
     7
100
AcDbLine
 10
434.791074380165
 20
706.409752066115
 30
0.0
 11
584.791074380165
 21
706.409752066115
 31
0.0
  0
TEXT
  5
AF
330
A6
100
AcDbEntity
  8
LAYER_1
 62
     7
100
AcDbText
 10
500.727114989305
 20
709.4097520661148
 30
0.0
 40
5.4
  1
(150)
 41
1.033333333332999
  7
ＭＳ_ゴシック
 72
     1
 11
509.791074380165
 21
709.4097520661148
 31
0.0
100
AcDbText
  0
ENDBLK
  5
B0
330
A6
100
AcDbEntity
  8
0
100
AcDbBlockEnd
  0
BLOCK
  5
B2
330
B1
100
AcDbEntity
  8
0
 62
     7
100
AcDbBlockBegin
  2
*D12
 70
     1
 10
0.0
 20
0.0
 30
0.0
  3
*D12
  1

  0
LINE
  5
B3
330
B1
100
AcDbEntity
  8
LAYER_1
  6
Continuous
 62
     7
100
AcDbLine
 10
664.791074380166
 20
684.709752066117
 30
0.0
 11
664.791074380166
 21
708.4097520661148
 31
0.0
  0
INSERT
  5
B4
330
B1
100
AcDbEntity
  8
LAYER_1
  6
Continuous
 62
     7
100
AcDbBlockReference
  2
_OPEN
 10
584.791074380165
 20
706.409752066115
 30
0.0
 41
6.0
 42
6.0
 50
180.0
  0
INSERT
  5
B5
330
B1
100
AcDbEntity
  8
LAYER_1
  6
Continuous
 62
     7
100
AcDbBlockReference
  2
_OPEN
 10
664.791074380166
 20
706.409752066115
 30
0.0
 41
6.0
 42
6.0
  0
INSERT
  5
B6
330
B1
100
AcDbEntity
  8
LAYER_1
  6
Continuous
 62
     7
100
AcDbBlockReference
  2
_OPEN
 10
584.791074380165
 20
706.409752066115
 30
0.0
 41
6.0
 42
6.0
 50
180.0
  0
INSERT
  5
B7
330
B1
100
AcDbEntity
  8
LAYER_1
  6
Continuous
 62
     7
100
AcDbBlockReference
  2
_OPEN
 10
664.791074380166
 20
706.409752066115
 30
0.0
 41
6.0
 42
6.0
  0
LINE
  5
B8
330
B1
100
AcDbEntity
  8
LAYER_1
  6
Continuous
 62
     7
100
AcDbLine
 10
584.791074380165
 20
706.409752066115
 30
0.0
 11
664.791074380166
 21
706.409752066115
 31
0.0
  0
TEXT
  5
B9
330
B1
100
AcDbEntity
  8
LAYER_1
 62
     7
100
AcDbText
 10
613.9143231111329
 20
709.4097520661148
 30
0.0
 40
5.4
  1
(2000)
 41
1.033333333332999
  7
ＭＳ_ゴシック
 72
     1
 11
624.791074380165
 21
709.4097520661148
 31
0.0
100
AcDbText
  0
ENDBLK
  5
BA
330
B1
100
AcDbEntity
  8
0
100
AcDbBlockEnd
  0
BLOCK
  5
BC
330
BB
100
AcDbEntity
  8
0
 62
     7
100
AcDbBlockBegin
  2
*D13
 70
     1
 10
0.0
 20
0.0
 30
0.0
  3
*D13
  1

  0
LINE
  5
BD
330
BB
100
AcDbEntity
  8
LAYER_1
  6
Continuous
 62
     7
100
AcDbLine
 10
707.0112175049271
 20
687.9197520661169
 30
0.0
 11
707.0112175049271
 21
708.4097520661148
 31
0.0
  0
INSERT
  5
BE
330
BB
100
AcDbEntity
  8
LAYER_1
  6
Continuous
 62
     7
100
AcDbBlockReference
  2
_OPEN
 10
664.791074380166
 20
706.409752066115
 30
0.0
 41
6.0
 42
6.0
 50
180.0
  0
INSERT
  5
BF
330
BB
100
AcDbEntity
  8
LAYER_1
  6
Continuous
 62
     7
100
AcDbBlockReference
  2
_OPEN
 10
707.0112175049271
 20
706.409752066115
 30
0.0
 41
6.0
 42
6.0
  0
INSERT
  5
C0
330
BB
100
AcDbEntity
  8
LAYER_1
  6
Continuous
 62
     7
100
AcDbBlockReference
  2
_OPEN
 10
664.791074380166
 20
706.409752066115
 30
0.0
 41
6.0
 42
6.0
 50
180.0
  0
INSERT
  5
C1
330
BB
100
AcDbEntity
  8
LAYER_1
  6
Continuous
 62
     7
100
AcDbBlockReference
  2
_OPEN
 10
707.0112175049271
 20
706.409752066115
 30
0.0
 41
6.0
 42
6.0
  0
LINE
  5
C2
330
BB
100
AcDbEntity
  8
LAYER_1
  6
Continuous
 62
     7
100
AcDbLine
 10
664.791074380166
 20
706.409752066115
 30
0.0
 11
707.0112175049271
 21
706.409752066115
 31
0.0
  0
TEXT
  5
C3
330
BB
100
AcDbEntity
  8
LAYER_1
 62
     7
100
AcDbText
 10
678.649978429858
 20
709.4097520661148
 30
0.0
 40
5.4
  1
(43)
 41
1.033333333332999
  7
ＭＳ_ゴシック
 72
     1
 11
685.901145942546
 21
709.4097520661148
 31
0.0
100
AcDbText
  0
ENDBLK
  5
C4
330
BB
100
AcDbEntity
  8
0
100
AcDbBlockEnd
  0
BLOCK
  5
C6
330
C5
100
AcDbEntity
  8
0
 62
     7
100
AcDbBlockBegin
  2
*D14
 70
     1
 10
0.0
 20
0.0
 30
0.0
  3
*D14
  1

  0
LINE
  5
C7
330
C5
100
AcDbEntity
  8
LAYER_1
  6
Continuous
 62
     7
100
AcDbLine
 10
433.091074380165
 20
667.4097520661139
 30
0.0
 11
417.791074380165
 21
667.4097520661139
 31
0.0
  0
LINE
  5
C8
330
C5
100
AcDbEntity
  8
LAYER_1
  6
Continuous
 62
     7
100
AcDbLine
 10
433.091074380165
 20
691.4097520661189
 30
0.0
 11
417.791074380165
 21
691.4097520661189
 31
0.0
  0
INSERT
  5
C9
330
C5
100
AcDbEntity
  8
LAYER_1
  6
Continuous
 62
     7
100
AcDbBlockReference
  2
_OPEN
 10
419.7910743801648
 20
667.4097520661139
 30
0.0
 41
6.0
 42
6.0
 50
270.0
  0
INSERT
  5
CA
330
C5
100
AcDbEntity
  8
LAYER_1
  6
Continuous
 62
     7
100
AcDbBlockReference
  2
_OPEN
 10
419.7910743801648
 20
691.4097520661189
 30
0.0
 41
6.0
 42
6.0
 50
90.0
  0
INSERT
  5
CB
330
C5
100
AcDbEntity
  8
LAYER_1
  6
Continuous
 62
     7
100
AcDbBlockReference
  2
_OPEN
 10
419.7910743801648
 20
667.4097520661139
 30
0.0
 41
6.0
 42
6.0
 50
270.0
  0
INSERT
  5
CC
330
C5
100
AcDbEntity
  8
LAYER_1
  6
Continuous
 62
     7
100
AcDbBlockReference
  2
_OPEN
 10
419.7910743801648
 20
691.4097520661189
 30
0.0
 41
6.0
 42
6.0
 50
90.0
  0
LINE
  5
CD
330
C5
100
AcDbEntity
  8
LAYER_1
  6
Continuous
 62
     7
100
AcDbLine
 10
419.7910743801648
 20
667.4097520661139
 30
0.0
 11
419.7910743801648
 21
691.4097520661189
 31
0.0
  0
TEXT
  5
CE
330
C5
100
AcDbEntity
  8
LAYER_1
 62
     7
100
AcDbText
 10
416.791074380165
 20
670.981314246209
 30
0.0
 40
5.4
  1
φ24
 50
90.0
 41
1.033333333332999
  7
ＭＳ_ゴシック
 72
     1
 11
416.791074380165
 21
678.232481758897
 31
0.0
100
AcDbText
  0
ENDBLK
  5
CF
330
C5
100
AcDbEntity
  8
0
100
AcDbBlockEnd
  0
BLOCK
  5
D1
330
D0
100
AcDbEntity
  8
0
 62
     7
100
AcDbBlockBegin
  2
*D15
 70
     1
 10
0.0
 20
0.0
 30
0.0
  3
*D15
  1

  0
LINE
  5
D2
330
D0
100
AcDbEntity
  8
LAYER_1
  6
Continuous
 62
     7
100
AcDbLine
 10
704.4786567462208
 20
672.058599163308
 30
0.0
 11
729.791074380166
 21
672.058599163308
 31
0.0
  0
LINE
  5
D3
330
D0
100
AcDbEntity
  8
LAYER_1
  6
Continuous
 62
     7
100
AcDbLine
 10
704.4786567462208
 20
686.758599163308
 30
0.0
 11
729.791074380166
 21
686.758599163308
 31
0.0
  0
LINE
  5
D4
330
D0
100
AcDbEntity
  8
LAYER_1
  6
Continuous
 62
     7
100
AcDbLine
 10
727.791074380166
 20
672.058599163308
 30
0.0
 11
727.791074380166
 21
686.758599163308
 31
0.0
  0
INSERT
  5
D5
330
D0
100
AcDbEntity
  8
LAYER_1
  6
Continuous
 62
     7
100
AcDbBlockReference
  2
_OPEN
 10
727.791074380166
 20
672.058599163308
 30
0.0
 41
6.0
 42
6.0
 50
90.0
  0
INSERT
  5
D6
330
D0
100
AcDbEntity
  8
LAYER_1
  6
Continuous
 62
     7
100
AcDbBlockReference
  2
_NONE
 10
727.791074380166
 20
637.021543570446
 30
0.0
 41
6.0
 42
6.0
 50
270.0
  0
LINE
  5
D7
330
D0
100
AcDbEntity
  8
LAYER_1
  6
Continuous
 62
     7
100
AcDbLine
 10
727.791074380166
 20
672.058599163308
 30
0.0
 11
727.791074380166
 21
637.021543570446
 31
0.0
  0
INSERT
  5
D8
330
D0
100
AcDbEntity
  8
LAYER_1
  6
Continuous
 62
     7
100
AcDbBlockReference
  2
_OPEN
 10
727.791074380166
 20
686.758599163308
 30
0.0
 41
6.0
 42
6.0
 50
270.0
  0
INSERT
  5
D9
330
D0
100
AcDbEntity
  8
LAYER_1
  6
Continuous
 62
     7
100
AcDbBlockReference
  2
_NONE
 10
727.791074380166
 20
698.7585991633078
 30
0.0
 41
6.0
 42
6.0
 50
90.0
  0
LINE
  5
DA
330
D0
100
AcDbEntity
  8
LAYER_1
  6
Continuous
 62
     7
100
AcDbLine
 10
727.791074380166
 20
686.758599163308
 30
0.0
 11
727.791074380166
 21
698.7585991633078
 31
0.0
  0
TEXT
  5
DB
330
D0
100
AcDbEntity
  8
LAYER_1
 62
     7
100
AcDbText
 10
724.791074380166
 20
637.021543570446
 30
0.0
 40
5.4
  1
(φ14.7)
 50
90.0
 41
1.033333333332999
  7
ＭＳ_ゴシック
100
AcDbText
  0
ENDBLK
  5
DC
330
D0
100
AcDbEntity
  8
0
100
AcDbBlockEnd
  0
BLOCK
  5
DE
330
DD
100
AcDbEntity
  8
0
 62
     7
100
AcDbBlockBegin
  2
*D16
 70
     1
 10
0.0
 20
0.0
 30
0.0
  3
*D16
  1

  0
LINE
  5
DF
330
DD
100
AcDbEntity
  8
LAYER_1
  6
Continuous
 62
     7
100
AcDbLine
 10
612.4786567462201
 20
538.059752066115
 30
0.0
 11
637.791074380165
 21
538.059752066115
 31
0.0
  0
LINE
  5
E0
330
DD
100
AcDbEntity
  8
LAYER_1
  6
Continuous
 62
     7
100
AcDbLine
 10
612.4786567462201
 20
552.759752066115
 30
0.0
 11
637.791074380165
 21
552.759752066115
 31
0.0
  0
LINE
  5
E1
330
DD
100
AcDbEntity
  8
LAYER_1
  6
Continuous
 62
     7
100
AcDbLine
 10
635.7910743801649
 20
538.059752066115
 30
0.0
 11
635.7910743801649
 21
552.759752066115
 31
0.0
  0
INSERT
  5
E2
330
DD
100
AcDbEntity
  8
LAYER_1
  6
Continuous
 62
     7
100
AcDbBlockReference
  2
_OPEN
 10
635.7910743801649
 20
538.059752066115
 30
0.0
 41
6.0
 42
6.0
 50
90.0
  0
INSERT
  5
E3
330
DD
100
AcDbEntity
  8
LAYER_1
  6
Continuous
 62
     7
100
AcDbBlockReference
  2
_NONE
 10
635.7910743801649
 20
503.022696473253
 30
0.0
 41
6.0
 42
6.0
 50
270.0
  0
LINE
  5
E4
330
DD
100
AcDbEntity
  8
LAYER_1
  6
Continuous
 62
     7
100
AcDbLine
 10
635.7910743801649
 20
538.059752066115
 30
0.0
 11
635.7910743801649
 21
503.022696473253
 31
0.0
  0
INSERT
  5
E5
330
DD
100
AcDbEntity
  8
LAYER_1
  6
Continuous
 62
     7
100
AcDbBlockReference
  2
_OPEN
 10
635.7910743801649
 20
552.759752066115
 30
0.0
 41
6.0
 42
6.0
 50
270.0
  0
INSERT
  5
E6
330
DD
100
AcDbEntity
  8
LAYER_1
  6
Continuous
 62
     7
100
AcDbBlockReference
  2
_NONE
 10
635.7910743801649
 20
564.759752066115
 30
0.0
 41
6.0
 42
6.0
 50
90.0
  0
LINE
  5
E7
330
DD
100
AcDbEntity
  8
LAYER_1
  6
Continuous
 62
     7
100
AcDbLine
 10
635.7910743801649
 20
552.759752066115
 30
0.0
 11
635.7910743801649
 21
564.759752066115
 31
0.0
  0
TEXT
  5
E8
330
DD
100
AcDbEntity
  8
LAYER_1
 62
     7
100
AcDbText
 10
632.791074380165
 20
503.022696473253
 30
0.0
 40
5.4
  1
(φ14.7)
 50
90.0
 41
1.033333333332999
  7
ＭＳ_ゴシック
100
AcDbText
  0
ENDBLK
  5
E9
330
DD
100
AcDbEntity
  8
0
100
AcDbBlockEnd
  0
BLOCK
  5
EB
330
EA
100
AcDbEntity
  8
0
 62
     7
100
AcDbBlockBegin
  2
*D17
 70
     1
 10
0.0
 20
0.0
 30
0.0
  3
*D17
  1

  0
LINE
  5
EC
330
EA
100
AcDbEntity
  8
LAYER_1
  6
Continuous
 62
     7
100
AcDbLine
 10
434.791074380165
 20
552.309752066116
 30
0.0
 11
434.791074380165
 21
568.409752066116
 31
0.0
  0
LINE
  5
ED
330
EA
100
AcDbEntity
  8
LAYER_1
  6
Continuous
 62
     7
100
AcDbLine
 10
492.791074380165
 20
553.1097520661148
 30
0.0
 11
492.791074380165
 21
568.409752066116
 31
0.0
  0
INSERT
  5
EE
330
EA
100
AcDbEntity
  8
LAYER_1
  6
Continuous
 62
     7
100
AcDbBlockReference
  2
_OPEN
 10
434.791074380165
 20
566.4097520661161
 30
0.0
 41
6.0
 42
6.0
 50
180.0
  0
INSERT
  5
EF
330
EA
100
AcDbEntity
  8
LAYER_1
  6
Continuous
 62
     7
100
AcDbBlockReference
  2
_OPEN
 10
492.791074380165
 20
566.4097520661161
 30
0.0
 41
6.0
 42
6.0
  0
INSERT
  5
F0
330
EA
100
AcDbEntity
  8
LAYER_1
  6
Continuous
 62
     7
100
AcDbBlockReference
  2
_OPEN
 10
434.791074380165
 20
566.4097520661161
 30
0.0
 41
6.0
 42
6.0
 50
180.0
  0
INSERT
  5
F1
330
EA
100
AcDbEntity
  8
LAYER_1
  6
Continuous
 62
     7
100
AcDbBlockReference
  2
_OPEN
 10
492.791074380165
 20
566.4097520661161
 30
0.0
 41
6.0
 42
6.0
  0
LINE
  5
F2
330
EA
100
AcDbEntity
  8
LAYER_1
  6
Continuous
 62
     7
100
AcDbLine
 10
434.791074380165
 20
566.4097520661161
 30
0.0
 11
492.791074380165
 21
566.4097520661161
 31
0.0
  0
TEXT
  5
F3
330
EA
100
AcDbEntity
  8
LAYER_1
 62
     7
100
AcDbText
 10
456.539906867477
 20
569.409752066116
 30
0.0
 40
5.4
  1
(58)
 41
1.033333333332999
  7
ＭＳ_ゴシック
 72
     1
 11
463.791074380165
 21
569.409752066116
 31
0.0
100
AcDbText
  0
ENDBLK
  5
F4
330
EA
100
AcDbEntity
  8
0
100
AcDbBlockEnd
  0
BLOCK
  5
F6
330
F5
100
AcDbEntity
  8
0
 62
     7
100
AcDbBlockBegin
  2
*D18
 70
     1
 10
0.0
 20
0.0
 30
0.0
  3
*D18
  1

  0
LINE
  5
F7
330
F5
100
AcDbEntity
  8
LAYER_1
  6
Continuous
 62
     7
100
AcDbLine
 10
572.791074380165
 20
551.070580601028
 30
0.0
 11
572.791074380165
 21
568.409752066116
 31
0.0
  0
INSERT
  5
F8
330
F5
100
AcDbEntity
  8
LAYER_1
  6
Continuous
 62
     7
100
AcDbBlockReference
  2
_OPEN
 10
492.791074380165
 20
566.4097520661161
 30
0.0
 41
6.0
 42
6.0
 50
180.0
  0
INSERT
  5
F9
330
F5
100
AcDbEntity
  8
LAYER_1
  6
Continuous
 62
     7
100
AcDbBlockReference
  2
_OPEN
 10
572.791074380165
 20
566.4097520661161
 30
0.0
 41
6.0
 42
6.0
  0
INSERT
  5
FA
330
F5
100
AcDbEntity
  8
LAYER_1
  6
Continuous
 62
     7
100
AcDbBlockReference
  2
_OPEN
 10
492.791074380165
 20
566.4097520661161
 30
0.0
 41
6.0
 42
6.0
 50
180.0
  0
INSERT
  5
FB
330
F5
100
AcDbEntity
  8
LAYER_1
  6
Continuous
 62
     7
100
AcDbBlockReference
  2
_OPEN
 10
572.791074380165
 20
566.4097520661161
 30
0.0
 41
6.0
 42
6.0
  0
LINE
  5
FC
330
F5
100
AcDbEntity
  8
LAYER_1
  6
Continuous
 62
     7
100
AcDbLine
 10
492.791074380165
 20
566.4097520661161
 30
0.0
 11
572.791074380165
 21
566.4097520661161
 31
0.0
  0
TEXT
  5
FD
330
F5
100
AcDbEntity
  8
LAYER_1
 62
     7
100
AcDbText
 10
521.9143231111329
 20
569.409752066116
 30
0.0
 40
5.4
  1
(2000)
 41
1.033333333332999
  7
ＭＳ_ゴシック
 72
     1
 11
532.791074380165
 21
569.409752066116
 31
0.0
100
AcDbText
  0
ENDBLK
  5
FE
330
F5
100
AcDbEntity
  8
0
100
AcDbBlockEnd
  0
BLOCK
  5
100
330
FF
100
AcDbEntity
  8
0
 62
     7
100
AcDbBlockBegin
  2
*D19
 70
     1
 10
0.0
 20
0.0
 30
0.0
  3
*D19
  1

  0
LINE
  5
101
330
FF
100
AcDbEntity
  8
LAYER_1
  6
Continuous
 62
     7
100
AcDbLine
 10
615.791074380165
 20
552.159752066115
 30
0.0
 11
615.791074380165
 21
568.409752066116
 31
0.0
  0
INSERT
  5
102
330
FF
100
AcDbEntity
  8
LAYER_1
  6
Continuous
 62
     7
100
AcDbBlockReference
  2
_OPEN
 10
572.791074380165
 20
566.4097520661161
 30
0.0
 41
6.0
 42
6.0
 50
180.0
  0
INSERT
  5
103
330
FF
100
AcDbEntity
  8
LAYER_1
  6
Continuous
 62
     7
100
AcDbBlockReference
  2
_OPEN
 10
615.791074380165
 20
566.4097520661161
 30
0.0
 41
6.0
 42
6.0
  0
INSERT
  5
104
330
FF
100
AcDbEntity
  8
LAYER_1
  6
Continuous
 62
     7
100
AcDbBlockReference
  2
_OPEN
 10
572.791074380165
 20
566.4097520661161
 30
0.0
 41
6.0
 42
6.0
 50
180.0
  0
INSERT
  5
105
330
FF
100
AcDbEntity
  8
LAYER_1
  6
Continuous
 62
     7
100
AcDbBlockReference
  2
_OPEN
 10
615.791074380165
 20
566.4097520661161
 30
0.0
 41
6.0
 42
6.0
  0
LINE
  5
106
330
FF
100
AcDbEntity
  8
LAYER_1
  6
Continuous
 62
     7
100
AcDbLine
 10
572.791074380165
 20
566.4097520661161
 30
0.0
 11
615.791074380165
 21
566.4097520661161
 31
0.0
  0
TEXT
  5
107
330
FF
100
AcDbEntity
  8
LAYER_1
 62
     7
100
AcDbText
 10
587.0399068674769
 20
569.409752066116
 30
0.0
 40
5.4
  1
(43)
 41
1.033333333332999
  7
ＭＳ_ゴシック
 72
     1
 11
594.2910743801649
 21
569.409752066116
 31
0.0
100
AcDbText
  0
ENDBLK
  5
108
330
FF
100
AcDbEntity
  8
0
100
AcDbBlockEnd
  0
BLOCK
  5
10A
330
109
100
AcDbEntity
  8
0
 62
     7
100
AcDbBlockBegin
  2
*D20
 70
     1
 10
0.0
 20
0.0
 30
0.0
  3
*D20
  1

  0
LINE
  5
10B
330
109
100
AcDbEntity
  8
LAYER_1
  6
Continuous
 62
     7
100
AcDbLine
 10
878.47865674622
 20
538.059752066115
 30
0.0
 11
903.7910743801647
 21
538.059752066115
 31
0.0
  0
LINE
  5
10C
330
109
100
AcDbEntity
  8
LAYER_1
  6
Continuous
 62
     7
100
AcDbLine
 10
878.47865674622
 20
552.759752066115
 30
0.0
 11
903.7910743801647
 21
552.759752066115
 31
0.0
  0
LINE
  5
10D
330
109
100
AcDbEntity
  8
LAYER_1
  6
Continuous
 62
     7
100
AcDbLine
 10
901.7910743801648
 20
538.059752066115
 30
0.0
 11
901.7910743801648
 21
552.759752066115
 31
0.0
  0
INSERT
  5
10E
330
109
100
AcDbEntity
  8
LAYER_1
  6
Continuous
 62
     7
100
AcDbBlockReference
  2
_OPEN
 10
901.7910743801648
 20
538.059752066115
 30
0.0
 41
6.0
 42
6.0
 50
90.0
  0
INSERT
  5
10F
330
109
100
AcDbEntity
  8
LAYER_1
  6
Continuous
 62
     7
100
AcDbBlockReference
  2
_NONE
 10
901.7910743801648
 20
503.022696473253
 30
0.0
 41
6.0
 42
6.0
 50
270.0
  0
LINE
  5
110
330
109
100
AcDbEntity
  8
LAYER_1
  6
Continuous
 62
     7
100
AcDbLine
 10
901.7910743801648
 20
538.059752066115
 30
0.0
 11
901.7910743801648
 21
503.022696473253
 31
0.0
  0
INSERT
  5
111
330
109
100
AcDbEntity
  8
LAYER_1
  6
Continuous
 62
     7
100
AcDbBlockReference
  2
_OPEN
 10
901.7910743801648
 20
552.759752066115
 30
0.0
 41
6.0
 42
6.0
 50
270.0
  0
INSERT
  5
112
330
109
100
AcDbEntity
  8
LAYER_1
  6
Continuous
 62
     7
100
AcDbBlockReference
  2
_NONE
 10
901.7910743801648
 20
564.759752066115
 30
0.0
 41
6.0
 42
6.0
 50
90.0
  0
LINE
  5
113
330
109
100
AcDbEntity
  8
LAYER_1
  6
Continuous
 62
     7
100
AcDbLine
 10
901.7910743801648
 20
552.759752066115
 30
0.0
 11
901.7910743801648
 21
564.759752066115
 31
0.0
  0
TEXT
  5
114
330
109
100
AcDbEntity
  8
LAYER_1
 62
     7
100
AcDbText
 10
898.7910743801649
 20
503.022696473253
 30
0.0
 40
5.4
  1
(φ14.7)
 50
90.0
 41
1.033333333332999
  7
ＭＳ_ゴシック
100
AcDbText
  0
ENDBLK
  5
115
330
109
100
AcDbEntity
  8
0
100
AcDbBlockEnd
  0
BLOCK
  5
117
330
116
100
AcDbEntity
  8
0
 62
     7
100
AcDbBlockBegin
  2
*D21
 70
     1
 10
0.0
 20
0.0
 30
0.0
  3
*D21
  1

  0
LINE
  5
118
330
116
100
AcDbEntity
  8
LAYER_1
  6
Continuous
 62
     7
100
AcDbLine
 10
709.7910743801649
 20
552.309752066116
 30
0.0
 11
709.7910743801649
 21
568.4097520661151
 31
0.0
  0
LINE
  5
119
330
116
100
AcDbEntity
  8
LAYER_1
  6
Continuous
 62
     7
100
AcDbLine
 10
758.7910743801649
 20
553.1097520661148
 30
0.0
 11
758.7910743801649
 21
568.4097520661151
 31
0.0
  0
INSERT
  5
11A
330
116
100
AcDbEntity
  8
LAYER_1
  6
Continuous
 62
     7
100
AcDbBlockReference
  2
_OPEN
 10
709.7910743801649
 20
566.409752066115
 30
0.0
 41
6.0
 42
6.0
 50
180.0
  0
INSERT
  5
11B
330
116
100
AcDbEntity
  8
LAYER_1
  6
Continuous
 62
     7
100
AcDbBlockReference
  2
_OPEN
 10
758.7910743801649
 20
566.409752066115
 30
0.0
 41
6.0
 42
6.0
  0
INSERT
  5
11C
330
116
100
AcDbEntity
  8
LAYER_1
  6
Continuous
 62
     7
100
AcDbBlockReference
  2
_OPEN
 10
709.7910743801649
 20
566.409752066115
 30
0.0
 41
6.0
 42
6.0
 50
180.0
  0
INSERT
  5
11D
330
116
100
AcDbEntity
  8
LAYER_1
  6
Continuous
 62
     7
100
AcDbBlockReference
  2
_OPEN
 10
758.7910743801649
 20
566.409752066115
 30
0.0
 41
6.0
 42
6.0
  0
LINE
  5
11E
330
116
100
AcDbEntity
  8
LAYER_1
  6
Continuous
 62
     7
100
AcDbLine
 10
709.7910743801649
 20
566.409752066115
 30
0.0
 11
758.7910743801649
 21
566.409752066115
 31
0.0
  0
TEXT
  5
11F
330
116
100
AcDbEntity
  8
LAYER_1
 62
     7
100
AcDbText
 10
727.0399068674769
 20
569.409752066115
 30
0.0
 40
5.4
  1
(49)
 41
1.033333333332999
  7
ＭＳ_ゴシック
 72
     1
 11
734.2910743801649
 21
569.409752066115
 31
0.0
100
AcDbText
  0
ENDBLK
  5
120
330
116
100
AcDbEntity
  8
0
100
AcDbBlockEnd
  0
BLOCK
  5
122
330
121
100
AcDbEntity
  8
0
 62
     7
100
AcDbBlockBegin
  2
*D22
 70
     1
 10
0.0
 20
0.0
 30
0.0
  3
*D22
  1

  0
LINE
  5
123
330
121
100
AcDbEntity
  8
LAYER_1
  6
Continuous
 62
     7
100
AcDbLine
 10
838.7910743801649
 20
551.070580601028
 30
0.0
 11
838.7910743801649
 21
568.4097520661151
 31
0.0
  0
INSERT
  5
124
330
121
100
AcDbEntity
  8
LAYER_1
  6
Continuous
 62
     7
100
AcDbBlockReference
  2
_OPEN
 10
758.7910743801649
 20
566.409752066115
 30
0.0
 41
6.0
 42
6.0
 50
180.0
  0
INSERT
  5
125
330
121
100
AcDbEntity
  8
LAYER_1
  6
Continuous
 62
     7
100
AcDbBlockReference
  2
_OPEN
 10
838.7910743801649
 20
566.409752066115
 30
0.0
 41
6.0
 42
6.0
  0
INSERT
  5
126
330
121
100
AcDbEntity
  8
LAYER_1
  6
Continuous
 62
     7
100
AcDbBlockReference
  2
_OPEN
 10
758.7910743801649
 20
566.409752066115
 30
0.0
 41
6.0
 42
6.0
 50
180.0
  0
INSERT
  5
127
330
121
100
AcDbEntity
  8
LAYER_1
  6
Continuous
 62
     7
100
AcDbBlockReference
  2
_OPEN
 10
838.7910743801649
 20
566.409752066115
 30
0.0
 41
6.0
 42
6.0
  0
LINE
  5
128
330
121
100
AcDbEntity
  8
LAYER_1
  6
Continuous
 62
     7
100
AcDbLine
 10
758.7910743801649
 20
566.409752066115
 30
0.0
 11
838.7910743801649
 21
566.409752066115
 31
0.0
  0
TEXT
  5
129
330
121
100
AcDbEntity
  8
LAYER_1
 62
     7
100
AcDbText
 10
787.9143231111328
 20
569.409752066115
 30
0.0
 40
5.4
  1
(2000)
 41
1.033333333332999
  7
ＭＳ_ゴシック
 72
     1
 11
798.7910743801649
 21
569.409752066115
 31
0.0
100
AcDbText
  0
ENDBLK
  5
12A
330
121
100
AcDbEntity
  8
0
100
AcDbBlockEnd
  0
BLOCK
  5
12C
330
12B
100
AcDbEntity
  8
0
 62
     7
100
AcDbBlockBegin
  2
*D23
 70
     1
 10
0.0
 20
0.0
 30
0.0
  3
*D23
  1

  0
LINE
  5
12D
330
12B
100
AcDbEntity
  8
LAYER_1
  6
Continuous
 62
     7
100
AcDbLine
 10
881.7910743801649
 20
552.159752066115
 30
0.0
 11
881.7910743801649
 21
568.4097520661151
 31
0.0
  0
INSERT
  5
12E
330
12B
100
AcDbEntity
  8
LAYER_1
  6
Continuous
 62
     7
100
AcDbBlockReference
  2
_OPEN
 10
838.7910743801649
 20
566.409752066115
 30
0.0
 41
6.0
 42
6.0
 50
180.0
  0
INSERT
  5
12F
330
12B
100
AcDbEntity
  8
LAYER_1
  6
Continuous
 62
     7
100
AcDbBlockReference
  2
_OPEN
 10
881.7910743801649
 20
566.409752066115
 30
0.0
 41
6.0
 42
6.0
  0
INSERT
  5
130
330
12B
100
AcDbEntity
  8
LAYER_1
  6
Continuous
 62
     7
100
AcDbBlockReference
  2
_OPEN
 10
838.7910743801649
 20
566.409752066115
 30
0.0
 41
6.0
 42
6.0
 50
180.0
  0
INSERT
  5
131
330
12B
100
AcDbEntity
  8
LAYER_1
  6
Continuous
 62
     7
100
AcDbBlockReference
  2
_OPEN
 10
881.7910743801649
 20
566.409752066115
 30
0.0
 41
6.0
 42
6.0
  0
LINE
  5
132
330
12B
100
AcDbEntity
  8
LAYER_1
  6
Continuous
 62
     7
100
AcDbLine
 10
838.7910743801649
 20
566.409752066115
 30
0.0
 11
881.7910743801649
 21
566.409752066115
 31
0.0
  0
TEXT
  5
133
330
12B
100
AcDbEntity
  8
LAYER_1
 62
     7
100
AcDbText
 10
853.0399068674769
 20
569.409752066115
 30
0.0
 40
5.4
  1
(43)
 41
1.033333333332999
  7
ＭＳ_ゴシック
 72
     1
 11
860.2910743801649
 21
569.409752066115
 31
0.0
100
AcDbText
  0
ENDBLK
  5
134
330
12B
100
AcDbEntity
  8
0
100
AcDbBlockEnd
  0
BLOCK
  5
136
330
135
100
AcDbEntity
  8
0
 62
     7
100
AcDbBlockBegin
  2
*D24
 70
     1
 10
0.0
 20
0.0
 30
0.0
  3
*D24
  1

  0
LINE
  5
137
330
135
100
AcDbEntity
  8
LAYER_1
  6
Continuous
 62
     7
100
AcDbLine
 10
432.991074380165
 20
539.409752066116
 30
0.0
 11
417.791074380165
 21
539.409752066116
 31
0.0
  0
LINE
  5
138
330
135
100
AcDbEntity
  8
LAYER_1
  6
Continuous
 62
     7
100
AcDbLine
 10
432.991074380165
 20
551.409752066116
 30
0.0
 11
417.791074380165
 21
551.409752066116
 31
0.0
  0
LINE
  5
139
330
135
100
AcDbEntity
  8
LAYER_1
  6
Continuous
 62
     7
100
AcDbLine
 10
419.7910743801648
 20
539.409752066116
 30
0.0
 11
419.7910743801648
 21
551.409752066116
 31
0.0
  0
INSERT
  5
13A
330
135
100
AcDbEntity
  8
LAYER_1
  6
Continuous
 62
     7
100
AcDbBlockReference
  2
_OPEN
 10
419.7910743801648
 20
539.409752066116
 30
0.0
 41
6.0
 42
6.0
 50
90.0
  0
INSERT
  5
13B
330
135
100
AcDbEntity
  8
LAYER_1
  6
Continuous
 62
     7
100
AcDbBlockReference
  2
_NONE
 10
419.7910743801648
 20
517.8022364072988
 30
0.0
 41
6.0
 42
6.0
 50
270.0
  0
LINE
  5
13C
330
135
100
AcDbEntity
  8
LAYER_1
  6
Continuous
 62
     7
100
AcDbLine
 10
419.7910743801648
 20
539.409752066116
 30
0.0
 11
419.7910743801648
 21
517.8022364072988
 31
0.0
  0
INSERT
  5
13D
330
135
100
AcDbEntity
  8
LAYER_1
  6
Continuous
 62
     7
100
AcDbBlockReference
  2
_OPEN
 10
419.7910743801648
 20
551.409752066116
 30
0.0
 41
6.0
 42
6.0
 50
270.0
  0
INSERT
  5
13E
330
135
100
AcDbEntity
  8
LAYER_1
  6
Continuous
 62
     7
100
AcDbBlockReference
  2
_NONE
 10
419.7910743801648
 20
563.409752066116
 30
0.0
 41
6.0
 42
6.0
 50
90.0
  0
LINE
  5
13F
330
135
100
AcDbEntity
  8
LAYER_1
  6
Continuous
 62
     7
100
AcDbLine
 10
419.7910743801648
 20
551.409752066116
 30
0.0
 11
419.7910743801648
 21
563.409752066116
 31
0.0
  0
TEXT
  5
140
330
135
100
AcDbEntity
  8
LAYER_1
 62
     7
100
AcDbText
 10
416.791074380165
 20
517.8022364072988
 30
0.0
 40
5.4
  1
φ12
 50
90.0
 41
1.033333333332999
  7
ＭＳ_ゴシック
100
AcDbText
  0
ENDBLK
  5
141
330
135
100
AcDbEntity
  8
0
100
AcDbBlockEnd
  0
BLOCK
  5
143
330
142
100
AcDbEntity
  8
0
 62
     7
100
AcDbBlockBegin
  2
*D25
 70
     1
 10
0.0
 20
0.0
 30
0.0
  3
*D25
  1

  0
LINE
  5
144
330
142
100
AcDbEntity
  8
LAYER_1
  6
Continuous
 62
     7
100
AcDbLine
 10
707.9910743801649
 20
539.409752066116
 30
0.0
 11
692.7910743801649
 21
539.409752066116
 31
0.0
  0
LINE
  5
145
330
142
100
AcDbEntity
  8
LAYER_1
  6
Continuous
 62
     7
100
AcDbLine
 10
707.9910743801649
 20
551.409752066116
 30
0.0
 11
692.7910743801649
 21
551.409752066116
 31
0.0
  0
LINE
  5
146
330
142
100
AcDbEntity
  8
LAYER_1
  6
Continuous
 62
     7
100
AcDbLine
 10
694.7910743801648
 20
539.409752066116
 30
0.0
 11
694.7910743801648
 21
551.409752066116
 31
0.0
  0
INSERT
  5
147
330
142
100
AcDbEntity
  8
LAYER_1
  6
Continuous
 62
     7
100
AcDbBlockReference
  2
_OPEN
 10
694.7910743801648
 20
539.409752066116
 30
0.0
 41
6.0
 42
6.0
 50
90.0
  0
INSERT
  5
148
330
142
100
AcDbEntity
  8
LAYER_1
  6
Continuous
 62
     7
100
AcDbBlockReference
  2
_NONE
 10
694.7910743801648
 20
517.8022364072988
 30
0.0
 41
6.0
 42
6.0
 50
270.0
  0
LINE
  5
149
330
142
100
AcDbEntity
  8
LAYER_1
  6
Continuous
 62
     7
100
AcDbLine
 10
694.7910743801648
 20
539.409752066116
 30
0.0
 11
694.7910743801648
 21
517.8022364072988
 31
0.0
  0
INSERT
  5
14A
330
142
100
AcDbEntity
  8
LAYER_1
  6
Continuous
 62
     7
100
AcDbBlockReference
  2
_OPEN
 10
694.7910743801648
 20
551.409752066116
 30
0.0
 41
6.0
 42
6.0
 50
270.0
  0
INSERT
  5
14B
330
142
100
AcDbEntity
  8
LAYER_1
  6
Continuous
 62
     7
100
AcDbBlockReference
  2
_NONE
 10
694.7910743801648
 20
563.409752066116
 30
0.0
 41
6.0
 42
6.0
 50
90.0
  0
LINE
  5
14C
330
142
100
AcDbEntity
  8
LAYER_1
  6
Continuous
 62
     7
100
AcDbLine
 10
694.7910743801648
 20
551.409752066116
 30
0.0
 11
694.7910743801648
 21
563.409752066116
 31
0.0
  0
TEXT
  5
14D
330
142
100
AcDbEntity
  8
LAYER_1
 62
     7
100
AcDbText
 10
691.7910743801647
 20
517.8022364072988
 30
0.0
 40
5.4
  1
φ12
 50
90.0
 41
1.033333333332999
  7
ＭＳ_ゴシック
100
AcDbText
  0
ENDBLK
  5
14E
330
142
100
AcDbEntity
  8
0
100
AcDbBlockEnd
  0
BLOCK
  5
150
330
14F
100
AcDbEntity
  8
0
 62
     7
100
AcDbBlockBegin
  2
*D26
 70
     1
 10
0.0
 20
0.0
 30
0.0
  3
*D26
  1

  0
LINE
  5
151
330
14F
100
AcDbEntity
  8
LAYER_1
  6
Continuous
 62
     7
100
AcDbLine
 10
650.902268239758
 20
305.0018683770728
 30
0.0
 11
630.9022682397579
 21
305.0018683770728
 31
0.0
  0
LINE
  5
152
330
14F
100
AcDbEntity
  8
LAYER_1
  6
Continuous
 62
     7
100
AcDbLine
 10
660.9022682397578
 20
322.0018683770728
 30
0.0
 11
630.9022682397579
 21
322.0018683770728
 31
0.0
  0
INSERT
  5
153
330
14F
100
AcDbEntity
  8
LAYER_1
  6
Continuous
 62
     7
100
AcDbBlockReference
  2
_OPEN
 10
633.902268239758
 20
305.0018683770728
 30
0.0
 41
6.0
 42
6.0
 50
270.0
  0
INSERT
  5
154
330
14F
100
AcDbEntity
  8
LAYER_1
  6
Continuous
 62
     7
100
AcDbBlockReference
  2
_OPEN
 10
633.902268239758
 20
322.0018683770728
 30
0.0
 41
6.0
 42
6.0
 50
90.0
  0
INSERT
  5
155
330
14F
100
AcDbEntity
  8
LAYER_1
  6
Continuous
 62
     7
100
AcDbBlockReference
  2
_OPEN
 10
633.902268239758
 20
305.0018683770728
 30
0.0
 41
6.0
 42
6.0
 50
270.0
  0
INSERT
  5
156
330
14F
100
AcDbEntity
  8
LAYER_1
  6
Continuous
 62
     7
100
AcDbBlockReference
  2
_OPEN
 10
633.902268239758
 20
322.0018683770728
 30
0.0
 41
6.0
 42
6.0
 50
90.0
  0
LINE
  5
157
330
14F
100
AcDbEntity
  8
LAYER_1
  6
Continuous
 62
     7
100
AcDbLine
 10
633.902268239758
 20
305.0018683770728
 30
0.0
 11
633.902268239758
 21
322.0018683770728
 31
0.0
  0
TEXT
  5
158
330
14F
100
AcDbEntity
  8
LAYER_1
 62
     7
100
AcDbText
 10
630.9022682397579
 20
309.8762846207288
 30
0.0
 40
5.4
  1
17
 50
90.0
 41
1.033333333332999
  7
ＭＳ_ゴシック
 72
     1
 11
630.9022682397579
 21
313.5018683770728
 31
0.0
100
AcDbText
  0
ENDBLK
  5
159
330
14F
100
AcDbEntity
  8
0
100
AcDbBlockEnd
  0
BLOCK
  5
15B
330
15A
100
AcDbEntity
  8
0
 62
     7
100
AcDbBlockBegin
  2
*D27
 70
     1
 10
0.0
 20
0.0
 30
0.0
  3
*D27
  1

  0
LINE
  5
15C
330
15A
100
AcDbEntity
  8
LAYER_1
  6
Continuous
 62
     7
100
AcDbLine
 10
645.902268239758
 20
301.0018683770728
 30
0.0
 11
615.9022682397578
 21
301.0018683770728
 31
0.0
  0
LINE
  5
15D
330
15A
100
AcDbEntity
  8
LAYER_1
  6
Continuous
 62
     7
100
AcDbLine
 10
645.902268239758
 20
326.0018683770728
 30
0.0
 11
615.9022682397578
 21
326.0018683770728
 31
0.0
  0
INSERT
  5
15E
330
15A
100
AcDbEntity
  8
LAYER_1
  6
Continuous
 62
     7
100
AcDbBlockReference
  2
_OPEN
 10
618.9022682397578
 20
301.0018683770728
 30
0.0
 41
6.0
 42
6.0
 50
270.0
  0
INSERT
  5
15F
330
15A
100
AcDbEntity
  8
LAYER_1
  6
Continuous
 62
     7
100
AcDbBlockReference
  2
_OPEN
 10
618.9022682397578
 20
326.0018683770728
 30
0.0
 41
6.0
 42
6.0
 50
90.0
  0
INSERT
  5
160
330
15A
100
AcDbEntity
  8
LAYER_1
  6
Continuous
 62
     7
100
AcDbBlockReference
  2
_OPEN
 10
618.9022682397578
 20
301.0018683770728
 30
0.0
 41
6.0
 42
6.0
 50
270.0
  0
INSERT
  5
161
330
15A
100
AcDbEntity
  8
LAYER_1
  6
Continuous
 62
     7
100
AcDbBlockReference
  2
_OPEN
 10
618.9022682397578
 20
326.0018683770728
 30
0.0
 41
6.0
 42
6.0
 50
90.0
  0
LINE
  5
162
330
15A
100
AcDbEntity
  8
LAYER_1
  6
Continuous
 62
     7
100
AcDbLine
 10
618.9022682397578
 20
301.0018683770728
 30
0.0
 11
618.9022682397578
 21
326.0018683770728
 31
0.0
  0
TEXT
  5
163
330
15A
100
AcDbEntity
  8
LAYER_1
 62
     7
100
AcDbText
 10
615.9022682397578
 20
309.8762846207288
 30
0.0
 40
5.4
  1
25
 50
90.0
 41
1.033333333332999
  7
ＭＳ_ゴシック
 72
     1
 11
615.9022682397578
 21
313.5018683770728
 31
0.0
100
AcDbText
  0
ENDBLK
  5
164
330
15A
100
AcDbEntity
  8
0
100
AcDbBlockEnd
  0
BLOCK
  5
166
330
165
100
AcDbEntity
  8
0
 62
     7
100
AcDbBlockBegin
  2
*D28
 70
     1
 10
0.0
 20
0.0
 30
0.0
  3
*D28
  1

  0
LINE
  5
167
330
165
100
AcDbEntity
  8
LAYER_1
  6
Continuous
 62
     7
100
AcDbLine
 10
658.902268239758
 20
297.0018683770728
 30
0.0
 11
658.902268239758
 21
278.0018683770729
 31
0.0
  0
LINE
  5
168
330
165
100
AcDbEntity
  8
LAYER_1
  6
Continuous
 62
     7
100
AcDbLine
 10
678.9022682397578
 20
297.0018683770728
 30
0.0
 11
678.9022682397578
 21
278.0018683770729
 31
0.0
  0
INSERT
  5
169
330
165
100
AcDbEntity
  8
LAYER_1
  6
Continuous
 62
     7
100
AcDbBlockReference
  2
_OPEN
 10
658.902268239758
 20
281.0018683770729
 30
0.0
 41
6.0
 42
6.0
 50
180.0
  0
INSERT
  5
16A
330
165
100
AcDbEntity
  8
LAYER_1
  6
Continuous
 62
     7
100
AcDbBlockReference
  2
_OPEN
 10
678.9022682397578
 20
281.0018683770729
 30
0.0
 41
6.0
 42
6.0
  0
INSERT
  5
16B
330
165
100
AcDbEntity
  8
LAYER_1
  6
Continuous
 62
     7
100
AcDbBlockReference
  2
_OPEN
 10
658.902268239758
 20
281.0018683770729
 30
0.0
 41
6.0
 42
6.0
 50
180.0
  0
INSERT
  5
16C
330
165
100
AcDbEntity
  8
LAYER_1
  6
Continuous
 62
     7
100
AcDbBlockReference
  2
_OPEN
 10
678.9022682397578
 20
281.0018683770729
 30
0.0
 41
6.0
 42
6.0
  0
LINE
  5
16D
330
165
100
AcDbEntity
  8
LAYER_1
  6
Continuous
 62
     7
100
AcDbLine
 10
658.902268239758
 20
281.0018683770729
 30
0.0
 11
678.9022682397578
 21
281.0018683770729
 31
0.0
  0
TEXT
  5
16E
330
165
100
AcDbEntity
  8
LAYER_1
 62
     7
100
AcDbText
 10
665.2766844834139
 20
284.0018683770728
 30
0.0
 40
5.4
  1
20
 41
1.033333333332999
  7
ＭＳ_ゴシック
 72
     1
 11
668.9022682397578
 21
284.0018683770728
 31
0.0
100
AcDbText
  0
ENDBLK
  5
16F
330
165
100
AcDbEntity
  8
0
100
AcDbBlockEnd
  0
BLOCK
  5
171
330
170
100
AcDbEntity
  8
0
 62
     7
100
AcDbBlockBegin
  2
*D29
 70
     1
 10
0.0
 20
0.0
 30
0.0
  3
*D29
  1

  0
LINE
  5
172
330
170
100
AcDbEntity
  8
LAYER_1
  6
Continuous
 62
     7
100
AcDbLine
 10
728.9022682397578
 20
328.5018683770728
 30
0.0
 11
728.9022682397578
 21
354.0018683770729
 31
0.0
  0
LINE
  5
173
330
170
100
AcDbEntity
  8
LAYER_1
  6
Continuous
 62
     7
100
AcDbLine
 10
748.9022682397578
 20
329.0018683770728
 30
0.0
 11
748.9022682397578
 21
354.0018683770729
 31
0.0
  0
INSERT
  5
174
330
170
100
AcDbEntity
  8
LAYER_1
  6
Continuous
 62
     7
100
AcDbBlockReference
  2
_OPEN
 10
728.9022682397578
 20
351.0018683770729
 30
0.0
 41
6.0
 42
6.0
 50
180.0
  0
INSERT
  5
175
330
170
100
AcDbEntity
  8
LAYER_1
  6
Continuous
 62
     7
100
AcDbBlockReference
  2
_OPEN
 10
748.9022682397578
 20
351.0018683770729
 30
0.0
 41
6.0
 42
6.0
  0
INSERT
  5
176
330
170
100
AcDbEntity
  8
LAYER_1
  6
Continuous
 62
     7
100
AcDbBlockReference
  2
_OPEN
 10
728.9022682397578
 20
351.0018683770729
 30
0.0
 41
6.0
 42
6.0
 50
180.0
  0
INSERT
  5
177
330
170
100
AcDbEntity
  8
LAYER_1
  6
Continuous
 62
     7
100
AcDbBlockReference
  2
_OPEN
 10
748.9022682397578
 20
351.0018683770729
 30
0.0
 41
6.0
 42
6.0
  0
LINE
  5
178
330
170
100
AcDbEntity
  8
LAYER_1
  6
Continuous
 62
     7
100
AcDbLine
 10
728.9022682397578
 20
351.0018683770729
 30
0.0
 11
748.9022682397578
 21
351.0018683770729
 31
0.0
  0
TEXT
  5
179
330
170
100
AcDbEntity
  8
LAYER_1
 62
     7
100
AcDbText
 10
731.6511007270698
 20
354.0018683770729
 30
0.0
 40
5.4
  1
(20)
 41
1.033333333332999
  7
ＭＳ_ゴシック
 72
     1
 11
738.9022682397579
 21
354.0018683770729
 31
0.0
100
AcDbText
  0
ENDBLK
  5
17A
330
170
100
AcDbEntity
  8
0
100
AcDbBlockEnd
  0
BLOCK
  5
17C
330
17B
100
AcDbEntity
  8
0
 62
     7
100
AcDbBlockBegin
  2
*D30
 70
     1
 10
0.0
 20
0.0
 30
0.0
  3
*D30
  1

  0
LINE
  5
17D
330
17B
100
AcDbEntity
  8
LAYER_1
  6
Continuous
 62
     7
100
AcDbLine
 10
738.9022682397579
 20
324.5018683770728
 30
0.0
 11
738.9022682397579
 21
339.0018683770728
 31
0.0
  0
LINE
  5
17E
330
17B
100
AcDbEntity
  8
LAYER_1
  6
Continuous
 62
     7
100
AcDbLine
 10
748.9022682397578
 20
329.0018683770728
 30
0.0
 11
748.9022682397578
 21
339.0018683770728
 31
0.0
  0
LINE
  5
17F
330
17B
100
AcDbEntity
  8
LAYER_1
  6
Continuous
 62
     7
100
AcDbLine
 10
738.9022682397579
 20
336.0018683770728
 30
0.0
 11
748.9022682397578
 21
336.0018683770728
 31
0.0
  0
INSERT
  5
180
330
17B
100
AcDbEntity
  8
LAYER_1
  6
Continuous
 62
     7
100
AcDbBlockReference
  2
_OPEN
 10
738.9022682397579
 20
336.0018683770728
 30
0.0
 41
6.0
 42
6.0
  0
INSERT
  5
181
330
17B
100
AcDbEntity
  8
LAYER_1
  6
Continuous
 62
     7
100
AcDbBlockReference
  2
_NONE
 10
723.7587678437258
 20
336.0018683770728
 30
0.0
 41
6.0
 42
6.0
 50
180.0
  0
LINE
  5
182
330
17B
100
AcDbEntity
  8
LAYER_1
  6
Continuous
 62
     7
100
AcDbLine
 10
738.9022682397579
 20
336.0018683770728
 30
0.0
 11
723.7587678437258
 21
336.0018683770728
 31
0.0
  0
INSERT
  5
183
330
17B
100
AcDbEntity
  8
LAYER_1
  6
Continuous
 62
     7
100
AcDbBlockReference
  2
_OPEN
 10
748.9022682397578
 20
336.0018683770728
 30
0.0
 41
6.0
 42
6.0
 50
180.0
  0
INSERT
  5
184
330
17B
100
AcDbEntity
  8
LAYER_1
  6
Continuous
 62
     7
100
AcDbBlockReference
  2
_NONE
 10
764.2292690389999
 20
336.0018683770728
 30
0.0
 41
6.0
 42
6.0
  0
LINE
  5
185
330
17B
100
AcDbEntity
  8
LAYER_1
  6
Continuous
 62
     7
100
AcDbLine
 10
748.9022682397578
 20
336.0018683770728
 30
0.0
 11
764.2292690389999
 21
336.0018683770728
 31
0.0
  0
TEXT
  5
186
330
17B
100
AcDbEntity
  8
LAYER_1
 62
     7
100
AcDbText
 10
739.691197713912
 20
339.0018683770728
 30
0.0
 40
5.4
  1
10
 41
1.033333333332999
  7
ＭＳ_ゴシック
 72
     2
 11
746.9423652266
 21
339.0018683770728
 31
0.0
100
AcDbText
  0
ENDBLK
  5
187
330
17B
100
AcDbEntity
  8
0
100
AcDbBlockEnd
  0
BLOCK
  5
189
330
188
100
AcDbEntity
  8
0
 62
     7
100
AcDbBlockBegin
  2
*D31
 70
     1
 10
0.0
 20
0.0
 30
0.0
  3
*D31
  1

  0
LINE
  5
18A
330
188
100
AcDbEntity
  8
LAYER_1
  6
Continuous
 62
     7
100
AcDbLine
 10
658.902268239758
 20
368.0018683770729
 30
0.0
 11
658.902268239758
 21
384.0018683770729
 31
0.0
  0
LINE
  5
18B
330
188
100
AcDbEntity
  8
LAYER_1
  6
Continuous
 62
     7
100
AcDbLine
 10
678.9022682397578
 20
368.0018683770729
 30
0.0
 11
678.9022682397578
 21
384.0018683770729
 31
0.0
  0
INSERT
  5
18C
330
188
100
AcDbEntity
  8
LAYER_1
  6
Continuous
 62
     7
100
AcDbBlockReference
  2
_OPEN
 10
658.902268239758
 20
381.0018683770729
 30
0.0
 41
6.0
 42
6.0
 50
180.0
  0
INSERT
  5
18D
330
188
100
AcDbEntity
  8
LAYER_1
  6
Continuous
 62
     7
100
AcDbBlockReference
  2
_OPEN
 10
678.9022682397578
 20
381.0018683770729
 30
0.0
 41
6.0
 42
6.0
  0
INSERT
  5
18E
330
188
100
AcDbEntity
  8
LAYER_1
  6
Continuous
 62
     7
100
AcDbBlockReference
  2
_OPEN
 10
658.902268239758
 20
381.0018683770729
 30
0.0
 41
6.0
 42
6.0
 50
180.0
  0
INSERT
  5
18F
330
188
100
AcDbEntity
  8
LAYER_1
  6
Continuous
 62
     7
100
AcDbBlockReference
  2
_OPEN
 10
678.9022682397578
 20
381.0018683770729
 30
0.0
 41
6.0
 42
6.0
  0
LINE
  5
190
330
188
100
AcDbEntity
  8
LAYER_1
  6
Continuous
 62
     7
100
AcDbLine
 10
658.902268239758
 20
381.0018683770729
 30
0.0
 11
678.9022682397578
 21
381.0018683770729
 31
0.0
  0
TEXT
  5
191
330
188
100
AcDbEntity
  8
LAYER_1
 62
     7
100
AcDbText
 10
665.2766844834139
 20
384.0018683770729
 30
0.0
 40
5.4
  1
20
 41
1.033333333332999
  7
ＭＳ_ゴシック
 72
     1
 11
668.9022682397578
 21
384.0018683770729
 31
0.0
100
AcDbText
  0
ENDBLK
  5
192
330
188
100
AcDbEntity
  8
0
100
AcDbBlockEnd
  0
BLOCK
  5
194
330
193
100
AcDbEntity
  8
0
 62
     7
100
AcDbBlockBegin
  2
*D32
 70
     1
 10
0.0
 20
0.0
 30
0.0
  3
*D32
  1

  0
LINE
  5
195
330
193
100
AcDbEntity
  8
LAYER_1
  6
Continuous
 62
     7
100
AcDbLine
 10
651.9022682397578
 20
361.0018683770729
 30
0.0
 11
630.9022682397579
 21
361.0018683770729
 31
0.0
  0
LINE
  5
196
330
193
100
AcDbEntity
  8
LAYER_1
  6
Continuous
 62
     7
100
AcDbLine
 10
645.902268239758
 20
371.001868377073
 30
0.0
 11
630.9022682397579
 21
371.001868377073
 31
0.0
  0
LINE
  5
197
330
193
100
AcDbEntity
  8
LAYER_1
  6
Continuous
 62
     7
100
AcDbLine
 10
633.902268239758
 20
361.0018683770729
 30
0.0
 11
633.902268239758
 21
371.001868377073
 31
0.0
  0
INSERT
  5
198
330
193
100
AcDbEntity
  8
LAYER_1
  6
Continuous
 62
     7
100
AcDbBlockReference
  2
_OPEN
 10
633.902268239758
 20
361.0018683770729
 30
0.0
 41
6.0
 42
6.0
 50
90.0
  0
INSERT
  5
199
330
193
100
AcDbEntity
  8
LAYER_1
  6
Continuous
 62
     7
100
AcDbBlockReference
  2
_NONE
 10
633.902268239758
 20
345.0835391882558
 30
0.0
 41
6.0
 42
6.0
 50
270.0
  0
LINE
  5
19A
330
193
100
AcDbEntity
  8
LAYER_1
  6
Continuous
 62
     7
100
AcDbLine
 10
633.902268239758
 20
361.0018683770729
 30
0.0
 11
633.902268239758
 21
345.0835391882558
 31
0.0
  0
INSERT
  5
19B
330
193
100
AcDbEntity
  8
LAYER_1
  6
Continuous
 62
     7
100
AcDbBlockReference
  2
_OPEN
 10
633.902268239758
 20
371.001868377073
 30
0.0
 41
6.0
 42
6.0
 50
270.0
  0
INSERT
  5
19C
330
193
100
AcDbEntity
  8
LAYER_1
  6
Continuous
 62
     7
100
AcDbBlockReference
  2
_NONE
 10
633.902268239758
 20
381.0018683770729
 30
0.0
 41
6.0
 42
6.0
 50
90.0
  0
LINE
  5
19D
330
193
100
AcDbEntity
  8
LAYER_1
  6
Continuous
 62
     7
100
AcDbLine
 10
633.902268239758
 20
371.001868377073
 30
0.0
 11
633.902268239758
 21
381.0018683770729
 31
0.0
  0
TEXT
  5
19E
330
193
100
AcDbEntity
  8
LAYER_1
 62
     7
100
AcDbText
 10
630.9022682397579
 20
347.2078367089168
 30
0.0
 40
5.4
  1
10
 50
90.0
 41
1.033333333332999
  7
ＭＳ_ゴシック
100
AcDbText
  0
ENDBLK
  5
19F
330
193
100
AcDbEntity
  8
0
100
AcDbBlockEnd
  0
BLOCK
  5
1A1
330
1A0
100
AcDbEntity
  8
0
 62
     7
100
AcDbBlockBegin
  2
*D33
 70
     1
 10
0.0
 20
0.0
 30
0.0
  3
*D33
  1

  0
LINE
  5
1A2
330
1A0
100
AcDbEntity
  8
LAYER_1
  6
Continuous
 62
     7
100
AcDbLine
 10
733.7061158170508
 20
310.501868377073
 30
0.0
 11
744.098420662464
 21
316.5018683770728
 31
0.0
  0
INSERT
  5
1A3
330
1A0
100
AcDbEntity
  8
LAYER_1
  6
Continuous
 62
     7
100
AcDbBlockReference
  2
_OPEN
 10
744.098420662464
 20
316.5018683770728
 30
0.0
 41
6.0
 42
6.0
 50
210.0
  0
INSERT
  5
1A4
330
1A0
100
AcDbEntity
  8
LAYER_1
  6
Continuous
 62
     7
100
AcDbBlockReference
  2
_NONE
 10
756.939920359342
 20
323.9159116838639
 30
0.0
 41
6.0
 42
6.0
 50
30.0
  0
LINE
  5
1A5
330
1A0
100
AcDbEntity
  8
LAYER_1
  6
Continuous
 62
     7
100
AcDbLine
 10
744.098420662464
 20
316.5018683770728
 30
0.0
 11
756.939920359342
 21
323.9159116838639
 31
0.0
  0
INSERT
  5
1A6
330
1A0
100
AcDbEntity
  8
LAYER_1
  6
Continuous
 62
     7
100
AcDbBlockReference
  2
_OPEN
 10
733.7061158170508
 20
310.501868377073
 30
0.0
 41
6.0
 42
6.0
 50
30.0
  0
INSERT
  5
1A7
330
1A0
100
AcDbEntity
  8
LAYER_1
  6
Continuous
 62
     7
100
AcDbBlockReference
  2
_NONE
 10
713.236534638904
 20
298.683750173671
 30
0.0
 41
6.0
 42
6.0
 50
210.0
  0
LINE
  5
1A8
330
1A0
100
AcDbEntity
  8
LAYER_1
  6
Continuous
 62
     7
100
AcDbLine
 10
733.7061158170508
 20
310.501868377073
 30
0.0
 11
713.236534638904
 21
298.683750173671
 31
0.0
  0
TEXT
  5
1A9
330
1A0
100
AcDbEntity
  8
LAYER_1
 62
     7
100
AcDbText
 10
713.7660187137425
 20
302.4535495619479
 30
0.0
 40
5.4
  1
φ12
 50
30.0
 41
1.033333333332999
  7
ＭＳ_ゴシック
 72
     2
 11
726.325409259911
 21
309.704717074636
 31
0.0
100
AcDbText
  0
ENDBLK
  5
1AA
330
1A0
100
AcDbEntity
  8
0
100
AcDbBlockEnd
  0
BLOCK
  5
1AC
330
1AB
100
AcDbEntity
  8
0
 62
     7
100
AcDbBlockBegin
  2
*D34
 70
     1
 10
0.0
 20
0.0
 30
0.0
  3
*D34
  1

  0
LINE
  5
1AD
330
1AB
100
AcDbEntity
  8
LAYER_1
  6
Continuous
 62
     7
100
AcDbLine
 10
648.9022682397578
 20
298.0018683770728
 30
0.0
 11
648.9022682397578
 21
263.001868377073
 31
0.0
  0
LINE
  5
1AE
330
1AB
100
AcDbEntity
  8
LAYER_1
  6
Continuous
 62
     7
100
AcDbLine
 10
688.9022682397579
 20
298.0018683770728
 30
0.0
 11
688.9022682397579
 21
263.001868377073
 31
0.0
  0
INSERT
  5
1AF
330
1AB
100
AcDbEntity
  8
LAYER_1
  6
Continuous
 62
     7
100
AcDbBlockReference
  2
_OPEN
 10
648.9022682397578
 20
266.0018683770729
 30
0.0
 41
6.0
 42
6.0
 50
180.0
  0
INSERT
  5
1B0
330
1AB
100
AcDbEntity
  8
LAYER_1
  6
Continuous
 62
     7
100
AcDbBlockReference
  2
_OPEN
 10
688.9022682397579
 20
266.0018683770729
 30
0.0
 41
6.0
 42
6.0
  0
INSERT
  5
1B1
330
1AB
100
AcDbEntity
  8
LAYER_1
  6
Continuous
 62
     7
100
AcDbBlockReference
  2
_OPEN
 10
648.9022682397578
 20
266.0018683770729
 30
0.0
 41
6.0
 42
6.0
 50
180.0
  0
INSERT
  5
1B2
330
1AB
100
AcDbEntity
  8
LAYER_1
  6
Continuous
 62
     7
100
AcDbBlockReference
  2
_OPEN
 10
688.9022682397579
 20
266.0018683770729
 30
0.0
 41
6.0
 42
6.0
  0
LINE
  5
1B3
330
1AB
100
AcDbEntity
  8
LAYER_1
  6
Continuous
 62
     7
100
AcDbLine
 10
648.9022682397578
 20
266.0018683770729
 30
0.0
 11
688.9022682397579
 21
266.0018683770729
 31
0.0
  0
TEXT
  5
1B4
330
1AB
100
AcDbEntity
  8
LAYER_1
 62
     7
100
AcDbText
 10
665.2766844834139
 20
269.001868377073
 30
0.0
 40
5.4
  1
40
 41
1.033333333332999
  7
ＭＳ_ゴシック
 72
     1
 11
668.9022682397578
 21
269.001868377073
 31
0.0
100
AcDbText
  0
ENDBLK
  5
1B5
330
1AB
100
AcDbEntity
  8
0
100
AcDbBlockEnd
  0
BLOCK
  5
1B7
330
1B6
100
AcDbEntity
  8
0
 62
     7
100
AcDbBlockBegin
  2
*D35
 70
     1
 10
0.0
 20
0.0
 30
0.0
  3
*D35
  1

  0
LINE
  5
1B8
330
1B6
100
AcDbEntity
  8
LAYER_1
  6
Continuous
 62
     7
100
AcDbLine
 10
583.9022682397589
 20
162.701868377073
 30
0.0
 11
583.9022682397589
 21
193.0018683770729
 31
0.0
  0
LINE
  5
1B9
330
1B6
100
AcDbEntity
  8
LAYER_1
  6
Continuous
 62
     7
100
AcDbLine
 10
648.9022682397568
 20
162.701868377073
 30
0.0
 11
648.9022682397568
 21
193.0018683770729
 31
0.0
  0
INSERT
  5
1BA
330
1B6
100
AcDbEntity
  8
LAYER_1
  6
Continuous
 62
     7
100
AcDbBlockReference
  2
_OPEN
 10
583.9022682397589
 20
191.0018683770728
 30
0.0
 41
6.0
 42
6.0
 50
180.0
  0
INSERT
  5
1BB
330
1B6
100
AcDbEntity
  8
LAYER_1
  6
Continuous
 62
     7
100
AcDbBlockReference
  2
_OPEN
 10
648.9022682397568
 20
191.0018683770728
 30
0.0
 41
6.0
 42
6.0
  0
INSERT
  5
1BC
330
1B6
100
AcDbEntity
  8
LAYER_1
  6
Continuous
 62
     7
100
AcDbBlockReference
  2
_OPEN
 10
583.9022682397589
 20
191.0018683770728
 30
0.0
 41
6.0
 42
6.0
 50
180.0
  0
INSERT
  5
1BD
330
1B6
100
AcDbEntity
  8
LAYER_1
  6
Continuous
 62
     7
100
AcDbBlockReference
  2
_OPEN
 10
648.9022682397568
 20
191.0018683770728
 30
0.0
 41
6.0
 42
6.0
  0
LINE
  5
1BE
330
1B6
100
AcDbEntity
  8
LAYER_1
  6
Continuous
 62
     7
100
AcDbLine
 10
583.9022682397589
 20
191.0018683770728
 30
0.0
 11
648.9022682397568
 21
191.0018683770728
 31
0.0
  0
TEXT
  5
1BF
330
1B6
100
AcDbEntity
  8
LAYER_1
 62
     7
100
AcDbText
 10
612.7766844834138
 20
194.0018683770728
 30
0.0
 40
5.4
  1
65
 41
1.033333333332999
  7
ＭＳ_ゴシック
 72
     1
 11
616.4022682397578
 21
194.0018683770728
 31
0.0
100
AcDbText
  0
ENDBLK
  5
1C0
330
1B6
100
AcDbEntity
  8
0
100
AcDbBlockEnd
  0
BLOCK
  5
1C2
330
1C1
100
AcDbEntity
  8
0
 62
     7
100
AcDbBlockBegin
  2
*D36
 70
     1
 10
0.0
 20
0.0
 30
0.0
  3
*D36
  1

  0
LINE
  5
1C3
330
1C1
100
AcDbEntity
  8
LAYER_1
  6
Continuous
 62
     7
100
AcDbLine
 10
640.902268239759
 20
129.5018683770709
 30
0.0
 11
670.9022682397568
 21
129.5018683770709
 31
0.0
  0
LINE
  5
1C4
330
1C1
100
AcDbEntity
  8
LAYER_1
  6
Continuous
 62
     7
100
AcDbLine
 10
640.902268239759
 20
156.501868377073
 30
0.0
 11
670.9022682397568
 21
156.501868377073
 31
0.0
  0
INSERT
  5
1C5
330
1C1
100
AcDbEntity
  8
LAYER_1
  6
Continuous
 62
     7
100
AcDbBlockReference
  2
_OPEN
 10
668.902268239757
 20
129.5018683770709
 30
0.0
 41
6.0
 42
6.0
 50
270.0
  0
INSERT
  5
1C6
330
1C1
100
AcDbEntity
  8
LAYER_1
  6
Continuous
 62
     7
100
AcDbBlockReference
  2
_OPEN
 10
668.902268239757
 20
156.501868377073
 30
0.0
 41
6.0
 42
6.0
 50
90.0
  0
INSERT
  5
1C7
330
1C1
100
AcDbEntity
  8
LAYER_1
  6
Continuous
 62
     7
100
AcDbBlockReference
  2
_OPEN
 10
668.902268239757
 20
129.5018683770709
 30
0.0
 41
6.0
 42
6.0
 50
270.0
  0
INSERT
  5
1C8
330
1C1
100
AcDbEntity
  8
LAYER_1
  6
Continuous
 62
     7
100
AcDbBlockReference
  2
_OPEN
 10
668.902268239757
 20
156.501868377073
 30
0.0
 41
6.0
 42
6.0
 50
90.0
  0
LINE
  5
1C9
330
1C1
100
AcDbEntity
  8
LAYER_1
  6
Continuous
 62
     7
100
AcDbLine
 10
668.902268239757
 20
129.5018683770709
 30
0.0
 11
668.902268239757
 21
156.501868377073
 31
0.0
  0
TEXT
  5
1CA
330
1C1
100
AcDbEntity
  8
LAYER_1
 62
     7
100
AcDbText
 10
665.9022682397568
 20
139.3762846207278
 30
0.0
 40
5.4
  1
27
 50
90.0
 41
1.033333333332999
  7
ＭＳ_ゴシック
 72
     1
 11
665.9022682397568
 21
143.0018683770718
 31
0.0
100
AcDbText
  0
ENDBLK
  5
1CB
330
1C1
100
AcDbEntity
  8
0
100
AcDbBlockEnd
  0
BLOCK
  5
1CD
330
1CC
100
AcDbEntity
  8
0
 62
     7
100
AcDbBlockBegin
  2
*D37
 70
     1
 10
0.0
 20
0.0
 30
0.0
  3
*D37
  1

  0
LINE
  5
1CE
330
1CC
100
AcDbEntity
  8
LAYER_1
  6
Continuous
 62
     7
100
AcDbLine
 10
650.602268239759
 20
125.001868377071
 30
0.0
 11
685.9022682397568
 21
125.001868377071
 31
0.0
  0
LINE
  5
1CF
330
1CC
100
AcDbEntity
  8
LAYER_1
  6
Continuous
 62
     7
100
AcDbLine
 10
650.602268239759
 20
161.001868377073
 30
0.0
 11
685.9022682397568
 21
161.001868377073
 31
0.0
  0
INSERT
  5
1D0
330
1CC
100
AcDbEntity
  8
LAYER_1
  6
Continuous
 62
     7
100
AcDbBlockReference
  2
_OPEN
 10
683.9022682397568
 20
125.001868377071
 30
0.0
 41
6.0
 42
6.0
 50
270.0
  0
INSERT
  5
1D1
330
1CC
100
AcDbEntity
  8
LAYER_1
  6
Continuous
 62
     7
100
AcDbBlockReference
  2
_OPEN
 10
683.9022682397568
 20
161.001868377073
 30
0.0
 41
6.0
 42
6.0
 50
90.0
  0
INSERT
  5
1D2
330
1CC
100
AcDbEntity
  8
LAYER_1
  6
Continuous
 62
     7
100
AcDbBlockReference
  2
_OPEN
 10
683.9022682397568
 20
125.001868377071
 30
0.0
 41
6.0
 42
6.0
 50
270.0
  0
INSERT
  5
1D3
330
1CC
100
AcDbEntity
  8
LAYER_1
  6
Continuous
 62
     7
100
AcDbBlockReference
  2
_OPEN
 10
683.9022682397568
 20
161.001868377073
 30
0.0
 41
6.0
 42
6.0
 50
90.0
  0
LINE
  5
1D4
330
1CC
100
AcDbEntity
  8
LAYER_1
  6
Continuous
 62
     7
100
AcDbLine
 10
683.9022682397568
 20
125.001868377071
 30
0.0
 11
683.9022682397568
 21
161.001868377073
 31
0.0
  0
TEXT
  5
1D5
330
1CC
100
AcDbEntity
  8
LAYER_1
 62
     7
100
AcDbText
 10
680.9022682397568
 20
139.3762846207278
 30
0.0
 40
5.4
  1
36
 50
90.0
 41
1.033333333332999
  7
ＭＳ_ゴシック
 72
     1
 11
680.9022682397568
 21
143.0018683770718
 31
0.0
100
AcDbText
  0
ENDBLK
  5
1D6
330
1CC
100
AcDbEntity
  8
0
100
AcDbBlockEnd
  0
BLOCK
  5
1D8
330
1D7
100
AcDbEntity
  8
0
 62
     7
100
AcDbBlockBegin
  2
*D38
 70
     1
 10
0.0
 20
0.0
 30
0.0
  3
*D38
  1

  0
LINE
  5
1D9
330
1D7
100
AcDbEntity
  8
LAYER_1
  6
Continuous
 62
     7
100
AcDbLine
 10
583.9022682397589
 20
162.701868377073
 30
0.0
 11
583.9022682397589
 21
178.0018683770729
 31
0.0
  0
LINE
  5
1DA
330
1D7
100
AcDbEntity
  8
LAYER_1
  6
Continuous
 62
     7
100
AcDbLine
 10
598.902268239759
 20
163.501868377073
 30
0.0
 11
598.902268239759
 21
178.0018683770729
 31
0.0
  0
INSERT
  5
1DB
330
1D7
100
AcDbEntity
  8
LAYER_1
  6
Continuous
 62
     7
100
AcDbBlockReference
  2
_OPEN
 10
583.9022682397589
 20
176.0018683770729
 30
0.0
 41
6.0
 42
6.0
 50
180.0
  0
INSERT
  5
1DC
330
1D7
100
AcDbEntity
  8
LAYER_1
  6
Continuous
 62
     7
100
AcDbBlockReference
  2
_OPEN
 10
598.902268239759
 20
176.0018683770729
 30
0.0
 41
6.0
 42
6.0
  0
INSERT
  5
1DD
330
1D7
100
AcDbEntity
  8
LAYER_1
  6
Continuous
 62
     7
100
AcDbBlockReference
  2
_OPEN
 10
583.9022682397589
 20
176.0018683770729
 30
0.0
 41
6.0
 42
6.0
 50
180.0
  0
INSERT
  5
1DE
330
1D7
100
AcDbEntity
  8
LAYER_1
  6
Continuous
 62
     7
100
AcDbBlockReference
  2
_OPEN
 10
598.902268239759
 20
176.0018683770729
 30
0.0
 41
6.0
 42
6.0
  0
LINE
  5
1DF
330
1D7
100
AcDbEntity
  8
LAYER_1
  6
Continuous
 62
     7
100
AcDbLine
 10
583.9022682397589
 20
176.0018683770729
 30
0.0
 11
598.902268239759
 21
176.0018683770729
 31
0.0
  0
TEXT
  5
1E0
330
1D7
100
AcDbEntity
  8
LAYER_1
 62
     7
100
AcDbText
 10
587.0270823035939
 20
179.0018683770728
 30
0.0
 40
5.4
  1
15
 41
1.033333333332999
  7
ＭＳ_ゴシック
 72
     1
 11
590.6526660599379
 21
179.0018683770728
 31
0.0
100
AcDbText
  0
ENDBLK
  5
1E1
330
1D7
100
AcDbEntity
  8
0
100
AcDbBlockEnd
  0
BLOCK
  5
1E3
330
1E2
100
AcDbEntity
  8
0
 62
     7
100
AcDbBlockBegin
  2
*D39
 70
     1
 10
0.0
 20
0.0
 30
0.0
  3
*D39
  1

  0
LINE
  5
1E4
330
1E2
100
AcDbEntity
  8
LAYER_1
  6
Continuous
 62
     7
100
AcDbLine
 10
633.9022682397589
 20
163.001868377073
 30
0.0
 11
633.9022682397589
 21
178.0018683770729
 31
0.0
  0
INSERT
  5
1E5
330
1E2
100
AcDbEntity
  8
LAYER_1
  6
Continuous
 62
     7
100
AcDbBlockReference
  2
_OPEN
 10
598.902268239759
 20
176.0018683770729
 30
0.0
 41
6.0
 42
6.0
 50
180.0
  0
INSERT
  5
1E6
330
1E2
100
AcDbEntity
  8
LAYER_1
  6
Continuous
 62
     7
100
AcDbBlockReference
  2
_OPEN
 10
633.9022682397589
 20
176.0018683770729
 30
0.0
 41
6.0
 42
6.0
 50
360.0
  0
INSERT
  5
1E7
330
1E2
100
AcDbEntity
  8
LAYER_1
  6
Continuous
 62
     7
100
AcDbBlockReference
  2
_OPEN
 10
598.902268239759
 20
176.0018683770729
 30
0.0
 41
6.0
 42
6.0
 50
180.0
  0
INSERT
  5
1E8
330
1E2
100
AcDbEntity
  8
LAYER_1
  6
Continuous
 62
     7
100
AcDbBlockReference
  2
_OPEN
 10
633.9022682397589
 20
176.0018683770729
 30
0.0
 41
6.0
 42
6.0
 50
360.0
  0
LINE
  5
1E9
330
1E2
100
AcDbEntity
  8
LAYER_1
  6
Continuous
 62
     7
100
AcDbLine
 10
598.902268239759
 20
176.0018683770729
 30
0.0
 11
633.9022682397589
 21
176.0018683770729
 31
0.0
  0
TEXT
  5
1EA
330
1E2
100
AcDbEntity
  8
LAYER_1
 62
     7
100
AcDbText
 10
612.776684483415
 20
179.0018683770728
 30
0.0
 40
5.4
  1
35
 41
1.033333333332999
  7
ＭＳ_ゴシック
 72
     1
 11
616.402268239759
 21
179.0018683770728
 31
0.0
100
AcDbText
  0
ENDBLK
  5
1EB
330
1E2
100
AcDbEntity
  8
0
100
AcDbBlockEnd
  0
BLOCK
  5
1ED
330
1EC
100
AcDbEntity
  8
0
 62
     7
100
AcDbBlockBegin
  2
*D40
 70
     1
 10
0.0
 20
0.0
 30
0.0
  3
*D40
  1

  0
LINE
  5
1EE
330
1EC
100
AcDbEntity
  8
LAYER_1
  6
Continuous
 62
     7
100
AcDbLine
 10
718.9022682397578
 20
162.701868377073
 30
0.0
 11
718.9022682397578
 21
178.0018683770729
 31
0.0
  0
LINE
  5
1EF
330
1EC
100
AcDbEntity
  8
LAYER_1
  6
Continuous
 62
     7
100
AcDbLine
 10
758.902268239758
 20
162.701868377073
 30
0.0
 11
758.902268239758
 21
178.0018683770729
 31
0.0
  0
INSERT
  5
1F0
330
1EC
100
AcDbEntity
  8
LAYER_1
  6
Continuous
 62
     7
100
AcDbBlockReference
  2
_OPEN
 10
718.9022682397578
 20
176.0018683770729
 30
0.0
 41
6.0
 42
6.0
 50
180.0
  0
INSERT
  5
1F1
330
1EC
100
AcDbEntity
  8
LAYER_1
  6
Continuous
 62
     7
100
AcDbBlockReference
  2
_OPEN
 10
758.902268239758
 20
176.0018683770729
 30
0.0
 41
6.0
 42
6.0
  0
INSERT
  5
1F2
330
1EC
100
AcDbEntity
  8
LAYER_1
  6
Continuous
 62
     7
100
AcDbBlockReference
  2
_OPEN
 10
718.9022682397578
 20
176.0018683770729
 30
0.0
 41
6.0
 42
6.0
 50
180.0
  0
INSERT
  5
1F3
330
1EC
100
AcDbEntity
  8
LAYER_1
  6
Continuous
 62
     7
100
AcDbBlockReference
  2
_OPEN
 10
758.902268239758
 20
176.0018683770729
 30
0.0
 41
6.0
 42
6.0
  0
LINE
  5
1F4
330
1EC
100
AcDbEntity
  8
LAYER_1
  6
Continuous
 62
     7
100
AcDbLine
 10
718.9022682397578
 20
176.0018683770729
 30
0.0
 11
758.902268239758
 21
176.0018683770729
 31
0.0
  0
TEXT
  5
1F5
330
1EC
100
AcDbEntity
  8
LAYER_1
 62
     7
100
AcDbText
 10
731.6511007270698
 20
179.0018683770728
 30
0.0
 40
5.4
  1
(40)
 41
1.033333333332999
  7
ＭＳ_ゴシック
 72
     1
 11
738.9022682397579
 21
179.0018683770728
 31
0.0
100
AcDbText
  0
ENDBLK
  5
1F6
330
1EC
100
AcDbEntity
  8
0
100
AcDbBlockEnd
  0
BLOCK
  5
1F8
330
1F7
100
AcDbEntity
  8
0
 62
     7
100
AcDbBlockBegin
  2
*D41
 70
     1
 10
0.0
 20
0.0
 30
0.0
  3
*D41
  1

  0
LINE
  5
1F9
330
1F7
100
AcDbEntity
  8
LAYER_1
  6
Continuous
 62
     7
100
AcDbLine
 10
735.4022682397578
 20
127.5018683770719
 30
0.0
 11
735.4022682397578
 21
108.0018683770709
 31
0.0
  0
LINE
  5
1FA
330
1F7
100
AcDbEntity
  8
LAYER_1
  6
Continuous
 62
     7
100
AcDbLine
 10
758.902268239758
 20
123.3018683770719
 30
0.0
 11
758.902268239758
 21
108.0018683770709
 31
0.0
  0
INSERT
  5
1FB
330
1F7
100
AcDbEntity
  8
LAYER_1
  6
Continuous
 62
     7
100
AcDbBlockReference
  2
_OPEN
 10
735.4022682397578
 20
110.0018683770709
 30
0.0
 41
6.0
 42
6.0
 50
180.0
  0
INSERT
  5
1FC
330
1F7
100
AcDbEntity
  8
LAYER_1
  6
Continuous
 62
     7
100
AcDbBlockReference
  2
_OPEN
 10
758.902268239758
 20
110.0018683770709
 30
0.0
 41
6.0
 42
6.0
  0
INSERT
  5
1FD
330
1F7
100
AcDbEntity
  8
LAYER_1
  6
Continuous
 62
     7
100
AcDbBlockReference
  2
_OPEN
 10
735.4022682397578
 20
110.0018683770709
 30
0.0
 41
6.0
 42
6.0
 50
180.0
  0
INSERT
  5
1FE
330
1F7
100
AcDbEntity
  8
LAYER_1
  6
Continuous
 62
     7
100
AcDbBlockReference
  2
_OPEN
 10
758.902268239758
 20
110.0018683770709
 30
0.0
 41
6.0
 42
6.0
  0
LINE
  5
1FF
330
1F7
100
AcDbEntity
  8
LAYER_1
  6
Continuous
 62
     7
100
AcDbLine
 10
735.4022682397578
 20
110.0018683770709
 30
0.0
 11
758.902268239758
 21
110.0018683770709
 31
0.0
  0
TEXT
  5
200
330
1F7
100
AcDbEntity
  8
LAYER_1
 62
     7
100
AcDbText
 10
740.473848744013
 20
113.001868377071
 30
0.0
 40
5.4
  1
23.5
 41
1.033333333332999
  7
ＭＳ_ゴシック
 72
     1
 11
747.725016256701
 21
113.001868377071
 31
0.0
100
AcDbText
  0
ENDBLK
  5
201
330
1F7
100
AcDbEntity
  8
0
100
AcDbBlockEnd
  0
BLOCK
  5
203
330
202
100
AcDbEntity
  8
0
 62
     7
100
AcDbBlockBegin
  2
*D42
 70
     1
 10
0.0
 20
0.0
 30
0.0
  3
*D42
  1

  0
LINE
  5
204
330
202
100
AcDbEntity
  8
LAYER_1
  6
Continuous
 62
     7
100
AcDbLine
 10
746.9933781552258
 20
146.107696918302
 30
0.0
 11
723.8111583242889
 21
139.896039835842
 31
0.0
  0
INSERT
  5
205
330
202
100
AcDbEntity
  8
LAYER_1
  6
Continuous
 62
     7
100
AcDbBlockReference
  2
_OPEN
 10
723.8111583242889
 20
139.896039835842
 30
0.0
 41
6.0
 42
6.0
 50
15.0
  0
INSERT
  5
206
330
202
100
AcDbEntity
  8
LAYER_1
  6
Continuous
 62
     7
100
AcDbBlockReference
  2
_NONE
 10
699.117076141105
 20
133.27928045703
 30
0.0
 41
6.0
 42
6.0
 50
195.0
  0
LINE
  5
207
330
202
100
AcDbEntity
  8
LAYER_1
  6
Continuous
 62
     7
100
AcDbLine
 10
723.8111583242889
 20
139.896039835842
 30
0.0
 11
699.117076141105
 21
133.27928045703
 31
0.0
  0
INSERT
  5
208
330
202
100
AcDbEntity
  8
LAYER_1
  6
Continuous
 62
     7
100
AcDbBlockReference
  2
_OPEN
 10
746.9933781552258
 20
146.107696918302
 30
0.0
 41
6.0
 42
6.0
 50
195.0
  0
INSERT
  5
209
330
202
100
AcDbEntity
  8
LAYER_1
  6
Continuous
 62
     7
100
AcDbBlockReference
  2
_NONE
 10
756.054760116769
 20
148.5356868972068
 30
0.0
 41
6.0
 42
6.0
 50
15.0
  0
LINE
  5
20A
330
202
100
AcDbEntity
  8
LAYER_1
  6
Continuous
 62
     7
100
AcDbLine
 10
746.9933781552258
 20
146.107696918302
 30
0.0
 11
756.054760116769
 21
148.5356868972068
 31
0.0
  0
TEXT
  5
20B
330
202
100
AcDbEntity
  8
LAYER_1
 62
     7
100
AcDbText
 10
703.7873634824157
 20
137.636508719785
 30
0.0
 40
5.4
  1
φ24
 50
15.0
 41
1.033333333332999
  7
ＭＳ_ゴシック
100
AcDbText
  0
ENDBLK
  5
20C
330
202
100
AcDbEntity
  8
0
100
AcDbBlockEnd
  0
BLOCK
  5
20E
330
20D
100
AcDbEntity
  8
0
 62
     7
100
AcDbBlockBegin
  2
*D43
 70
     1
 10
0.0
 20
0.0
 30
0.0
  3
*D43
  1

  0
LINE
  5
20F
330
20D
100
AcDbEntity
  8
LAYER_1
  6
Continuous
 62
     7
100
AcDbLine
 10
808.9022682397569
 20
162.001868377073
 30
0.0
 11
808.9022682397569
 21
178.0018683770729
 31
0.0
  0
LINE
  5
210
330
20D
100
AcDbEntity
  8
LAYER_1
  6
Continuous
 62
     7
100
AcDbLine
 10
843.9022682397569
 20
162.001868377073
 30
0.0
 11
843.9022682397569
 21
178.0018683770729
 31
0.0
  0
INSERT
  5
211
330
20D
100
AcDbEntity
  8
LAYER_1
  6
Continuous
 62
     7
100
AcDbBlockReference
  2
_OPEN
 10
808.9022682397569
 20
176.0018683770729
 30
0.0
 41
6.0
 42
6.0
 50
180.0
  0
INSERT
  5
212
330
20D
100
AcDbEntity
  8
LAYER_1
  6
Continuous
 62
     7
100
AcDbBlockReference
  2
_OPEN
 10
843.9022682397569
 20
176.0018683770729
 30
0.0
 41
6.0
 42
6.0
  0
INSERT
  5
213
330
20D
100
AcDbEntity
  8
LAYER_1
  6
Continuous
 62
     7
100
AcDbBlockReference
  2
_OPEN
 10
808.9022682397569
 20
176.0018683770729
 30
0.0
 41
6.0
 42
6.0
 50
180.0
  0
INSERT
  5
214
330
20D
100
AcDbEntity
  8
LAYER_1
  6
Continuous
 62
     7
100
AcDbBlockReference
  2
_OPEN
 10
843.9022682397569
 20
176.0018683770729
 30
0.0
 41
6.0
 42
6.0
  0
LINE
  5
215
330
20D
100
AcDbEntity
  8
LAYER_1
  6
Continuous
 62
     7
100
AcDbLine
 10
808.9022682397569
 20
176.0018683770729
 30
0.0
 11
843.9022682397569
 21
176.0018683770729
 31
0.0
  0
TEXT
  5
216
330
20D
100
AcDbEntity
  8
LAYER_1
 62
     7
100
AcDbText
 10
822.776684483413
 20
179.0018683770728
 30
0.0
 40
5.4
  1
35
 41
1.033333333332999
  7
ＭＳ_ゴシック
 72
     1
 11
826.402268239757
 21
179.0018683770728
 31
0.0
100
AcDbText
  0
ENDBLK
  5
217
330
20D
100
AcDbEntity
  8
0
100
AcDbBlockEnd
  0
BLOCK
  5
219
330
218
100
AcDbEntity
  8
0
 62
     7
100
AcDbBlockBegin
  2
*D44
 70
     1
 10
0.0
 20
0.0
 30
0.0
  3
*D44
  1

  0
LINE
  5
21A
330
218
100
AcDbEntity
  8
LAYER_1
  6
Continuous
 62
     7
100
AcDbLine
 10
858.9022682397569
 20
162.701868377073
 30
0.0
 11
858.9022682397569
 21
178.0018683770729
 31
0.0
  0
INSERT
  5
21B
330
218
100
AcDbEntity
  8
LAYER_1
  6
Continuous
 62
     7
100
AcDbBlockReference
  2
_OPEN
 10
843.9022682397569
 20
176.0018683770729
 30
0.0
 41
6.0
 42
6.0
 50
180.0
  0
INSERT
  5
21C
330
218
100
AcDbEntity
  8
LAYER_1
  6
Continuous
 62
     7
100
AcDbBlockReference
  2
_OPEN
 10
858.9022682397569
 20
176.0018683770729
 30
0.0
 41
6.0
 42
6.0
  0
INSERT
  5
21D
330
218
100
AcDbEntity
  8
LAYER_1
  6
Continuous
 62
     7
100
AcDbBlockReference
  2
_OPEN
 10
843.9022682397569
 20
176.0018683770729
 30
0.0
 41
6.0
 42
6.0
 50
180.0
  0
INSERT
  5
21E
330
218
100
AcDbEntity
  8
LAYER_1
  6
Continuous
 62
     7
100
AcDbBlockReference
  2
_OPEN
 10
858.9022682397569
 20
176.0018683770729
 30
0.0
 41
6.0
 42
6.0
  0
LINE
  5
21F
330
218
100
AcDbEntity
  8
LAYER_1
  6
Continuous
 62
     7
100
AcDbLine
 10
843.9022682397569
 20
176.0018683770729
 30
0.0
 11
858.9022682397569
 21
176.0018683770729
 31
0.0
  0
TEXT
  5
220
330
218
100
AcDbEntity
  8
LAYER_1
 62
     7
100
AcDbText
 10
847.0731001011973
 20
179.0018683770728
 30
0.0
 40
5.4
  1
15
 41
1.033333333332999
  7
ＭＳ_ゴシック
 72
     1
 11
850.6986838575413
 21
179.0018683770728
 31
0.0
100
AcDbText
  0
ENDBLK
  5
221
330
218
100
AcDbEntity
  8
0
100
AcDbBlockEnd
  0
BLOCK
  5
223
330
222
100
AcDbEntity
  8
0
 62
     7
100
AcDbBlockBegin
  2
*D45
 70
     1
 10
0.0
 20
0.0
 30
0.0
  3
*D45
  1

  0
LINE
  5
224
330
222
100
AcDbEntity
  8
LAYER_1
  6
Continuous
 62
     7
100
AcDbLine
 10
165.323635138872
 20
146.4518683770729
 30
0.0
 11
165.323635138872
 21
177.7018683770729
 31
0.0
  0
LINE
  5
225
330
222
100
AcDbEntity
  8
LAYER_1
  6
Continuous
 62
     7
100
AcDbLine
 10
265.3236351388708
 20
162.701868377073
 30
0.0
 11
265.3236351388708
 21
177.7018683770729
 31
0.0
  0
INSERT
  5
226
330
222
100
AcDbEntity
  8
LAYER_1
  6
Continuous
 62
     7
100
AcDbBlockReference
  2
_OPEN
 10
165.323635138872
 20
175.7018683770729
 30
0.0
 41
6.0
 42
6.0
 50
180.0
  0
INSERT
  5
227
330
222
100
AcDbEntity
  8
LAYER_1
  6
Continuous
 62
     7
100
AcDbBlockReference
  2
_OPEN
 10
265.3236351388708
 20
175.7018683770729
 30
0.0
 41
6.0
 42
6.0
  0
INSERT
  5
228
330
222
100
AcDbEntity
  8
LAYER_1
  6
Continuous
 62
     7
100
AcDbBlockReference
  2
_OPEN
 10
165.323635138872
 20
175.7018683770729
 30
0.0
 41
6.0
 42
6.0
 50
180.0
  0
INSERT
  5
229
330
222
100
AcDbEntity
  8
LAYER_1
  6
Continuous
 62
     7
100
AcDbBlockReference
  2
_OPEN
 10
265.3236351388708
 20
175.7018683770729
 30
0.0
 41
6.0
 42
6.0
  0
LINE
  5
22A
330
222
100
AcDbEntity
  8
LAYER_1
  6
Continuous
 62
     7
100
AcDbLine
 10
165.323635138872
 20
175.7018683770729
 30
0.0
 11
265.3236351388708
 21
175.7018683770729
 31
0.0
  0
TEXT
  5
22B
330
222
100
AcDbEntity
  8
LAYER_1
 62
     7
100
AcDbText
 10
206.2596757480108
 20
178.7018683770729
 30
0.0
 40
5.4
  1
(100)
 41
1.033333333332999
  7
ＭＳ_ゴシック
 72
     1
 11
215.3236351388708
 21
178.7018683770729
 31
0.0
100
AcDbText
  0
ENDBLK
  5
22C
330
222
100
AcDbEntity
  8
0
100
AcDbBlockEnd
  0
BLOCK
  5
22E
330
22D
100
AcDbEntity
  8
0
 62
     7
100
AcDbBlockBegin
  2
*D46
 70
     1
 10
0.0
 20
0.0
 30
0.0
  3
*D46
  1

  0
LINE
  5
22F
330
22D
100
AcDbEntity
  8
LAYER_1
  6
Continuous
 62
     7
100
AcDbLine
 10
295.323635138872
 20
161.2018683770729
 30
0.0
 11
295.323635138872
 21
177.7018683770729
 31
0.0
  0
INSERT
  5
230
330
22D
100
AcDbEntity
  8
LAYER_1
  6
Continuous
 62
     7
100
AcDbBlockReference
  2
_OPEN
 10
265.3236351388708
 20
175.7018683770729
 30
0.0
 41
6.0
 42
6.0
 50
180.0
  0
INSERT
  5
231
330
22D
100
AcDbEntity
  8
LAYER_1
  6
Continuous
 62
     7
100
AcDbBlockReference
  2
_OPEN
 10
295.323635138872
 20
175.7018683770729
 30
0.0
 41
6.0
 42
6.0
  0
INSERT
  5
232
330
22D
100
AcDbEntity
  8
LAYER_1
  6
Continuous
 62
     7
100
AcDbBlockReference
  2
_OPEN
 10
265.3236351388708
 20
175.7018683770729
 30
0.0
 41
6.0
 42
6.0
 50
180.0
  0
INSERT
  5
233
330
22D
100
AcDbEntity
  8
LAYER_1
  6
Continuous
 62
     7
100
AcDbBlockReference
  2
_OPEN
 10
295.323635138872
 20
175.7018683770729
 30
0.0
 41
6.0
 42
6.0
  0
LINE
  5
234
330
22D
100
AcDbEntity
  8
LAYER_1
  6
Continuous
 62
     7
100
AcDbLine
 10
265.3236351388708
 20
175.7018683770729
 30
0.0
 11
295.323635138872
 21
175.7018683770729
 31
0.0
  0
TEXT
  5
235
330
22D
100
AcDbEntity
  8
LAYER_1
 62
     7
100
AcDbText
 10
273.0724676261829
 20
178.7018683770729
 30
0.0
 40
5.4
  1
(30)
 41
1.033333333332999
  7
ＭＳ_ゴシック
 72
     1
 11
280.323635138871
 21
178.7018683770729
 31
0.0
100
AcDbText
  0
ENDBLK
  5
236
330
22D
100
AcDbEntity
  8
0
100
AcDbBlockEnd
  0
BLOCK
  5
238
330
237
100
AcDbEntity
  8
0
 62
     7
100
AcDbBlockBegin
  2
*D47
 70
     1
 10
0.0
 20
0.0
 30
0.0
  3
*D47
  1

  0
LINE
  5
239
330
237
100
AcDbEntity
  8
LAYER_1
  6
Continuous
 62
     7
100
AcDbLine
 10
331.8236351388708
 20
162.701868377073
 30
0.0
 11
331.8236351388708
 21
177.7018683770729
 31
0.0
  0
LINE
  5
23A
330
237
100
AcDbEntity
  8
LAYER_1
  6
Continuous
 62
     7
100
AcDbLine
 10
354.8236351388708
 20
162.701868377073
 30
0.0
 11
354.8236351388708
 21
177.7018683770729
 31
0.0
  0
INSERT
  5
23B
330
237
100
AcDbEntity
  8
LAYER_1
  6
Continuous
 62
     7
100
AcDbBlockReference
  2
_OPEN
 10
331.8236351388708
 20
175.7018683770729
 30
0.0
 41
6.0
 42
6.0
 50
180.0
  0
INSERT
  5
23C
330
237
100
AcDbEntity
  8
LAYER_1
  6
Continuous
 62
     7
100
AcDbBlockReference
  2
_OPEN
 10
354.8236351388708
 20
175.7018683770729
 30
0.0
 41
6.0
 42
6.0
  0
INSERT
  5
23D
330
237
100
AcDbEntity
  8
LAYER_1
  6
Continuous
 62
     7
100
AcDbBlockReference
  2
_OPEN
 10
331.8236351388708
 20
175.7018683770729
 30
0.0
 41
6.0
 42
6.0
 50
180.0
  0
INSERT
  5
23E
330
237
100
AcDbEntity
  8
LAYER_1
  6
Continuous
 62
     7
100
AcDbBlockReference
  2
_OPEN
 10
354.8236351388708
 20
175.7018683770729
 30
0.0
 41
6.0
 42
6.0
  0
LINE
  5
23F
330
237
100
AcDbEntity
  8
LAYER_1
  6
Continuous
 62
     7
100
AcDbLine
 10
331.8236351388708
 20
175.7018683770729
 30
0.0
 11
354.8236351388708
 21
175.7018683770729
 31
0.0
  0
TEXT
  5
240
330
237
100
AcDbEntity
  8
LAYER_1
 62
     7
100
AcDbText
 10
336.0724676261829
 20
178.7018683770729
 30
0.0
 40
5.4
  1
(23)
 41
1.033333333332999
  7
ＭＳ_ゴシック
 72
     1
 11
343.323635138871
 21
178.7018683770729
 31
0.0
100
AcDbText
  0
ENDBLK
  5
241
330
237
100
AcDbEntity
  8
0
100
AcDbBlockEnd
  0
BLOCK
  5
243
330
242
100
AcDbEntity
  8
0
 62
     7
100
AcDbBlockBegin
  2
*D48
 70
     1
 10
0.0
 20
0.0
 30
0.0
  3
*D48
  1

  0
LINE
  5
244
330
242
100
AcDbEntity
  8
LAYER_1
  6
Continuous
 62
     7
100
AcDbLine
 10
356.8236351388708
 20
118.7018683770729
 30
0.0
 11
371.823635138871
 21
118.7018683770729
 31
0.0
  0
LINE
  5
245
330
242
100
AcDbEntity
  8
LAYER_1
  6
Continuous
 62
     7
100
AcDbLine
 10
356.8236351388708
 20
160.701868377073
 30
0.0
 11
371.823635138871
 21
160.701868377073
 31
0.0
  0
INSERT
  5
246
330
242
100
AcDbEntity
  8
LAYER_1
  6
Continuous
 62
     7
100
AcDbBlockReference
  2
_OPEN
 10
369.823635138871
 20
118.7018683770729
 30
0.0
 41
6.0
 42
6.0
 50
270.0
  0
INSERT
  5
247
330
242
100
AcDbEntity
  8
LAYER_1
  6
Continuous
 62
     7
100
AcDbBlockReference
  2
_OPEN
 10
369.823635138871
 20
160.701868377073
 30
0.0
 41
6.0
 42
6.0
 50
90.0
  0
INSERT
  5
248
330
242
100
AcDbEntity
  8
LAYER_1
  6
Continuous
 62
     7
100
AcDbBlockReference
  2
_OPEN
 10
369.823635138871
 20
118.7018683770729
 30
0.0
 41
6.0
 42
6.0
 50
270.0
  0
INSERT
  5
249
330
242
100
AcDbEntity
  8
LAYER_1
  6
Continuous
 62
     7
100
AcDbBlockReference
  2
_OPEN
 10
369.823635138871
 20
160.701868377073
 30
0.0
 41
6.0
 42
6.0
 50
90.0
  0
LINE
  5
24A
330
242
100
AcDbEntity
  8
LAYER_1
  6
Continuous
 62
     7
100
AcDbLine
 10
369.823635138871
 20
118.7018683770729
 30
0.0
 11
369.823635138871
 21
160.701868377073
 31
0.0
  0
TEXT
  5
24B
330
242
100
AcDbEntity
  8
LAYER_1
 62
     7
100
AcDbText
 10
366.8236351388708
 20
132.4507008643849
 30
0.0
 40
5.4
  1
(42)
 50
90.0
 41
1.033333333332999
  7
ＭＳ_ゴシック
 72
     1
 11
366.8236351388708
 21
139.7018683770729
 31
0.0
100
AcDbText
  0
ENDBLK
  5
24C
330
242
100
AcDbEntity
  8
0
100
AcDbBlockEnd
  0
BLOCK
  5
24E
330
24D
100
AcDbEntity
  8
0
 62
     7
100
AcDbBlockBegin
  2
*D49
 70
     1
 10
0.0
 20
0.0
 30
0.0
  3
*D49
  1

  0
LINE
  5
24F
330
24D
100
AcDbEntity
  8
LAYER_1
  6
Continuous
 62
     7
100
AcDbLine
 10
433.823635138871
 20
118.7018683770729
 30
0.0
 11
448.8236351388708
 21
118.7018683770729
 31
0.0
  0
LINE
  5
250
330
24D
100
AcDbEntity
  8
LAYER_1
  6
Continuous
 62
     7
100
AcDbLine
 10
433.823635138871
 20
160.701868377073
 30
0.0
 11
448.8236351388708
 21
160.701868377073
 31
0.0
  0
INSERT
  5
251
330
24D
100
AcDbEntity
  8
LAYER_1
  6
Continuous
 62
     7
100
AcDbBlockReference
  2
_OPEN
 10
446.823635138871
 20
118.7018683770729
 30
0.0
 41
6.0
 42
6.0
 50
270.0
  0
INSERT
  5
252
330
24D
100
AcDbEntity
  8
LAYER_1
  6
Continuous
 62
     7
100
AcDbBlockReference
  2
_OPEN
 10
446.823635138871
 20
160.701868377073
 30
0.0
 41
6.0
 42
6.0
 50
90.0
  0
INSERT
  5
253
330
24D
100
AcDbEntity
  8
LAYER_1
  6
Continuous
 62
     7
100
AcDbBlockReference
  2
_OPEN
 10
446.823635138871
 20
118.7018683770729
 30
0.0
 41
6.0
 42
6.0
 50
270.0
  0
INSERT
  5
254
330
24D
100
AcDbEntity
  8
LAYER_1
  6
Continuous
 62
     7
100
AcDbBlockReference
  2
_OPEN
 10
446.823635138871
 20
160.701868377073
 30
0.0
 41
6.0
 42
6.0
 50
90.0
  0
LINE
  5
255
330
24D
100
AcDbEntity
  8
LAYER_1
  6
Continuous
 62
     7
100
AcDbLine
 10
446.823635138871
 20
118.7018683770729
 30
0.0
 11
446.823635138871
 21
160.701868377073
 31
0.0
  0
TEXT
  5
256
330
24D
100
AcDbEntity
  8
LAYER_1
 62
     7
100
AcDbText
 10
443.8236351388708
 20
132.4507008643849
 30
0.0
 40
5.4
  1
(42)
 50
90.0
 41
1.033333333332999
  7
ＭＳ_ゴシック
 72
     1
 11
443.8236351388708
 21
139.7018683770729
 31
0.0
100
AcDbText
  0
ENDBLK
  5
257
330
24D
100
AcDbEntity
  8
0
100
AcDbBlockEnd
  0
BLOCK
  5
259
330
258
100
AcDbEntity
  8
0
 62
     7
100
AcDbBlockBegin
  2
*D50
 70
     1
 10
0.0
 20
0.0
 30
0.0
  3
*D50
  1

  0
LINE
  5
25A
330
258
100
AcDbEntity
  8
LAYER_1
  6
Continuous
 62
     7
100
AcDbLine
 10
510.8236351388708
 20
118.7018683770729
 30
0.0
 11
525.823635138871
 21
118.7018683770729
 31
0.0
  0
LINE
  5
25B
330
258
100
AcDbEntity
  8
LAYER_1
  6
Continuous
 62
     7
100
AcDbLine
 10
510.8236351388708
 20
160.701868377073
 30
0.0
 11
525.823635138871
 21
160.701868377073
 31
0.0
  0
INSERT
  5
25C
330
258
100
AcDbEntity
  8
LAYER_1
  6
Continuous
 62
     7
100
AcDbBlockReference
  2
_OPEN
 10
523.823635138871
 20
118.7018683770729
 30
0.0
 41
6.0
 42
6.0
 50
270.0
  0
INSERT
  5
25D
330
258
100
AcDbEntity
  8
LAYER_1
  6
Continuous
 62
     7
100
AcDbBlockReference
  2
_OPEN
 10
523.823635138871
 20
160.701868377073
 30
0.0
 41
6.0
 42
6.0
 50
90.0
  0
INSERT
  5
25E
330
258
100
AcDbEntity
  8
LAYER_1
  6
Continuous
 62
     7
100
AcDbBlockReference
  2
_OPEN
 10
523.823635138871
 20
118.7018683770729
 30
0.0
 41
6.0
 42
6.0
 50
270.0
  0
INSERT
  5
25F
330
258
100
AcDbEntity
  8
LAYER_1
  6
Continuous
 62
     7
100
AcDbBlockReference
  2
_OPEN
 10
523.823635138871
 20
160.701868377073
 30
0.0
 41
6.0
 42
6.0
 50
90.0
  0
LINE
  5
260
330
258
100
AcDbEntity
  8
LAYER_1
  6
Continuous
 62
     7
100
AcDbLine
 10
523.823635138871
 20
118.7018683770729
 30
0.0
 11
523.823635138871
 21
160.701868377073
 31
0.0
  0
TEXT
  5
261
330
258
100
AcDbEntity
  8
LAYER_1
 62
     7
100
AcDbText
 10
520.823635138871
 20
132.4507008643849
 30
0.0
 40
5.4
  1
(42)
 50
90.0
 41
1.033333333332999
  7
ＭＳ_ゴシック
 72
     1
 11
520.823635138871
 21
139.7018683770729
 31
0.0
100
AcDbText
  0
ENDBLK
  5
262
330
258
100
AcDbEntity
  8
0
100
AcDbBlockEnd
  0
BLOCK
  5
264
330
263
100
AcDbEntity
  8
0
 62
     7
100
AcDbBlockBegin
  2
*D51
 70
     1
 10
0.0
 20
0.0
 30
0.0
  3
*D51
  1

  0
LINE
  5
265
330
263
100
AcDbEntity
  8
LAYER_1
  6
Continuous
 62
     7
100
AcDbLine
 10
389.8236351388708
 20
162.701868377073
 30
0.0
 11
389.8236351388708
 21
177.7018683770729
 31
0.0
  0
LINE
  5
266
330
263
100
AcDbEntity
  8
LAYER_1
  6
Continuous
 62
     7
100
AcDbLine
 10
431.8236351388708
 20
162.701868377073
 30
0.0
 11
431.8236351388708
 21
177.7018683770729
 31
0.0
  0
INSERT
  5
267
330
263
100
AcDbEntity
  8
LAYER_1
  6
Continuous
 62
     7
100
AcDbBlockReference
  2
_OPEN
 10
389.8236351388708
 20
175.7018683770729
 30
0.0
 41
6.0
 42
6.0
 50
180.0
  0
INSERT
  5
268
330
263
100
AcDbEntity
  8
LAYER_1
  6
Continuous
 62
     7
100
AcDbBlockReference
  2
_OPEN
 10
431.8236351388708
 20
175.7018683770729
 30
0.0
 41
6.0
 42
6.0
  0
INSERT
  5
269
330
263
100
AcDbEntity
  8
LAYER_1
  6
Continuous
 62
     7
100
AcDbBlockReference
  2
_OPEN
 10
389.8236351388708
 20
175.7018683770729
 30
0.0
 41
6.0
 42
6.0
 50
180.0
  0
INSERT
  5
26A
330
263
100
AcDbEntity
  8
LAYER_1
  6
Continuous
 62
     7
100
AcDbBlockReference
  2
_OPEN
 10
431.8236351388708
 20
175.7018683770729
 30
0.0
 41
6.0
 42
6.0
  0
LINE
  5
26B
330
263
100
AcDbEntity
  8
LAYER_1
  6
Continuous
 62
     7
100
AcDbLine
 10
389.8236351388708
 20
175.7018683770729
 30
0.0
 11
431.8236351388708
 21
175.7018683770729
 31
0.0
  0
TEXT
  5
26C
330
263
100
AcDbEntity
  8
LAYER_1
 62
     7
100
AcDbText
 10
403.5724676261827
 20
178.7018683770729
 30
0.0
 40
5.4
  1
(42)
 41
1.033333333332999
  7
ＭＳ_ゴシック
 72
     1
 11
410.8236351388708
 21
178.7018683770729
 31
0.0
100
AcDbText
  0
ENDBLK
  5
26D
330
263
100
AcDbEntity
  8
0
100
AcDbBlockEnd
  0
BLOCK
  5
26F
330
26E
100
AcDbEntity
  8
0
 62
     7
100
AcDbBlockBegin
  2
*D52
 70
     1
 10
0.0
 20
0.0
 30
0.0
  3
*D52
  1

  0
LINE
  5
270
330
26E
100
AcDbEntity
  8
LAYER_1
  6
Continuous
 62
     7
100
AcDbLine
 10
466.823635138871
 20
162.701868377073
 30
0.0
 11
466.823635138871
 21
177.7018683770729
 31
0.0
  0
LINE
  5
271
330
26E
100
AcDbEntity
  8
LAYER_1
  6
Continuous
 62
     7
100
AcDbLine
 10
508.823635138871
 20
162.701868377073
 30
0.0
 11
508.823635138871
 21
177.7018683770729
 31
0.0
  0
INSERT
  5
272
330
26E
100
AcDbEntity
  8
LAYER_1
  6
Continuous
 62
     7
100
AcDbBlockReference
  2
_OPEN
 10
466.823635138871
 20
175.7018683770729
 30
0.0
 41
6.0
 42
6.0
 50
180.0
  0
INSERT
  5
273
330
26E
100
AcDbEntity
  8
LAYER_1
  6
Continuous
 62
     7
100
AcDbBlockReference
  2
_OPEN
 10
508.823635138871
 20
175.7018683770729
 30
0.0
 41
6.0
 42
6.0
  0
INSERT
  5
274
330
26E
100
AcDbEntity
  8
LAYER_1
  6
Continuous
 62
     7
100
AcDbBlockReference
  2
_OPEN
 10
466.823635138871
 20
175.7018683770729
 30
0.0
 41
6.0
 42
6.0
 50
180.0
  0
INSERT
  5
275
330
26E
100
AcDbEntity
  8
LAYER_1
  6
Continuous
 62
     7
100
AcDbBlockReference
  2
_OPEN
 10
508.823635138871
 20
175.7018683770729
 30
0.0
 41
6.0
 42
6.0
  0
LINE
  5
276
330
26E
100
AcDbEntity
  8
LAYER_1
  6
Continuous
 62
     7
100
AcDbLine
 10
466.823635138871
 20
175.7018683770729
 30
0.0
 11
508.823635138871
 21
175.7018683770729
 31
0.0
  0
TEXT
  5
277
330
26E
100
AcDbEntity
  8
LAYER_1
 62
     7
100
AcDbText
 10
480.572467626183
 20
178.7018683770729
 30
0.0
 40
5.4
  1
(42)
 41
1.033333333332999
  7
ＭＳ_ゴシック
 72
     1
 11
487.823635138871
 21
178.7018683770729
 31
0.0
100
AcDbText
  0
ENDBLK
  5
278
330
26E
100
AcDbEntity
  8
0
100
AcDbBlockEnd
  0
BLOCK
  5
27A
330
279
100
AcDbEntity
  8
0
 62
     7
100
AcDbBlockBegin
  2
*D53
 70
     1
 10
0.0
 20
0.0
 30
0.0
  3
*D53
  1

  0
LINE
  5
27B
330
279
100
AcDbEntity
  8
LAYER_1
  6
Continuous
 62
     7
100
AcDbLine
 10
163.10349201411
 20
132.351868377073
 30
0.0
 11
137.791074380165
 21
132.351868377073
 31
0.0
  0
LINE
  5
27C
330
279
100
AcDbEntity
  8
LAYER_1
  6
Continuous
 62
     7
100
AcDbLine
 10
163.10349201411
 20
147.051868377073
 30
0.0
 11
137.791074380165
 21
147.051868377073
 31
0.0
  0
LINE
  5
27D
330
279
100
AcDbEntity
  8
LAYER_1
  6
Continuous
 62
     7
100
AcDbLine
 10
139.791074380165
 20
132.351868377073
 30
0.0
 11
139.791074380165
 21
147.051868377073
 31
0.0
  0
INSERT
  5
27E
330
279
100
AcDbEntity
  8
LAYER_1
  6
Continuous
 62
     7
100
AcDbBlockReference
  2
_OPEN
 10
139.791074380165
 20
132.351868377073
 30
0.0
 41
6.0
 42
6.0
 50
90.0
  0
INSERT
  5
27F
330
279
100
AcDbEntity
  8
LAYER_1
  6
Continuous
 62
     7
100
AcDbBlockReference
  2
_NONE
 10
139.791074380165
 20
97.314812784211
 30
0.0
 41
6.0
 42
6.0
 50
270.0
  0
LINE
  5
280
330
279
100
AcDbEntity
  8
LAYER_1
  6
Continuous
 62
     7
100
AcDbLine
 10
139.791074380165
 20
132.351868377073
 30
0.0
 11
139.791074380165
 21
97.314812784211
 31
0.0
  0
INSERT
  5
281
330
279
100
AcDbEntity
  8
LAYER_1
  6
Continuous
 62
     7
100
AcDbBlockReference
  2
_OPEN
 10
139.791074380165
 20
147.051868377073
 30
0.0
 41
6.0
 42
6.0
 50
270.0
  0
INSERT
  5
282
330
279
100
AcDbEntity
  8
LAYER_1
  6
Continuous
 62
     7
100
AcDbBlockReference
  2
_NONE
 10
139.791074380165
 20
159.0518683770729
 30
0.0
 41
6.0
 42
6.0
 50
90.0
  0
LINE
  5
283
330
279
100
AcDbEntity
  8
LAYER_1
  6
Continuous
 62
     7
100
AcDbLine
 10
139.791074380165
 20
147.051868377073
 30
0.0
 11
139.791074380165
 21
159.0518683770729
 31
0.0
  0
TEXT
  5
284
330
279
100
AcDbEntity
  8
LAYER_1
 62
     7
100
AcDbText
 10
136.791074380165
 20
97.314812784211
 30
0.0
 40
5.4
  1
(φ14.7)
 50
90.0
 41
1.033333333332999
  7
ＭＳ_ゴシック
100
AcDbText
  0
ENDBLK
  5
285
330
279
100
AcDbEntity
  8
0
100
AcDbBlockEnd
  0
BLOCK
  5
287
330
286
100
AcDbEntity
  8
0
100
AcDbBlockBegin
  2
HATCHING__PATTERN_$40$
 70
     0
 10
0.0
 20
0.0
 30
0.0
  3
HATCHING__PATTERN_$40$
  1

  0
LINE
  5
288
330
286
100
AcDbEntity
  8
LAYER_1
  6
Continuous
 62
     7
100
AcDbLine
 10
474.64321728452
 20
129.482824277329
 30
0.0
 11
476.2549294501139
 21
129.482824277329
 31
0.0
  0
LINE
  5
289
330
286
100
AcDbEntity
  8
LAYER_1
  6
Continuous
 62
     7
100
AcDbLine
 10
476.2549294501139
 20
133.3296402314928
 30
0.0
 11
476.2549294501139
 21
130.2018683770729
 31
0.0
  0
LINE
  5
28A
330
286
100
AcDbEntity
  8
LAYER_1
  6
Continuous
 62
     7
100
AcDbLine
 10
476.2549294501139
 20
130.2018683770729
 30
0.0
 11
476.2549294501139
 21
127.074096522652
 31
0.0
  0
LINE
  5
28B
330
286
100
AcDbEntity
  8
LAYER_1
  6
Continuous
 62
     7
100
AcDbLine
 10
481.0174294501138
 20
129.482824277329
 30
0.0
 11
482.004052993222
 21
129.482824277329
 31
0.0
  0
LINE
  5
28C
330
286
100
AcDbEntity
  8
LAYER_1
  6
Continuous
 62
     7
100
AcDbLine
 10
481.0174294501138
 20
132.8106942065818
 30
0.0
 11
481.0174294501138
 21
130.2018683770729
 31
0.0
  0
LINE
  5
28D
330
286
100
AcDbEntity
  8
LAYER_1
  6
Continuous
 62
     7
100
AcDbLine
 10
481.0174294501138
 20
130.2018683770729
 30
0.0
 11
481.0174294501138
 21
127.593042547564
 31
0.0
  0
ENDBLK
  5
28E
330
286
100
AcDbEntity
  8
0
100
AcDbBlockEnd
  0
BLOCK
  5
290
330
28F
100
AcDbEntity
  8
0
100
AcDbBlockBegin
  2
HATCHING__PATTERN_$41$
 70
     0
 10
0.0
 20
0.0
 30
0.0
  3
HATCHING__PATTERN_$41$
  1

  0
LINE
  5
291
330
28F
100
AcDbEntity
  8
LAYER_1
  6
Continuous
 62
     7
100
AcDbLine
 10
474.6338004552298
 20
148.532824277329
 30
0.0
 11
476.2549294501139
 21
148.532824277329
 31
0.0
  0
LINE
  5
292
330
28F
100
AcDbEntity
  8
LAYER_1
  6
Continuous
 62
     7
100
AcDbLine
 10
476.2549294501139
 20
152.329640231493
 30
0.0
 11
476.2549294501139
 21
149.201868377073
 31
0.0
  0
LINE
  5
293
330
28F
100
AcDbEntity
  8
LAYER_1
  6
Continuous
 62
     7
100
AcDbLine
 10
476.2549294501139
 20
149.201868377073
 30
0.0
 11
476.2549294501139
 21
146.0740965226519
 31
0.0
  0
LINE
  5
294
330
28F
100
AcDbEntity
  8
LAYER_1
  6
Continuous
 62
     7
100
AcDbLine
 10
481.0174294501138
 20
148.532824277329
 30
0.0
 11
482.0134698225118
 21
148.532824277329
 31
0.0
  0
LINE
  5
295
330
28F
100
AcDbEntity
  8
LAYER_1
  6
Continuous
 62
     7
100
AcDbLine
 10
481.0174294501138
 20
151.8106942065819
 30
0.0
 11
481.0174294501138
 21
149.201868377073
 31
0.0
  0
LINE
  5
296
330
28F
100
AcDbEntity
  8
LAYER_1
  6
Continuous
 62
     7
100
AcDbLine
 10
481.0174294501138
 20
149.201868377073
 30
0.0
 11
481.0174294501138
 21
146.5930425475639
 31
0.0
  0
ENDBLK
  5
297
330
28F
100
AcDbEntity
  8
0
100
AcDbBlockEnd
  0
BLOCK
  5
299
330
298
100
AcDbEntity
  8
0
100
AcDbBlockBegin
  2
HATCHING__PATTERN_$42$
 70
     0
 10
0.0
 20
0.0
 30
0.0
  3
HATCHING__PATTERN_$42$
  1

  0
LINE
  5
29A
330
298
100
AcDbEntity
  8
LAYER_1
  6
Continuous
 62
     7
100
AcDbLine
 10
493.64321728452
 20
129.482824277329
 30
0.0
 11
495.3049294501139
 21
129.482824277329
 31
0.0
  0
LINE
  5
29B
330
298
100
AcDbEntity
  8
LAYER_1
  6
Continuous
 62
     7
100
AcDbLine
 10
495.3049294501139
 20
133.3621416788909
 30
0.0
 11
495.3049294501139
 21
130.2018683770729
 31
0.0
  0
LINE
  5
29C
330
298
100
AcDbEntity
  8
LAYER_1
  6
Continuous
 62
     7
100
AcDbLine
 10
495.3049294501139
 20
130.2018683770729
 30
0.0
 11
495.3049294501139
 21
127.0415950752548
 31
0.0
  0
LINE
  5
29D
330
298
100
AcDbEntity
  8
LAYER_1
  6
Continuous
 62
     7
100
AcDbLine
 10
500.0674294501139
 20
129.482824277329
 30
0.0
 11
501.004052993221
 21
129.482824277329
 31
0.0
  0
LINE
  5
29E
330
298
100
AcDbEntity
  8
LAYER_1
  6
Continuous
 62
     7
100
AcDbLine
 10
500.0674294501139
 20
132.758055533285
 30
0.0
 11
500.0674294501139
 21
130.2018683770729
 31
0.0
  0
LINE
  5
29F
330
298
100
AcDbEntity
  8
LAYER_1
  6
Continuous
 62
     7
100
AcDbLine
 10
500.0674294501139
 20
130.2018683770729
 30
0.0
 11
500.0674294501139
 21
127.6456812208599
 31
0.0
  0
ENDBLK
  5
2A0
330
298
100
AcDbEntity
  8
0
100
AcDbBlockEnd
  0
BLOCK
  5
2A2
330
2A1
100
AcDbEntity
  8
0
100
AcDbBlockBegin
  2
HATCHING__PATTERN_$43$
 70
     0
 10
0.0
 20
0.0
 30
0.0
  3
HATCHING__PATTERN_$43$
  1

  0
LINE
  5
2A3
330
2A1
100
AcDbEntity
  8
LAYER_1
  6
Continuous
 62
     7
100
AcDbLine
 10
493.6338004552298
 20
148.532824277329
 30
0.0
 11
495.3049294501139
 21
148.532824277329
 31
0.0
  0
LINE
  5
2A4
330
2A1
100
AcDbEntity
  8
LAYER_1
  6
Continuous
 62
     7
100
AcDbLine
 10
495.3049294501139
 20
152.3621416788899
 30
0.0
 11
495.3049294501139
 21
149.201868377073
 31
0.0
  0
LINE
  5
2A5
330
2A1
100
AcDbEntity
  8
LAYER_1
  6
Continuous
 62
     7
100
AcDbLine
 10
495.3049294501139
 20
149.201868377073
 30
0.0
 11
495.3049294501139
 21
146.0415950752548
 31
0.0
  0
LINE
  5
2A6
330
2A1
100
AcDbEntity
  8
LAYER_1
  6
Continuous
 62
     7
100
AcDbLine
 10
500.0674294501139
 20
148.532824277329
 30
0.0
 11
501.013469822512
 21
148.532824277329
 31
0.0
  0
LINE
  5
2A7
330
2A1
100
AcDbEntity
  8
LAYER_1
  6
Continuous
 62
     7
100
AcDbLine
 10
500.0674294501139
 20
151.758055533286
 30
0.0
 11
500.0674294501139
 21
149.201868377073
 31
0.0
  0
LINE
  5
2A8
330
2A1
100
AcDbEntity
  8
LAYER_1
  6
Continuous
 62
     7
100
AcDbLine
 10
500.0674294501139
 20
149.201868377073
 30
0.0
 11
500.0674294501139
 21
146.64568122086
 31
0.0
  0
ENDBLK
  5
2A9
330
2A1
100
AcDbEntity
  8
0
100
AcDbBlockEnd
  0
BLOCK
  5
2AB
330
2AA
100
AcDbEntity
  8
0
100
AcDbBlockBegin
  2
HATCHING__PATTERN_$44$
 70
     0
 10
0.0
 20
0.0
 30
0.0
  3
HATCHING__PATTERN_$44$
  1

  0
LINE
  5
2AC
330
2AA
100
AcDbEntity
  8
LAYER_1
  6
Continuous
 62
     7
100
AcDbLine
 10
179.2366819662319
 20
147.051868377073
 30
0.0
 11
179.2366819662319
 21
144.571830931578
 31
0.0
  0
LINE
  5
2AD
330
2AA
100
AcDbEntity
  8
LAYER_1
  6
Continuous
 62
     7
100
AcDbLine
 10
175.045681966232
 20
147.051868377073
 30
0.0
 11
175.045681966232
 21
144.571830931578
 31
0.0
  0
LINE
  5
2AE
330
2AA
100
AcDbEntity
  8
LAYER_1
  6
Continuous
 62
     7
100
AcDbLine
 10
170.8546819662319
 20
147.051868377073
 30
0.0
 11
170.8546819662319
 21
144.571830931578
 31
0.0
  0
LINE
  5
2AF
330
2AA
100
AcDbEntity
  8
LAYER_1
  6
Continuous
 62
     7
100
AcDbLine
 10
181.0921420481478
 20
143.428830931578
 30
0.0
 11
180.379681966232
 21
143.428830931578
 31
0.0
  0
LINE
  5
2B0
330
2AA
100
AcDbEntity
  8
LAYER_1
  6
Continuous
 62
     7
100
AcDbLine
 10
179.2366819662319
 20
143.428830931578
 30
0.0
 11
179.2366819662319
 21
140.380830931578
 31
0.0
  0
LINE
  5
2B1
330
2AA
100
AcDbEntity
  8
LAYER_1
  6
Continuous
 62
     7
100
AcDbLine
 10
179.2366819662319
 20
143.428830931578
 30
0.0
 11
177.269233288082
 21
143.428830931578
 31
0.0
  0
LINE
  5
2B2
330
2AA
100
AcDbEntity
  8
LAYER_1
  6
Continuous
 62
     7
100
AcDbLine
 10
175.045681966232
 20
143.428830931578
 30
0.0
 11
175.045681966232
 21
140.380830931578
 31
0.0
  0
LINE
  5
2B3
330
2AA
100
AcDbEntity
  8
LAYER_1
  6
Continuous
 62
     7
100
AcDbLine
 10
175.045681966232
 20
143.428830931578
 30
0.0
 11
171.997681966232
 21
143.428830931578
 31
0.0
  0
LINE
  5
2B4
330
2AA
100
AcDbEntity
  8
LAYER_1
  6
Continuous
 62
     7
100
AcDbLine
 10
170.8546819662319
 20
143.428830931578
 30
0.0
 11
170.8546819662319
 21
140.380830931578
 31
0.0
  0
LINE
  5
2B5
330
2AA
100
AcDbEntity
  8
LAYER_1
  6
Continuous
 62
     7
100
AcDbLine
 10
170.8546819662319
 20
143.428830931578
 30
0.0
 11
170.636052772816
 21
143.428830931578
 31
0.0
  0
LINE
  5
2B6
330
2AA
100
AcDbEntity
  8
LAYER_1
  6
Continuous
 62
     7
100
AcDbLine
 10
181.0921420481478
 20
139.2378309315779
 30
0.0
 11
180.379681966232
 21
139.2378309315779
 31
0.0
  0
LINE
  5
2B7
330
2AA
100
AcDbEntity
  8
LAYER_1
  6
Continuous
 62
     7
100
AcDbLine
 10
179.2366819662319
 20
139.2378309315779
 30
0.0
 11
179.2366819662319
 21
136.1898309315779
 31
0.0
  0
LINE
  5
2B8
330
2AA
100
AcDbEntity
  8
LAYER_1
  6
Continuous
 62
     7
100
AcDbLine
 10
179.2366819662319
 20
139.2378309315779
 30
0.0
 11
177.269233288082
 21
139.2378309315779
 31
0.0
  0
LINE
  5
2B9
330
2AA
100
AcDbEntity
  8
LAYER_1
  6
Continuous
 62
     7
100
AcDbLine
 10
175.045681966232
 20
139.2378309315779
 30
0.0
 11
175.045681966232
 21
136.1898309315779
 31
0.0
  0
LINE
  5
2BA
330
2AA
100
AcDbEntity
  8
LAYER_1
  6
Continuous
 62
     7
100
AcDbLine
 10
175.045681966232
 20
139.2378309315779
 30
0.0
 11
171.997681966232
 21
139.2378309315779
 31
0.0
  0
LINE
  5
2BB
330
2AA
100
AcDbEntity
  8
LAYER_1
  6
Continuous
 62
     7
100
AcDbLine
 10
170.8546819662319
 20
139.2378309315779
 30
0.0
 11
170.8546819662319
 21
136.1898309315779
 31
0.0
  0
LINE
  5
2BC
330
2AA
100
AcDbEntity
  8
LAYER_1
  6
Continuous
 62
     7
100
AcDbLine
 10
170.8546819662319
 20
139.2378309315779
 30
0.0
 11
170.636052772816
 21
139.2378309315779
 31
0.0
  0
LINE
  5
2BD
330
2AA
100
AcDbEntity
  8
LAYER_1
  6
Continuous
 62
     7
100
AcDbLine
 10
181.0921420481478
 20
135.046830931578
 30
0.0
 11
180.379681966232
 21
135.046830931578
 31
0.0
  0
LINE
  5
2BE
330
2AA
100
AcDbEntity
  8
LAYER_1
  6
Continuous
 62
     7
100
AcDbLine
 10
179.2366819662319
 20
135.046830931578
 30
0.0
 11
179.2366819662319
 21
132.351868377073
 31
0.0
  0
LINE
  5
2BF
330
2AA
100
AcDbEntity
  8
LAYER_1
  6
Continuous
 62
     7
100
AcDbLine
 10
179.2366819662319
 20
135.046830931578
 30
0.0
 11
177.269233288082
 21
135.046830931578
 31
0.0
  0
LINE
  5
2C0
330
2AA
100
AcDbEntity
  8
LAYER_1
  6
Continuous
 62
     7
100
AcDbLine
 10
175.045681966232
 20
135.046830931578
 30
0.0
 11
175.045681966232
 21
132.351868377073
 31
0.0
  0
LINE
  5
2C1
330
2AA
100
AcDbEntity
  8
LAYER_1
  6
Continuous
 62
     7
100
AcDbLine
 10
175.045681966232
 20
135.046830931578
 30
0.0
 11
171.997681966232
 21
135.046830931578
 31
0.0
  0
LINE
  5
2C2
330
2AA
100
AcDbEntity
  8
LAYER_1
  6
Continuous
 62
     7
100
AcDbLine
 10
170.8546819662319
 20
135.046830931578
 30
0.0
 11
170.8546819662319
 21
132.351868377073
 31
0.0
  0
LINE
  5
2C3
330
2AA
100
AcDbEntity
  8
LAYER_1
  6
Continuous
 62
     7
100
AcDbLine
 10
170.8546819662319
 20
135.046830931578
 30
0.0
 11
170.636052772816
 21
135.046830931578
 31
0.0
  0
ENDBLK
  5
2C4
330
2AA
100
AcDbEntity
  8
0
100
AcDbBlockEnd
  0
BLOCK
  5
2C6
330
2C5
100
AcDbEntity
  8
0
100
AcDbBlockBegin
  2
HATCHING__PATTERN_$45$
 70
     0
 10
0.0
 20
0.0
 30
0.0
  3
HATCHING__PATTERN_$45$
  1

  0
LINE
  5
2C7
330
2C5
100
AcDbEntity
  8
LAYER_1
  6
Continuous
 62
     7
100
AcDbLine
 10
342.544028612154
 20
152.8699351244888
 30
0.0
 11
342.544028612154
 21
151.0488309315759
 31
0.0
  0
LINE
  5
2C8
330
2C5
100
AcDbEntity
  8
LAYER_1
  6
Continuous
 62
     7
100
AcDbLine
 10
346.5872572558239
 20
151.0488309315759
 30
0.0
 11
343.323635138871
 21
151.0488309315759
 31
0.0
  0
LINE
  5
2C9
330
2C5
100
AcDbEntity
  8
LAYER_1
  6
Continuous
 62
     7
100
AcDbLine
 10
343.323635138871
 20
151.0488309315759
 30
0.0
 11
340.060013021918
 21
151.0488309315759
 31
0.0
  0
LINE
  5
2CA
330
2C5
100
AcDbEntity
  8
LAYER_1
  6
Continuous
 62
     7
100
AcDbLine
 10
342.544028612154
 20
146.286330931576
 30
0.0
 11
342.544028612154
 21
145.533801629657
 31
0.0
  0
LINE
  5
2CB
330
2C5
100
AcDbEntity
  8
LAYER_1
  6
Continuous
 62
     7
100
AcDbLine
 10
345.68205439844
 20
146.286330931576
 30
0.0
 11
343.323635138871
 21
146.286330931576
 31
0.0
  0
LINE
  5
2CC
330
2C5
100
AcDbEntity
  8
LAYER_1
  6
Continuous
 62
     7
100
AcDbLine
 10
343.323635138871
 20
146.286330931576
 30
0.0
 11
340.9652158793018
 21
146.286330931576
 31
0.0
  0
ENDBLK
  5
2CD
330
2C5
100
AcDbEntity
  8
0
100
AcDbBlockEnd
  0
BLOCK
  5
2CF
330
2CE
100
AcDbEntity
  8
0
100
AcDbBlockBegin
  2
HATCHING__PATTERN_$46$
 70
     0
 10
0.0
 20
0.0
 30
0.0
  3
HATCHING__PATTERN_$46$
  1

  0
LINE
  5
2D0
330
2CE
100
AcDbEntity
  8
LAYER_1
  6
Continuous
 62
     7
100
AcDbLine
 10
342.544028612154
 20
133.8699351244889
 30
0.0
 11
342.544028612154
 21
131.998830931576
 31
0.0
  0
LINE
  5
2D1
330
2CE
100
AcDbEntity
  8
LAYER_1
  6
Continuous
 62
     7
100
AcDbLine
 10
346.6150520947898
 20
131.998830931576
 30
0.0
 11
343.323635138871
 21
131.998830931576
 31
0.0
  0
LINE
  5
2D2
330
2CE
100
AcDbEntity
  8
LAYER_1
  6
Continuous
 62
     7
100
AcDbLine
 10
343.323635138871
 20
131.998830931576
 30
0.0
 11
340.032218182952
 21
131.998830931576
 31
0.0
  0
LINE
  5
2D3
330
2CE
100
AcDbEntity
  8
LAYER_1
  6
Continuous
 62
     7
100
AcDbLine
 10
342.544028612154
 20
127.236330931576
 30
0.0
 11
342.544028612154
 21
126.533801629657
 31
0.0
  0
LINE
  5
2D4
330
2CE
100
AcDbEntity
  8
LAYER_1
  6
Continuous
 62
     7
100
AcDbLine
 10
345.6188666433948
 20
127.236330931576
 30
0.0
 11
343.323635138871
 21
127.236330931576
 31
0.0
  0
LINE
  5
2D5
330
2CE
100
AcDbEntity
  8
LAYER_1
  6
Continuous
 62
     7
100
AcDbLine
 10
343.323635138871
 20
127.236330931576
 30
0.0
 11
341.0284036343468
 21
127.236330931576
 31
0.0
  0
ENDBLK
  5
2D6
330
2CE
100
AcDbEntity
  8
0
100
AcDbBlockEnd
  0
BLOCK
  5
2D8
330
2D7
100
AcDbEntity
  8
0
100
AcDbBlockBegin
  2
HATCHING__PATTERN_$47$
 70
     0
 10
0.0
 20
0.0
 30
0.0
  3
HATCHING__PATTERN_$47$
  1

  0
LINE
  5
2D9
330
2D7
100
AcDbEntity
  8
LAYER_1
  6
Continuous
 62
     7
100
AcDbLine
 10
401.318400192106
 20
135.501864723115
 30
0.0
 11
401.318400192106
 21
131.751868377073
 31
0.0
  0
LINE
  5
2DA
330
2D7
100
AcDbEntity
  8
LAYER_1
  6
Continuous
 62
     7
100
AcDbLine
 10
401.318400192106
 20
131.751868377073
 30
0.0
 11
401.318400192106
 21
128.00187203103
 31
0.0
  0
LINE
  5
2DB
330
2D7
100
AcDbEntity
  8
LAYER_1
  6
Continuous
 62
     7
100
AcDbLine
 10
401.3184001921048
 20
132.5272481492939
 30
0.0
 11
401.323635138871
 21
132.5272481492939
 31
0.0
  0
LINE
  5
2DC
330
2D7
100
AcDbEntity
  8
LAYER_1
  6
Continuous
 62
     7
100
AcDbLine
 10
401.323635138871
 20
132.5272481492939
 30
0.0
 11
404.992597690987
 21
132.5272481492939
 31
0.0
  0
ENDBLK
  5
2DD
330
2D7
100
AcDbEntity
  8
0
100
AcDbBlockEnd
  0
BLOCK
  5
2DF
330
2DE
100
AcDbEntity
  8
0
100
AcDbBlockBegin
  2
HATCHING__PATTERN_$48$
 70
     0
 10
0.0
 20
0.0
 30
0.0
  3
HATCHING__PATTERN_$48$
  1

  0
LINE
  5
2E0
330
2DE
100
AcDbEntity
  8
LAYER_1
  6
Continuous
 62
     7
100
AcDbLine
 10
420.3684001921049
 20
135.501601179555
 30
0.0
 11
420.3684001921049
 21
131.751868377073
 31
0.0
  0
LINE
  5
2E1
330
2DE
100
AcDbEntity
  8
LAYER_1
  6
Continuous
 62
     7
100
AcDbLine
 10
420.3684001921049
 20
131.751868377073
 30
0.0
 11
420.3684001921049
 21
128.0021355745909
 31
0.0
  0
LINE
  5
2E2
330
2DE
100
AcDbEntity
  8
LAYER_1
  6
Continuous
 62
     7
100
AcDbLine
 10
420.3684001921049
 20
132.5272481492939
 30
0.0
 11
423.9925976909868
 21
132.5272481492939
 31
0.0
  0
ENDBLK
  5
2E3
330
2DE
100
AcDbEntity
  8
0
100
AcDbBlockEnd
  0
BLOCK
  5
2E5
330
2E4
100
AcDbEntity
  8
0
100
AcDbBlockBegin
  2
HATCHING__PATTERN_$49$
 70
     0
 10
0.0
 20
0.0
 30
0.0
  3
HATCHING__PATTERN_$49$
  1

  0
LINE
  5
2E6
330
2E4
100
AcDbEntity
  8
LAYER_1
  6
Continuous
 62
     7
100
AcDbLine
 10
410.843400192105
 20
151.956298960972
 30
0.0
 11
410.843400192105
 21
148.206351048978
 31
0.0
  0
LINE
  5
2E7
330
2E4
100
AcDbEntity
  8
LAYER_1
  6
Continuous
 62
     7
100
AcDbLine
 10
410.843400192105
 20
148.206351048978
 30
0.0
 11
410.843400192105
 21
146.8147481492939
 31
0.0
  0
LINE
  5
2E8
330
2E4
100
AcDbEntity
  8
LAYER_1
  6
Continuous
 62
     7
100
AcDbLine
 10
407.3414028994028
 20
146.8147481492939
 30
0.0
 11
410.8236351388708
 21
146.8147481492939
 31
0.0
  0
LINE
  5
2E9
330
2E4
100
AcDbEntity
  8
LAYER_1
  6
Continuous
 62
     7
100
AcDbLine
 10
410.8236351388708
 20
146.8147481492939
 30
0.0
 11
410.843400192105
 21
146.8147481492939
 31
0.0
  0
LINE
  5
2EA
330
2E4
100
AcDbEntity
  8
LAYER_1
  6
Continuous
 62
     7
100
AcDbLine
 10
410.843400192105
 20
146.8147481492939
 30
0.0
 11
410.843400192105
 21
144.456403136983
 31
0.0
  0
LINE
  5
2EB
330
2E4
100
AcDbEntity
  8
LAYER_1
  6
Continuous
 62
     7
100
AcDbLine
 10
410.843400192105
 20
151.577248149294
 30
0.0
 11
412.4666667085858
 21
151.577248149294
 31
0.0
  0
ENDBLK
  5
2EC
330
2E4
100
AcDbEntity
  8
0
100
AcDbBlockEnd
  0
BLOCK
  5
14E4
330
14D8
100
AcDbEntity
  8
0
100
AcDbBlockBegin
  2
*D64
 70
     1
 10
0.0
 20
0.0
 30
0.0
  3
*D64
  1

  0
LINE
  5
162B
330
14D8
100
AcDbEntity
  8
LAYER_1
  6
Continuous
 62
     0
370
    -2
100
AcDbLine
 10
302.7555670358036
 20
405.7589936894388
 30
0.0
 11
328.0679846697484
 21
405.7589936894388
 31
0.0
  0
LINE
  5
162C
330
14D8
100
AcDbEntity
  8
LAYER_1
  6
Continuous
 62
     0
370
    -2
100
AcDbLine
 10
302.7555670358036
 20
420.4589936894389
 30
0.0
 11
328.0679846697484
 21
420.4589936894389
 31
0.0
  0
LINE
  5
162D
330
14D8
100
AcDbEntity
  8
LAYER_1
  6
Continuous
 62
     0
370
    -2
100
AcDbLine
 10
327.0679846697484
 20
411.7589936894388
 30
0.0
 11
327.0679846697484
 21
414.4589936894389
 31
0.0
  0
LINE
  5
162E
330
14D8
100
AcDbEntity
  8
LAYER_1
  6
Continuous
 62
     0
370
    -2
100
AcDbLine
 10
327.0679846697484
 20
420.4589936894389
 30
0.0
 11
327.0679846697484
 21
426.4589936894388
 31
0.0
  0
LINE
  5
162F
330
14D8
100
AcDbEntity
  8
LAYER_1
  6
Continuous
 62
     0
370
    -2
100
AcDbLine
 10
327.0679846697484
 20
426.4589936894388
 30
0.0
 11
344.651741014926
 21
426.4589936894388
 31
0.0
  0
INSERT
  5
1630
330
14D8
100
AcDbEntity
  8
LAYER_1
  6
Continuous
 62
     0
370
    -2
100
AcDbBlockReference
  2
_OPEN
 10
327.0679846697484
 20
405.7589936894388
 30
0.0
 41
6.0
 42
6.0
 43
6.0
 50
270.0
  0
INSERT
  5
1631
330
14D8
100
AcDbEntity
  8
LAYER_1
  6
Continuous
 62
     0
370
    -2
100
AcDbBlockReference
  2
_OPEN
 10
327.0679846697484
 20
420.4589936894389
 30
0.0
 41
6.0
 42
6.0
 43
6.0
 50
90.0
  0
MTEXT
  5
1632
330
14D8
100
AcDbEntity
  8
LAYER_1
  6
Continuous
 62
     0
100
AcDbMText
 10
336.3598628423371
 20
430.1589936894389
 30
0.0
 40
5.4
 41
0.0
 71
     5
 72
     1
  1
\A1;14.70
  7
ＭＳ_ゴシック
 73
     1
 44
1.0
  0
POINT
  5
1633
330
14D8
100
AcDbEntity
  8
Defpoints
  6
Continuous
 62
     0
100
AcDbPoint
 10
301.7555670358036
 20
405.7589936894388
 30
0.0
  0
POINT
  5
1634
330
14D8
100
AcDbEntity
  8
Defpoints
  6
Continuous
 62
     0
100
AcDbPoint
 10
301.7555670358036
 20
420.4589936894389
 30
0.0
  0
POINT
  5
1635
330
14D8
100
AcDbEntity
  8
Defpoints
  6
Continuous
 62
     0
100
AcDbPoint
 10
327.0679846697484
 20
420.4589936894389
 30
0.0
  0
ENDBLK
  5
14E5
330
14D8
100
AcDbEntity
  8
0
100
AcDbBlockEnd
  0
BLOCK
  5
14F0
330
14E6
100
AcDbEntity
  8
0
100
AcDbBlockBegin
  2
*D65
 70
     1
 10
0.0
 20
0.0
 30
0.0
  3
*D65
  1

  0
LINE
  5
1622
330
14E6
100
AcDbEntity
  8
LAYER_1
  6
Continuous
 62
     0
370
    -2
100
AcDbLine
 10
135.0679846697485
 20
419.0089936894398
 30
0.0
 11
135.0679846697485
 21
435.1089936894388
 31
0.0
  0
LINE
  5
1623
330
14E6
100
AcDbEntity
  8
LAYER_1
  6
Continuous
 62
     0
370
    -2
100
AcDbLine
 10
184.0679846697485
 20
419.8089936894388
 30
0.0
 11
184.0679846697485
 21
435.1089936894388
 31
0.0
  0
LINE
  5
1624
330
14E6
100
AcDbEntity
  8
LAYER_1
  6
Continuous
 62
     0
370
    -2
100
AcDbLine
 10
141.0679846697485
 20
434.1089936894388
 30
0.0
 11
178.0679846697485
 21
434.1089936894388
 31
0.0
  0
INSERT
  5
1625
330
14E6
100
AcDbEntity
  8
LAYER_1
  6
Continuous
 62
     0
370
    -2
100
AcDbBlockReference
  2
_OPEN
 10
135.0679846697485
 20
434.1089936894388
 30
0.0
 41
6.0
 42
6.0
 43
6.0
 50
180.0
  0
INSERT
  5
1626
330
14E6
100
AcDbEntity
  8
LAYER_1
  6
Continuous
 62
     0
370
    -2
100
AcDbBlockReference
  2
_OPEN
 10
184.0679846697485
 20
434.1089936894388
 30
0.0
 41
6.0
 42
6.0
 43
6.0
  0
MTEXT
  5
1627
330
14E6
100
AcDbEntity
  8
LAYER_1
  6
Continuous
 62
     0
100
AcDbMText
 10
159.5679846697485
 20
437.8089936894388
 30
0.0
 40
5.4
 41
0.0
 71
     5
 72
     1
  1
\A1;49.00
  7
ＭＳ_ゴシック
 73
     1
 44
1.0
  0
POINT
  5
1628
330
14E6
100
AcDbEntity
  8
Defpoints
  6
Continuous
 62
     0
100
AcDbPoint
 10
135.0679846697485
 20
418.0089936894399
 30
0.0
  0
POINT
  5
1629
330
14E6
100
AcDbEntity
  8
Defpoints
  6
Continuous
 62
     0
100
AcDbPoint
 10
184.0679846697485
 20
418.8089936894388
 30
0.0
  0
POINT
  5
162A
330
14E6
100
AcDbEntity
  8
Defpoints
  6
Continuous
 62
     0
100
AcDbPoint
 10
184.0679846697485
 20
434.1089936894388
 30
0.0
  0
ENDBLK
  5
14F1
330
14E6
100
AcDbEntity
  8
0
100
AcDbBlockEnd
  0
BLOCK
  5
14FE
330
14F2
100
AcDbEntity
  8
0
100
AcDbBlockBegin
  2
*D66
 70
     1
 10
0.0
 20
0.0
 30
0.0
  3
*D66
  1

  0
LINE
  5
1617
330
14F2
100
AcDbEntity
  8
LAYER_1
  6
Continuous
 62
     0
370
    -2
100
AcDbLine
 10
134.2679846697485
 20
407.1089936894399
 30
0.0
 11
119.0679846697483
 21
407.10899368944
 31
0.0
  0
LINE
  5
1618
330
14F2
100
AcDbEntity
  8
LAYER_1
  6
Continuous
 62
     0
370
    -2
100
AcDbLine
 10
134.2679846697485
 20
419.1089936894399
 30
0.0
 11
119.0679846697483
 21
419.1089936894399
 31
0.0
  0
LINE
  5
1619
330
14F2
100
AcDbEntity
  8
LAYER_1
  6
Continuous
 62
     0
370
    -2
100
AcDbLine
 10
120.0679846697483
 20
401.1089936894399
 30
0.0
 11
120.0679846697483
 21
395.1089936894399
 31
0.0
  0
LINE
  5
161A
330
14F2
100
AcDbEntity
  8
LAYER_1
  6
Continuous
 62
     0
370
    -2
100
AcDbLine
 10
120.0679846697483
 20
425.1089936894399
 30
0.0
 11
120.0679846697483
 21
431.1089936894399
 31
0.0
  0
LINE
  5
161B
330
14F2
100
AcDbEntity
  8
LAYER_1
  6
Continuous
 62
     0
370
    -2
100
AcDbLine
 10
120.0679846697483
 20
431.1089936894399
 30
0.0
 11
137.651741014926
 21
431.1089936894399
 31
0.0
  0
INSERT
  5
161C
330
14F2
100
AcDbEntity
  8
LAYER_1
  6
Continuous
 62
     0
370
    -2
100
AcDbBlockReference
  2
_OPEN
 10
120.0679846697483
 20
407.10899368944
 30
0.0
 41
6.0
 42
6.0
 43
6.0
 50
90.0
  0
INSERT
  5
161D
330
14F2
100
AcDbEntity
  8
LAYER_1
  6
Continuous
 62
     0
370
    -2
100
AcDbBlockReference
  2
_OPEN
 10
120.0679846697483
 20
419.1089936894399
 30
0.0
 41
6.0
 42
6.0
 43
6.0
 50
270.0
  0
MTEXT
  5
161E
330
14F2
100
AcDbEntity
  8
LAYER_1
  6
Continuous
 62
     0
100
AcDbMText
 10
129.3598628423371
 20
434.8089936894399
 30
0.0
 40
5.4
 41
0.0
 71
     5
 72
     1
  1
\A1;12.00
  7
ＭＳ_ゴシック
 73
     1
 44
1.0
  0
POINT
  5
161F
330
14F2
100
AcDbEntity
  8
Defpoints
  6
Continuous
 62
     0
100
AcDbPoint
 10
135.2679846697485
 20
407.1089936894399
 30
0.0
  0
POINT
  5
1620
330
14F2
100
AcDbEntity
  8
Defpoints
  6
Continuous
 62
     0
100
AcDbPoint
 10
135.2679846697485
 20
419.1089936894399
 30
0.0
  0
POINT
  5
1621
330
14F2
100
AcDbEntity
  8
Defpoints
  6
Continuous
 62
     0
100
AcDbPoint
 10
120.0679846697483
 20
419.1089936894399
 30
0.0
  0
ENDBLK
  5
14FF
330
14F2
100
AcDbEntity
  8
0
100
AcDbBlockEnd
  0
BLOCK
  5
150A
330
1500
100
AcDbEntity
  8
0
100
AcDbBlockBegin
  2
*D67
 70
     1
 10
0.0
 20
0.0
 30
0.0
  3
*D67
  1

  0
LINE
  5
160E
330
1500
100
AcDbEntity
  8
LAYER_1
  6
Continuous
 62
     0
370
    -2
100
AcDbLine
 10
184.0679846697485
 20
419.8089936894388
 30
0.0
 11
184.0679846697485
 21
435.1089936894388
 31
0.0
  0
LINE
  5
160F
330
1500
100
AcDbEntity
  8
LAYER_1
  6
Continuous
 62
     0
370
    -2
100
AcDbLine
 10
264.0679846697485
 20
417.7698222243519
 30
0.0
 11
264.0679846697485
 21
435.1089936894388
 31
0.0
  0
LINE
  5
1610
330
1500
100
AcDbEntity
  8
LAYER_1
  6
Continuous
 62
     0
370
    -2
100
AcDbLine
 10
190.0679846697485
 20
434.1089936894388
 30
0.0
 11
258.0679846697484
 21
434.1089936894388
 31
0.0
  0
INSERT
  5
1611
330
1500
100
AcDbEntity
  8
LAYER_1
  6
Continuous
 62
     0
370
    -2
100
AcDbBlockReference
  2
_OPEN
 10
184.0679846697485
 20
434.1089936894388
 30
0.0
 41
6.0
 42
6.0
 43
6.0
 50
180.0
  0
INSERT
  5
1612
330
1500
100
AcDbEntity
  8
LAYER_1
  6
Continuous
 62
     0
370
    -2
100
AcDbBlockReference
  2
_OPEN
 10
264.0679846697485
 20
434.1089936894388
 30
0.0
 41
6.0
 42
6.0
 43
6.0
  0
MTEXT
  5
1613
330
1500
100
AcDbEntity
  8
LAYER_1
  6
Continuous
 62
     0
100
AcDbMText
 10
224.0679846697485
 20
437.8089936894388
 30
0.0
 40
5.4
 41
0.0
 71
     5
 72
     1
  1
\A1;80.00
  7
ＭＳ_ゴシック
 73
     1
 44
1.0
  0
POINT
  5
1614
330
1500
100
AcDbEntity
  8
Defpoints
  6
Continuous
 62
     0
100
AcDbPoint
 10
184.0679846697485
 20
418.8089936894388
 30
0.0
  0
POINT
  5
1615
330
1500
100
AcDbEntity
  8
Defpoints
  6
Continuous
 62
     0
100
AcDbPoint
 10
264.0679846697485
 20
416.7698222243518
 30
0.0
  0
POINT
  5
1616
330
1500
100
AcDbEntity
  8
Defpoints
  6
Continuous
 62
     0
100
AcDbPoint
 10
264.0679846697485
 20
434.1089936894388
 30
0.0
  0
ENDBLK
  5
150B
330
1500
100
AcDbEntity
  8
0
100
AcDbBlockEnd
  0
BLOCK
  5
1516
330
150C
100
AcDbEntity
  8
0
100
AcDbBlockBegin
  2
*D68
 70
     1
 10
0.0
 20
0.0
 30
0.0
  3
*D68
  1

  0
LINE
  5
1636
330
150C
100
AcDbEntity
  8
LAYER_1
  6
Continuous
 62
     0
370
    -2
100
AcDbLine
 10
264.0679846697485
 20
417.7698222243519
 30
0.0
 11
264.0679846697485
 21
435.1089936894388
 31
0.0
  0
LINE
  5
1637
330
150C
100
AcDbEntity
  8
LAYER_1
  6
Continuous
 62
     0
370
    -2
100
AcDbLine
 10
307.0679846697485
 20
418.8589936894389
 30
0.0
 11
307.0679846697485
 21
435.1089936894388
 31
0.0
  0
LINE
  5
1638
330
150C
100
AcDbEntity
  8
LAYER_1
  6
Continuous
 62
     0
370
    -2
100
AcDbLine
 10
270.0679846697485
 20
434.1089936894388
 30
0.0
 11
301.0679846697485
 21
434.1089936894388
 31
0.0
  0
INSERT
  5
1639
330
150C
100
AcDbEntity
  8
LAYER_1
  6
Continuous
 62
     0
370
    -2
100
AcDbBlockReference
  2
_OPEN
 10
264.0679846697485
 20
434.1089936894388
 30
0.0
 41
6.0
 42
6.0
 43
6.0
 50
180.0
  0
INSERT
  5
163A
330
150C
100
AcDbEntity
  8
LAYER_1
  6
Continuous
 62
     0
370
    -2
100
AcDbBlockReference
  2
_OPEN
 10
307.0679846697485
 20
434.1089936894388
 30
0.0
 41
6.0
 42
6.0
 43
6.0
  0
MTEXT
  5
163B
330
150C
100
AcDbEntity
  8
LAYER_1
  6
Continuous
 62
     0
100
AcDbMText
 10
285.5679846697485
 20
437.8089936894388
 30
0.0
 40
5.4
 41
0.0
 71
     5
 72
     1
  1
\A1;43.00
  7
ＭＳ_ゴシック
 73
     1
 44
1.0
  0
POINT
  5
163C
330
150C
100
AcDbEntity
  8
Defpoints
  6
Continuous
 62
     0
100
AcDbPoint
 10
264.0679846697485
 20
416.7698222243518
 30
0.0
  0
POINT
  5
163D
330
150C
100
AcDbEntity
  8
Defpoints
  6
Continuous
 62
     0
100
AcDbPoint
 10
307.0679846697485
 20
417.8589936894388
 30
0.0
  0
POINT
  5
163E
330
150C
100
AcDbEntity
  8
Defpoints
  6
Continuous
 62
     0
100
AcDbPoint
 10
307.0679846697485
 20
434.1089936894388
 30
0.0
  0
ENDBLK
  5
1517
330
150C
100
AcDbEntity
  8
0
100
AcDbBlockEnd
  0
BLOCK
  5
1521
330
1518
100
AcDbEntity
  8
0
100
AcDbBlockBegin
  2
*D69
 70
     1
 10
0.0
 20
0.0
 30
0.0
  3
*D69
  1

  0
LINE
  5
15F3
330
1518
100
AcDbEntity
  8
LAYER_1
  6
Continuous
 62
     0
370
    -2
100
AcDbLine
 10
327.0409609031365
 20
190.2011100003965
 30
0.0
 11
305.4003517660806
 21
190.2011100003965
 31
0.0
  0
LINE
  5
15F4
330
1518
100
AcDbEntity
  8
LAYER_1
  6
Continuous
 62
     0
370
    -2
100
AcDbLine
 10
305.4003517660806
 20
190.2011100003965
 30
0.0
 11
300.204199343374
 21
187.2011100003966
 31
0.0
  0
MTEXT
  5
15F5
330
1518
100
AcDbEntity
  8
LAYER_1
  6
Continuous
 62
     0
100
AcDbMText
 10
316.7206563346086
 20
193.9011100003965
 30
0.0
 40
5.4
 41
0.0
 71
     5
 72
     1
  1
\A1;\U+220512.00
  7
ＭＳ_ゴシック
 73
     1
 44
1.0
  0
INSERT
  5
15F6
330
1518
100
AcDbEntity
  8
LAYER_1
  6
Continuous
 62
     0
370
    -2
100
AcDbBlockReference
  2
_OPEN
 10
295.0080469206674
 20
184.2011100003966
 30
0.0
 41
6.0
 42
6.0
 43
6.0
 50
209.9999999999995
  0
LINE
  5
15F7
330
1518
100
AcDbEntity
  8
LAYER_1
  6
Continuous
 62
     0
370
    -2
100
AcDbLine
 10
289.7218944979608
 20
181.2011100003967
 30
0.0
 11
289.9018944979607
 21
181.2011100003967
 31
0.0
  0
LINE
  5
15F8
330
1518
100
AcDbEntity
  8
LAYER_1
  6
Continuous
 62
     0
370
    -2
100
AcDbLine
 10
289.8118944979608
 20
181.1111100003967
 30
0.0
 11
289.8118944979608
 21
181.2911100003967
 31
0.0
  0
POINT
  5
15F9
330
1518
100
AcDbEntity
  8
Defpoints
  6
Continuous
 62
     0
100
AcDbPoint
 10
295.0080469206674
 20
184.2011100003966
 30
0.0
  0
POINT
  5
15FA
330
1518
100
AcDbEntity
  8
Defpoints
  6
Continuous
 62
     0
100
AcDbPoint
 10
284.6157420752541
 20
178.2011100003967
 30
0.0
  0
ENDBLK
  5
1522
330
1518
100
AcDbEntity
  8
0
100
AcDbBlockEnd
  0
BLOCK
  5
152D
330
1523
100
AcDbEntity
  8
0
100
AcDbBlockBegin
  2
*D70
 70
     1
 10
0.0
 20
0.0
 30
0.0
  3
*D70
  1

  0
LINE
  5
15CD
330
1523
100
AcDbEntity
  8
LAYER_1
  6
Continuous
 62
     0
370
    -2
100
AcDbLine
 10
199.8118944979612
 20
167.7011100003966
 30
0.0
 11
199.8118944979612
 21
132.7011100003967
 31
0.0
  0
LINE
  5
15CE
330
1523
100
AcDbEntity
  8
LAYER_1
  6
Continuous
 62
     0
370
    -2
100
AcDbLine
 10
239.8118944979612
 20
167.7011100003966
 30
0.0
 11
239.8118944979612
 21
132.7011100003967
 31
0.0
  0
LINE
  5
15CF
330
1523
100
AcDbEntity
  8
LAYER_1
  6
Continuous
 62
     0
370
    -2
100
AcDbLine
 10
205.8118944979612
 20
133.7011100003967
 30
0.0
 11
233.8118944979612
 21
133.7011100003967
 31
0.0
  0
INSERT
  5
15D0
330
1523
100
AcDbEntity
  8
LAYER_1
  6
Continuous
 62
     0
370
    -2
100
AcDbBlockReference
  2
_OPEN
 10
199.8118944979612
 20
133.7011100003967
 30
0.0
 41
6.0
 42
6.0
 43
6.0
 50
180.0
  0
INSERT
  5
15D1
330
1523
100
AcDbEntity
  8
LAYER_1
  6
Continuous
 62
     0
370
    -2
100
AcDbBlockReference
  2
_OPEN
 10
239.8118944979612
 20
133.7011100003967
 30
0.0
 41
6.0
 42
6.0
 43
6.0
  0
MTEXT
  5
15D2
330
1523
100
AcDbEntity
  8
LAYER_1
  6
Continuous
 62
     0
100
AcDbMText
 10
219.8118944979612
 20
137.4011100003967
 30
0.0
 40
5.4
 41
0.0
 71
     5
 72
     1
  1
\A1;40.00
  7
ＭＳ_ゴシック
 73
     1
 44
1.0
  0
POINT
  5
15D3
330
1523
100
AcDbEntity
  8
Defpoints
  6
Continuous
 62
     0
100
AcDbPoint
 10
199.8118944979612
 20
168.7011100003966
 30
0.0
  0
POINT
  5
15D4
330
1523
100
AcDbEntity
  8
Defpoints
  6
Continuous
 62
     0
100
AcDbPoint
 10
239.8118944979612
 20
168.7011100003966
 30
0.0
  0
POINT
  5
15D5
330
1523
100
AcDbEntity
  8
Defpoints
  6
Continuous
 62
     0
100
AcDbPoint
 10
239.8118944979612
 20
133.7011100003967
 30
0.0
  0
ENDBLK
  5
152E
330
1523
100
AcDbEntity
  8
0
100
AcDbBlockEnd
  0
BLOCK
  5
153B
330
152F
100
AcDbEntity
  8
0
100
AcDbBlockBegin
  2
*D71
 70
     1
 10
0.0
 20
0.0
 30
0.0
  3
*D71
  1

  0
LINE
  5
15E8
330
152F
100
AcDbEntity
  8
LAYER_1
  6
Continuous
 62
     0
370
    -2
100
AcDbLine
 10
204.8118944979613
 20
228.7011100003967
 30
0.0
 11
183.8118944979613
 21
228.7011100003967
 31
0.0
  0
LINE
  5
15E9
330
152F
100
AcDbEntity
  8
LAYER_1
  6
Continuous
 62
     0
370
    -2
100
AcDbLine
 10
198.8118944979612
 20
238.7011100003967
 30
0.0
 11
183.8118944979613
 21
238.7011100003968
 31
0.0
  0
LINE
  5
15EA
330
152F
100
AcDbEntity
  8
LAYER_1
  6
Continuous
 62
     0
370
    -2
100
AcDbLine
 10
184.8118944979613
 20
222.7011100003967
 30
0.0
 11
184.8118944979613
 21
216.7011100003967
 31
0.0
  0
LINE
  5
15EB
330
152F
100
AcDbEntity
  8
LAYER_1
  6
Continuous
 62
     0
370
    -2
100
AcDbLine
 10
184.8118944979613
 20
244.7011100003968
 30
0.0
 11
184.8118944979613
 21
250.7011100003968
 31
0.0
  0
LINE
  5
15EC
330
152F
100
AcDbEntity
  8
LAYER_1
  6
Continuous
 62
     0
370
    -2
100
AcDbLine
 10
184.8118944979613
 20
250.7011100003968
 30
0.0
 11
202.395650843139
 21
250.7011100003968
 31
0.0
  0
INSERT
  5
15ED
330
152F
100
AcDbEntity
  8
LAYER_1
  6
Continuous
 62
     0
370
    -2
100
AcDbBlockReference
  2
_OPEN
 10
184.8118944979613
 20
228.7011100003967
 30
0.0
 41
6.0
 42
6.0
 43
6.0
 50
90.0
  0
INSERT
  5
15EE
330
152F
100
AcDbEntity
  8
LAYER_1
  6
Continuous
 62
     0
370
    -2
100
AcDbBlockReference
  2
_OPEN
 10
184.8118944979613
 20
238.7011100003968
 30
0.0
 41
6.0
 42
6.0
 43
6.0
 50
270.0
  0
MTEXT
  5
15EF
330
152F
100
AcDbEntity
  8
LAYER_1
  6
Continuous
 62
     0
100
AcDbMText
 10
194.1037726705501
 20
254.4011100003968
 30
0.0
 40
5.4
 41
0.0
 71
     5
 72
     1
  1
\A1;10.00
  7
ＭＳ_ゴシック
 73
     1
 44
1.0
  0
POINT
  5
15F0
330
152F
100
AcDbEntity
  8
Defpoints
  6
Continuous
 62
     0
100
AcDbPoint
 10
205.8118944979613
 20
228.7011100003967
 30
0.0
  0
POINT
  5
15F1
330
152F
100
AcDbEntity
  8
Defpoints
  6
Continuous
 62
     0
100
AcDbPoint
 10
199.8118944979612
 20
238.7011100003967
 30
0.0
  0
POINT
  5
15F2
330
152F
100
AcDbEntity
  8
Defpoints
  6
Continuous
 62
     0
100
AcDbPoint
 10
184.8118944979613
 20
238.7011100003968
 30
0.0
  0
ENDBLK
  5
153C
330
152F
100
AcDbEntity
  8
0
100
AcDbBlockEnd
  0
BLOCK
  5
1547
330
153D
100
AcDbEntity
  8
0
100
AcDbBlockBegin
  2
*D72
 70
     1
 10
0.0
 20
0.0
 30
0.0
  3
*D72
  1

  0
LINE
  5
15C4
330
153D
100
AcDbEntity
  8
LAYER_1
  6
Continuous
 62
     0
370
    -2
100
AcDbLine
 10
198.8118944979612
 20
168.7011100003966
 30
0.0
 11
168.8118944979612
 21
168.7011100003967
 31
0.0
  0
LINE
  5
15C5
330
153D
100
AcDbEntity
  8
LAYER_1
  6
Continuous
 62
     0
370
    -2
100
AcDbLine
 10
198.8118944979612
 20
193.7011100003966
 30
0.0
 11
168.8118944979612
 21
193.7011100003967
 31
0.0
  0
LINE
  5
15C6
330
153D
100
AcDbEntity
  8
LAYER_1
  6
Continuous
 62
     0
370
    -2
100
AcDbLine
 10
169.8118944979612
 20
174.7011100003967
 30
0.0
 11
169.8118944979612
 21
187.7011100003967
 31
0.0
  0
INSERT
  5
15C7
330
153D
100
AcDbEntity
  8
LAYER_1
  6
Continuous
 62
     0
370
    -2
100
AcDbBlockReference
  2
_OPEN
 10
169.8118944979612
 20
168.7011100003967
 30
0.0
 41
6.0
 42
6.0
 43
6.0
 50
270.0
  0
INSERT
  5
15C8
330
153D
100
AcDbEntity
  8
LAYER_1
  6
Continuous
 62
     0
370
    -2
100
AcDbBlockReference
  2
_OPEN
 10
169.8118944979612
 20
193.7011100003967
 30
0.0
 41
6.0
 42
6.0
 43
6.0
 50
90.0
  0
MTEXT
  5
15C9
330
153D
100
AcDbEntity
  8
LAYER_1
  6
Continuous
 62
     0
100
AcDbMText
 10
166.1118944979611
 20
181.2011100003967
 30
0.0
 40
5.4
 41
0.0
 71
     5
 72
     1
  1
\A1;25.00
  7
ＭＳ_ゴシック
 11
0.0000000000000001
 21
1.0
 31
0.0
 73
     1
 44
1.0
  0
POINT
  5
15CA
330
153D
100
AcDbEntity
  8
Defpoints
  6
Continuous
 62
     0
100
AcDbPoint
 10
199.8118944979612
 20
168.7011100003966
 30
0.0
  0
POINT
  5
15CB
330
153D
100
AcDbEntity
  8
Defpoints
  6
Continuous
 62
     0
100
AcDbPoint
 10
199.8118944979612
 20
193.7011100003966
 30
0.0
  0
POINT
  5
15CC
330
153D
100
AcDbEntity
  8
Defpoints
  6
Continuous
 62
     0
100
AcDbPoint
 10
169.8118944979612
 20
193.7011100003967
 30
0.0
  0
ENDBLK
  5
1548
330
153D
100
AcDbEntity
  8
0
100
AcDbBlockEnd
  0
BLOCK
  5
1555
330
1549
100
AcDbEntity
  8
0
100
AcDbBlockBegin
  2
*D73
 70
     1
 10
0.0
 20
0.0
 30
0.0
  3
*D73
  1

  0
LINE
  5
15B9
330
1549
100
AcDbEntity
  8
LAYER_1
  6
Continuous
 62
     0
370
    -2
100
AcDbLine
 10
203.8118944979612
 20
172.7011100003966
 30
0.0
 11
183.8118944979613
 21
172.7011100003967
 31
0.0
  0
LINE
  5
15BA
330
1549
100
AcDbEntity
  8
LAYER_1
  6
Continuous
 62
     0
370
    -2
100
AcDbLine
 10
213.8118944979612
 20
189.7011100003966
 30
0.0
 11
183.8118944979613
 21
189.7011100003967
 31
0.0
  0
LINE
  5
15BB
330
1549
100
AcDbEntity
  8
LAYER_1
  6
Continuous
 62
     0
370
    -2
100
AcDbLine
 10
184.8118944979613
 20
178.7011100003967
 30
0.0
 11
184.8118944979613
 21
183.7011100003967
 31
0.0
  0
LINE
  5
15BC
330
1549
100
AcDbEntity
  8
LAYER_1
  6
Continuous
 62
     0
370
    -2
100
AcDbLine
 10
184.8118944979613
 20
189.7011100003967
 30
0.0
 11
184.8118944979614
 21
195.7011100003967
 31
0.0
  0
LINE
  5
15BD
330
1549
100
AcDbEntity
  8
LAYER_1
  6
Continuous
 62
     0
370
    -2
100
AcDbLine
 10
184.8118944979614
 20
195.7011100003967
 30
0.0
 11
202.395650843139
 21
195.7011100003967
 31
0.0
  0
INSERT
  5
15BE
330
1549
100
AcDbEntity
  8
LAYER_1
  6
Continuous
 62
     0
370
    -2
100
AcDbBlockReference
  2
_OPEN
 10
184.8118944979613
 20
172.7011100003967
 30
0.0
 41
6.0
 42
6.0
 43
6.0
 50
270.0
  0
INSERT
  5
15BF
330
1549
100
AcDbEntity
  8
LAYER_1
  6
Continuous
 62
     0
370
    -2
100
AcDbBlockReference
  2
_OPEN
 10
184.8118944979613
 20
189.7011100003967
 30
0.0
 41
6.0
 42
6.0
 43
6.0
 50
90.0
  0
MTEXT
  5
15C0
330
1549
100
AcDbEntity
  8
LAYER_1
  6
Continuous
 62
     0
100
AcDbMText
 10
194.1037726705501
 20
199.4011100003967
 30
0.0
 40
5.4
 41
0.0
 71
     5
 72
     1
  1
\A1;17.00
  7
ＭＳ_ゴシック
 73
     1
 44
1.0
  0
POINT
  5
15C1
330
1549
100
AcDbEntity
  8
Defpoints
  6
Continuous
 62
     0
100
AcDbPoint
 10
204.8118944979612
 20
172.7011100003966
 30
0.0
  0
POINT
  5
15C2
330
1549
100
AcDbEntity
  8
Defpoints
  6
Continuous
 62
     0
100
AcDbPoint
 10
214.8118944979612
 20
189.7011100003966
 30
0.0
  0
POINT
  5
15C3
330
1549
100
AcDbEntity
  8
Defpoints
  6
Continuous
 62
     0
100
AcDbPoint
 10
184.8118944979613
 20
189.7011100003967
 30
0.0
  0
ENDBLK
  5
1556
330
1549
100
AcDbEntity
  8
0
100
AcDbBlockEnd
  0
BLOCK
  5
1561
330
1557
100
AcDbEntity
  8
0
100
AcDbBlockBegin
  2
*D74
 70
     1
 10
0.0
 20
0.0
 30
0.0
  3
*D74
  1

  0
LINE
  5
15D6
330
1557
100
AcDbEntity
  8
LAYER_1
  6
Continuous
 62
     0
370
    -2
100
AcDbLine
 10
209.8118944979613
 20
166.7011100003966
 30
0.0
 11
209.8118944979613
 21
147.7011100003967
 31
0.0
  0
LINE
  5
15D7
330
1557
100
AcDbEntity
  8
LAYER_1
  6
Continuous
 62
     0
370
    -2
100
AcDbLine
 10
229.8118944979612
 20
166.7011100003966
 30
0.0
 11
229.8118944979612
 21
147.7011100003967
 31
0.0
  0
LINE
  5
15D8
330
1557
100
AcDbEntity
  8
LAYER_1
  6
Continuous
 62
     0
370
    -2
100
AcDbLine
 10
215.8118944979613
 20
148.7011100003967
 30
0.0
 11
223.8118944979612
 21
148.7011100003967
 31
0.0
  0
INSERT
  5
15D9
330
1557
100
AcDbEntity
  8
LAYER_1
  6
Continuous
 62
     0
370
    -2
100
AcDbBlockReference
  2
_OPEN
 10
209.8118944979613
 20
148.7011100003967
 30
0.0
 41
6.0
 42
6.0
 43
6.0
 50
180.0
  0
INSERT
  5
15DA
330
1557
100
AcDbEntity
  8
LAYER_1
  6
Continuous
 62
     0
370
    -2
100
AcDbBlockReference
  2
_OPEN
 10
229.8118944979612
 20
148.7011100003967
 30
0.0
 41
6.0
 42
6.0
 43
6.0
  0
MTEXT
  5
15DB
330
1557
100
AcDbEntity
  8
LAYER_1
  6
Continuous
 62
     0
100
AcDbMText
 10
219.8118944979613
 20
152.4011100003967
 30
0.0
 40
5.4
 41
0.0
 71
     5
 72
     1
  1
\A1;20.00
  7
ＭＳ_ゴシック
 73
     1
 44
1.0
  0
POINT
  5
15DC
330
1557
100
AcDbEntity
  8
Defpoints
  6
Continuous
 62
     0
100
AcDbPoint
 10
209.8118944979613
 20
167.7011100003966
 30
0.0
  0
POINT
  5
15DD
330
1557
100
AcDbEntity
  8
Defpoints
  6
Continuous
 62
     0
100
AcDbPoint
 10
229.8118944979612
 20
167.7011100003966
 30
0.0
  0
POINT
  5
15DE
330
1557
100
AcDbEntity
  8
Defpoints
  6
Continuous
 62
     0
100
AcDbPoint
 10
229.8118944979612
 20
148.7011100003967
 30
0.0
  0
ENDBLK
  5
1562
330
1557
100
AcDbEntity
  8
0
100
AcDbBlockEnd
  0
BLOCK
  5
156D
330
1563
100
AcDbEntity
  8
0
100
AcDbBlockBegin
  2
*D75
 70
     1
 10
0.0
 20
0.0
 30
0.0
  3
*D75
  1

  0
LINE
  5
15DF
330
1563
100
AcDbEntity
  8
LAYER_1
  6
Continuous
 62
     0
370
    -2
100
AcDbLine
 10
209.8118944979613
 20
233.7011100003968
 30
0.0
 11
209.8118944979613
 21
249.7011100003967
 31
0.0
  0
LINE
  5
15E0
330
1563
100
AcDbEntity
  8
LAYER_1
  6
Continuous
 62
     0
370
    -2
100
AcDbLine
 10
229.8118944979612
 20
233.7011100003968
 30
0.0
 11
229.8118944979612
 21
249.7011100003967
 31
0.0
  0
LINE
  5
15E1
330
1563
100
AcDbEntity
  8
LAYER_1
  6
Continuous
 62
     0
370
    -2
100
AcDbLine
 10
215.8118944979613
 20
248.7011100003967
 30
0.0
 11
223.8118944979612
 21
248.7011100003967
 31
0.0
  0
INSERT
  5
15E2
330
1563
100
AcDbEntity
  8
LAYER_1
  6
Continuous
 62
     0
370
    -2
100
AcDbBlockReference
  2
_OPEN
 10
209.8118944979613
 20
248.7011100003967
 30
0.0
 41
6.0
 42
6.0
 43
6.0
 50
180.0
  0
INSERT
  5
15E3
330
1563
100
AcDbEntity
  8
LAYER_1
  6
Continuous
 62
     0
370
    -2
100
AcDbBlockReference
  2
_OPEN
 10
229.8118944979612
 20
248.7011100003967
 30
0.0
 41
6.0
 42
6.0
 43
6.0
  0
MTEXT
  5
15E4
330
1563
100
AcDbEntity
  8
LAYER_1
  6
Continuous
 62
     0
100
AcDbMText
 10
219.8118944979613
 20
252.4011100003967
 30
0.0
 40
5.4
 41
0.0
 71
     5
 72
     1
  1
\A1;20.00
  7
ＭＳ_ゴシック
 73
     1
 44
1.0
  0
POINT
  5
15E5
330
1563
100
AcDbEntity
  8
Defpoints
  6
Continuous
 62
     0
100
AcDbPoint
 10
209.8118944979613
 20
232.7011100003967
 30
0.0
  0
POINT
  5
15E6
330
1563
100
AcDbEntity
  8
Defpoints
  6
Continuous
 62
     0
100
AcDbPoint
 10
229.8118944979612
 20
232.7011100003967
 30
0.0
  0
POINT
  5
15E7
330
1563
100
AcDbEntity
  8
Defpoints
  6
Continuous
 62
     0
100
AcDbPoint
 10
229.8118944979612
 20
248.7011100003967
 30
0.0
  0
ENDBLK
  5
156E
330
1563
100
AcDbEntity
  8
0
100
AcDbBlockEnd
  0
BLOCK
  5
157A
330
156F
100
AcDbEntity
  8
0
100
AcDbBlockBegin
  2
*D76
 70
     1
 10
0.0
 20
0.0
 30
0.0
  3
*D76
  1

  0
LINE
  5
15FB
330
156F
100
AcDbEntity
  8
LAYER_1
  6
Continuous
 62
     0
370
    -2
100
AcDbLine
 10
289.8118944979612
 20
190.2011100003966
 30
0.0
 11
289.8118944979612
 21
204.7011100003966
 31
0.0
  0
LINE
  5
15FC
330
156F
100
AcDbEntity
  8
LAYER_1
  6
Continuous
 62
     0
370
    -2
100
AcDbLine
 10
299.8118944979612
 20
194.7011100003966
 30
0.0
 11
299.8118944979612
 21
204.7011100003966
 31
0.0
  0
LINE
  5
15FD
330
156F
100
AcDbEntity
  8
LAYER_1
  6
Continuous
 62
     0
370
    -2
100
AcDbLine
 10
283.8118944979612
 20
203.7011100003967
 30
0.0
 11
277.8118944979612
 21
203.7011100003967
 31
0.0
  0
LINE
  5
15FE
330
156F
100
AcDbEntity
  8
LAYER_1
  6
Continuous
 62
     0
370
    -2
100
AcDbLine
 10
305.8118944979612
 20
203.7011100003967
 30
0.0
 11
330.3956508431389
 21
203.7011100003967
 31
0.0
  0
INSERT
  5
15FF
330
156F
100
AcDbEntity
  8
LAYER_1
  6
Continuous
 62
     0
370
    -2
100
AcDbBlockReference
  2
_OPEN
 10
289.8118944979612
 20
203.7011100003967
 30
0.0
 41
6.0
 42
6.0
 43
6.0
  0
INSERT
  5
1600
330
156F
100
AcDbEntity
  8
LAYER_1
  6
Continuous
 62
     0
370
    -2
100
AcDbBlockReference
  2
_OPEN
 10
299.8118944979612
 20
203.7011100003967
 30
0.0
 41
6.0
 42
6.0
 43
6.0
 50
180.0
  0
MTEXT
  5
1601
330
156F
100
AcDbEntity
  8
LAYER_1
  6
Continuous
 62
     0
100
AcDbMText
 10
321.10377267055
 20
207.4011100003966
 30
0.0
 40
5.4
 41
0.0
 71
     5
 72
     1
  1
\A1;10.00
  7
ＭＳ_ゴシック
 73
     1
 44
1.0
  0
POINT
  5
1602
330
156F
100
AcDbEntity
  8
Defpoints
  6
Continuous
 62
     0
100
AcDbPoint
 10
289.8118944979612
 20
189.2011100003966
 30
0.0
  0
POINT
  5
1603
330
156F
100
AcDbEntity
  8
Defpoints
  6
Continuous
 62
     0
100
AcDbPoint
 10
299.8118944979612
 20
193.7011100003966
 30
0.0
  0
POINT
  5
1604
330
156F
100
AcDbEntity
  8
Defpoints
  6
Continuous
 62
     0
100
AcDbPoint
 10
299.8118944979612
 20
203.7011100003967
 30
0.0
  0
ENDBLK
  5
157B
330
156F
100
AcDbEntity
  8
0
100
AcDbBlockEnd
  0
BLOCK
  5
1586
330
157C
100
AcDbEntity
  8
0
100
AcDbBlockBegin
  2
*D77
 70
     1
 10
0.0
 20
0.0
 30
0.0
  3
*D77
  1

  0
LINE
  5
1605
330
157C
100
AcDbEntity
  8
LAYER_1
  6
Continuous
 62
     0
370
    -2
100
AcDbLine
 10
279.8118944979612
 20
194.2011100003967
 30
0.0
 11
279.8118944979612
 21
219.7011100003967
 31
0.0
  0
LINE
  5
1606
330
157C
100
AcDbEntity
  8
LAYER_1
  6
Continuous
 62
     0
370
    -2
100
AcDbLine
 10
299.8118944979612
 20
194.7011100003966
 30
0.0
 11
299.8118944979612
 21
219.7011100003967
 31
0.0
  0
LINE
  5
1607
330
157C
100
AcDbEntity
  8
LAYER_1
  6
Continuous
 62
     0
370
    -2
100
AcDbLine
 10
285.8118944979612
 20
218.7011100003967
 30
0.0
 11
293.8118944979612
 21
218.7011100003967
 31
0.0
  0
INSERT
  5
1608
330
157C
100
AcDbEntity
  8
LAYER_1
  6
Continuous
 62
     0
370
    -2
100
AcDbBlockReference
  2
_OPEN
 10
279.8118944979612
 20
218.7011100003967
 30
0.0
 41
6.0
 42
6.0
 43
6.0
 50
180.0
  0
INSERT
  5
1609
330
157C
100
AcDbEntity
  8
LAYER_1
  6
Continuous
 62
     0
370
    -2
100
AcDbBlockReference
  2
_OPEN
 10
299.8118944979612
 20
218.7011100003967
 30
0.0
 41
6.0
 42
6.0
 43
6.0
  0
MTEXT
  5
160A
330
157C
100
AcDbEntity
  8
LAYER_1
  6
Continuous
 62
     0
100
AcDbMText
 10
289.8118944979612
 20
222.4011100003967
 30
0.0
 40
5.4
 41
0.0
 71
     5
 72
     1
  1
\A1;20.00
  7
ＭＳ_ゴシック
 73
     1
 44
1.0
  0
POINT
  5
160B
330
157C
100
AcDbEntity
  8
Defpoints
  6
Continuous
 62
     0
100
AcDbPoint
 10
279.8118944979612
 20
193.2011100003967
 30
0.0
  0
POINT
  5
160C
330
157C
100
AcDbEntity
  8
Defpoints
  6
Continuous
 62
     0
100
AcDbPoint
 10
299.8118944979612
 20
193.7011100003966
 30
0.0
  0
POINT
  5
160D
330
157C
100
AcDbEntity
  8
Defpoints
  6
Continuous
 62
     0
100
AcDbPoint
 10
299.8118944979612
 20
218.7011100003967
 30
0.0
  0
ENDBLK
  5
1587
330
157C
100
AcDbEntity
  8
0
100
AcDbBlockEnd
  0
ENDSEC
  0
SECTION
  2
ENTITIES
  0
LINE
  5
DBF
330
A
100
AcDbEntity
  8
LAYER_1
  6
Continuous
 62
     7
100
AcDbLine
 10
145.0679846697483
 20
407.3089936894398
 30
0.0
 11
145.0679846697483
 21
413.1089936894398
 31
0.0
  0
LINE
  5
DC0
330
A
100
AcDbEntity
  8
LAYER_1
  6
Continuous
 62
     7
100
AcDbLine
 10
145.0679846697483
 20
418.9089936894398
 30
0.0
 11
145.0679846697483
 21
413.1089936894398
 31
0.0
  0
DIMENSION
  5
DC1
330
A
100
AcDbEntity
  8
LAYER_1
  6
Continuous
 62
     7
100
AcDbDimension
  2
*D64
 10
327.0679846697484
 20
420.4589936894389
 30
0.0
 11
336.3598628423371
 21
430.1589936894389
 31
0.0
 70
    32
 71
     5
 42
14.70000000000004
  3
MARK2_DIMSTYLE
100
AcDbAlignedDimension
 13
301.7555670358036
 23
405.7589936894388
 33
0.0
 14
301.7555670358036
 24
420.4589936894389
 34
0.0
 50
90.0
100
AcDbRotatedDimension
1001
ACAD
1000
DSTYLE
1002
{
1070
    41
1040
6.0
1070
   140
1040
5.4
1002
}
  0
DIMENSION
  5
DC2
330
A
100
AcDbEntity
  8
LAYER_1
  6
Continuous
 62
     7
100
AcDbDimension
  2
*D65
 10
184.0679846697485
 20
434.1089936894388
 30
0.0
 11
159.5679846697485
 21
437.8089936894388
 31
0.0
 70
    32
 71
     5
 42
49.0
  3
MARK2_DIMSTYLE
100
AcDbAlignedDimension
 13
135.0679846697485
 23
418.0089936894399
 33
0.0
 14
184.0679846697485
 24
418.8089936894388
 34
0.0
100
AcDbRotatedDimension
1001
ACAD
1000
DSTYLE
1002
{
1070
    41
1040
6.0
1070
   140
1040
5.4
1002
}
  0
DIMENSION
  5
DC3
330
A
100
AcDbEntity
  8
LAYER_1
  6
Continuous
 62
     7
100
AcDbDimension
  2
*D67
 10
264.0679846697485
 20
434.1089936894388
 30
0.0
 11
224.0679846697485
 21
437.8089936894388
 31
0.0
 70
    32
 71
     5
 42
80.0
  3
MARK2_DIMSTYLE
100
AcDbAlignedDimension
 13
184.0679846697485
 23
418.8089936894388
 33
0.0
 14
264.0679846697485
 24
416.7698222243518
 34
0.0
100
AcDbRotatedDimension
1001
ACAD
1000
DSTYLE
1002
{
1070
    41
1040
6.0
1070
   140
1040
5.4
1002
}
  0
DIMENSION
  5
DC4
330
A
100
AcDbEntity
  8
LAYER_1
  6
Continuous
 62
     7
100
AcDbDimension
  2
*D68
 10
307.0679846697485
 20
434.1089936894388
 30
0.0
 11
285.5679846697485
 21
437.8089936894388
 31
0.0
 70
    32
 71
     5
 42
43.0
  3
MARK2_DIMSTYLE
100
AcDbAlignedDimension
 13
264.0679846697485
 23
416.7698222243518
 33
0.0
 14
307.0679846697485
 24
417.8589936894388
 34
0.0
100
AcDbRotatedDimension
1001
ACAD
1000
DSTYLE
1002
{
1070
    41
1040
6.0
1070
   140
1040
5.4
1002
}
  0
LWPOLYLINE
  5
DC5
330
A
100
AcDbEntity
  8
LAYER_1
  6
Continuous
 62
     7
100
AcDbPolyline
 90
        4
 70
     1
 43
0.0
 10
204.0679846697484
 20
416.4089936894388
 10
233.4495229008826
 20
416.4089936894388
 10
233.4495229008826
 20
363.5866590530547
 10
204.0679846697484
 20
363.5866590530547
  0
DIMENSION
  5
DCC
330
A
100
AcDbEntity
  8
LAYER_1
  6
Continuous
 62
     7
100
AcDbDimension
  2
*D66
 10
120.0679846697483
 20
419.1089936894399
 30
0.0
 11
129.3598628423371
 21
434.8089936894399
 31
0.0
 70
    32
 71
     5
 42
12.0
  3
MARK2_DIMSTYLE
100
AcDbAlignedDimension
 13
135.2679846697485
 23
407.1089936894399
 33
0.0
 14
135.2679846697485
 24
419.1089936894399
 34
0.0
 50
90.0
100
AcDbRotatedDimension
1001
ACAD
1000
DSTYLE
1002
{
1070
    41
1040
6.0
1070
   140
1040
5.4
1002
}
  0
ARC
  5
1093
330
A
100
AcDbEntity
  8
LAYER_1
  6
Continuous
 62
     7
100
AcDbCircle
 10
264.5679846697484
 20
416.7698222243518
 30
0.0
 40
0.5
100
AcDbArc
 50
99.50429865573802
 51
180.0
  0
ARC
  5
1094
330
A
100
AcDbEntity
  8
LAYER_1
  6
Continuous
 62
     7
100
AcDbCircle
 10
264.5679846697484
 20
409.4481651545256
 30
0.0
 40
0.5
100
AcDbArc
 50
180.0
 51
260.495701344262
  0
LINE
  5
1095
330
A
100
AcDbEntity
  8
LAYER_1
  6
Continuous
 62
     7
100
AcDbLine
 10
264.0679846697485
 20
416.7698222243518
 30
0.0
 11
264.0679846697485
 21
409.4481651545256
 31
0.0
  0
LINE
  5
1096
330
A
100
AcDbEntity
  8
LAYER_1
  6
Continuous
 62
     7
100
AcDbLine
 10
284.3018845612578
 20
419.9201465922478
 30
0.0
 11
286.2426626684987
 21
418.4592113326377
 31
0.0
  0
LINE
  5
1097
330
A
100
AcDbEntity
  8
LAYER_1
  6
Continuous
 62
     7
100
AcDbLine
 10
284.3018845612578
 20
419.9201465922478
 30
0.0
 11
279.6193400791594
 21
419.9201465922478
 31
0.0
  0
LINE
  5
1098
330
A
100
AcDbEntity
  8
LAYER_1
  6
Continuous
 62
     7
100
AcDbLine
 10
289.4341640681263
 20
419.9201465922478
 30
0.0
 11
287.4933859608865
 21
418.4592113326377
 31
0.0
  0
LINE
  5
1099
330
A
100
AcDbEntity
  8
LAYER_1
  6
Continuous
 62
     7
100
AcDbLine
 10
290.8160028611094
 20
419.9201465922478
 30
0.0
 11
291.2994777604716
 21
420.4589936894389
 31
0.0
  0
LINE
  5
109A
330
A
100
AcDbEntity
  8
LAYER_1
  6
Continuous
 62
     7
100
AcDbLine
 10
290.8160028611094
 20
419.9201465922478
 30
0.0
 11
289.4341640681263
 21
419.9201465922478
 31
0.0
  0
LINE
  5
109B
330
A
100
AcDbEntity
  8
LAYER_1
  6
Continuous
 62
     7
100
AcDbLine
 10
287.4933859608865
 20
418.4592113326377
 30
0.0
 11
286.2426626684987
 21
418.4592113326377
 31
0.0
  0
LINE
  5
109C
330
A
100
AcDbEntity
  8
LAYER_1
  6
Continuous
 62
     7
100
AcDbLine
 10
284.3018845612578
 20
406.2978407866297
 30
0.0
 11
286.2426626684987
 21
407.7587760462398
 31
0.0
  0
LINE
  5
109D
330
A
100
AcDbEntity
  8
LAYER_1
  6
Continuous
 62
     7
100
AcDbLine
 10
284.3018845612578
 20
406.2978407866297
 30
0.0
 11
279.6193400791594
 21
406.2978407866297
 31
0.0
  0
LINE
  5
109E
330
A
100
AcDbEntity
  8
LAYER_1
  6
Continuous
 62
     7
100
AcDbLine
 10
289.4341640681263
 20
406.2978407866297
 30
0.0
 11
287.4933859608865
 21
407.7587760462398
 31
0.0
  0
LINE
  5
109F
330
A
100
AcDbEntity
  8
LAYER_1
  6
Continuous
 62
     7
100
AcDbLine
 10
290.8160028611094
 20
406.2978407866297
 30
0.0
 11
291.2994777604716
 21
405.7589936894388
 31
0.0
  0
LINE
  5
10A0
330
A
100
AcDbEntity
  8
LAYER_1
  6
Continuous
 62
     7
100
AcDbLine
 10
290.8160028611094
 20
406.2978407866297
 30
0.0
 11
289.4341640681263
 21
406.2978407866297
 31
0.0
  0
LINE
  5
10A1
330
A
100
AcDbEntity
  8
LAYER_1
  6
Continuous
 62
     7
100
AcDbLine
 10
287.4933859608865
 20
407.7587760462398
 30
0.0
 11
286.2426626684987
 21
407.7587760462398
 31
0.0
  0
LINE
  5
10A2
330
A
100
AcDbEntity
  8
LAYER_1
  6
Continuous
 62
     7
100
AcDbLine
 10
279.6193400791594
 20
419.9201465922478
 30
0.0
 11
279.6193400791594
 21
406.2978407866297
 31
0.0
  0
LINE
  5
10A3
330
A
100
AcDbEntity
  8
LAYER_1
  6
Continuous
 62
     7
100
AcDbLine
 10
291.2994777604716
 20
420.4589936894389
 30
0.0
 11
291.2994777604716
 21
405.7589936894388
 31
0.0
  0
LINE
  5
10A4
330
A
100
AcDbEntity
  8
LAYER_1
  6
Continuous
 62
     7
100
AcDbLine
 10
290.8160028611094
 20
419.9201465922478
 30
0.0
 11
290.8160028611094
 21
406.2978407866297
 31
0.0
  0
LINE
  5
10A5
330
A
100
AcDbEntity
  8
LAYER_1
  6
Continuous
 62
     7
100
AcDbLine
 10
289.4341640681263
 20
419.9201465922478
 30
0.0
 11
289.4341640681263
 21
406.2978407866297
 31
0.0
  0
LINE
  5
10A6
330
A
100
AcDbEntity
  8
LAYER_1
  6
Continuous
 62
     7
100
AcDbLine
 10
288.4637750145055
 20
419.1896789624427
 30
0.0
 11
288.4637750145055
 21
407.0283084164347
 31
0.0
  0
LINE
  5
10A7
330
A
100
AcDbEntity
  8
LAYER_1
  6
Continuous
 62
     7
100
AcDbLine
 10
287.4933859608865
 20
418.4592113326377
 30
0.0
 11
287.4933859608865
 21
407.7587760462398
 31
0.0
  0
LINE
  5
10A8
330
A
100
AcDbEntity
  8
LAYER_1
  6
Continuous
 62
     7
100
AcDbLine
 10
286.2426626684987
 20
418.4592113326377
 30
0.0
 11
286.2426626684987
 21
407.7587760462398
 31
0.0
  0
LINE
  5
10A9
330
A
100
AcDbEntity
  8
LAYER_1
  6
Continuous
 62
     7
100
AcDbLine
 10
284.3018845612578
 20
419.9201465922478
 30
0.0
 11
284.3018845612578
 21
406.2978407866297
 31
0.0
  0
LINE
  5
10AA
330
A
100
AcDbEntity
  8
LAYER_1
  6
Continuous
 62
     7
100
AcDbLine
 10
279.6193400791594
 20
407.3244696411318
 30
0.0
 11
264.4854238686697
 21
408.9550285465518
 31
0.0
  0
LINE
  5
10AB
330
A
100
AcDbEntity
  8
LAYER_1
  6
Continuous
 62
     7
100
AcDbLine
 10
279.6193400791594
 20
418.8935177377457
 30
0.0
 11
264.4854238686697
 21
417.2629588323268
 31
0.0
  0
LINE
  5
10AC
330
A
100
AcDbEntity
  8
LAYER_1
  6
Continuous
 62
     7
100
AcDbLine
 10
296.4978002852735
 20
419.9201465922478
 30
0.0
 11
295.6058614199004
 21
419.9201465922478
 31
0.0
  0
LINE
  5
10AD
330
A
100
AcDbEntity
  8
LAYER_1
  6
Continuous
 62
     7
100
AcDbLine
 10
296.4978002852735
 20
419.9201465922478
 30
0.0
 11
296.9812751846355
 21
420.4589936894389
 31
0.0
  0
LINE
  5
10AE
330
A
100
AcDbEntity
  8
LAYER_1
  6
Continuous
 62
     7
100
AcDbLine
 10
295.6058614199004
 20
419.9201465922478
 30
0.0
 11
295.1223865205374
 21
420.4589936894389
 31
0.0
  0
LINE
  5
10AF
330
A
100
AcDbEntity
  8
LAYER_1
  6
Continuous
 62
     7
100
AcDbLine
 10
302.2390419351655
 20
419.9201465922478
 30
0.0
 11
301.7555670358036
 21
420.4589936894389
 31
0.0
  0
LINE
  5
10B0
330
A
100
AcDbEntity
  8
LAYER_1
  6
Continuous
 62
     7
100
AcDbLine
 10
301.7555670358036
 20
420.4589936894389
 30
0.0
 11
296.9812751846355
 21
420.4589936894389
 31
0.0
  0
LINE
  5
10B1
330
A
100
AcDbEntity
  8
LAYER_1
  6
Continuous
 62
     7
100
AcDbLine
 10
306.2881277945095
 20
417.8589936894388
 30
0.0
 11
307.0679846697485
 21
417.8589936894388
 31
0.0
  0
LINE
  5
10B2
330
A
100
AcDbEntity
  8
LAYER_1
  6
Continuous
 62
     7
100
AcDbLine
 10
306.2881277945095
 20
419.9201465922478
 30
0.0
 11
302.2390419351655
 21
419.9201465922478
 31
0.0
  0
LINE
  5
10B3
330
A
100
AcDbEntity
  8
LAYER_1
  6
Continuous
 62
     7
100
AcDbLine
 10
296.4978002852735
 20
406.2978407866297
 30
0.0
 11
295.6058614199004
 21
406.2978407866297
 31
0.0
  0
LINE
  5
10B4
330
A
100
AcDbEntity
  8
LAYER_1
  6
Continuous
 62
     7
100
AcDbLine
 10
296.4978002852735
 20
406.2978407866297
 30
0.0
 11
296.9812751846355
 21
405.7589936894388
 31
0.0
  0
LINE
  5
10B5
330
A
100
AcDbEntity
  8
LAYER_1
  6
Continuous
 62
     7
100
AcDbLine
 10
295.6058614199004
 20
406.2978407866297
 30
0.0
 11
295.1223865205374
 21
405.7589936894388
 31
0.0
  0
LINE
  5
10B6
330
A
100
AcDbEntity
  8
LAYER_1
  6
Continuous
 62
     7
100
AcDbLine
 10
302.2390419351655
 20
406.2978407866297
 30
0.0
 11
301.7555670358036
 21
405.7589936894388
 31
0.0
  0
LINE
  5
10B7
330
A
100
AcDbEntity
  8
LAYER_1
  6
Continuous
 62
     7
100
AcDbLine
 10
301.7555670358036
 20
405.7589936894388
 30
0.0
 11
296.9812751846355
 21
405.7589936894388
 31
0.0
  0
LINE
  5
10B8
330
A
100
AcDbEntity
  8
LAYER_1
  6
Continuous
 62
     7
100
AcDbLine
 10
306.2881277945095
 20
408.3589936894388
 30
0.0
 11
307.0679846697485
 21
408.3589936894388
 31
0.0
  0
LINE
  5
10B9
330
A
100
AcDbEntity
  8
LAYER_1
  6
Continuous
 62
     7
100
AcDbLine
 10
306.2881277945095
 20
406.2978407866297
 30
0.0
 11
302.2390419351655
 21
406.2978407866297
 31
0.0
  0
LINE
  5
10BA
330
A
100
AcDbEntity
  8
LAYER_1
  6
Continuous
 62
     7
100
AcDbLine
 10
307.0679846697485
 20
417.8589936894388
 30
0.0
 11
307.0679846697485
 21
408.3589936894388
 31
0.0
  0
LINE
  5
10BB
330
A
100
AcDbEntity
  8
LAYER_1
  6
Continuous
 62
     7
100
AcDbLine
 10
302.2390419351655
 20
419.9201465922478
 30
0.0
 11
302.2390419351655
 21
406.2978407866297
 31
0.0
  0
LINE
  5
10BC
330
A
100
AcDbEntity
  8
LAYER_1
  6
Continuous
 62
     7
100
AcDbLine
 10
301.7555670358036
 20
420.4589936894389
 30
0.0
 11
301.7555670358036
 21
405.7589936894388
 31
0.0
  0
LINE
  5
10BD
330
A
100
AcDbEntity
  8
LAYER_1
  6
Continuous
 62
     7
100
AcDbLine
 10
296.9812751846355
 20
420.4589936894389
 30
0.0
 11
296.9812751846355
 21
405.7589936894388
 31
0.0
  0
LINE
  5
10BE
330
A
100
AcDbEntity
  8
LAYER_1
  6
Continuous
 62
     7
100
AcDbLine
 10
296.4978002852735
 20
419.9201465922478
 30
0.0
 11
296.4978002852735
 21
406.2978407866297
 31
0.0
  0
LINE
  5
10BF
330
A
100
AcDbEntity
  8
LAYER_1
  6
Continuous
 62
     7
100
AcDbLine
 10
295.6058614199004
 20
419.9201465922478
 30
0.0
 11
295.6058614199004
 21
406.2978407866297
 31
0.0
  0
LINE
  5
10C0
330
A
100
AcDbEntity
  8
LAYER_1
  6
Continuous
 62
     7
100
AcDbLine
 10
295.1223865205374
 20
420.4589936894389
 30
0.0
 11
295.1223865205374
 21
405.7589936894388
 31
0.0
  0
LINE
  5
10C1
330
A
100
AcDbEntity
  8
LAYER_1
  6
Continuous
 62
     7
100
AcDbLine
 10
306.2881277945095
 20
406.2978407866297
 30
0.0
 11
306.2881277945095
 21
419.9201465922478
 31
0.0
  0
LINE
  5
10C2
330
A
100
AcDbEntity
  8
LAYER_1
  6
Continuous
 62
     7
100
AcDbLine
 10
295.1223865205374
 20
405.7589936894388
 30
0.0
 11
291.2994777604716
 21
405.7589936894388
 31
0.0
  0
LINE
  5
10C3
330
A
100
AcDbEntity
  8
LAYER_1
  6
Continuous
 62
     7
100
AcDbLine
 10
295.1223865205374
 20
420.4589936894389
 30
0.0
 11
291.2994777604716
 21
420.4589936894389
 31
0.0
  0
LINE
  5
10C4
330
A
100
AcDbEntity
  8
LAYER_1
  6
Continuous
 62
     7
100
AcDbLine
 10
301.7555670358044
 20
419.6889856375198
 30
0.0
 11
300.9855589838843
 21
420.4589936894389
 31
0.0
  0
LINE
  5
10C5
330
A
100
AcDbEntity
  8
LAYER_1
  6
Continuous
 62
     7
100
AcDbLine
 10
301.7555670358044
 20
418.7909600254128
 30
0.0
 11
300.0875333717776
 21
420.4589936894389
 31
0.0
  0
LINE
  5
10C6
330
A
100
AcDbEntity
  8
LAYER_1
  6
Continuous
 62
     7
100
AcDbLine
 10
301.7555670358036
 20
417.8929344133058
 30
0.0
 11
299.1895077596706
 21
420.4589936894389
 31
0.0
  0
LINE
  5
10C7
330
A
100
AcDbEntity
  8
LAYER_1
  6
Continuous
 62
     7
100
AcDbLine
 10
301.7555670358036
 20
416.9949088011986
 30
0.0
 11
298.2914821475636
 21
420.4589936894389
 31
0.0
  0
LINE
  5
10C8
330
A
100
AcDbEntity
  8
LAYER_1
  6
Continuous
 62
     7
100
AcDbLine
 10
301.7555670358036
 20
416.0968831890918
 30
0.0
 11
297.3934565354566
 21
420.4589936894389
 31
0.0
  0
LINE
  5
10C9
330
A
100
AcDbEntity
  8
LAYER_1
  6
Continuous
 62
     7
100
AcDbLine
 10
301.7555670358036
 20
415.1988575769847
 30
0.0
 11
296.9812751846355
 21
419.9731494281539
 31
0.0
  0
LINE
  5
10CA
330
A
100
AcDbEntity
  8
LAYER_1
  6
Continuous
 62
     7
100
AcDbLine
 10
301.7555670358044
 20
414.3008319648778
 30
0.0
 11
296.9812751846355
 21
419.0751238160467
 31
0.0
  0
LINE
  5
10CB
330
A
100
AcDbEntity
  8
LAYER_1
  6
Continuous
 62
     7
100
AcDbLine
 10
301.7555670358044
 20
413.4028063527709
 30
0.0
 11
296.9812751846355
 21
418.1770982039398
 31
0.0
  0
LINE
  5
10CC
330
A
100
AcDbEntity
  8
LAYER_1
  6
Continuous
 62
     7
100
AcDbLine
 10
295.1223865205374
 20
420.0359868680368
 30
0.0
 11
294.6993796991356
 21
420.4589936894389
 31
0.0
  0
LINE
  5
10CD
330
A
100
AcDbEntity
  8
LAYER_1
  6
Continuous
 62
     7
100
AcDbLine
 10
301.7555670358044
 20
412.5047807406637
 30
0.0
 11
301.1513540870296
 21
413.1089936894388
 31
0.0
  0
LINE
  5
10CE
330
A
100
AcDbEntity
  8
LAYER_1
  6
Continuous
 62
     7
100
AcDbLine
 10
295.1223865205374
 20
419.1379612559297
 30
0.0
 11
293.8013540870294
 21
420.4589936894389
 31
0.0
  0
LINE
  5
10CF
330
A
100
AcDbEntity
  8
LAYER_1
  6
Continuous
 62
     7
100
AcDbLine
 10
301.1513540870296
 20
413.1089936894388
 30
0.0
 11
296.9812751846355
 21
417.2790725918327
 31
0.0
  0
LINE
  5
10D0
330
A
100
AcDbEntity
  8
LAYER_1
  6
Continuous
 62
     7
100
AcDbLine
 10
301.7555670358036
 20
411.6067551285576
 30
0.0
 11
300.2533284749226
 21
413.1089936894388
 31
0.0
  0
LINE
  5
10D1
330
A
100
AcDbEntity
  8
LAYER_1
  6
Continuous
 62
     7
100
AcDbLine
 10
295.1223865205374
 20
418.2399356438238
 30
0.0
 11
292.9033284749226
 21
420.4589936894389
 31
0.0
  0
LINE
  5
10D2
330
A
100
AcDbEntity
  8
LAYER_1
  6
Continuous
 62
     7
100
AcDbLine
 10
300.2533284749226
 20
413.1089936894388
 30
0.0
 11
296.9812751846355
 21
416.3810469797257
 31
0.0
  0
LINE
  5
10D3
330
A
100
AcDbEntity
  8
LAYER_1
  6
Continuous
 62
     7
100
AcDbLine
 10
301.7555670358044
 20
410.7087295164497
 30
0.0
 11
299.3553028628154
 21
413.1089936894388
 31
0.0
  0
LINE
  5
10D4
330
A
100
AcDbEntity
  8
LAYER_1
  6
Continuous
 62
     7
100
AcDbLine
 10
295.1223865205374
 20
417.3419100317167
 30
0.0
 11
292.0053028628156
 21
420.4589936894389
 31
0.0
  0
LINE
  5
10D5
330
A
100
AcDbEntity
  8
LAYER_1
  6
Continuous
 62
     7
100
AcDbLine
 10
299.3553028628154
 20
413.1089936894388
 30
0.0
 11
296.9812751846355
 21
415.4830213676186
 31
0.0
  0
LINE
  5
10D6
330
A
100
AcDbEntity
  8
LAYER_1
  6
Continuous
 62
     7
100
AcDbLine
 10
301.7555670358036
 20
409.8107039043439
 30
0.0
 11
298.4572772507087
 21
413.1089936894388
 31
0.0
  0
LINE
  5
10D7
330
A
100
AcDbEntity
  8
LAYER_1
  6
Continuous
 62
     7
100
AcDbLine
 10
295.1223865205374
 20
416.4438844196098
 30
0.0
 11
291.2994777604716
 21
420.2667931796757
 31
0.0
  0
LINE
  5
10D8
330
A
100
AcDbEntity
  8
LAYER_1
  6
Continuous
 62
     7
100
AcDbLine
 10
298.4572772507087
 20
413.1089936894388
 30
0.0
 11
296.9812751846355
 21
414.5849957555118
 31
0.0
  0
LINE
  5
10D9
330
A
100
AcDbEntity
  8
LAYER_1
  6
Continuous
 62
     7
100
AcDbLine
 10
301.7555670358036
 20
408.9126782922367
 30
0.0
 11
297.5592516386015
 21
413.1089936894388
 31
0.0
  0
LINE
  5
10DA
330
A
100
AcDbEntity
  8
LAYER_1
  6
Continuous
 62
     7
100
AcDbLine
 10
295.1223865205374
 20
415.5458588075026
 30
0.0
 11
291.2994777604716
 21
419.3687675675688
 31
0.0
  0
LINE
  5
10DB
330
A
100
AcDbEntity
  8
LAYER_1
  6
Continuous
 62
     7
100
AcDbLine
 10
297.5592516386015
 20
413.1089936894388
 30
0.0
 11
296.9812751846355
 21
413.6869701434049
 31
0.0
  0
LINE
  5
10DC
330
A
100
AcDbEntity
  8
LAYER_1
  6
Continuous
 62
     7
100
AcDbLine
 10
301.7555670358044
 20
408.0146526801298
 30
0.0
 11
296.9812751846355
 21
412.7889445312977
 31
0.0
  0
LINE
  5
10DD
330
A
100
AcDbEntity
  8
LAYER_1
  6
Continuous
 62
     7
100
AcDbLine
 10
295.1223865205374
 20
414.6478331953958
 30
0.0
 11
291.2994777604716
 21
418.4707419554617
 31
0.0
  0
LINE
  5
10DE
330
A
100
AcDbEntity
  8
LAYER_1
  6
Continuous
 62
     7
100
AcDbLine
 10
301.7555670358044
 20
407.1166270680227
 30
0.0
 11
296.9812751846355
 21
411.8909189191906
 31
0.0
  0
LINE
  5
10DF
330
A
100
AcDbEntity
  8
LAYER_1
  6
Continuous
 62
     7
100
AcDbLine
 10
295.1223865205374
 20
413.7498075832887
 30
0.0
 11
291.2994777604716
 21
417.5727163433548
 31
0.0
  0
LINE
  5
10E0
330
A
100
AcDbEntity
  8
LAYER_1
  6
Continuous
 62
     7
100
AcDbLine
 10
301.7555670358044
 20
406.2186014559158
 30
0.0
 11
296.9812751846355
 21
410.9928933070848
 31
0.0
  0
LINE
  5
10E1
330
A
100
AcDbEntity
  8
LAYER_1
  6
Continuous
 62
     7
100
AcDbLine
 10
294.8651748022804
 20
413.1089936894388
 30
0.0
 11
291.2994777604716
 21
416.6746907312476
 31
0.0
  0
LINE
  5
10E2
330
A
100
AcDbEntity
  8
LAYER_1
  6
Continuous
 62
     7
100
AcDbLine
 10
295.1223865205374
 20
412.8517819711817
 30
0.0
 11
294.8651748022804
 21
413.1089936894388
 31
0.0
  0
LINE
  5
10E3
330
A
100
AcDbEntity
  8
LAYER_1
  6
Continuous
 62
     7
100
AcDbLine
 10
301.3171491901747
 20
405.7589936894388
 30
0.0
 11
296.9812751846355
 21
410.0948676949776
 31
0.0
  0
LINE
  5
10E4
330
A
100
AcDbEntity
  8
LAYER_1
  6
Continuous
 62
     7
100
AcDbLine
 10
293.9671491901737
 20
413.1089936894388
 30
0.0
 11
291.2994777604716
 21
415.7766651191407
 31
0.0
  0
LINE
  5
10E5
330
A
100
AcDbEntity
  8
LAYER_1
  6
Continuous
 62
     7
100
AcDbLine
 10
295.1223865205374
 20
411.9537563590748
 30
0.0
 11
293.9671491901737
 21
413.1089936894388
 31
0.0
  0
LINE
  5
10E6
330
A
100
AcDbEntity
  8
LAYER_1
  6
Continuous
 62
     7
100
AcDbLine
 10
300.4191235780665
 20
405.7589936894388
 30
0.0
 11
296.9812751846355
 21
409.1968420828708
 31
0.0
  0
LINE
  5
10E7
330
A
100
AcDbEntity
  8
LAYER_1
  6
Continuous
 62
     7
100
AcDbLine
 10
293.0691235780677
 20
413.1089936894388
 30
0.0
 11
291.2994777604716
 21
414.8786395070336
 31
0.0
  0
LINE
  5
10E8
330
A
100
AcDbEntity
  8
LAYER_1
  6
Continuous
 62
     7
100
AcDbLine
 10
295.1223865205374
 20
411.0557307469677
 30
0.0
 11
293.0691235780677
 21
413.1089936894388
 31
0.0
  0
LINE
  5
10E9
330
A
100
AcDbEntity
  8
LAYER_1
  6
Continuous
 62
     7
100
AcDbLine
 10
299.5210979659606
 20
405.7589936894388
 30
0.0
 11
296.9812751846355
 21
408.2988164707638
 31
0.0
  0
LINE
  5
10EA
330
A
100
AcDbEntity
  8
LAYER_1
  6
Continuous
 62
     7
100
AcDbLine
 10
292.1710979659603
 20
413.1089936894388
 30
0.0
 11
291.2994777604716
 21
413.9806138949267
 31
0.0
  0
LINE
  5
10EB
330
A
100
AcDbEntity
  8
LAYER_1
  6
Continuous
 62
     7
100
AcDbLine
 10
295.1223865205374
 20
410.1577051348608
 30
0.0
 11
292.1710979659603
 21
413.1089936894388
 31
0.0
  0
LINE
  5
10EC
330
A
100
AcDbEntity
  8
LAYER_1
  6
Continuous
 62
     7
100
AcDbLine
 10
298.6230723538536
 20
405.7589936894388
 30
0.0
 11
296.9812751846355
 21
407.4007908586568
 31
0.0
  0
LINE
  5
10ED
330
A
100
AcDbEntity
  8
LAYER_1
  6
Continuous
 62
     7
100
AcDbLine
 10
295.1223865205374
 20
409.2596795227538
 30
0.0
 11
291.2994777604716
 21
413.0825882828207
 31
0.0
  0
LINE
  5
10EE
330
A
100
AcDbEntity
  8
LAYER_1
  6
Continuous
 62
     7
100
AcDbLine
 10
297.7250467417464
 20
405.7589936894388
 30
0.0
 11
296.9812751846355
 21
406.5027652465499
 31
0.0
  0
LINE
  5
10EF
330
A
100
AcDbEntity
  8
LAYER_1
  6
Continuous
 62
     7
100
AcDbLine
 10
295.1223865205374
 20
408.3616539106468
 30
0.0
 11
291.2994777604716
 21
412.1845626707128
 31
0.0
  0
LINE
  5
10F0
330
A
100
AcDbEntity
  8
LAYER_1
  6
Continuous
 62
     7
100
AcDbLine
 10
295.1223865205374
 20
407.4636282985397
 30
0.0
 11
291.2994777604716
 21
411.2865370586067
 31
0.0
  0
LINE
  5
10F1
330
A
100
AcDbEntity
  8
LAYER_1
  6
Continuous
 62
     7
100
AcDbLine
 10
295.1223865205374
 20
406.5656026864328
 30
0.0
 11
291.2994777604716
 21
410.3885114464998
 31
0.0
  0
LINE
  5
10F2
330
A
100
AcDbEntity
  8
LAYER_1
  6
Continuous
 62
     7
100
AcDbLine
 10
295.0309699054253
 20
405.7589936894388
 30
0.0
 11
291.2994777604716
 21
409.4904858343928
 31
0.0
  0
LINE
  5
10F3
330
A
100
AcDbEntity
  8
LAYER_1
  6
Continuous
 62
     7
100
AcDbLine
 10
294.1329442933188
 20
405.7589936894388
 30
0.0
 11
291.2994777604716
 21
408.5924602222858
 31
0.0
  0
LINE
  5
10F4
330
A
100
AcDbEntity
  8
LAYER_1
  6
Continuous
 62
     7
100
AcDbLine
 10
293.2349186812114
 20
405.7589936894388
 30
0.0
 11
291.2994777604716
 21
407.6944346101788
 31
0.0
  0
LINE
  5
10F5
330
A
100
AcDbEntity
  8
LAYER_1
  6
Continuous
 62
     7
100
AcDbLine
 10
292.3368930691048
 20
405.7589936894388
 30
0.0
 11
291.2994777604716
 21
406.7964089980717
 31
0.0
  0
LINE
  5
10F6
330
A
100
AcDbEntity
  8
LAYER_1
  6
Continuous
 62
     7
100
AcDbLine
 10
291.4388674569984
 20
405.7589936894388
 30
0.0
 11
291.2994777604716
 21
405.8983833859648
 31
0.0
  0
LINE
  5
10F7
330
A
100
AcDbEntity
  8
LAYER_1
  6
Continuous
 62
     7
100
AcDbLine
 10
301.6352939693797
 20
405.7589936894388
 30
0.0
 11
301.7555670358044
 21
405.8792667558627
 31
0.0
  0
LINE
  5
10F8
330
A
100
AcDbEntity
  8
LAYER_1
  6
Continuous
 62
     7
100
AcDbLine
 10
300.7372683572735
 20
405.7589936894388
 30
0.0
 11
301.7555670358036
 21
406.7772923679698
 31
0.0
  0
LINE
  5
10F9
330
A
100
AcDbEntity
  8
LAYER_1
  6
Continuous
 62
     7
100
AcDbLine
 10
299.8392427451667
 20
405.7589936894388
 30
0.0
 11
301.7555670358036
 21
407.6753179800759
 31
0.0
  0
LINE
  5
10FA
330
A
100
AcDbEntity
  8
LAYER_1
  6
Continuous
 62
     7
100
AcDbLine
 10
298.9412171330594
 20
405.7589936894388
 30
0.0
 11
301.7555670358036
 21
408.5733435921828
 31
0.0
  0
LINE
  5
10FB
330
A
100
AcDbEntity
  8
LAYER_1
  6
Continuous
 62
     7
100
AcDbLine
 10
298.0431915209516
 20
405.7589936894388
 30
0.0
 11
301.7555670358044
 21
409.4713692042907
 31
0.0
  0
LINE
  5
10FC
330
A
100
AcDbEntity
  8
LAYER_1
  6
Continuous
 62
     7
100
AcDbLine
 10
297.1451659088455
 20
405.7589936894388
 30
0.0
 11
301.7555670358036
 21
410.3693948163968
 31
0.0
  0
LINE
  5
10FD
330
A
100
AcDbEntity
  8
LAYER_1
  6
Continuous
 62
     7
100
AcDbLine
 10
296.9812751846355
 20
406.4931285773358
 30
0.0
 11
301.7555670358044
 21
411.2674204285037
 31
0.0
  0
LINE
  5
10FE
330
A
100
AcDbEntity
  8
LAYER_1
  6
Continuous
 62
     7
100
AcDbLine
 10
296.9812751846355
 20
407.3911541894418
 30
0.0
 11
301.7555670358044
 21
412.1654460406108
 31
0.0
  0
LINE
  5
10FF
330
A
100
AcDbEntity
  8
LAYER_1
  6
Continuous
 62
     7
100
AcDbLine
 10
294.4510890725246
 20
405.7589936894388
 30
0.0
 11
295.1223865205374
 21
406.4302911374518
 31
0.0
  0
LINE
  5
1100
330
A
100
AcDbEntity
  8
LAYER_1
  6
Continuous
 62
     7
100
AcDbLine
 10
296.9812751846355
 20
408.2891798015498
 30
0.0
 11
301.7555670358044
 21
413.0634716527177
 31
0.0
  0
LINE
  5
1101
330
A
100
AcDbEntity
  8
LAYER_1
  6
Continuous
 62
     7
100
AcDbLine
 10
293.5530634604176
 20
405.7589936894388
 30
0.0
 11
295.1223865205374
 21
407.3283167495587
 31
0.0
  0
LINE
  5
1102
330
A
100
AcDbEntity
  8
LAYER_1
  6
Continuous
 62
     7
100
AcDbLine
 10
300.9030634604178
 20
413.1089936894388
 30
0.0
 11
301.7555670358044
 21
413.9614972648248
 31
0.0
  0
LINE
  5
1103
330
A
100
AcDbEntity
  8
LAYER_1
  6
Continuous
 62
     7
100
AcDbLine
 10
296.9812751846355
 20
409.1872054136558
 30
0.0
 11
300.9030634604178
 21
413.1089936894388
 31
0.0
  0
LINE
  5
1104
330
A
100
AcDbEntity
  8
LAYER_1
  6
Continuous
 62
     7
100
AcDbLine
 10
292.6550378483105
 20
405.7589936894388
 30
0.0
 11
295.1223865205374
 21
408.2263423616658
 31
0.0
  0
LINE
  5
1105
330
A
100
AcDbEntity
  8
LAYER_1
  6
Continuous
 62
     7
100
AcDbLine
 10
300.0050378483103
 20
413.1089936894388
 30
0.0
 11
301.7555670358036
 21
414.8595228769318
 31
0.0
  0
LINE
  5
1106
330
A
100
AcDbEntity
  8
LAYER_1
  6
Continuous
 62
     7
100
AcDbLine
 10
296.9812751846355
 20
410.0852310257638
 30
0.0
 11
300.0050378483103
 21
413.1089936894388
 31
0.0
  0
LINE
  5
1107
330
A
100
AcDbEntity
  8
LAYER_1
  6
Continuous
 62
     7
100
AcDbLine
 10
291.7570122362035
 20
405.7589936894388
 30
0.0
 11
295.1223865205374
 21
409.1243679737726
 31
0.0
  0
LINE
  5
1108
330
A
100
AcDbEntity
  8
LAYER_1
  6
Continuous
 62
     7
100
AcDbLine
 10
299.1070122362036
 20
413.1089936894388
 30
0.0
 11
301.7555670358036
 21
415.7575484890388
 31
0.0
  0
LINE
  5
1109
330
A
100
AcDbEntity
  8
LAYER_1
  6
Continuous
 62
     7
100
AcDbLine
 10
296.9812751846355
 20
410.9832566378706
 30
0.0
 11
299.1070122362036
 21
413.1089936894388
 31
0.0
  0
LINE
  5
110A
330
A
100
AcDbEntity
  8
LAYER_1
  6
Continuous
 62
     7
100
AcDbLine
 10
291.2994777604716
 20
406.1994848258128
 30
0.0
 11
295.1223865205374
 21
410.0223935858798
 31
0.0
  0
LINE
  5
110B
330
A
100
AcDbEntity
  8
LAYER_1
  6
Continuous
 62
     7
100
AcDbLine
 10
298.2089866240977
 20
413.1089936894388
 30
0.0
 11
301.7555670358036
 21
416.6555741011457
 31
0.0
  0
LINE
  5
110C
330
A
100
AcDbEntity
  8
LAYER_1
  6
Continuous
 62
     7
100
AcDbLine
 10
296.9812751846355
 20
411.8812822499767
 30
0.0
 11
298.2089866240977
 21
413.1089936894388
 31
0.0
  0
LINE
  5
110D
330
A
100
AcDbEntity
  8
LAYER_1
  6
Continuous
 62
     7
100
AcDbLine
 10
291.2994777604716
 20
407.0975104379208
 30
0.0
 11
295.1223865205374
 21
410.9204191979868
 31
0.0
  0
LINE
  5
110E
330
A
100
AcDbEntity
  8
LAYER_1
  6
Continuous
 62
     7
100
AcDbLine
 10
297.3109610119907
 20
413.1089936894388
 30
0.0
 11
301.7555670358044
 21
417.5535997132526
 31
0.0
  0
LINE
  5
110F
330
A
100
AcDbEntity
  8
LAYER_1
  6
Continuous
 62
     7
100
AcDbLine
 10
296.9812751846355
 20
412.7793078620836
 30
0.0
 11
297.3109610119907
 21
413.1089936894388
 31
0.0
  0
LINE
  5
1110
330
A
100
AcDbEntity
  8
LAYER_1
  6
Continuous
 62
     7
100
AcDbLine
 10
291.2994777604716
 20
407.9955360500268
 30
0.0
 11
295.1223865205374
 21
411.8184448100938
 31
0.0
  0
LINE
  5
1111
330
A
100
AcDbEntity
  8
LAYER_1
  6
Continuous
 62
     7
100
AcDbLine
 10
296.9812751846355
 20
413.6773334741908
 30
0.0
 11
301.7555670358044
 21
418.4516253253597
 31
0.0
  0
LINE
  5
1112
330
A
100
AcDbEntity
  8
LAYER_1
  6
Continuous
 62
     7
100
AcDbLine
 10
291.2994777604716
 20
408.8935616621338
 30
0.0
 11
295.1223865205374
 21
412.7164704221999
 31
0.0
  0
LINE
  5
1113
330
A
100
AcDbEntity
  8
LAYER_1
  6
Continuous
 62
     7
100
AcDbLine
 10
296.9812751846355
 20
414.5753590862977
 30
0.0
 11
301.7555670358044
 21
419.3496509374666
 31
0.0
  0
LINE
  5
1114
330
A
100
AcDbEntity
  8
LAYER_1
  6
Continuous
 62
     7
100
AcDbLine
 10
291.2994777604716
 20
409.7915872742407
 30
0.0
 11
294.6168841756693
 21
413.1089936894388
 31
0.0
  0
LINE
  5
1115
330
A
100
AcDbEntity
  8
LAYER_1
  6
Continuous
 62
     7
100
AcDbLine
 10
296.9812751846355
 20
415.4733846984048
 30
0.0
 11
301.7555670358044
 21
420.2476765495738
 31
0.0
  0
LINE
  5
1116
330
A
100
AcDbEntity
  8
LAYER_1
  6
Continuous
 62
     7
100
AcDbLine
 10
294.6168841756693
 20
413.1089936894388
 30
0.0
 11
295.1223865205374
 21
413.6144960343076
 31
0.0
  0
LINE
  5
1117
330
A
100
AcDbEntity
  8
LAYER_1
  6
Continuous
 62
     7
100
AcDbLine
 10
291.2994777604716
 20
410.6896128863478
 30
0.0
 11
293.7188585635627
 21
413.1089936894388
 31
0.0
  0
LINE
  5
1118
330
A
100
AcDbEntity
  8
LAYER_1
  6
Continuous
 62
     7
100
AcDbLine
 10
296.9812751846355
 20
416.3714103105117
 30
0.0
 11
301.0688585635627
 21
420.4589936894389
 31
0.0
  0
LINE
  5
1119
330
A
100
AcDbEntity
  8
LAYER_1
  6
Continuous
 62
     7
100
AcDbLine
 10
293.7188585635627
 20
413.1089936894388
 30
0.0
 11
295.1223865205374
 21
414.5125216464139
 31
0.0
  0
LINE
  5
111A
330
A
100
AcDbEntity
  8
LAYER_1
  6
Continuous
 62
     7
100
AcDbLine
 10
291.2994777604716
 20
411.5876384984546
 30
0.0
 11
292.8208329514556
 21
413.1089936894388
 31
0.0
  0
LINE
  5
111B
330
A
100
AcDbEntity
  8
LAYER_1
  6
Continuous
 62
     7
100
AcDbLine
 10
296.9812751846355
 20
417.2694359226187
 30
0.0
 11
300.1708329514554
 21
420.4589936894389
 31
0.0
  0
LINE
  5
111C
330
A
100
AcDbEntity
  8
LAYER_1
  6
Continuous
 62
     7
100
AcDbLine
 10
292.8208329514556
 20
413.1089936894388
 30
0.0
 11
295.1223865205374
 21
415.4105472585206
 31
0.0
  0
LINE
  5
111D
330
A
100
AcDbEntity
  8
LAYER_1
  6
Continuous
 62
     7
100
AcDbLine
 10
291.2994777604716
 20
412.4856641105618
 30
0.0
 11
291.9228073393486
 21
413.1089936894388
 31
0.0
  0
LINE
  5
111E
330
A
100
AcDbEntity
  8
LAYER_1
  6
Continuous
 62
     7
100
AcDbLine
 10
296.9812751846355
 20
418.1674615347247
 30
0.0
 11
299.2728073393487
 21
420.4589936894389
 31
0.0
  0
LINE
  5
111F
330
A
100
AcDbEntity
  8
LAYER_1
  6
Continuous
 62
     7
100
AcDbLine
 10
291.9228073393486
 20
413.1089936894388
 30
0.0
 11
295.1223865205374
 21
416.3085728706277
 31
0.0
  0
LINE
  5
1120
330
A
100
AcDbEntity
  8
LAYER_1
  6
Continuous
 62
     7
100
AcDbLine
 10
291.2994777604716
 20
413.3836897226687
 30
0.0
 11
295.1223865205374
 21
417.2065984827348
 31
0.0
  0
LINE
  5
1121
330
A
100
AcDbEntity
  8
LAYER_1
  6
Continuous
 62
     7
100
AcDbLine
 10
296.9812751846355
 20
419.0654871468328
 30
0.0
 11
298.3747817272415
 21
420.4589936894389
 31
0.0
  0
LINE
  5
1122
330
A
100
AcDbEntity
  8
LAYER_1
  6
Continuous
 62
     7
100
AcDbLine
 10
291.2994777604716
 20
414.2817153347758
 30
0.0
 11
295.1223865205374
 21
418.1046240948417
 31
0.0
  0
LINE
  5
1123
330
A
100
AcDbEntity
  8
LAYER_1
  6
Continuous
 62
     7
100
AcDbLine
 10
296.9812751846355
 20
419.9635127589387
 30
0.0
 11
297.4767561151347
 21
420.4589936894389
 31
0.0
  0
LINE
  5
1124
330
A
100
AcDbEntity
  8
LAYER_1
  6
Continuous
 62
     7
100
AcDbLine
 10
291.2994777604716
 20
415.1797409468827
 30
0.0
 11
295.1223865205374
 21
419.0026497069489
 31
0.0
  0
LINE
  5
1125
330
A
100
AcDbEntity
  8
LAYER_1
  6
Continuous
 62
     7
100
AcDbLine
 10
291.2994777604716
 20
416.0777665589896
 30
0.0
 11
295.1223865205374
 21
419.9006753190557
 31
0.0
  0
LINE
  5
1126
330
A
100
AcDbEntity
  8
LAYER_1
  6
Continuous
 62
     7
100
AcDbLine
 10
291.2994777604716
 20
416.9757921710968
 30
0.0
 11
294.7826792788146
 21
420.4589936894389
 31
0.0
  0
LINE
  5
1127
330
A
100
AcDbEntity
  8
LAYER_1
  6
Continuous
 62
     7
100
AcDbLine
 10
291.2994777604716
 20
417.8738177832036
 30
0.0
 11
293.8846536667076
 21
420.4589936894389
 31
0.0
  0
LINE
  5
1128
330
A
100
AcDbEntity
  8
LAYER_1
  6
Continuous
 62
     7
100
AcDbLine
 10
291.2994777604716
 20
418.7718433953098
 30
0.0
 11
292.9866280545994
 21
420.4589936894389
 31
0.0
  0
LINE
  5
1129
330
A
100
AcDbEntity
  8
LAYER_1
  6
Continuous
 62
     7
100
AcDbLine
 10
291.2994777604716
 20
419.6698690074168
 30
0.0
 11
292.0886024424937
 21
420.4589936894389
 31
0.0
  0
LINE
  5
112A
330
A
100
AcDbEntity
  8
LAYER_1
  6
Continuous
 62
     7
100
AcDbLine
 10
184.0679846697485
 20
409.8089936894387
 30
0.0
 11
245.9154603032255
 21
409.8089936894387
 31
0.0
  0
LINE
  5
112B
330
A
100
AcDbEntity
  8
LAYER_1
  6
Continuous
 62
     7
100
AcDbLine
 10
247.0338202031977
 20
409.8089936894387
 30
0.0
 11
264.0679846697485
 21
409.8089936894387
 31
0.0
  0
LINE
  5
112C
330
A
100
AcDbEntity
  8
LAYER_1
  6
Continuous
 62
     7
100
AcDbLine
 10
184.0679846697485
 20
416.4089936894388
 30
0.0
 11
246.1895445193446
 21
416.4089936894388
 31
0.0
  0
LINE
  5
112D
330
A
100
AcDbEntity
  8
LAYER_1
  6
Continuous
 62
     7
100
AcDbLine
 10
247.2912206152213
 20
416.4089936894388
 30
0.0
 11
264.0679846697485
 21
416.4089936894388
 31
0.0
  0
LWPOLYLINE
  5
112E
330
A
100
AcDbEntity
  8
LAYER_1
  6
Continuous
 62
     7
100
AcDbPolyline
 90
      270
 70
     0
 43
0.0
 10
246.6241759252075
 20
419.4755264300338
 10
246.5949483267604
 20
419.4458283560037
 10
246.5661327224066
 20
419.4160568588316
 10
246.5377356100875
 20
419.3862107804928
 10
246.5097634877414
 20
419.3562889629628
 10
246.4822228533094
 20
419.3262902482177
 10
246.4551202047295
 20
419.2962134782327
 10
246.4284620399433
 20
419.2660574949847
 10
246.4022548568898
 20
419.2358211404487
 10
246.3765051535074
 20
419.2055032566007
 10
246.3512194277386
 20
419.1751026854158
 10
246.3264041775207
 20
419.1446182688708
 10
246.3020659007944
 20
419.1140488489407
 10
246.2782110954996
 20
419.0833932676018
 10
246.2548462595756
 20
419.0526503668288
 10
246.2319778909625
 20
419.0218189885978
 10
246.2096124875995
 20
418.9908979748857
 10
246.1877565474265
 20
418.9598861676667
 10
246.1664165683844
 20
418.9287824089178
 10
246.1455990484115
 20
418.8975855406138
 10
246.1253104854473
 20
418.8662944047308
 10
246.1055573774337
 20
418.8349078432448
 10
246.0863462223085
 20
418.8034246981307
 10
246.0676835180114
 20
418.7718438113657
 10
246.0495757624835
 20
418.7401640249248
 10
246.0320294536626
 20
418.7083841807829
 10
246.0150510894907
 20
418.6765031209167
 10
245.9986471679054
 20
418.6445196873016
 10
245.9828241868474
 20
418.6124327219138
 10
245.9675886442577
 20
418.5802410667288
 10
245.9529470380735
 20
418.5479435637216
 10
245.9389058662366
 20
418.5155390548697
 10
245.9321124738046
 20
418.4992963113686
 10
245.9254716266856
 20
418.4830263821468
 10
245.9189841371246
 20
418.4667291224518
 10
245.9126508173615
 20
418.4504043875298
 10
245.9064724796396
 20
418.4340520326287
 10
245.9004499362024
 20
418.4176719129948
 10
245.8945839992906
 20
418.4012638838746
 10
245.8888754811486
 20
418.3848278005158
 10
245.8833251940176
 20
418.3683635181656
 10
245.8779339501405
 20
418.3518708920706
 10
245.8727025617596
 20
418.3353497774777
 10
245.8676318411166
 20
418.3188000296337
 10
245.8627226004556
 20
418.3022215037858
 10
245.8579756520185
 20
418.2856140551816
 10
245.8533918080464
 20
418.2689775390668
 10
245.8489718807835
 20
418.252311810689
 10
245.8447166824726
 20
418.2356167252958
 10
245.8406270253535
 20
418.2188921381329
 10
245.8367037216715
 20
418.2021379044476
 10
245.8329475836677
 20
418.1853538794877
 10
245.8293594235846
 20
418.1685399184998
 10
245.8259400536654
 20
418.1516958767307
 10
245.8226902861515
 20
418.1348216094277
 10
245.8196109332853
 20
418.1179169718368
 10
245.8167028073115
 20
418.1009818192057
 10
245.8139667204706
 20
418.0840160067819
 10
245.8114034850044
 20
418.0670193898107
 10
245.8090139131576
 20
418.0499918235408
 10
245.8067988171705
 20
418.0329331632187
 10
245.8047590092867
 20
418.0158432640907
 10
245.8028953017486
 20
417.9987219814038
 10
245.8012085067983
 20
417.9815691704068
 10
245.7996994366788
 20
417.9643846863438
 10
245.7983689036326
 20
417.9471683844639
 10
245.7972177199014
 20
417.929920120014
 10
245.7962466977277
 20
417.9126397482388
 10
245.7948483870254
 20
417.8779821037078
 10
245.7944409229944
 20
417.8615560895168
 10
245.7941952025804
 20
417.8451011331837
 10
245.7941098031686
 20
417.8286173710828
 10
245.7941833021466
 20
417.8121049395898
 10
245.7944142769006
 20
417.7955639750778
 10
245.7948013048177
 20
417.7789946139227
 10
245.7953429632854
 20
417.7623969924987
 10
245.7960378296898
 20
417.7457712471797
 10
245.7978814958586
 20
417.7124359303587
 10
245.8003209224185
 20
417.6789897544578
 10
245.8033447284666
 20
417.6454338104727
 10
245.8069415330965
 20
417.6117691894017
 10
245.8110999554045
 20
417.5779969822416
 10
245.8158086144864
 20
417.5441182799907
 10
245.8210561294366
 20
417.5101341736458
 10
245.8268311193505
 20
417.4760457542047
 10
245.8331222033244
 20
417.4418541126648
 10
245.8399180004525
 20
417.4075603400226
 10
245.8472071298314
 20
417.3731655272767
 10
245.8549782105566
 20
417.3386707654236
 10
245.8632198617216
 20
417.3040771454608
 10
245.8719207024234
 20
417.2693857583868
 10
245.8810693517576
 20
417.2345976951968
 10
245.8906544288174
 20
417.1997140468898
 10
245.9006645527016
 20
417.1647359044626
 10
245.9110883425024
 20
417.1296643589137
 10
245.9219144173176
 20
417.0945005012388
 10
245.9331313962406
 20
417.0592454224367
 10
245.9447278983685
 20
417.0239002135038
 10
245.9566925427956
 20
416.9884659654378
 10
245.9690139486174
 20
416.9529437692358
 10
245.9816807349296
 20
416.9173347158959
 10
245.9946815208275
 20
416.8816398964156
 10
246.0147840531687
 20
416.8279392422366
 10
246.0355740669886
 20
416.7740517511019
 10
246.0570131517355
 20
416.7199811051258
 10
246.0790628968556
 20
416.6657309864258
 10
246.1016848917956
 20
416.6113050771178
 10
246.1248407260015
 20
416.5567070593167
 10
246.1484919889226
 20
416.5019406151418
 10
246.1807312844285
 20
416.4286630571398
 10
246.2136920094276
 20
416.3551013484336
 10
246.2472831166836
 20
416.2812642170027
 10
246.2900197710266
 20
416.1885937860358
 10
246.3421657548144
 20
416.0768632129038
 10
246.5012754625774
 20
415.7385129683717
 10
246.5541783358826
 20
415.6247749015797
 10
246.5978348212347
 20
415.5296648081798
 10
246.6323510156775
 20
415.4533740733868
 10
246.6664050255336
 20
415.3769126516168
 10
246.6915874536875
 20
415.3194598223868
 10
246.7164202783876
 20
415.2619195733367
 10
246.7408650890814
 20
415.2042955865816
 10
246.7648834752154
 20
415.1465915442406
 10
246.7884370262364
 20
415.0888111284277
 10
246.8114873315917
 20
415.0309580212597
 10
246.8339959807274
 20
414.9730359048528
 10
246.8559245630927
 20
414.9150484613227
 10
246.8702023905096
 20
414.8763556911188
 10
246.8841939582106
 20
414.8376366141318
 10
246.8978878852916
 20
414.7988923213588
 10
246.9112727908476
 20
414.7601239037978
 10
246.9243372939746
 20
414.7213324524447
 10
246.9370700137666
 20
414.6825190582986
 10
246.9494595693196
 20
414.6436848123557
 10
246.9614945797294
 20
414.6048308056148
 10
246.9731636640916
 20
414.5659581290708
 10
246.9844554415004
 20
414.5270678737237
 10
246.9953585310526
 20
414.4881611305688
 10
247.0058615518427
 20
414.4492389906048
 10
247.0159531229666
 20
414.4103025448287
 10
247.0256218635183
 20
414.3713528842377
 10
247.0348563925946
 20
414.3323910998297
 10
247.0436453292914
 20
414.2934182826017
 10
247.0519772927026
 20
414.2544355235517
 10
247.0635935171805
 20
414.1959451306158
 10
247.0693434901446
 20
414.1647578527938
 10
247.0747856555614
 20
414.1335664013198
 10
247.0799225897796
 20
414.1023712154237
 10
247.0847568691464
 20
414.0711727343378
 10
247.0892910700094
 20
414.0399713972917
 10
247.0935277687176
 20
414.0087676435177
 10
247.0974695416165
 20
413.9775619122469
 10
247.1011189650554
 20
413.9463546427087
 10
247.1044786153815
 20
413.9151462741367
 10
247.1075510689424
 20
413.8839372457598
 10
247.1103389020867
 20
413.8527279968096
 10
247.1128446911616
 20
413.8215189665188
 10
247.1150710125147
 20
413.7903105941157
 10
247.1170204424934
 20
413.7591033188337
 10
247.1186955574466
 20
413.7278975799027
 10
247.1200989337204
 20
413.6966938165537
 10
247.1212331476646
 20
413.6654924680177
 10
247.1221007756257
 20
413.6342939735268
 10
247.1227043939506
 20
413.6030987723106
 10
247.1230465789886
 20
413.5719073036018
 10
247.1231299070866
 20
413.5407200066298
 10
247.1229569545925
 20
413.5095373206267
 10
247.1225302978536
 20
413.4783596848228
 10
247.1218525132184
 20
413.4471875384498
 10
247.1209261770356
 20
413.4160213207389
 10
247.1197538656496
 20
413.3848614709207
 10
247.1183381554116
 20
413.3537084282267
 10
247.1166816226674
 20
413.3225626318876
 10
247.1147868437653
 20
413.2914245211337
 10
247.1126563950534
 20
413.2602945351977
 10
247.1102928528783
 20
413.2291731133098
 10
247.1076987935896
 20
413.1980606947017
 10
247.1048767935335
 20
413.1669577186027
 10
247.1018294290576
 20
413.1358646242459
 10
247.0985592765106
 20
413.1047818508608
 10
247.0950689122406
 20
413.0737098376788
 10
247.0913609125935
 20
413.0426490239317
 10
247.0874378539188
 20
413.0115998488506
 10
247.0833023125626
 20
412.9805627516658
 10
247.0789568648747
 20
412.9495381716087
 10
247.0744040872005
 20
412.9185265479107
 10
247.0696465558895
 20
412.8875283198017
 10
247.0646868472896
 20
412.8565439265148
 10
247.0595275377464
 20
412.8255738072788
 10
247.0541712036104
 20
412.7946184013258
 10
247.0486204212276
 20
412.7636781478867
 10
247.0428777669457
 20
412.7327534861937
 10
247.0369458171135
 20
412.7018448554759
 10
247.0308271480776
 20
412.6709526949648
 10
247.0245243361865
 20
412.6400774438927
 10
247.0180399577876
 20
412.6092195414907
 10
247.0113765892285
 20
412.5783794269877
 10
247.0045368068573
 20
412.5475575396168
 10
246.9975231870216
 20
412.5167543186088
 10
246.9903383060684
 20
412.4859702031937
 10
246.9829847403477
 20
412.4552056326037
 10
246.9754650662046
 20
412.4244610460687
 10
246.9677818599884
 20
412.3937368828207
 10
246.9599376980456
 20
412.3630335820906
 10
246.9519351567256
 20
412.3323515831087
 10
246.9437768123746
 20
412.3016913251077
 10
246.9354652413416
 20
412.2710532473177
 10
246.9183927246177
 20
412.2098453892938
 10
246.9007382173357
 20
412.1487315228867
 10
246.8825223302786
 20
412.0877151619438
 10
246.8637656742274
 20
412.0267998203159
 10
246.8444888599646
 20
411.9659890118488
 10
246.8247124982706
 20
411.9052862503927
 10
246.8044571999285
 20
411.8446950497959
 10
246.7837435757205
 20
411.7842189239056
 10
246.7625922364276
 20
411.7238613865717
 10
246.7410237928327
 20
411.6636259516418
 10
246.7190588557164
 20
411.6035161329648
 10
246.6967180358616
 20
411.5435354443887
 10
246.6740219440504
 20
411.4836873997639
 10
246.6509911910635
 20
411.4239755129358
 10
246.6276463876833
 20
411.3644032977548
 10
246.6040081446915
 20
411.3049742680687
 10
246.5800970728715
 20
411.2456919377258
 10
246.5559337830025
 20
411.1865598205756
 10
246.5315388858686
 20
411.1275814304658
 10
246.4973380928305
 20
411.0460087364587
 10
246.4627369992645
 20
410.9647343583736
 10
246.4277414966224
 20
410.8837539057258
 10
246.3923574763575
 20
410.8030629880288
 10
246.3565908299195
 20
410.7226572147968
 10
246.3204474487605
 20
410.6425321955438
 10
246.2839332243336
 20
410.5626835397837
 10
246.2470540480885
 20
410.4831068570316
 10
246.2098158114784
 20
410.4037977568008
 10
246.1722244059557
 20
410.3247518486037
 10
246.1342857229693
 20
410.2459647419567
 10
246.0960056539746
 20
410.1674320463728
 10
246.0573900904205
 20
410.0891493713657
 10
246.0184449237595
 20
410.0111123264498
 10
245.9791760454434
 20
409.9333165211389
 10
245.9395893469238
 20
409.8557575649476
 10
245.8996907196536
 20
409.7784310673898
 10
245.8594860550825
 20
409.7013326379776
 10
245.8189812446633
 20
409.6244578862277
 10
245.7781821798485
 20
409.5478024216527
 10
245.7370947520887
 20
409.4713618537678
 10
245.6957248528353
 20
409.3951317920848
 10
245.6540783735414
 20
409.3191078461199
 10
245.6121612056576
 20
409.2432856253848
 10
245.5699792406365
 20
409.1676607393958
 10
245.5275383699285
 20
409.0922287976658
 10
245.4848444849866
 20
409.0169854097097
 10
245.4419034772626
 20
408.9419261850398
 10
245.3987212382066
 20
408.8670467331718
 10
245.3553036592725
 20
408.7923426636187
 10
245.3116566319104
 20
408.7178095858956
 10
245.2677860475724
 20
408.6434431095147
 10
245.2015738892876
 20
408.5321961682748
 10
245.1348918672224
 20
408.4212993835729
 10
245.0677598650276
 20
408.3107379375189
 10
245.0001977663523
 20
408.2004970122236
 10
244.9322254548464
 20
408.0905617897959
 10
244.8638628141606
 20
407.9809174523457
 10
244.7951297279415
 20
407.8715491819838
 10
244.7260460798414
 20
407.7624421608178
 10
244.6566317535086
 20
407.6535815709599
 10
244.5869066325935
 20
407.5449525945177
 10
244.5168906007446
 20
407.4365404136028
 10
244.4466035416118
 20
407.3283302103237
  0
LWPOLYLINE
  5
123E
330
A
100
AcDbEntity
  8
LAYER_1
  6
Continuous
 62
     7
100
AcDbPolyline
 90
      259
 70
     0
 43
0.0
 10
248.1752436676466
 20
419.4755264300087
 10
248.1090832790225
 20
419.4265804395258
 10
248.0440947555766
 20
419.3778136893596
 10
247.9860725530546
 20
419.3336426688398
 10
247.9290963945377
 20
419.2896326238207
 10
247.8732032135434
 20
419.2457896700208
 10
247.8184299435904
 20
419.2021199231568
 10
247.7701220501244
 20
419.1629702975518
 10
247.7227781252856
 20
419.1239703816546
 10
247.6764250936077
 20
419.0851246338239
 10
247.6310898796256
 20
419.0464375124188
 10
247.6211563182435
 20
419.0378623646749
 10
247.6211563182435
 20
419.0378623646749
 10
247.6211563182435
 20
419.0378623646749
 10
247.5834572676834
 20
419.0049687692628
 10
247.5465592502566
 20
418.9722105982526
 10
247.5104731426745
 20
418.9396015837107
 10
247.4752098216534
 20
418.9071554577008
 10
247.4407801639064
 20
418.8748859522879
 10
247.4071950461476
 20
418.8428067995377
 10
247.3744653450907
 20
418.8109317315158
 10
247.3426019374496
 20
418.7792744802847
 10
247.3116156999386
 20
418.7478487779118
 10
247.2815175092714
 20
418.7166683564607
 10
247.2523182421614
 20
418.6857469479977
 10
247.2240287753244
 20
418.6550982845858
 10
247.1966599854724
 20
418.6247360982917
 10
247.1702227493206
 20
418.5946741211798
 10
247.1447279435813
 20
418.5649260853138
 10
247.1201864449717
 20
418.5355057227618
 10
247.0966091302025
 20
418.5064267655857
 10
247.0740068759887
 20
418.4777029458516
 10
247.0523905590446
 20
418.4493479956248
 10
247.0317710560836
 20
418.4213756469699
 10
247.0317710560836
 20
418.4213756469699
 10
247.0317710560836
 20
418.4213756469699
 10
247.0140718937055
 20
418.3965564532028
 10
246.9971812452905
 20
418.3721046414018
 10
246.9810859946466
 20
418.3480238291947
 10
246.9657730255754
 20
418.3243176342087
 10
246.9512292218826
 20
418.3009896740717
 10
246.9374414673736
 20
418.2780435664116
 10
246.9243966458516
 20
418.2554829288577
 10
246.9120816411226
 20
418.2333113790348
 10
246.9004833369896
 20
418.2115325345738
 10
246.8895886172584
 20
418.1901500131008
 10
246.8793843657325
 20
418.1691674322438
 10
246.8698574662176
 20
418.1485884096308
 10
246.8609948025174
 20
418.1284165628897
 10
246.8527832584364
 20
418.1086555096487
 10
246.8452097177808
 20
418.0893088675346
 10
246.8382610643522
 20
418.0703802541768
 10
246.8339693111725
 20
418.0579952032847
 10
246.8339693111725
 20
418.0579952032847
 10
246.8339693111725
 20
418.0579952032847
 10
246.8273941369877
 20
418.0377847438808
 10
246.8214878940176
 20
418.0180279641076
 10
246.8162267553416
 20
417.9986786225677
 10
246.8115868940397
 20
417.9796904778668
 10
246.8075444831934
 20
417.9610172886067
 10
246.8040756958817
 20
417.9426128133926
 10
246.8011567051836
 20
417.9244308108277
 10
246.7985713944896
 20
417.9047952918298
 10
246.7967249841046
 20
417.8869290346727
 10
246.7967249841046
 20
417.8869290346727
 10
246.7967249841046
 20
417.8869290346727
 10
246.7952307079157
 20
417.8671352321126
 10
246.7943616578737
 20
417.8483206926127
 10
246.7940320498565
 20
417.8289486064527
 10
246.7942730993345
 20
417.8087953400596
 10
246.7951160217765
 20
417.7876372598598
 10
246.7965920326537
 20
417.7652507322768
 10
246.7989114716066
 20
417.7396478929758
 10
246.7989114716066
 20
417.7396478929758
 10
246.7989114716066
 20
417.7396478929758
 10
246.8015863599625
 20
417.7160953325297
 10
246.8049193444656
 20
417.6914314277978
 10
246.8089280919534
 20
417.6656740680277
 10
246.8136302692623
 20
417.6388411424628
 10
246.8190435432295
 20
417.6109505403507
 10
246.8251855806894
 20
417.5820201509358
 10
246.8320740484816
 20
417.5520678634638
 10
246.8372895334805
 20
417.5307424424497
 10
246.8372895334805
 20
417.5307424424497
 10
246.8372895334805
 20
417.5307424424497
 10
246.8455304980666
 20
417.4989910156307
 10
246.8545777411167
 20
417.4662986380118
 10
246.8644144565704
 20
417.4326874940657
 10
246.8750238383658
 20
417.3981797682656
 10
246.8863890804417
 20
417.3627976450847
 10
246.8984933767373
 20
417.3265633089938
 10
246.9139704209294
 20
417.2819884203836
 10
246.9304584615956
 20
417.2362566255958
 10
246.9479284578645
 20
417.1894062593966
 10
246.9663513688606
 20
417.1414756565586
 10
246.9856981537108
 20
417.0925031518488
 10
247.0059397715426
 20
417.0425270800357
 10
247.0306472182344
 20
416.9830044082147
 10
247.0564869883536
 20
416.9222288221347
 10
247.0834129660653
 20
416.8602611959857
 10
247.1113790355406
 20
416.7971624039638
 10
247.1361428237636
 20
416.7422235530958
 10
247.1361428237636
 20
416.7422235530958
 10
247.1361428237636
 20
416.7422235530958
 10
247.1745333964515
 20
416.6583993866336
 10
247.2187207853364
 20
416.5632954608778
 10
247.2875357042915
 20
416.4168188978918
 10
247.3876530497606
 20
416.2042115613657
 10
247.4412202643607
 20
416.0894122826187
 10
247.4853405464006
 20
415.9937642662457
 10
247.5246337928696
 20
415.9074610193506
 10
247.5638752881166
 20
415.8199653799748
 10
247.5980766613874
 20
415.7424398340598
 10
247.6078136322663
 20
415.7201253587847
 10
247.6078136322663
 20
415.7201253587847
 10
247.6078136322663
 20
415.7201253587847
 10
247.6369167461303
 20
415.6527324655968
 10
247.6658136958476
 20
415.5846493502307
 10
247.6944365237616
 20
415.5158619553088
 10
247.7180304536655
 20
415.4579909931768
 10
247.7413475010436
 20
415.3996130508968
 10
247.7643483385475
 20
415.3407199934129
 10
247.7869936388315
 20
415.2813036856677
 10
247.8092440745486
 20
415.2213559926068
 10
247.8267336926565
 20
415.1730097739716
 10
247.8439252923375
 20
415.1243140971497
 10
247.8607987379907
 20
415.0752647969917
 10
247.8773338940135
 20
415.0258577083496
 10
247.8935106248045
 20
414.9760886660736
 10
247.9093087947617
 20
414.9259535050147
 10
247.9247082682844
 20
414.8754480600257
 10
247.9396889097694
 20
414.8245681659567
 10
247.9542305836174
 20
414.7733096576598
 10
247.9683131542245
 20
414.7216683699857
 10
247.9819164859904
 20
414.6696401377847
 10
247.9917923715025
 20
414.6303625256928
 10
248.0013788641826
 20
414.5908631572357
 10
248.0106674693236
 20
414.5511402752427
 10
248.0225742133555
 20
414.4978257077748
 10
248.0225742133555
 20
414.4978257077748
 10
248.0225742133555
 20
414.4978257077748
 10
248.0322614370155
 20
414.4520180692728
 10
248.0414536003976
 20
414.4060608300929
 10
248.0501508173756
 20
414.3599785281718
 10
248.0583532018266
 20
414.3137957014448
 10
248.0660608676254
 20
414.2675368878486
 10
248.0732739286496
 20
414.2212266253189
 10
248.0799924987736
 20
414.1748894517918
 10
248.0862166918736
 20
414.1285499052016
 10
248.0919466218267
 20
414.0822325234868
 10
248.0971824025077
 20
414.0359618445817
 10
248.1019241477927
 20
413.9897624064218
 10
248.1061719715563
 20
413.9436587469437
 10
248.1099259876785
 20
413.8976754040847
 10
248.1131863100304
 20
413.8518369157776
 10
248.1140271681926
 20
413.8387702446526
 10
248.1140271681926
 20
413.8387702446526
 10
248.1140271681926
 20
413.8387702446526
 10
248.1166670063165
 20
413.7931085676048
 10
248.1188460538086
 20
413.7475422305558
 10
248.1207808647066
 20
413.6955864874798
 10
248.1221328178916
 20
413.6437625308508
 10
248.1229120420456
 20
413.5920742330617
 10
248.1231286658484
 20
413.5405254665019
 10
248.1227928179814
 20
413.4891201035639
 10
248.1219146271254
 20
413.4378620166378
 10
248.1205042219625
 20
413.3867550781157
 10
248.1185717311735
 20
413.3358031603887
 10
248.1161272834376
 20
413.2850101358478
 10
248.1131810074375
 20
413.2343798768848
 10
248.1106480686734
 20
413.1965163270577
 10
248.1106480686734
 20
413.1965163270577
 10
248.1106480686734
 20
413.1965163270577
 10
248.1068501255596
 20
413.1461813122098
 10
248.1025818726366
 20
413.0960196228456
 10
248.0978524548276
 20
413.0460317383616
 10
248.0926710170546
 20
412.9962181381538
 10
248.0870467042397
 20
412.9465793016167
 10
248.0809886613073
 20
412.8971157081478
 10
248.0745060331796
 20
412.8478278371418
 10
248.0676079647796
 20
412.7987161679958
 10
248.0603036010304
 20
412.7497811801066
 10
248.0526020868535
 20
412.7010233528676
 10
248.0445125671725
 20
412.6524431656767
 10
248.0360441869104
 20
412.6040410979296
 10
248.0272060909904
 20
412.5558176290217
 10
248.0180074243336
 20
412.5077732383498
 10
248.0060159701346
 20
412.4479703091087
 10
247.9934932742815
 20
412.3884488749868
 10
247.9804571979487
 20
412.3292098723048
 10
247.9669256023165
 20
412.2702542373827
 10
247.9529163485606
 20
412.2115829065406
 10
247.9384472978594
 20
412.1531968161007
 10
247.9235363113896
 20
412.0950969023808
 10
247.9082012503283
 20
412.0372841017028
 10
247.8956398704855
 20
411.9912412117567
 10
247.8956398704855
 20
411.9912412117567
 10
247.8956398704855
 20
411.9912412117567
 10
247.8779674032185
 20
411.9282600641317
 10
247.8598375863016
 20
411.8656167533599
 10
247.8412687889147
 20
411.8033107263218
 10
247.8222793802387
 20
411.7413414298938
 10
247.8028877294567
 20
411.6797083109558
 10
247.7831122057484
 20
411.6184108163877
 10
247.7629711782974
 20
411.5574483930688
 10
247.7424830162835
 20
411.4968204878756
 10
247.7216660888885
 20
411.4365265476887
 10
247.6962776695196
 20
411.3646138744786
 10
247.6704740215696
 20
411.2931803585898
 10
247.6442868869824
 20
411.2222250442287
 10
247.6177480077065
 20
411.1517469756027
 10
247.5908891256847
 20
411.0817451969178
 10
247.5591916624994
 20
411.0006771575569
 10
247.5271522493716
 20
410.9202545830209
 10
247.4948212913345
 20
410.8404759555488
 10
247.4762349583126
 20
410.7951767034148
 10
247.4762349583126
 20
410.7951767034148
 10
247.4762349583126
 20
410.7951767034148
 10
247.4457084001416
 20
410.7215840442138
 10
247.4149006160268
 20
410.6482825616758
 10
247.3838154726036
 20
410.5752686110557
 10
247.3524568365066
 20
410.5025385476097
 10
247.3208285743696
 20
410.4300887265926
 10
247.2889345528294
 20
410.3579155032607
 10
247.2567786385206
 20
410.2860152328696
 10
247.2243646980775
 20
410.2143842706748
 10
247.1916965981346
 20
410.1430189719318
 10
247.1587782053266
 20
410.0719156918958
 10
247.1145043535336
 20
409.9775126036138
 10
247.0698015760226
 20
409.8835602074268
 10
247.0246790381506
 20
409.7900498639428
 10
246.9791459052724
 20
409.6969729337656
 10
246.9332113427476
 20
409.6043207775038
 10
246.8868845159314
 20
409.5120847557608
 10
246.8401745901816
 20
409.4202562291437
 10
246.7930907308535
 20
409.3288265582587
 10
246.7456421033046
 20
409.2377871037118
 10
246.6978378728914
 20
409.1471292261078
 10
246.6496872049716
 20
409.0568442860536
 10
246.6011992649005
 20
408.9669236441558
 10
246.5523832180357
 20
408.8773586610186
 10
246.5032482297347
 20
408.7881406972496
 10
246.4538034653526
 20
408.6992611134538
 10
246.4040580902476
 20
408.6107112702368
 10
246.3540212697754
 20
408.5224825282067
 10
246.3288964317006
 20
408.4784858703248
 10
246.3288964317006
 20
408.4784858703248
 10
246.3288964317006
 20
408.4784858703248
 10
246.2680781147764
 20
408.3727996892448
 10
246.2068849705703
 20
408.2675778717957
 10
246.1453331327645
 20
408.1628089912827
 10
246.0834387350346
 20
408.0584816210087
 10
246.0212179110614
 20
407.9545843342776
 10
245.9517204396464
 20
407.8396334255078
 10
245.8818620222374
 20
407.725183702564
 10
245.8116647900806
 20
407.6112194909638
 10
245.7411508744237
 20
407.4977251162298
 10
245.6632462113996
 20
407.3734052581077
 10
245.6348346314747
 20
407.3283302103237
  0
LINE
  5
1343
330
A
100
AcDbEntity
  8
LAYER_1
  6
Continuous
 62
     7
100
AcDbLine
 10
184.0679846697485
 20
418.8089936894388
 30
0.0
 11
184.0679846697485
 21
413.1089936894398
 31
0.0
  0
LINE
  5
1344
330
A
100
AcDbEntity
  8
LAYER_1
  6
Continuous
 62
     7
100
AcDbLine
 10
183.7679846697495
 20
419.1089936894388
 30
0.0
 11
184.0679846697485
 21
418.8089936894388
 31
0.0
  0
LINE
  5
1345
330
A
100
AcDbEntity
  8
LAYER_1
  6
Continuous
 62
     7
100
AcDbLine
 10
184.0679846697485
 20
407.4089936894388
 30
0.0
 11
184.0679846697485
 21
413.1089936894388
 31
0.0
  0
LINE
  5
1346
330
A
100
AcDbEntity
  8
LAYER_1
  6
Continuous
 62
     7
100
AcDbLine
 10
183.7679846697495
 20
407.1089936894399
 30
0.0
 11
184.0679846697485
 21
407.4089936894388
 31
0.0
  0
LINE
  5
1347
330
A
100
AcDbEntity
  8
LAYER_1
  6
Continuous
 62
     7
100
AcDbLine
 10
145.2679846697485
 20
419.1089936894399
 30
0.0
 11
183.7679846697495
 21
419.1089936894388
 31
0.0
  0
LINE
  5
1348
330
A
100
AcDbEntity
  8
LAYER_1
  6
Continuous
 62
     7
100
AcDbLine
 10
145.2679846697485
 20
407.1089936894399
 30
0.0
 11
183.7679846697495
 21
407.1089936894399
 31
0.0
  0
LINE
  5
1349
330
A
100
AcDbEntity
  8
LAYER_1
  6
Continuous
 62
     7
100
AcDbLine
 10
145.2679846697485
 20
419.1089936894399
 30
0.0
 11
145.0679846697483
 21
418.9089936894398
 31
0.0
  0
LINE
  5
134A
330
A
100
AcDbEntity
  8
LAYER_1
  6
Continuous
 62
     7
100
AcDbLine
 10
145.2679846697485
 20
407.1089936894399
 30
0.0
 11
145.0679846697483
 21
407.3089936894398
 31
0.0
  0
LINE
  5
134B
330
A
100
AcDbEntity
  8
LAYER_1
  6
Continuous
 62
     7
100
AcDbLine
 10
144.8679846697485
 20
407.1089936894399
 30
0.0
 11
145.0679846697483
 21
407.3089936894398
 31
0.0
  0
LINE
  5
134C
330
A
100
AcDbEntity
  8
LAYER_1
  6
Continuous
 62
     7
100
AcDbLine
 10
135.0679846697485
 20
407.3089936894398
 30
0.0
 11
135.0679846697485
 21
413.1089936894398
 31
0.0
  0
LINE
  5
134D
330
A
100
AcDbEntity
  8
LAYER_1
  6
Continuous
 62
     7
100
AcDbLine
 10
135.0679846697485
 20
418.9089936894398
 30
0.0
 11
135.0679846697485
 21
413.1089936894398
 31
0.0
  0
LINE
  5
134E
330
A
100
AcDbEntity
  8
LAYER_1
  6
Continuous
 62
     7
100
AcDbLine
 10
135.2679846697485
 20
419.1089936894399
 30
0.0
 11
135.0679846697485
 21
418.9089936894398
 31
0.0
  0
LINE
  5
134F
330
A
100
AcDbEntity
  8
LAYER_1
  6
Continuous
 62
     7
100
AcDbLine
 10
135.2679846697485
 20
407.1089936894399
 30
0.0
 11
135.0679846697485
 21
407.3089936894398
 31
0.0
  0
LWPOLYLINE
  5
1350
330
A
100
AcDbEntity
  8
LAYER_1
  6
Continuous
 62
     7
100
AcDbPolyline
 90
        2
 70
     0
 43
0.0
 10
135.2679846697485
 20
419.1089936894399
 10
144.8679846697485
 20
419.1089936894399
  0
LWPOLYLINE
  5
1354
330
A
100
AcDbEntity
  8
LAYER_1
  6
Continuous
 62
     7
100
AcDbPolyline
 90
        2
 70
     0
 43
0.0
 10
135.2679846697485
 20
407.1089936894399
 10
144.8679846697485
 20
407.1089936894399
  0
LINE
  5
1358
330
A
100
AcDbEntity
  8
LAYER_1
  6
Continuous
 62
     7
100
AcDbLine
 10
144.8679846697485
 20
419.1089936894399
 30
0.0
 11
145.0679846697483
 21
418.9089936894398
 31
0.0
  0
TEXT
  5
135A
330
A
100
AcDbEntity
  8
LAYER_1
 62
     7
100
AcDbText
 10
106.7739040103595
 20
464.1471636206327
 30
0.0
 40
13.5
  1
H-1VH-02
 41
1.033333333332999
  7
ＭＳ_ゴシック
100
AcDbText
  0
LEADER
  5
135F
330
A
100
AcDbEntity
  8
LAYER_1
  6
Continuous
 62
     7
100
AcDbLeader
  3
MARK2_DIMSTYLE
 73
     0
 74
     0
 40
8.4
 41
57.6
 76
     3
 10
233.4495229008826
 20
383.5866590530546
 30
0.0
 10
244.9965282846745
 20
363.5866590530547
 30
0.0
 10
248.5113416077837
 20
363.5866590530547
 30
0.0
340
1360
  0
MTEXT
  5
1360
330
A
100
AcDbEntity
  8
LAYER_1
 62
     7
100
AcDbMText
 10
304.5603272912577
 20
364.8334317041478
 30
0.0
 40
5.4
 41
60.48
 71
     9
 72
     5
  1
\W1.034;Serial NO. Label
  7
ＭＳ_ゴシック
 73
     1
 44
1.0
  0
LEADER
  5
1365
330
A
100
AcDbEntity
  8
LAYER_1
  6
Continuous
 62
     7
100
AcDbLeader
  3
MARK2_DIMSTYLE
 73
     0
 74
     0
 40
8.4
 41
32.4
 76
     3
 10
140.3161526668184
 20
407.1089936894399
 30
0.0
 10
150.4326772859647
 20
389.5866590530577
 30
0.0
 10
158.0088758435556
 20
389.5866590530577
 30
0.0
340
1366
  0
MTEXT
  5
1366
330
A
100
AcDbEntity
  8
LAYER_1
 62
     7
100
AcDbMText
 10
185.3882152351994
 20
390.5736603124587
 30
0.0
 40
5.4
 41
34.02
 71
     9
 72
     5
  1
\W1.034;Lens Unit
  7
ＭＳ_ゴシック
 73
     1
 44
1.0
  0
LINE
  5
136B
330
A
100
AcDbEntity
  8
LAYER_1
  6
Continuous
 62
     7
100
AcDbLine
 10
299.8118944979612
 20
193.7011100003966
 30
0.0
 11
299.8118944979612
 21
168.7011100003966
 31
0.0
  0
LINE
  5
136C
330
A
100
AcDbEntity
  8
LAYER_1
  6
Continuous
 62
     7
100
AcDbLine
 10
279.8118944979612
 20
193.2011100003967
 30
0.0
 11
279.8118944979612
 21
169.2011100003966
 31
0.0
  0
LINE
  5
136D
330
A
100
AcDbEntity
  8
LAYER_1
  6
Continuous
 62
     7
100
AcDbLine
 10
299.8118944979612
 20
193.7011100003966
 30
0.0
 11
285.3118944979613
 21
193.7011100003966
 31
0.0
  0
LINE
  5
136E
330
A
100
AcDbEntity
  8
LAYER_1
  6
Continuous
 62
     7
100
AcDbLine
 10
284.8118944979613
 20
193.2011100003967
 30
0.0
 11
279.8118944979612
 21
193.2011100003967
 31
0.0
  0
LINE
  5
136F
330
A
100
AcDbEntity
  8
LAYER_1
  6
Continuous
 62
     7
100
AcDbLine
 10
299.8118944979612
 20
168.7011100003966
 30
0.0
 11
285.3118944979613
 21
168.7011100003966
 31
0.0
  0
LINE
  5
1370
330
A
100
AcDbEntity
  8
LAYER_1
  6
Continuous
 62
     7
100
AcDbLine
 10
284.8118944979613
 20
169.2011100003966
 30
0.0
 11
279.8118944979612
 21
169.2011100003966
 31
0.0
  0
ARC
  5
1371
330
A
100
AcDbEntity
  8
LAYER_1
  6
Continuous
 62
     7
100
AcDbCircle
 10
289.8118944979612
 20
181.2011100003966
 30
0.0
 40
6.0
100
AcDbArc
 50
228.1394471657459
 51
0.0
  0
ARC
  5
1372
330
A
100
AcDbEntity
  8
LAYER_1
  6
Continuous
 62
     7
100
AcDbCircle
 10
289.8118944979612
 20
181.2011100003966
 30
0.0
 40
6.0
100
AcDbArc
 50
0.0
 51
131.8605528342589
  0
ARC
  5
1373
330
A
100
AcDbEntity
  8
LAYER_1
  6
Continuous
 62
     7
100
AcDbCircle
 10
289.8118944979612
 20
181.2011100003966
 30
0.0
 40
6.0
100
AcDbArc
 50
146.442690238087
 51
213.5573097619129
  0
LINE
  5
1374
330
A
100
AcDbEntity
  8
LAYER_1
  6
Continuous
 62
     7
100
AcDbLine
 10
239.8118944979612
 20
218.7011100003967
 30
0.0
 11
199.8118944979612
 21
218.7011100003967
 31
0.0
  0
LINE
  5
1375
330
A
100
AcDbEntity
  8
LAYER_1
  6
Continuous
 62
     7
100
AcDbLine
 10
239.8118944979612
 20
238.7011100003967
 30
0.0
 11
199.8118944979612
 21
238.7011100003967
 31
0.0
  0
LINE
  5
1376
330
A
100
AcDbEntity
  8
LAYER_1
  6
Continuous
 62
     7
100
AcDbLine
 10
239.8118944979612
 20
224.2011100003967
 30
0.0
 11
199.8118944979612
 21
224.2011100003967
 31
0.0
  0
LINE
  5
1377
330
A
100
AcDbEntity
  8
LAYER_1
  6
Continuous
 62
     7
100
AcDbLine
 10
239.8118944979612
 20
223.7011100003967
 30
0.0
 11
199.8118944979612
 21
223.7011100003967
 31
0.0
  0
LINE
  5
1378
330
A
100
AcDbEntity
  8
LAYER_1
  6
Continuous
 62
     7
100
AcDbLine
 10
239.8118944979612
 20
218.7011100003967
 30
0.0
 11
239.8118944979612
 21
223.7011100003967
 31
0.0
  0
LINE
  5
1379
330
A
100
AcDbEntity
  8
LAYER_1
  6
Continuous
 62
     7
100
AcDbLine
 10
239.8118944979612
 20
224.2011100003967
 30
0.0
 11
239.8118944979612
 21
238.7011100003967
 31
0.0
  0
LINE
  5
137A
330
A
100
AcDbEntity
  8
LAYER_1
  6
Continuous
 62
     7
100
AcDbLine
 10
199.8118944979612
 20
218.7011100003967
 30
0.0
 11
199.8118944979612
 21
223.7011100003967
 31
0.0
  0
LINE
  5
137B
330
A
100
AcDbEntity
  8
LAYER_1
  6
Continuous
 62
     7
100
AcDbLine
 10
199.8118944979612
 20
224.2011100003967
 30
0.0
 11
199.8118944979612
 21
238.7011100003967
 31
0.0
  0
CIRCLE
  5
137C
330
A
100
AcDbEntity
  8
LAYER_1
  6
Continuous
 62
     7
100
AcDbCircle
 10
229.8118944979612
 20
228.7011100003967
 30
0.0
 40
2.0
  0
CIRCLE
  5
137D
330
A
100
AcDbEntity
  8
LAYER_1
  6
Continuous
 62
     7
100
AcDbCircle
 10
229.8118944979612
 20
228.7011100003967
 30
0.0
 40
1.5
  0
CIRCLE
  5
137E
330
A
100
AcDbEntity
  8
LAYER_1
  6
Continuous
 62
     7
100
AcDbCircle
 10
209.8118944979613
 20
228.7011100003967
 30
0.0
 40
2.0
  0
CIRCLE
  5
137F
330
A
100
AcDbEntity
  8
LAYER_1
  6
Continuous
 62
     7
100
AcDbCircle
 10
209.8118944979613
 20
228.7011100003967
 30
0.0
 40
1.5
  0
LINE
  5
1380
330
A
100
AcDbEntity
  8
LAYER_1
  6
Continuous
 62
     7
100
AcDbLine
 10
284.8118944979613
 20
193.2011100003967
 30
0.0
 11
284.8118944979613
 21
184.5177347907518
 31
0.0
  0
LINE
  5
1381
330
A
100
AcDbEntity
  8
LAYER_1
  6
Continuous
 62
     7
100
AcDbLine
 10
284.8118944979613
 20
177.8844852100406
 30
0.0
 11
284.8118944979613
 21
169.2011100003966
 31
0.0
  0
LINE
  5
1382
330
A
100
AcDbEntity
  8
LAYER_1
  6
Continuous
 62
     7
100
AcDbLine
 10
285.3118944979613
 20
193.7011100003966
 30
0.0
 11
285.3118944979613
 21
185.6697369669936
 31
0.0
  0
LINE
  5
1383
330
A
100
AcDbEntity
  8
LAYER_1
  6
Continuous
 62
     7
100
AcDbLine
 10
285.3118944979613
 20
176.7324830337998
 30
0.0
 11
285.3118944979613
 21
168.7011100003966
 31
0.0
  0
LINE
  5
1384
330
A
100
AcDbEntity
  8
LAYER_1
  6
Continuous
 62
     7
100
AcDbLine
 10
239.8118944979612
 20
168.7011100003966
 30
0.0
 11
239.8118944979612
 21
193.7011100003966
 31
0.0
  0
LINE
  5
1385
330
A
100
AcDbEntity
  8
LAYER_1
  6
Continuous
 62
     7
100
AcDbLine
 10
199.8118944979612
 20
168.7011100003966
 30
0.0
 11
199.8118944979612
 21
193.7011100003966
 31
0.0
  0
LINE
  5
1386
330
A
100
AcDbEntity
  8
LAYER_1
  6
Continuous
 62
     7
100
AcDbLine
 10
199.8118944979612
 20
168.7011100003966
 30
0.0
 11
239.8118944979612
 21
168.7011100003966
 31
0.0
  0
LINE
  5
1387
330
A
100
AcDbEntity
  8
LAYER_1
  6
Continuous
 62
     7
100
AcDbLine
 10
199.8118944979612
 20
169.2011100003966
 30
0.0
 11
239.8118944979612
 21
169.2011100003966
 31
0.0
  0
LINE
  5
1388
330
A
100
AcDbEntity
  8
LAYER_1
  6
Continuous
 62
     7
100
AcDbLine
 10
199.8118944979612
 20
193.7011100003966
 30
0.0
 11
239.8118944979612
 21
193.7011100003966
 31
0.0
  0
LINE
  5
1389
330
A
100
AcDbEntity
  8
LAYER_1
  6
Continuous
 62
     7
100
AcDbLine
 10
199.8118944979612
 20
193.2011100003967
 30
0.0
 11
239.8118944979612
 21
193.2011100003967
 31
0.0
  0
CIRCLE
  5
138A
330
A
100
AcDbEntity
  8
LAYER_1
  6
Continuous
 62
     7
100
AcDbCircle
 10
229.8118944979612
 20
172.7011100003966
 30
0.0
 40
1.5
  0
CIRCLE
  5
138B
330
A
100
AcDbEntity
  8
LAYER_1
  6
Continuous
 62
     7
100
AcDbCircle
 10
229.8118944979612
 20
172.7011100003966
 30
0.0
 40
1.0
  0
CIRCLE
  5
138C
330
A
100
AcDbEntity
  8
LAYER_1
  6
Continuous
 62
     7
100
AcDbCircle
 10
209.8118944979613
 20
172.7011100003966
 30
0.0
 40
1.5
  0
CIRCLE
  5
138D
330
A
100
AcDbEntity
  8
LAYER_1
  6
Continuous
 62
     7
100
AcDbCircle
 10
209.8118944979613
 20
172.7011100003966
 30
0.0
 40
1.0
  0
CIRCLE
  5
138E
330
A
100
AcDbEntity
  8
LAYER_1
  6
Continuous
 62
     7
100
AcDbCircle
 10
229.8118944979612
 20
172.7011100003966
 30
0.0
 40
3.0
  0
CIRCLE
  5
138F
330
A
100
AcDbEntity
  8
LAYER_1
  6
Continuous
 62
     7
100
AcDbCircle
 10
209.8118944979613
 20
172.7011100003966
 30
0.0
 40
3.0
  0
CIRCLE
  5
1390
330
A
100
AcDbEntity
  8
LAYER_1
  6
Continuous
 62
     7
100
AcDbCircle
 10
219.8118944979612
 20
189.7011100003966
 30
0.0
 40
1.5
  0
CIRCLE
  5
1391
330
A
100
AcDbEntity
  8
LAYER_1
  6
Continuous
 62
     7
100
AcDbCircle
 10
219.8118944979612
 20
189.7011100003966
 30
0.0
 40
1.0
  0
CIRCLE
  5
1392
330
A
100
AcDbEntity
  8
LAYER_1
  6
Continuous
 62
     7
100
AcDbCircle
 10
219.8118944979612
 20
189.7011100003966
 30
0.0
 40
3.0
  0
LINE
  5
1393
330
A
100
AcDbEntity
  8
LAYER_1
  6
Continuous
 62
     7
100
AcDbLine
 10
285.8079747893001
 20
176.7324830337998
 30
0.0
 11
285.3118944979613
 21
176.7324830337998
 31
0.0
  0
LINE
  5
1394
330
A
100
AcDbEntity
  8
LAYER_1
  6
Continuous
 62
     7
100
AcDbLine
 10
285.8079747893001
 20
185.6697369669936
 30
0.0
 11
285.3118944979613
 21
185.6697369669936
 31
0.0
  0
LINE
  5
1395
330
A
100
AcDbEntity
  8
LAYER_1
  6
DASHDOT
 62
     7
100
AcDbLine
 10
289.8118944979612
 20
189.2011100003966
 30
0.0
 11
289.8118944979612
 21
173.2011100003966
 31
0.0
  0
LINE
  5
1396
330
A
100
AcDbEntity
  8
LAYER_1
  6
DASHDOT
 62
     7
100
AcDbLine
 10
281.8118944979612
 20
181.2011100003966
 30
0.0
 11
297.8118944979613
 21
181.2011100003966
 31
0.0
  0
LINE
  5
1397
330
A
100
AcDbEntity
  8
LAYER_1
  6
DASHDOT
 62
     7
100
AcDbLine
 10
229.8118944979612
 20
232.7011100003967
 30
0.0
 11
229.8118944979612
 21
224.7011100003967
 31
0.0
  0
LINE
  5
1398
330
A
100
AcDbEntity
  8
LAYER_1
  6
DASHDOT
 62
     7
100
AcDbLine
 10
225.8118944979613
 20
228.7011100003967
 30
0.0
 11
233.8118944979612
 21
228.7011100003967
 31
0.0
  0
LINE
  5
1399
330
A
100
AcDbEntity
  8
LAYER_1
  6
DASHDOT
 62
     7
100
AcDbLine
 10
209.8118944979613
 20
232.7011100003967
 30
0.0
 11
209.8118944979613
 21
224.7011100003967
 31
0.0
  0
LINE
  5
139A
330
A
100
AcDbEntity
  8
LAYER_1
  6
DASHDOT
 62
     7
100
AcDbLine
 10
205.8118944979613
 20
228.7011100003967
 30
0.0
 11
213.8118944979613
 21
228.7011100003967
 31
0.0
  0
LINE
  5
139B
330
A
100
AcDbEntity
  8
LAYER_1
  6
DASHDOT
 62
     7
100
AcDbLine
 10
214.8118944979612
 20
189.7011100003966
 30
0.0
 11
224.8118944979612
 21
189.7011100003966
 31
0.0
  0
LINE
  5
139C
330
A
100
AcDbEntity
  8
LAYER_1
  6
DASHDOT
 62
     7
100
AcDbLine
 10
229.8118944979612
 20
177.7011100003966
 30
0.0
 11
229.8118944979612
 21
167.7011100003966
 31
0.0
  0
LINE
  5
139D
330
A
100
AcDbEntity
  8
LAYER_1
  6
DASHDOT
 62
     7
100
AcDbLine
 10
224.8118944979612
 20
172.7011100003966
 30
0.0
 11
234.8118944979613
 21
172.7011100003966
 31
0.0
  0
LINE
  5
139E
330
A
100
AcDbEntity
  8
LAYER_1
  6
DASHDOT
 62
     7
100
AcDbLine
 10
209.8118944979613
 20
177.7011100003966
 30
0.0
 11
209.8118944979613
 21
167.7011100003966
 31
0.0
  0
LINE
  5
139F
330
A
100
AcDbEntity
  8
LAYER_1
  6
DASHDOT
 62
     7
100
AcDbLine
 10
204.8118944979612
 20
172.7011100003966
 30
0.0
 11
214.8118944979612
 21
172.7011100003966
 31
0.0
  0
LINE
  5
13A0
330
A
100
AcDbEntity
  8
LAYER_1
  6
DASHDOT
 62
     7
100
AcDbLine
 10
219.8118944979612
 20
215.4849443526208
 30
0.0
 11
219.8118944979612
 21
242.8330509441128
 31
0.0
  0
LINE
  5
13A1
330
A
100
AcDbEntity
  8
LAYER_1
  6
DASHDOT
 62
     7
100
AcDbLine
 10
219.8118944979612
 20
165.1979486210676
 30
0.0
 11
219.8118944979612
 21
197.8392371334938
 31
0.0
  0
LINE
  5
13A2
330
A
100
AcDbEntity
  8
LAYER_1
  6
DASHDOT
 62
     7
100
AcDbLine
 10
242.8231575952894
 20
181.2011100003966
 30
0.0
 11
196.3607829559792
 21
181.2011100003966
 31
0.0
  0
DIMENSION
  5
13A3
330
A
100
AcDbEntity
  8
LAYER_1
  6
Continuous
 62
     7
100
AcDbDimension
  2
*D73
 10
184.8118944979613
 20
189.7011100003967
 30
0.0
 11
194.1037726705501
 21
199.4011100003967
 31
0.0
 70
    32
 71
     5
 42
17.0
  3
MARK2_DIMSTYLE
100
AcDbAlignedDimension
 13
204.8118944979612
 23
172.7011100003966
 33
0.0
 14
214.8118944979612
 24
189.7011100003966
 34
0.0
 50
90.0
100
AcDbRotatedDimension
1001
ACAD
1000
DSTYLE
1002
{
1070
    41
1040
6.0
1070
   140
1040
5.4
1002
}
  0
DIMENSION
  5
13A4
330
A
100
AcDbEntity
  8
LAYER_1
  6
Continuous
 62
     7
100
AcDbDimension
  2
*D72
 10
169.8118944979612
 20
193.7011100003967
 30
0.0
 11
166.1118944979611
 21
181.2011100003967
 31
0.0
 70
    32
 71
     5
 42
25.0
  3
MARK2_DIMSTYLE
100
AcDbAlignedDimension
 13
199.8118944979612
 23
168.7011100003966
 33
0.0
 14
199.8118944979612
 24
193.7011100003966
 34
0.0
 50
90.0
100
AcDbRotatedDimension
1001
ACAD
1000
DSTYLE
1002
{
1070
    41
1040
6.0
1070
   140
1040
5.4
1002
}
  0
DIMENSION
  5
13A5
330
A
100
AcDbEntity
  8
LAYER_1
  6
Continuous
 62
     7
100
AcDbDimension
  2
*D74
 10
229.8118944979612
 20
148.7011100003967
 30
0.0
 11
219.8118944979613
 21
152.4011100003967
 31
0.0
 70
    32
 71
     5
 42
19.99999999999988
  3
MARK2_DIMSTYLE
100
AcDbAlignedDimension
 13
209.8118944979613
 23
167.7011100003966
 33
0.0
 14
229.8118944979612
 24
167.7011100003966
 34
0.0
100
AcDbRotatedDimension
1001
ACAD
1000
DSTYLE
1002
{
1070
    41
1040
6.0
1070
   140
1040
5.4
1002
}
  0
DIMENSION
  5
13A6
330
A
100
AcDbEntity
  8
LAYER_1
  6
Continuous
 62
     7
100
AcDbDimension
  2
*D77
 10
299.8118944979612
 20
218.7011100003967
 30
0.0
 11
289.8118944979612
 21
222.4011100003967
 31
0.0
 70
    32
 71
     5
 42
20.0
  3
MARK2_DIMSTYLE
100
AcDbAlignedDimension
 13
279.8118944979612
 23
193.2011100003967
 33
0.0
 14
299.8118944979612
 24
193.7011100003966
 34
0.0
100
AcDbRotatedDimension
1001
ACAD
1000
DSTYLE
1002
{
1070
    41
1040
6.0
1070
   140
1040
5.4
1002
}
  0
DIMENSION
  5
13A7
330
A
100
AcDbEntity
  8
LAYER_1
  6
Continuous
 62
     7
100
AcDbDimension
  2
*D76
 10
299.8118944979612
 20
203.7011100003967
 30
0.0
 11
321.10377267055
 21
207.4011100003966
 31
0.0
 70
    32
 71
     5
 42
10.0
  3
MARK2_DIMSTYLE
100
AcDbAlignedDimension
 13
289.8118944979612
 23
189.2011100003966
 33
0.0
 14
299.8118944979612
 24
193.7011100003966
 34
0.0
100
AcDbRotatedDimension
1001
ACAD
1000
DSTYLE
1002
{
1070
    41
1040
6.0
1070
   140
1040
5.4
1002
}
  0
DIMENSION
  5
13A8
330
A
100
AcDbEntity
  8
LAYER_1
  6
Continuous
 62
     7
100
AcDbDimension
  2
*D75
 10
229.8118944979612
 20
248.7011100003967
 30
0.0
 11
219.8118944979613
 21
252.4011100003967
 31
0.0
 70
    32
 71
     5
 42
19.99999999999988
  3
MARK2_DIMSTYLE
100
AcDbAlignedDimension
 13
209.8118944979613
 23
232.7011100003967
 33
0.0
 14
229.8118944979612
 24
232.7011100003967
 34
0.0
100
AcDbRotatedDimension
1001
ACAD
1000
DSTYLE
1002
{
1070
    41
1040
6.0
1070
   140
1040
5.4
1002
}
  0
DIMENSION
  5
13A9
330
A
100
AcDbEntity
  8
LAYER_1
  6
Continuous
 62
     7
100
AcDbDimension
  2
*D71
 10
184.8118944979613
 20
238.7011100003968
 30
0.0
 11
194.1037726705501
 21
254.4011100003968
 31
0.0
 70
    32
 71
     5
 42
10.00000000000005
  3
MARK2_DIMSTYLE
100
AcDbAlignedDimension
 13
205.8118944979613
 23
228.7011100003967
 33
0.0
 14
199.8118944979612
 24
238.7011100003967
 34
0.0
 50
90.0
100
AcDbRotatedDimension
1001
ACAD
1000
DSTYLE
1002
{
1070
    41
1040
6.0
1070
   140
1040
5.4
1002
}
  0
DIMENSION
  5
13AA
330
A
100
AcDbEntity
  8
LAYER_1
  6
Continuous
 62
     7
100
AcDbDimension
  2
*D69
 10
284.6157420752541
 20
178.2011100003967
 30
0.0
 11
316.7206563346086
 21
193.9011100003965
 31
0.0
 70
    35
 71
     5
 42
11.99999999999994
  3
MARK2_DIMSTYLE
100
AcDbDiametricDimension
 15
295.0080469206674
 25
184.2011100003966
 35
0.0
 40
0.0
1001
ACAD
1000
DSTYLE
1002
{
1070
    41
1040
6.0
1070
   140
1040
5.4
1002
}
  0
DIMENSION
  5
13AB
330
A
100
AcDbEntity
  8
LAYER_1
  6
Continuous
 62
     7
100
AcDbDimension
  2
*D70
 10
239.8118944979612
 20
133.7011100003967
 30
0.0
 11
219.8118944979612
 21
137.4011100003967
 31
0.0
 70
    32
 71
     5
 42
40.0
  3
MARK2_DIMSTYLE
100
AcDbAlignedDimension
 13
199.8118944979612
 23
168.7011100003966
 33
0.0
 14
239.8118944979612
 24
168.7011100003966
 34
0.0
100
AcDbRotatedDimension
1001
ACAD
1000
DSTYLE
1002
{
1070
    41
1040
6.0
1070
   140
1040
5.4
1002
}
  0
TEXT
  5
13AC
330
A
100
AcDbEntity
  8
LAYER_1
 62
     7
100
AcDbText
 10
247.1157285736192
 20
140.8921930884977
 30
0.0
 40
5.4
  1
*Screws are attached
 41
1.033333333332999
  7
ＭＳ_ゴシック
100
AcDbText
  0
LINE
  5
14AB
330
A
100
AcDbEntity
  8
LAYER_1
  6
Continuous
 62
     7
100
AcDbLine
 10
184.8118944979613
 20
224.2011100003967
 30
0.0
 11
184.8118944979613
 21
238.7011100003967
 31
0.0
  0
TEXT
  5
14AC
330
A
100
AcDbEntity
  8
LAYER_1
 62
     7
100
AcDbText
 10
111.5644793420092
 20
278.7392799315898
 30
0.0
 40
13.5
  1
H-1VH(-01/-02)用　For H-1VH(-01/-02)
 41
1.033333333332999
  7
ＭＳ_ゴシック
100
AcDbText
  0
LEADER
  5
14AD
330
A
100
AcDbEntity
  8
LAYER_1
  6
Continuous
 62
     7
100
AcDbLeader
  3
MARK2_DIMSTYLE
 73
     0
 74
     0
 40
8.4
 41
14.4
 76
     3
 10
232.2933355408164
 20
171.0151531946528
 30
0.0
 10
245.1763543857294
 20
148.7011100003967
 30
0.0
 10
305.6686700393652
 20
148.7011100003967
 30
0.0
340
14AE
  0
MTEXT
  5
14AE
330
A
100
AcDbEntity
  8
LAYER_1
 62
     7
100
AcDbMText
 10
261.5398843006873
 20
151.7011100003966
 30
0.0
 40
5.4
 41
15.12
 71
     9
 72
     5
  1
\W1.034;3-M3
  7
ＭＳ_ゴシック
 73
     1
 44
1.0
  0
LEADER
  5
14AF
330
A
100
AcDbEntity
  8
LAYER_1
  6
Continuous
 62
     7
100
AcDbLeader
  3
MARK2_DIMSTYLE
 73
     0
 74
     0
 40
8.4
 41
43.2
 76
     3
 10
231.2170154565934
 20
230.1243580784258
 30
0.0
 10
241.9423081794112
 20
248.7011100003967
 30
0.0
 10
246.1350893983924
 20
248.7011100003967
 30
0.0
340
14B0
  0
MTEXT
  5
14B0
330
A
100
AcDbEntity
  8
LAYER_1
 62
     7
100
AcDbMText
 10
286.4699211721784
 20
251.7011100003967
 30
0.0
 40
5.4
 41
45.36
 71
     9
 72
     5
  1
\W1.034;2-M4 Depth 6
  7
ＭＳ_ゴシック
 73
     1
 44
1.0
  0
TEXT
  5
14B5
330
A
100
AcDbEntity
  8
LAYER_1
 62
     7
100
AcDbText
 10
111.5644793420092
 20
308.7392799315896
 30
0.0
 40
13.5
  1
LEDヘッドユニット取付金具 / Fixing Block for LED Head Unit
 41
1.033333333332999
  7
ＭＳ_ゴシック
100
AcDbText
  0
ENDSEC
  0
SECTION
  2
OBJECTS
  0
DICTIONARY
  5
19
330
0
100
AcDbDictionary
281
     1
  3
ACAD_GROUP
350
1A
  3
ACAD_LAYOUT
350
14C7
  3
ACAD_MLINESTYLE
350
1B
  3
ACAD_PLOTSETTINGS
350
14C8
  3
ACAD_PLOTSTYLENAME
350
14C5
  0
DICTIONARY
  5
1A
102
{ACAD_REACTORS
330
19
102
}
330
19
100
AcDbDictionary
281
     1
  0
DICTIONARY
  5
14C7
102
{ACAD_REACTORS
330
19
102
}
330
19
100
AcDbDictionary
281
     1
  3
Model
350
14C9
  3
ﾚｲｱｳﾄ1
350
14CA
  0
DICTIONARY
  5
1B
102
{ACAD_REACTORS
330
19
102
}
330
19
100
AcDbDictionary
281
     1
  3
STANDARD
350
1C
  0
DICTIONARY
  5
14C8
102
{ACAD_REACTORS
330
19
102
}
330
19
100
AcDbDictionary
281
     1
  0
ACDBDICTIONARYWDFLT
  5
14C5
102
{ACAD_REACTORS
330
19
102
}
330
19
100
AcDbDictionary
281
     1
  3
Normal
350
14C6
100
AcDbDictionaryWithDefault
340
14C6
  0
LAYOUT
  5
14C9
102
{ACAD_REACTORS
330
14C7
102
}
330
14C7
100
AcDbPlotSettings
  1

  2
\\HCTD010A\RICOH imagio MP C4500 RPCS
  4

  6

 40
0.0
 41
0.0
 42
0.0
 43
0.0
 44
0.0
 45
0.0
 46
0.0
 47
0.0
 48
0.0
 49
0.0
140
0.0
141
0.0
142
1.0
143
1.0
 70
  1712
 72
     0
 73
     0
 74
     0
  7

 75
     0
147
1.0
148
0.0
149
0.0
100
AcDbLayout
  1
Model
 70
     1
 71
     0
 10
0.0
 20
0.0
 11
12.0
 21
9.0
 12
0.0
 22
0.0
 32
0.0
 14
0.0
 24
0.0
 34
0.0
 15
0.0
 25
0.0
 35
0.0
146
0.0
 13
0.0
 23
0.0
 33
0.0
 16
1.0
 26
0.0
 36
0.0
 17
0.0
 27
1.0
 37
0.0
 76
     0
330
A
  0
LAYOUT
  5
14CA
102
{ACAD_REACTORS
330
14C7
102
}
330
14C7
100
AcDbPlotSettings
  1

  2
\\HCTD010A\RICOH imagio MP C4500 RPCS
  4

  6

 40
0.0
 41
0.0
 42
0.0
 43
0.0
 44
0.0
 45
0.0
 46
0.0
 47
0.0
 48
0.0
 49
0.0
140
0.0
141
0.0
142
1.0
143
1.0
 70
   688
 72
     0
 73
     0
 74
     5
  7

 75
    16
147
1.0
148
0.0
149
0.0
100
AcDbLayout
  1
ﾚｲｱｳﾄ1
 70
     0
 71
     1
 10
0.0
 20
0.0
 11
12.0
 21
9.0
 12
0.0
 22
0.0
 32
0.0
 14
1.000000000000000E+20
 24
1.000000000000000E+20
 34
1.000000000000000E+20
 15
-1.000000000000000E+20
 25
-1.000000000000000E+20
 35
-1.000000000000000E+20
146
0.0
 13
0.0
 23
0.0
 33
0.0
 16
1.0
 26
0.0
 36
0.0
 17
0.0
 27
1.0
 37
0.0
 76
     0
330
B
  0
MLINESTYLE
  5
1C
102
{ACAD_REACTORS
330
1B
102
}
330
1B
100
AcDbMlineStyle
  2
STANDARD
 70
     0
  3

 62
     0
 51
90.0
 52
90.0
 71
     2
 49
0.5
 62
   256
  6
BYLAYER
 49
-0.5
 62
   256
  6
BYLAYER
  0
ACDBPLACEHOLDER
  5
14C6
102
{ACAD_REACTORS
330
14C5
102
}
330
14C5
  0
ENDSEC
  0
EOF
