  0
SECTION
  2
HEADER
  9
$ACADVER
  1
AC1015
  9
$ACADMAINTVER
 70
    10
  9
$DWGCODEPAGE
  3
ANSI_932
  9
$INSBASE
 10
0.0
 20
0.0
 30
0.0
  9
$EXTMIN
 10
42.36359024047852
 20
49.90886047363281
 30
0.0
  9
$EXTMAX
 10
254.3582221659455
 20
160.128241785642
 30
0.0
  9
$LIMMIN
 10
0.0
 20
0.0
  9
$LIMMAX
 10
297.0
 20
210.0
  9
$ORTHOMODE
 70
     0
  9
$REGENMODE
 70
     1
  9
$FILLMODE
 70
     1
  9
$QTEXTMODE
 70
     0
  9
$MIRRTEXT
 70
     1
  9
$LTSCALE
 40
1.0
  9
$ATTMODE
 70
     1
  9
$TEXTSIZE
 40
0.2
  9
$TRACEWID
 40
1.0
  9
$TEXTSTYLE
  7
STYLE003
  9
$CLAYER
  8
0
  9
$CELTYPE
  6
ByLayer
  9
$CECOLOR
 62
   256
  9
$CELTSCALE
 40
1.0
  9
$DISPSILH
 70
     0
  9
$DIMSCALE
 40
1.0
  9
$DIMASZ
 40
3.0
  9
$DIMEXO
 40
1.0
  9
$DIMDLI
 40
10.0
  9
$DIMRND
 40
0.0
  9
$DIMDLE
 40
3.0
  9
$DIMEXE
 40
1.5
  9
$DIMTP
 40
0.0
  9
$DIMTM
 40
0.0
  9
$DIMTXT
 40
3.0
  9
$DIMCEN
 40
2.5
  9
$DIMTSZ
 40
0.0
  9
$DIMTOL
 70
     0
  9
$DIMLIM
 70
     0
  9
$DIMTIH
 70
     0
  9
$DIMTOH
 70
     0
  9
$DIMSE1
 70
     0
  9
$DIMSE2
 70
     0
  9
$DIMTAD
 70
     1
  9
$DIMZIN
 70
     8
  9
$DIMBLK
  1

  9
$DIMASO
 70
     1
  9
$DIMSHO
 70
     1
  9
$DIMPOST
  1

  9
$DIMAPOST
  1

  9
$DIMALT
 70
     0
  9
$DIMALTD
 70
     3
  9
$DIMALTF
 40
0.03937
  9
$DIMLFAC
 40
1.0
  9
$DIMTOFL
 70
     1
  9
$DIMTVP
 40
0.0
  9
$DIMTIX
 70
     0
  9
$DIMSOXD
 70
     0
  9
$DIMSAH
 70
     1
  9
$DIMBLK1
  1
FXTIP_ARROW_S
  9
$DIMBLK2
  1
FXTIP_ARROW_E
  9
$DIMSTYLE
  2
FXDIMINFO
  9
$DIMCLRD
 70
     6
  9
$DIMCLRE
 70
     6
  9
$DIMCLRT
 70
     6
  9
$DIMTFAC
 40
1.0
  9
$DIMGAP
 40
0.5
  9
$DIMJUST
 70
     0
  9
$DIMSD1
 70
     0
  9
$DIMSD2
 70
     0
  9
$DIMTOLJ
 70
     1
  9
$DIMTZIN
 70
     8
  9
$DIMALTZ
 70
     0
  9
$DIMALTTZ
 70
     0
  9
$DIMUPT
 70
     0
  9
$DIMDEC
 70
     3
  9
$DIMTDEC
 70
     2
  9
$DIMALTU
 70
     2
  9
$DIMALTTD
 70
     3
  9
$DIMTXSTY
  7
STYLE003
  9
$DIMAUNIT
 70
     0
  9
$DIMADEC
 70
     3
  9
$DIMALTRND
 40
0.0
  9
$DIMAZIN
 70
     0
  9
$DIMDSEP
 70
    46
  9
$DIMATFIT
 70
     3
  9
$DIMFRAC
 70
     0
  9
$DIMLDRBLK
  1
FXTIP_ARROW_S
  9
$DIMLUNIT
 70
     2
  9
$DIMLWD
 70
    -2
  9
$DIMLWE
 70
    -2
  9
$DIMTMOVE
 70
     0
  9
$LUNITS
 70
     2
  9
$LUPREC
 70
     4
  9
$SKETCHINC
 40
1.0
  9
$FILLETRAD
 40
10.0
  9
$AUNITS
 70
     0
  9
$AUPREC
 70
     0
  9
$MENU
  1
.
  9
$ELEVATION
 40
0.0
  9
$PELEVATION
 40
0.0
  9
$THICKNESS
 40
0.0
  9
$LIMCHECK
 70
     0
  9
$CHAMFERA
 40
10.0
  9
$CHAMFERB
 40
10.0
  9
$CHAMFERC
 40
20.0
  9
$CHAMFERD
 40
0.0
  9
$SKPOLY
 70
     0
  9
$TDCREATE
 40
2456346.822170266
  9
$TDUCREATE
 40
2456346.447170266
  9
$TDUPDATE
 40
2456666.466662650
  9
$TDUUPDATE
 40
2456666.091662650
  9
$TDINDWG
 40
0.0012957870
  9
$TDUSRTIMER
 40
0.0012950694
  9
$USRTIMER
 70
     1
  9
$ANGBASE
 50
0.0
  9
$ANGDIR
 70
     0
  9
$PDMODE
 70
     0
  9
$PDSIZE
 40
0.0
  9
$PLINEWID
 40
0.0
  9
$SPLFRAME
 70
     0
  9
$SPLINETYPE
 70
     6
  9
$SPLINESEGS
 70
     8
  9
$HANDSEED
  5
1B9
  9
$SURFTAB1
 70
     6
  9
$SURFTAB2
 70
     6
  9
$SURFTYPE
 70
     6
  9
$SURFU
 70
     6
  9
$SURFV
 70
     6
  9
$UCSBASE
  2

  9
$UCSNAME
  2

  9
$UCSORG
 10
0.0
 20
0.0
 30
0.0
  9
$UCSXDIR
 10
1.0
 20
0.0
 30
0.0
  9
$UCSYDIR
 10
0.0
 20
1.0
 30
0.0
  9
$UCSORTHOREF
  2

  9
$UCSORTHOVIEW
 70
     0
  9
$UCSORGTOP
 10
0.0
 20
0.0
 30
0.0
  9
$UCSORGBOTTOM
 10
0.0
 20
0.0
 30
0.0
  9
$UCSORGLEFT
 10
0.0
 20
0.0
 30
0.0
  9
$UCSORGRIGHT
 10
0.0
 20
0.0
 30
0.0
  9
$UCSORGFRONT
 10
0.0
 20
0.0
 30
0.0
  9
$UCSORGBACK
 10
0.0
 20
0.0
 30
0.0
  9
$PUCSBASE
  2

  9
$PUCSNAME
  2

  9
$PUCSORG
 10
0.0
 20
0.0
 30
0.0
  9
$PUCSXDIR
 10
1.0
 20
0.0
 30
0.0
  9
$PUCSYDIR
 10
0.0
 20
1.0
 30
0.0
  9
$PUCSORTHOREF
  2

  9
$PUCSORTHOVIEW
 70
     0
  9
$PUCSORGTOP
 10
0.0
 20
0.0
 30
0.0
  9
$PUCSORGBOTTOM
 10
0.0
 20
0.0
 30
0.0
  9
$PUCSORGLEFT
 10
0.0
 20
0.0
 30
0.0
  9
$PUCSORGRIGHT
 10
0.0
 20
0.0
 30
0.0
  9
$PUCSORGFRONT
 10
0.0
 20
0.0
 30
0.0
  9
$PUCSORGBACK
 10
0.0
 20
0.0
 30
0.0
  9
$USERI1
 70
     0
  9
$USERI2
 70
     0
  9
$USERI3
 70
     0
  9
$USERI4
 70
     0
  9
$USERI5
 70
     0
  9
$USERR1
 40
0.0
  9
$USERR2
 40
0.0
  9
$USERR3
 40
0.0
  9
$USERR4
 40
0.0
  9
$USERR5
 40
0.0
  9
$WORLDVIEW
 70
     1
  9
$SHADEDGE
 70
     3
  9
$SHADEDIF
 70
    70
  9
$TILEMODE
 70
     1
  9
$MAXACTVP
 70
    64
  9
$PINSBASE
 10
0.0
 20
0.0
 30
0.0
  9
$PLIMCHECK
 70
     0
  9
$PEXTMIN
 10
1.000000000000000E+20
 20
1.000000000000000E+20
 30
1.000000000000000E+20
  9
$PEXTMAX
 10
-1.000000000000000E+20
 20
-1.000000000000000E+20
 30
-1.000000000000000E+20
  9
$PLIMMIN
 10
0.0
 20
0.0
  9
$PLIMMAX
 10
420.0
 20
297.0
  9
$UNITMODE
 70
     0
  9
$VISRETAIN
 70
     1
  9
$PLINEGEN
 70
     0
  9
$PSLTSCALE
 70
     1
  9
$TREEDEPTH
 70
  3020
  9
$CMLSTYLE
  2
Standard
  9
$CMLJUST
 70
     0
  9
$CMLSCALE
 40
20.0
  9
$PROXYGRAPHICS
 70
     1
  9
$MEASUREMENT
 70
     1
  9
$CELWEIGHT
370
    -1
  9
$ENDCAPS
280
     0
  9
$JOINSTYLE
280
     0
  9
$LWDISPLAY
290
     0
  9
$INSUNITS
 70
     4
  9
$HYPERLINKBASE
  1

  9
$STYLESHEET
  1

  9
$XEDIT
290
     1
  9
$CEPSNTYPE
380
     0
  9
$PSTYLEMODE
290
     1
  9
$FINGERPRINTGUID
  2
{8E4C0337-518F-4136-A605-7B81CF5B3C45}
  9
$VERSIONGUID
  2
{E2CB5822-92EA-41A6-9BC1-B90742110590}
  9
$EXTNAMES
290
     1
  9
$PSVPSCALE
 40
0.0
  9
$OLESTARTUP
290
     0
  0
ENDSEC
  0
SECTION
  2
CLASSES
  0
CLASS
  1
ACDBDICTIONARYWDFLT
  2
AcDbDictionaryWithDefault
  3
AutoCAD 2000
 90
        0
280
     0
281
     0
  0
CLASS
  1
VISUALSTYLE
  2
AcDbVisualStyle
  3
ObjectDBX Classes
 90
     4095
280
     0
281
     0
  0
CLASS
  1
DICTIONARYVAR
  2
AcDbDictionaryVar
  3
AutoCAD 2000
 90
        0
280
     0
281
     0
  0
CLASS
  1
ACDBPLACEHOLDER
  2
AcDbPlaceHolder
  3
AutoCAD 2000
 90
        0
280
     0
281
     0
  0
CLASS
  1
LAYOUT
  2
AcDbLayout
  3
AutoCAD 2000
 90
        0
280
     0
281
     0
  0
ENDSEC
  0
SECTION
  2
TABLES
  0
TABLE
  2
VPORT
  5
8
330
0
100
AcDbSymbolTable
 70
     2
  0
VPORT
  5
1B8
330
8
100
AcDbSymbolTableRecord
100
AcDbViewportTableRecord
  2
*Active
 70
     0
 10
0.0
 20
0.0
 11
1.0
 21
1.0
 12
222.8914590747331
 22
105.0
 13
0.0
 23
0.0
 14
10.0
 24
10.0
 15
10.0
 25
10.0
 16
0.0
 26
0.0
 36
1.0
 17
0.0
 27
0.0
 37
0.0
 40
210.0
 41
2.122775800711743
 42
50.0
 43
0.0
 44
0.0
 50
0.0
 51
0.0
 71
     0
 72
   100
 73
     1
 74
     3
 75
     0
 76
     0
 77
     0
 78
     0
281
     0
 65
     1
110
0.0
120
0.0
130
0.0
111
1.0
121
0.0
131
0.0
112
0.0
122
1.0
132
0.0
 79
     0
146
0.0
  0
ENDTAB
  0
TABLE
  2
LTYPE
  5
5
330
0
100
AcDbSymbolTable
 70
     2
  0
LTYPE
  5
14
330
5
100
AcDbSymbolTableRecord
100
AcDbLinetypeTableRecord
  2
ByBlock
 70
     0
  3

 72
    65
 73
     0
 40
0.0
  0
LTYPE
  5
15
330
5
100
AcDbSymbolTableRecord
100
AcDbLinetypeTableRecord
  2
ByLayer
 70
     0
  3

 72
    65
 73
     0
 40
0.0
  0
LTYPE
  5
16
330
5
100
AcDbSymbolTableRecord
100
AcDbLinetypeTableRecord
  2
Continuous
 70
     0
  3
Continuous ___________________________________
 72
    65
 73
     0
 40
0.0
  0
LTYPE
  5
3B
330
5
100
AcDbSymbolTableRecord
100
AcDbLinetypeTableRecord
  2
DASHDOT
 70
     0
  3
Dash dot __ . __ . __ . __ . __ . __ . __ . __
 72
    65
 73
     4
 40
25.3
 49
12.7
 74
     0
 49
-6.299999999999998
 74
     0
 49
0.0
 74
     0
 49
-6.299999999999998
 74
     0
  0
ENDTAB
  0
TABLE
  2
LAYER
  5
2
330
0
100
AcDbSymbolTable
 70
     3
  0
LAYER
  5
10
330
2
100
AcDbSymbolTableRecord
100
AcDbLayerTableRecord
  2
0
 70
     0
 62
     7
  6
Continuous
370
    -3
390
F
  0
LAYER
  5
AA
330
2
100
AcDbSymbolTableRecord
100
AcDbLayerTableRecord
  2
Defpoints
 70
     0
 62
     7
  6
Continuous
290
     0
370
    -3
390
F
  0
LAYER
  5
AB
330
2
100
AcDbSymbolTableRecord
100
AcDbLayerTableRecord
  2
LAYER004
 70
     0
 62
     7
  6
Continuous
370
    -3
390
F
  0
ENDTAB
  0
TABLE
  2
STYLE
  5
3
330
0
100
AcDbSymbolTable
 70
     3
  0
STYLE
  5
11
330
3
100
AcDbSymbolTableRecord
100
AcDbTextStyleTableRecord
  2
Standard
 70
     0
 40
0.0
 41
1.0
 50
0.0
 71
     0
 42
2.5
  3
txt
  4

  0
STYLE
  5
41
330
3
100
AcDbSymbolTableRecord
100
AcDbTextStyleTableRecord
  2
FX_VECTOR
 70
     0
 40
0.0
 41
1.0
 50
0.0
 71
     0
 42
0.2
  3
MONOTXT.SHX
  4
BigFont.shx
  0
STYLE
  5
A9
330
3
100
AcDbSymbolTableRecord
100
AcDbTextStyleTableRecord
  2
STYLE003
 70
     0
 40
0.0
 41
1.0
 50
0.0
 71
     0
 42
0.2
  3

  4

1001
ACAD
1000
ＭＳ 明朝
1071
    32785
  0
ENDTAB
  0
TABLE
  2
VIEW
  5
6
330
0
100
AcDbSymbolTable
 70
     0
  0
ENDTAB
  0
TABLE
  2
UCS
  5
7
330
0
100
AcDbSymbolTable
 70
     0
  0
ENDTAB
  0
TABLE
  2
APPID
  5
9
330
0
100
AcDbSymbolTable
 70
     1
  0
APPID
  5
12
330
9
100
AcDbSymbolTableRecord
100
AcDbRegAppTableRecord
  2
ACAD
 70
     0
  0
ENDTAB
  0
TABLE
  2
DIMSTYLE
  5
A
330
0
100
AcDbSymbolTable
 70
     2
100
AcDbDimStyleTable
 71
     0
  0
DIMSTYLE
105
27
330
A
100
AcDbSymbolTableRecord
100
AcDbDimStyleTableRecord
  2
ISO-25
 70
     0
 41
2.5
 42
0.625
 43
3.75
 44
1.25
 73
     0
 74
     0
 77
     1
 78
     8
140
2.5
141
2.5
143
0.03937007874016
147
0.625
171
     3
172
     1
271
     2
272
     2
274
     3
278
    44
283
     0
284
     8
340
11
  0
DIMSTYLE
105
A8
102
{ACAD_REACTORS
330
E1
330
F8
330
102
330
10D
330
149
330
155
330
15E
330
185
102
}
330
A
100
AcDbSymbolTableRecord
100
AcDbDimStyleTableRecord
  2
FXDIMINFO
 70
     0
 41
3.0
 42
1.0
 43
10.0
 44
1.5
 46
3.0
 73
     0
 74
     0
 77
     1
 78
     8
140
3.0
141
2.5
143
0.03937
147
0.5
171
     3
172
     1
173
     1
176
     6
177
     6
178
     6
179
     3
271
     3
272
     2
274
     3
284
     8
340
A9
341
42
343
42
344
48
  0
ENDTAB
  0
TABLE
  2
BLOCK_RECORD
  5
1
330
0
100
AcDbSymbolTable
 70
    33
  0
BLOCK_RECORD
  5
1F
330
1
100
AcDbSymbolTableRecord
100
AcDbBlockTableRecord
  2
*Model_Space
340
22
  0
BLOCK_RECORD
  5
1B
330
1
100
AcDbSymbolTableRecord
100
AcDbBlockTableRecord
  2
*Paper_Space
340
1E
  0
BLOCK_RECORD
  5
23
330
1
100
AcDbSymbolTableRecord
100
AcDbBlockTableRecord
  2
*Paper_Space0
340
26
  0
BLOCK_RECORD
  5
42
330
1
100
AcDbSymbolTableRecord
100
AcDbBlockTableRecord
  2
FXTIP_ARROW_S
340
0
102
{BLKREFS
331
E8
331
FE
331
108
331
116
331
11E
331
126
331
12E
331
14F
331
15B
331
166
331
18B
102
}
  0
BLOCK_RECORD
  5
48
330
1
100
AcDbSymbolTableRecord
100
AcDbBlockTableRecord
  2
FXTIP_ARROW_E
340
0
102
{BLKREFS
331
E9
331
FF
331
109
331
114
331
150
331
15C
331
167
331
18C
102
}
  0
BLOCK_RECORD
  5
4E
330
1
100
AcDbSymbolTableRecord
100
AcDbBlockTableRecord
  2
FXTIP_BLACKDOT_S
340
0
  0
BLOCK_RECORD
  5
54
330
1
100
AcDbSymbolTableRecord
100
AcDbBlockTableRecord
  2
FXTIP_BLACKDOT_E
340
0
  0
BLOCK_RECORD
  5
5A
330
1
100
AcDbSymbolTableRecord
100
AcDbBlockTableRecord
  2
FXTIP_TRIANGLE_S
340
0
  0
BLOCK_RECORD
  5
61
330
1
100
AcDbSymbolTableRecord
100
AcDbBlockTableRecord
  2
FXTIP_TRIANGLE_E
340
0
  0
BLOCK_RECORD
  5
68
330
1
100
AcDbSymbolTableRecord
100
AcDbBlockTableRecord
  2
FXTIP_ARCHITECT_S
340
0
  0
BLOCK_RECORD
  5
6E
330
1
100
AcDbSymbolTableRecord
100
AcDbBlockTableRecord
  2
FXTIP_ARCHITECT_E
340
0
  0
BLOCK_RECORD
  5
74
330
1
100
AcDbSymbolTableRecord
100
AcDbBlockTableRecord
  2
FXTIP_CIVIL_S
340
0
  0
BLOCK_RECORD
  5
7A
330
1
100
AcDbSymbolTableRecord
100
AcDbBlockTableRecord
  2
FXTIP_CIVIL_E
340
0
  0
BLOCK_RECORD
  5
80
330
1
100
AcDbSymbolTableRecord
100
AcDbBlockTableRecord
  2
FXTIP_WHITEDOT_S
340
0
  0
BLOCK_RECORD
  5
85
330
1
100
AcDbSymbolTableRecord
100
AcDbBlockTableRecord
  2
FXTIP_WHITEDOT_E
340
0
  0
BLOCK_RECORD
  5
8A
330
1
100
AcDbSymbolTableRecord
100
AcDbBlockTableRecord
  2
FXTIP_UPARROW_S
340
0
  0
BLOCK_RECORD
  5
8F
330
1
100
AcDbSymbolTableRecord
100
AcDbBlockTableRecord
  2
FXTIP_UPARROW_E
340
0
  0
BLOCK_RECORD
  5
94
330
1
100
AcDbSymbolTableRecord
100
AcDbBlockTableRecord
  2
FXTIP_DOWNARROW_S
340
0
  0
BLOCK_RECORD
  5
99
330
1
100
AcDbSymbolTableRecord
100
AcDbBlockTableRecord
  2
FXTIP_DOWNARROW_E
340
0
  0
BLOCK_RECORD
  5
9E
330
1
100
AcDbSymbolTableRecord
100
AcDbBlockTableRecord
  2
FXTIP_BLACKTRIANGLE_S
340
0
  0
BLOCK_RECORD
  5
A3
330
1
100
AcDbSymbolTableRecord
100
AcDbBlockTableRecord
  2
FXTIP_BLACKTRIANGLE_E
340
0
  0
BLOCK_RECORD
  5
E2
330
1
100
AcDbSymbolTableRecord
100
AcDbBlockTableRecord
  2
*D19
340
0
  0
BLOCK_RECORD
  5
ED
330
1
100
AcDbSymbolTableRecord
100
AcDbBlockTableRecord
  2
BLKF022
340
0
102
{BLKREFS
331
F0
102
}
  0
BLOCK_RECORD
  5
F9
330
1
100
AcDbSymbolTableRecord
100
AcDbBlockTableRecord
  2
*D21
340
0
  0
BLOCK_RECORD
  5
103
330
1
100
AcDbSymbolTableRecord
100
AcDbBlockTableRecord
  2
*D22
340
0
  0
BLOCK_RECORD
  5
10E
330
1
100
AcDbSymbolTableRecord
100
AcDbBlockTableRecord
  2
*D23
340
0
  0
BLOCK_RECORD
  5
119
330
1
100
AcDbSymbolTableRecord
100
AcDbBlockTableRecord
  2
FXDIM026
340
0
102
{BLKREFS
331
11C
102
}
  0
BLOCK_RECORD
  5
121
330
1
100
AcDbSymbolTableRecord
100
AcDbBlockTableRecord
  2
FXDIM027
340
0
102
{BLKREFS
331
124
102
}
  0
BLOCK_RECORD
  5
129
330
1
100
AcDbSymbolTableRecord
100
AcDbBlockTableRecord
  2
FXDIM028
340
0
102
{BLKREFS
331
12C
102
}
  0
BLOCK_RECORD
  5
131
330
1
100
AcDbSymbolTableRecord
100
AcDbBlockTableRecord
  2
BLKF029
340
0
102
{BLKREFS
331
134
102
}
  0
BLOCK_RECORD
  5
14A
330
1
100
AcDbSymbolTableRecord
100
AcDbBlockTableRecord
  2
*D28
340
0
  0
BLOCK_RECORD
  5
156
330
1
100
AcDbSymbolTableRecord
100
AcDbBlockTableRecord
  2
*D29
340
0
  0
BLOCK_RECORD
  5
15F
330
1
100
AcDbSymbolTableRecord
100
AcDbBlockTableRecord
  2
*D30
340
0
  0
BLOCK_RECORD
  5
16A
330
1
100
AcDbSymbolTableRecord
100
AcDbBlockTableRecord
  2
BLKF033
340
0
102
{BLKREFS
331
16D
102
}
  0
BLOCK_RECORD
  5
186
330
1
100
AcDbSymbolTableRecord
100
AcDbBlockTableRecord
  2
*D32
340
0
  0
ENDTAB
  0
ENDSEC
  0
SECTION
  2
BLOCKS
  0
BLOCK
  5
20
330
1F
100
AcDbEntity
  8
0
100
AcDbBlockBegin
  2
*Model_Space
 70
     0
 10
0.0
 20
0.0
 30
0.0
  3
*Model_Space
  1

  0
ENDBLK
  5
21
330
1F
100
AcDbEntity
  8
0
100
AcDbBlockEnd
  0
BLOCK
  5
1C
330
1B
100
AcDbEntity
 67
     1
  8
0
100
AcDbBlockBegin
  2
*Paper_Space
 70
     0
 10
0.0
 20
0.0
 30
0.0
  3
*Paper_Space
  1

  0
ENDBLK
  5
1D
330
1B
100
AcDbEntity
 67
     1
  8
0
100
AcDbBlockEnd
  0
BLOCK
  5
24
330
23
100
AcDbEntity
  8
0
100
AcDbBlockBegin
  2
*Paper_Space0
 70
     0
 10
0.0
 20
0.0
 30
0.0
  3
*Paper_Space0
  1

  0
ENDBLK
  5
25
330
23
100
AcDbEntity
  8
0
100
AcDbBlockEnd
  0
BLOCK
  5
43
330
42
100
AcDbEntity
  8
0
100
AcDbBlockBegin
  2
FXTIP_ARROW_S
 70
     0
 10
0.0
 20
0.0
 30
0.0
  3
FXTIP_ARROW_S
  1

  0
LINE
  5
45
330
42
100
AcDbEntity
  8
0
  6
Continuous
 62
     0
370
    -2
100
AcDbLine
 10
0.0
 20
0.0
 30
0.0
 11
-1.0
 21
0.0000000000000001
 31
0.0
  0
LINE
  5
46
330
42
100
AcDbEntity
  8
0
  6
Continuous
 62
     0
370
    -2
100
AcDbLine
 10
0.0
 20
0.0
 30
0.0
 11
-0.9659258262890684
 21
-0.2588190451025206
 31
0.0
  0
LINE
  5
47
330
42
100
AcDbEntity
  8
0
  6
Continuous
 62
     0
370
    -2
100
AcDbLine
 10
0.0
 20
0.0
 30
0.0
 11
-0.9659258262890684
 21
0.2588190451025209
 31
0.0
  0
ENDBLK
  5
44
330
42
100
AcDbEntity
  8
0
100
AcDbBlockEnd
  0
BLOCK
  5
49
330
48
100
AcDbEntity
  8
0
100
AcDbBlockBegin
  2
FXTIP_ARROW_E
 70
     0
 10
0.0
 20
0.0
 30
0.0
  3
FXTIP_ARROW_E
  1

  0
LINE
  5
4B
330
48
100
AcDbEntity
  8
0
  6
Continuous
 62
     0
370
    -2
100
AcDbLine
 10
0.0
 20
0.0
 30
0.0
 11
-1.0
 21
0.0
 31
0.0
  0
LINE
  5
4C
330
48
100
AcDbEntity
  8
0
  6
Continuous
 62
     0
370
    -2
100
AcDbLine
 10
0.0
 20
0.0
 30
0.0
 11
-0.9659258262890684
 21
0.2588190451025207
 31
0.0
  0
LINE
  5
4D
330
48
100
AcDbEntity
  8
0
  6
Continuous
 62
     0
370
    -2
100
AcDbLine
 10
0.0
 20
0.0
 30
0.0
 11
-0.9659258262890684
 21
-0.2588190451025207
 31
0.0
  0
ENDBLK
  5
4A
330
48
100
AcDbEntity
  8
0
100
AcDbBlockEnd
  0
BLOCK
  5
4F
330
4E
100
AcDbEntity
  8
0
100
AcDbBlockBegin
  2
FXTIP_BLACKDOT_S
 70
     0
 10
0.0
 20
0.0
 30
0.0
  3
FXTIP_BLACKDOT_S
  1

  0
LINE
  5
51
330
4E
100
AcDbEntity
  8
0
  6
Continuous
 62
     0
370
    -2
100
AcDbLine
 10
0.0
 20
0.0
 30
0.0
 11
-1.0
 21
0.0000000000000001
 31
0.0
  0
LWPOLYLINE
  5
52
330
4E
100
AcDbEntity
  8
0
  6
Continuous
 62
     0
370
    -2
100
AcDbPolyline
 90
        2
 70
     1
 43
0.5
 10
-0.25
 20
0.0
 42
1.0
 10
0.25
 20
0.0
 42
1.0
  0
CIRCLE
  5
53
330
4E
100
AcDbEntity
  8
0
  6
Continuous
 62
     0
370
    -2
100
AcDbCircle
 10
0.0
 20
0.0
 30
0.0
 40
0.5
  0
ENDBLK
  5
50
330
4E
100
AcDbEntity
  8
0
100
AcDbBlockEnd
  0
BLOCK
  5
55
330
54
100
AcDbEntity
  8
0
100
AcDbBlockBegin
  2
FXTIP_BLACKDOT_E
 70
     0
 10
0.0
 20
0.0
 30
0.0
  3
FXTIP_BLACKDOT_E
  1

  0
LINE
  5
57
330
54
100
AcDbEntity
  8
0
  6
Continuous
 62
     0
370
    -2
100
AcDbLine
 10
0.0
 20
0.0
 30
0.0
 11
-1.0
 21
0.0
 31
0.0
  0
LWPOLYLINE
  5
58
330
54
100
AcDbEntity
  8
0
  6
Continuous
 62
     0
370
    -2
100
AcDbPolyline
 90
        2
 70
     1
 43
0.5
 10
-0.25
 20
0.0
 42
1.0
 10
0.25
 20
0.0
 42
1.0
  0
CIRCLE
  5
59
330
54
100
AcDbEntity
  8
0
  6
Continuous
 62
     0
370
    -2
100
AcDbCircle
 10
0.0
 20
0.0
 30
0.0
 40
0.5
  0
ENDBLK
  5
56
330
54
100
AcDbEntity
  8
0
100
AcDbBlockEnd
  0
BLOCK
  5
5B
330
5A
100
AcDbEntity
  8
0
100
AcDbBlockBegin
  2
FXTIP_TRIANGLE_S
 70
     0
 10
0.0
 20
0.0
 30
0.0
  3
FXTIP_TRIANGLE_S
  1

  0
LINE
  5
5D
330
5A
100
AcDbEntity
  8
0
  6
Continuous
 62
     0
370
    -2
100
AcDbLine
 10
0.0
 20
0.0
 30
0.0
 11
-1.0
 21
0.0000000000000001
 31
0.0
  0
LINE
  5
5E
330
5A
100
AcDbEntity
  8
0
  6
Continuous
 62
     0
370
    -2
100
AcDbLine
 10
0.0
 20
0.0
 30
0.0
 11
-0.9659258262890684
 21
-0.2588190451025206
 31
0.0
  0
LINE
  5
5F
330
5A
100
AcDbEntity
  8
0
  6
Continuous
 62
     0
370
    -2
100
AcDbLine
 10
0.0
 20
0.0
 30
0.0
 11
-0.9659258262890684
 21
0.2588190451025209
 31
0.0
  0
LINE
  5
60
330
5A
100
AcDbEntity
  8
0
  6
Continuous
 62
     0
370
    -2
100
AcDbLine
 10
-0.9659258262890684
 20
-0.2588190451025206
 30
0.0
 11
-0.9659258262890684
 21
0.2588190451025209
 31
0.0
  0
ENDBLK
  5
5C
330
5A
100
AcDbEntity
  8
0
100
AcDbBlockEnd
  0
BLOCK
  5
62
330
61
100
AcDbEntity
  8
0
100
AcDbBlockBegin
  2
FXTIP_TRIANGLE_E
 70
     0
 10
0.0
 20
0.0
 30
0.0
  3
FXTIP_TRIANGLE_E
  1

  0
LINE
  5
64
330
61
100
AcDbEntity
  8
0
  6
Continuous
 62
     0
370
    -2
100
AcDbLine
 10
0.0
 20
0.0
 30
0.0
 11
-1.0
 21
0.0
 31
0.0
  0
LINE
  5
65
330
61
100
AcDbEntity
  8
0
  6
Continuous
 62
     0
370
    -2
100
AcDbLine
 10
0.0
 20
0.0
 30
0.0
 11
-0.9659258262890684
 21
0.2588190451025207
 31
0.0
  0
LINE
  5
66
330
61
100
AcDbEntity
  8
0
  6
Continuous
 62
     0
370
    -2
100
AcDbLine
 10
0.0
 20
0.0
 30
0.0
 11
-0.9659258262890684
 21
-0.2588190451025207
 31
0.0
  0
LINE
  5
67
330
61
100
AcDbEntity
  8
0
  6
Continuous
 62
     0
370
    -2
100
AcDbLine
 10
-0.9659258262890684
 20
0.2588190451025207
 30
0.0
 11
-0.9659258262890684
 21
-0.2588190451025207
 31
0.0
  0
ENDBLK
  5
63
330
61
100
AcDbEntity
  8
0
100
AcDbBlockEnd
  0
BLOCK
  5
69
330
68
100
AcDbEntity
  8
0
100
AcDbBlockBegin
  2
FXTIP_ARCHITECT_S
 70
     0
 10
0.0
 20
0.0
 30
0.0
  3
FXTIP_ARCHITECT_S
  1

  0
LINE
  5
6B
330
68
100
AcDbEntity
  8
0
  6
Continuous
 62
     0
370
    -2
100
AcDbLine
 10
0.0
 20
0.0
 30
0.0
 11
-1.0
 21
0.0000000000000001
 31
0.0
  0
LINE
  5
6C
330
68
100
AcDbEntity
  8
0
  6
Continuous
 62
     0
370
    -2
100
AcDbLine
 10
0.0
 20
0.0
 30
0.0
 11
-0.7071067811865476
 21
-0.7071067811865474
 31
0.0
  0
LINE
  5
6D
330
68
100
AcDbEntity
  8
0
  6
Continuous
 62
     0
370
    -2
100
AcDbLine
 10
0.0
 20
0.0
 30
0.0
 11
0.7071067811865476
 21
0.7071067811865474
 31
0.0
  0
ENDBLK
  5
6A
330
68
100
AcDbEntity
  8
0
100
AcDbBlockEnd
  0
BLOCK
  5
6F
330
6E
100
AcDbEntity
  8
0
100
AcDbBlockBegin
  2
FXTIP_ARCHITECT_E
 70
     0
 10
0.0
 20
0.0
 30
0.0
  3
FXTIP_ARCHITECT_E
  1

  0
LINE
  5
71
330
6E
100
AcDbEntity
  8
0
  6
Continuous
 62
     0
370
    -2
100
AcDbLine
 10
0.0
 20
0.0
 30
0.0
 11
-1.0
 21
0.0
 31
0.0
  0
LINE
  5
72
330
6E
100
AcDbEntity
  8
0
  6
Continuous
 62
     0
370
    -2
100
AcDbLine
 10
0.0
 20
0.0
 30
0.0
 11
0.7071067811865475
 21
0.7071067811865475
 31
0.0
  0
LINE
  5
73
330
6E
100
AcDbEntity
  8
0
  6
Continuous
 62
     0
370
    -2
100
AcDbLine
 10
0.0
 20
0.0
 30
0.0
 11
-0.7071067811865475
 21
-0.7071067811865475
 31
0.0
  0
ENDBLK
  5
70
330
6E
100
AcDbEntity
  8
0
100
AcDbBlockEnd
  0
BLOCK
  5
75
330
74
100
AcDbEntity
  8
0
100
AcDbBlockBegin
  2
FXTIP_CIVIL_S
 70
     0
 10
0.0
 20
0.0
 30
0.0
  3
FXTIP_CIVIL_S
  1

  0
LINE
  5
77
330
74
100
AcDbEntity
  8
0
  6
Continuous
 62
     0
370
    -2
100
AcDbLine
 10
0.0
 20
0.0
 30
0.0
 11
-1.0
 21
0.0000000000000001
 31
0.0
  0
LINE
  5
78
330
74
100
AcDbEntity
  8
0
  6
Continuous
 62
     0
370
    -2
100
AcDbLine
 10
0.0
 20
-0.0833333333333333
 30
0.0
 11
-1.0
 21
-0.0833333333333332
 31
0.0
  0
LINE
  5
79
330
74
100
AcDbEntity
  8
0
  6
Continuous
 62
     0
370
    -2
100
AcDbLine
 10
0.0
 20
-0.1666666666666667
 30
0.0
 11
-1.0
 21
-0.1666666666666666
 31
0.0
  0
ENDBLK
  5
76
330
74
100
AcDbEntity
  8
0
100
AcDbBlockEnd
  0
BLOCK
  5
7B
330
7A
100
AcDbEntity
  8
0
100
AcDbBlockBegin
  2
FXTIP_CIVIL_E
 70
     0
 10
0.0
 20
0.0
 30
0.0
  3
FXTIP_CIVIL_E
  1

  0
LINE
  5
7D
330
7A
100
AcDbEntity
  8
0
  6
Continuous
 62
     0
370
    -2
100
AcDbLine
 10
0.0
 20
0.0
 30
0.0
 11
-1.0
 21
0.0
 31
0.0
  0
LINE
  5
7E
330
7A
100
AcDbEntity
  8
0
  6
Continuous
 62
     0
370
    -2
100
AcDbLine
 10
0.0
 20
0.0833333333333333
 30
0.0
 11
-1.0
 21
0.0833333333333333
 31
0.0
  0
LINE
  5
7F
330
7A
100
AcDbEntity
  8
0
  6
Continuous
 62
     0
370
    -2
100
AcDbLine
 10
0.0
 20
0.1666666666666667
 30
0.0
 11
-1.0
 21
0.1666666666666667
 31
0.0
  0
ENDBLK
  5
7C
330
7A
100
AcDbEntity
  8
0
100
AcDbBlockEnd
  0
BLOCK
  5
81
330
80
100
AcDbEntity
  8
0
100
AcDbBlockBegin
  2
FXTIP_WHITEDOT_S
 70
     0
 10
0.0
 20
0.0
 30
0.0
  3
FXTIP_WHITEDOT_S
  1

  0
LINE
  5
83
330
80
100
AcDbEntity
  8
0
  6
Continuous
 62
     0
370
    -2
100
AcDbLine
 10
0.0
 20
0.0
 30
0.0
 11
-1.0
 21
0.0000000000000001
 31
0.0
  0
CIRCLE
  5
84
330
80
100
AcDbEntity
  8
0
  6
Continuous
 62
     0
370
    -2
100
AcDbCircle
 10
0.0
 20
0.0
 30
0.0
 40
0.5
  0
ENDBLK
  5
82
330
80
100
AcDbEntity
  8
0
100
AcDbBlockEnd
  0
BLOCK
  5
86
330
85
100
AcDbEntity
  8
0
100
AcDbBlockBegin
  2
FXTIP_WHITEDOT_E
 70
     0
 10
0.0
 20
0.0
 30
0.0
  3
FXTIP_WHITEDOT_E
  1

  0
LINE
  5
88
330
85
100
AcDbEntity
  8
0
  6
Continuous
 62
     0
370
    -2
100
AcDbLine
 10
0.0
 20
0.0
 30
0.0
 11
-1.0
 21
0.0
 31
0.0
  0
CIRCLE
  5
89
330
85
100
AcDbEntity
  8
0
  6
Continuous
 62
     0
370
    -2
100
AcDbCircle
 10
0.0
 20
0.0
 30
0.0
 40
0.5
  0
ENDBLK
  5
87
330
85
100
AcDbEntity
  8
0
100
AcDbBlockEnd
  0
BLOCK
  5
8B
330
8A
100
AcDbEntity
  8
0
100
AcDbBlockBegin
  2
FXTIP_UPARROW_S
 70
     0
 10
0.0
 20
0.0
 30
0.0
  3
FXTIP_UPARROW_S
  1

  0
LINE
  5
8D
330
8A
100
AcDbEntity
  8
0
  6
Continuous
 62
     0
370
    -2
100
AcDbLine
 10
0.0
 20
0.0
 30
0.0
 11
-1.0
 21
0.0000000000000001
 31
0.0
  0
LINE
  5
8E
330
8A
100
AcDbEntity
  8
0
  6
Continuous
 62
     0
370
    -2
100
AcDbLine
 10
0.0
 20
0.0
 30
0.0
 11
-0.9659258262890684
 21
-0.2588190451025206
 31
0.0
  0
ENDBLK
  5
8C
330
8A
100
AcDbEntity
  8
0
100
AcDbBlockEnd
  0
BLOCK
  5
90
330
8F
100
AcDbEntity
  8
0
100
AcDbBlockBegin
  2
FXTIP_UPARROW_E
 70
     0
 10
0.0
 20
0.0
 30
0.0
  3
FXTIP_UPARROW_E
  1

  0
LINE
  5
92
330
8F
100
AcDbEntity
  8
0
  6
Continuous
 62
     0
370
    -2
100
AcDbLine
 10
0.0
 20
0.0
 30
0.0
 11
-1.0
 21
0.0
 31
0.0
  0
LINE
  5
93
330
8F
100
AcDbEntity
  8
0
  6
Continuous
 62
     0
370
    -2
100
AcDbLine
 10
0.0
 20
0.0
 30
0.0
 11
-0.9659258262890684
 21
0.2588190451025207
 31
0.0
  0
ENDBLK
  5
91
330
8F
100
AcDbEntity
  8
0
100
AcDbBlockEnd
  0
BLOCK
  5
95
330
94
100
AcDbEntity
  8
0
100
AcDbBlockBegin
  2
FXTIP_DOWNARROW_S
 70
     0
 10
0.0
 20
0.0
 30
0.0
  3
FXTIP_DOWNARROW_S
  1

  0
LINE
  5
97
330
94
100
AcDbEntity
  8
0
  6
Continuous
 62
     0
370
    -2
100
AcDbLine
 10
0.0
 20
0.0
 30
0.0
 11
-1.0
 21
0.0000000000000001
 31
0.0
  0
LINE
  5
98
330
94
100
AcDbEntity
  8
0
  6
Continuous
 62
     0
370
    -2
100
AcDbLine
 10
0.0
 20
0.0
 30
0.0
 11
-0.9659258262890684
 21
0.2588190451025209
 31
0.0
  0
ENDBLK
  5
96
330
94
100
AcDbEntity
  8
0
100
AcDbBlockEnd
  0
BLOCK
  5
9A
330
99
100
AcDbEntity
  8
0
100
AcDbBlockBegin
  2
FXTIP_DOWNARROW_E
 70
     0
 10
0.0
 20
0.0
 30
0.0
  3
FXTIP_DOWNARROW_E
  1

  0
LINE
  5
9C
330
99
100
AcDbEntity
  8
0
  6
Continuous
 62
     0
370
    -2
100
AcDbLine
 10
0.0
 20
0.0
 30
0.0
 11
-1.0
 21
0.0
 31
0.0
  0
LINE
  5
9D
330
99
100
AcDbEntity
  8
0
  6
Continuous
 62
     0
370
    -2
100
AcDbLine
 10
0.0
 20
0.0
 30
0.0
 11
-0.9659258262890684
 21
-0.2588190451025207
 31
0.0
  0
ENDBLK
  5
9B
330
99
100
AcDbEntity
  8
0
100
AcDbBlockEnd
  0
BLOCK
  5
9F
330
9E
100
AcDbEntity
  8
0
100
AcDbBlockBegin
  2
FXTIP_BLACKTRIANGLE_S
 70
     0
 10
0.0
 20
0.0
 30
0.0
  3
FXTIP_BLACKTRIANGLE_S
  1

  0
LINE
  5
A1
330
9E
100
AcDbEntity
  8
0
  6
Continuous
 62
     0
370
    -2
100
AcDbLine
 10
0.0
 20
0.0
 30
0.0
 11
-1.0
 21
0.0000000000000001
 31
0.0
  0
SOLID
  5
A2
330
9E
100
AcDbEntity
  8
0
  6
Continuous
 62
     0
370
    -2
100
AcDbTrace
 10
0.0
 20
0.0
 30
0.0
 11
-0.9659258262890684
 21
-0.2588190451025206
 31
0.0
 12
-0.9659258262890684
 22
0.2588190451025209
 32
0.0
 13
-0.9659258262890684
 23
0.2588190451025209
 33
0.0
  0
ENDBLK
  5
A0
330
9E
100
AcDbEntity
  8
0
100
AcDbBlockEnd
  0
BLOCK
  5
A4
330
A3
100
AcDbEntity
  8
0
100
AcDbBlockBegin
  2
FXTIP_BLACKTRIANGLE_E
 70
     0
 10
0.0
 20
0.0
 30
0.0
  3
FXTIP_BLACKTRIANGLE_E
  1

  0
LINE
  5
A6
330
A3
100
AcDbEntity
  8
0
  6
Continuous
 62
     0
370
    -2
100
AcDbLine
 10
0.0
 20
0.0
 30
0.0
 11
-1.0
 21
0.0
 31
0.0
  0
SOLID
  5
A7
330
A3
100
AcDbEntity
  8
0
  6
Continuous
 62
     0
370
    -2
100
AcDbTrace
 10
0.0
 20
0.0
 30
0.0
 11
-0.9659258262890684
 21
0.2588190451025207
 31
0.0
 12
-0.9659258262890684
 22
-0.2588190451025207
 32
0.0
 13
-0.9659258262890684
 23
-0.2588190451025207
 33
0.0
  0
ENDBLK
  5
A5
330
A3
100
AcDbEntity
  8
0
100
AcDbBlockEnd
  0
BLOCK
  5
E3
330
E2
100
AcDbEntity
  8
0
100
AcDbBlockBegin
  2
*D19
 70
     1
 10
0.0
 20
0.0
 30
0.0
  3
*D19
  1

  0
TEXT
  5
E5
330
E2
100
AcDbEntity
  8
LAYER004
  6
Continuous
 62
     6
370
    20
100
AcDbText
 10
45.36359024047852
 20
106.1092529296874
 30
0.0
 40
3.0
  1
%%c
 50
90.0
 41
0.8333333333333332
  7
FX_VECTOR
100
AcDbText
  0
TEXT
  5
E6
330
E2
100
AcDbEntity
  8
LAYER004
  6
Continuous
 62
     6
370
    20
100
AcDbText
 10
45.36359024047852
 20
108.6092529296875
 30
0.0
 40
3.0
  1
12
 50
90.0
 41
0.8333333333333332
  7
FX_VECTOR
100
AcDbText
  0
LINE
  5
E7
330
E2
100
AcDbEntity
  8
LAYER004
  6
Continuous
 62
     6
370
    20
100
AcDbLine
 10
45.86359157073276
 20
103.8592423738954
 30
0.0
 11
45.86359157073277
 21
115.8592423738955
 31
0.0
  0
INSERT
  5
E8
330
E2
100
AcDbEntity
  8
LAYER004
  6
Continuous
 62
     6
370
    20
100
AcDbBlockReference
  2
FXTIP_ARROW_S
 10
45.86359157073276
 20
103.8592423738954
 30
0.0
 41
3.0
 42
3.0
 50
270.0
  0
INSERT
  5
E9
330
E2
100
AcDbEntity
  8
LAYER004
  6
Continuous
 62
     6
370
    20
100
AcDbBlockReference
  2
FXTIP_ARROW_E
 10
45.86359157073277
 20
115.8592423738955
 30
0.0
 41
3.0
 42
3.0
 50
90.0
  0
LINE
  5
EA
330
E2
100
AcDbEntity
  8
LAYER004
  6
Continuous
 62
     6
370
    20
100
AcDbLine
 10
57.06359157073278
 20
103.8592423738954
 30
0.0
 11
44.36359157073277
 21
103.8592423738954
 31
0.0
  0
LINE
  5
EB
330
E2
100
AcDbEntity
  8
LAYER004
  6
Continuous
 62
     6
370
    20
100
AcDbLine
 10
57.06359157073275
 20
115.8592423738955
 30
0.0
 11
44.36359157073277
 21
115.8592423738955
 31
0.0
  0
ENDBLK
  5
E4
330
E2
100
AcDbEntity
  8
0
100
AcDbBlockEnd
  0
BLOCK
  5
EE
330
ED
100
AcDbEntity
  8
0
100
AcDbBlockBegin
  2
BLKF022
 70
     0
 10
0.0
 20
0.0
 30
0.0
  3
BLKF022
  1

  0
LINE
  5
F1
330
ED
100
AcDbEntity
  8
LAYER004
  6
Continuous
 62
     6
370
    20
100
AcDbLine
 10
141.9043949202464
 20
113.4004275365062
 30
0.0
 11
171.2859331513799
 21
113.4004275365062
 31
0.0
  0
LINE
  5
F2
330
ED
100
AcDbEntity
  8
LAYER004
  6
Continuous
 62
     6
370
    20
100
AcDbLine
 10
171.2859331513799
 20
113.4004275365062
 30
0.0
 11
171.2859331513799
 21
60.20042753650628
 31
0.0
  0
LINE
  5
F3
330
ED
100
AcDbEntity
  8
LAYER004
  6
Continuous
 62
     6
370
    20
100
AcDbLine
 10
171.2859331513799
 20
60.20042753650628
 30
0.0
 11
141.9043949202464
 21
60.20042753650628
 31
0.0
  0
LINE
  5
F4
330
ED
100
AcDbEntity
  8
LAYER004
  6
Continuous
 62
     6
370
    20
100
AcDbLine
 10
141.9043949202464
 20
60.20042753650628
 30
0.0
 11
141.9043949202464
 21
113.4004275365062
 31
0.0
  0
ENDBLK
  5
EF
330
ED
100
AcDbEntity
  8
0
100
AcDbBlockEnd
  0
BLOCK
  5
FA
330
F9
100
AcDbEntity
  8
0
100
AcDbBlockBegin
  2
*D21
 70
     1
 10
0.0
 20
0.0
 30
0.0
  3
*D21
  1

  0
TEXT
  5
FC
330
F9
100
AcDbEntity
  8
LAYER004
  6
Continuous
 62
     6
370
    20
100
AcDbText
 10
123.8089904785155
 20
129.6343994140624
 30
0.0
 40
3.0
  1
(200)
 41
0.8333333333333332
  7
FX_VECTOR
100
AcDbText
  0
LINE
  5
FD
330
F9
100
AcDbEntity
  8
LAYER004
  6
Continuous
 62
     6
370
    20
100
AcDbLine
 10
118.2135915710663
 20
129.1343784752768
 30
0.0
 11
141.9043949202464
 21
129.1343784752768
 31
0.0
  0
INSERT
  5
FE
330
F9
100
AcDbEntity
  8
LAYER004
  6
Continuous
 62
     6
370
    20
100
AcDbBlockReference
  2
FXTIP_ARROW_S
 10
118.2135915710663
 20
129.1343784752768
 30
0.0
 41
3.0
 42
3.0
 50
180.0
  0
INSERT
  5
FF
330
F9
100
AcDbEntity
  8
LAYER004
  6
Continuous
 62
     6
370
    20
100
AcDbBlockReference
  2
FXTIP_ARROW_E
 10
141.9043949202464
 20
129.1343784752768
 30
0.0
 41
3.0
 42
3.0
 50
360.0
  0
LINE
  5
100
330
F9
100
AcDbEntity
  8
LAYER004
  6
Continuous
 62
     6
370
    20
100
AcDbLine
 10
118.2135915710663
 20
116.5592423738954
 30
0.0
 11
118.2135915710663
 21
130.6343784752768
 31
0.0
  0
LINE
  5
101
330
F9
100
AcDbEntity
  8
LAYER004
  6
Continuous
 62
     6
370
    20
100
AcDbLine
 10
141.9043949202464
 20
114.4004275365062
 30
0.0
 11
141.9043949202464
 21
130.6343784752768
 31
0.0
  0
ENDBLK
  5
FB
330
F9
100
AcDbEntity
  8
0
100
AcDbBlockEnd
  0
BLOCK
  5
104
330
103
100
AcDbEntity
  8
0
100
AcDbBlockBegin
  2
*D22
 70
     1
 10
0.0
 20
0.0
 30
0.0
  3
*D22
  1

  0
TEXT
  5
106
330
103
100
AcDbEntity
  8
LAYER004
  6
Continuous
 62
     6
370
    20
100
AcDbText
 10
252.3582458496094
 20
106.1092529296874
 30
0.0
 40
3.0
  1
14.7
 50
90.0
 41
0.8333333333333332
  7
FX_VECTOR
100
AcDbText
  0
LINE
  5
107
330
103
100
AcDbEntity
  8
LAYER004
  6
Continuous
 62
     6
370
    20
100
AcDbLine
 10
252.8582221659454
 20
102.5092423738954
 30
0.0
 11
252.8582221659454
 21
117.2092423738954
 31
0.0
  0
INSERT
  5
108
330
103
100
AcDbEntity
  8
LAYER004
  6
Continuous
 62
     6
370
    20
100
AcDbBlockReference
  2
FXTIP_ARROW_S
 10
252.8582221659454
 20
102.5092423738954
 30
0.0
 41
3.0
 42
3.0
 50
270.0
  0
INSERT
  5
109
330
103
100
AcDbEntity
  8
LAYER004
  6
Continuous
 62
     6
370
    20
100
AcDbBlockReference
  2
FXTIP_ARROW_E
 10
252.8582221659454
 20
117.2092423738954
 30
0.0
 41
3.0
 42
3.0
 50
90.0
  0
LINE
  5
10A
330
103
100
AcDbEntity
  8
LAYER004
  6
Continuous
 62
     6
370
    20
100
AcDbLine
 10
236.0144699387999
 20
102.5092423738954
 30
0.0
 11
254.3582221659455
 21
102.5092423738954
 31
0.0
  0
LINE
  5
10B
330
103
100
AcDbEntity
  8
LAYER004
  6
Continuous
 62
     6
370
    20
100
AcDbLine
 10
236.0144699387999
 20
117.2092423738954
 30
0.0
 11
254.3582221659455
 21
117.2092423738954
 31
0.0
  0
TEXT
  5
10C
330
103
100
AcDbEntity
  8
LAYER004
  6
Continuous
 62
     6
370
    20
100
AcDbText
 10
252.3582458496094
 20
103.6092529296875
 30
0.0
 40
3.0
  1
%%c
 50
90.0
 41
0.8333333333333332
  7
FX_VECTOR
100
AcDbText
  0
ENDBLK
  5
105
330
103
100
AcDbEntity
  8
0
100
AcDbBlockEnd
  0
BLOCK
  5
10F
330
10E
100
AcDbEntity
  8
0
100
AcDbBlockBegin
  2
*D23
 70
     1
 10
0.0
 20
0.0
 30
0.0
  3
*D23
  1

  0
TEXT
  5
111
330
10E
100
AcDbEntity
  8
LAYER004
  6
Continuous
 62
     6
370
    20
100
AcDbText
 10
189.882568359375
 20
93.80923461914063
 30
0.0
 40
3.0
  1
6.6
 50
90.0
 41
0.8333333333333332
  7
FX_VECTOR
100
AcDbText
  0
LINE
  5
112
330
10E
100
AcDbEntity
  8
LAYER004
  6
Continuous
 62
     6
370
    20
100
AcDbLine
 10
190.3825688556115
 20
106.5592423738954
 30
0.0
 11
190.3825688556115
 21
113.1592423738956
 31
0.0
  0
LINE
  5
113
330
10E
100
AcDbEntity
  8
LAYER004
  6
Continuous
 62
     6
370
    20
100
AcDbLine
 10
190.3825688556115
 20
85.55924237389552
 30
0.0
 11
190.3825688556115
 21
106.5592423738954
 31
0.0
  0
INSERT
  5
114
330
10E
100
AcDbEntity
  8
LAYER004
  6
Continuous
 62
     6
370
    20
100
AcDbBlockReference
  2
FXTIP_ARROW_E
 10
190.3825688556115
 20
106.5592423738954
 30
0.0
 41
3.0
 42
3.0
 50
90.0
  0
LINE
  5
115
330
10E
100
AcDbEntity
  8
LAYER004
  6
Continuous
 62
     6
370
    20
100
AcDbLine
 10
190.3825688556115
 20
113.1592423738956
 30
0.0
 11
190.3825688556115
 21
116.1592423738952
 31
0.0
  0
INSERT
  5
116
330
10E
100
AcDbEntity
  8
LAYER004
  6
Continuous
 62
     6
370
    20
100
AcDbBlockReference
  2
FXTIP_ARROW_S
 10
190.3825688556115
 20
113.1592423738956
 30
0.0
 41
3.0
 42
3.0
 50
270.0
  0
TEXT
  5
117
330
10E
100
AcDbEntity
  8
LAYER004
  6
Continuous
 62
     6
370
    20
100
AcDbText
 10
189.882568359375
 20
88.80923461914063
 30
0.0
 40
3.0
  1
(%%c
 50
90.0
 41
0.8333333333333332
  7
FX_VECTOR
100
AcDbText
  0
TEXT
  5
118
330
10E
100
AcDbEntity
  8
LAYER004
  6
Continuous
 62
     6
370
    20
100
AcDbText
 10
189.882568359375
 20
101.3092346191404
 30
0.0
 40
3.0
  1
)
 50
90.0
 41
0.8333333333333332
  7
FX_VECTOR
100
AcDbText
  0
ENDBLK
  5
110
330
10E
100
AcDbEntity
  8
0
100
AcDbBlockEnd
  0
BLOCK
  5
11A
330
119
100
AcDbEntity
  8
0
100
AcDbBlockBegin
  2
FXDIM026
 70
     0
 10
0.0
 20
0.0
 30
0.0
  3
FXDIM026
  1

  0
LINE
  5
11D
330
119
100
AcDbEntity
  8
LAYER004
  6
Continuous
 62
     6
370
    20
100
AcDbLine
 10
89.51071153668006
 20
103.8592423738954
 30
0.0
 11
95.78517427311394
 21
85.7232804053754
 31
0.0
  0
INSERT
  5
11E
330
119
100
AcDbEntity
  8
LAYER004
  6
Continuous
 62
     6
370
    20
100
AcDbBlockReference
  2
FXTIP_ARROW_S
 10
89.51071153668006
 20
103.8592423738954
 30
0.0
 41
3.0
 42
3.0
 50
109.0839833199197
  0
LINE
  5
11F
330
119
100
AcDbEntity
  8
LAYER004
  6
Continuous
 62
     6
370
    20
100
AcDbLine
 10
95.78517427311394
 20
85.7232804053754
 30
0.0
 11
67.94435402126731
 21
85.7232804053754
 31
0.0
  0
TEXT
  5
120
330
119
100
AcDbEntity
  8
LAYER004
  6
Continuous
 62
     6
370
    20
100
AcDbText
 10
70.61477661132812
 20
86.22329711717712
 30
0.0
 40
3.0
  1
LED放射口ラベル
 50
0.0000000100000079
 41
0.8333333333333332
  7
FX_VECTOR
100
AcDbText
  0
ENDBLK
  5
11B
330
119
100
AcDbEntity
  8
0
100
AcDbBlockEnd
  0
BLOCK
  5
122
330
121
100
AcDbEntity
  8
0
100
AcDbBlockBegin
  2
FXDIM027
 70
     0
 10
0.0
 20
0.0
 30
0.0
  3
FXDIM027
  1

  0
LINE
  5
125
330
121
100
AcDbEntity
  8
LAYER004
  6
Continuous
 62
     6
370
    20
100
AcDbLine
 10
113.8483413393799
 20
103.8592423738954
 30
0.0
 11
117.1757294041791
 21
94.07742325484655
 31
0.0
  0
INSERT
  5
126
330
121
100
AcDbEntity
  8
LAYER004
  6
Continuous
 62
     6
370
    20
100
AcDbBlockReference
  2
FXTIP_ARROW_S
 10
113.8483413393799
 20
103.8592423738954
 30
0.0
 41
3.0
 42
3.0
 50
108.7862736999237
  0
LINE
  5
127
330
121
100
AcDbEntity
  8
LAYER004
  6
Continuous
 62
     6
370
    20
100
AcDbLine
 10
117.1757294041791
 20
94.07742325484655
 30
0.0
 11
99.1757294041791
 21
94.07742325484655
 31
0.0
  0
TEXT
  5
128
330
121
100
AcDbEntity
  8
LAYER004
  6
Continuous
 62
     6
370
    20
100
AcDbText
 10
101.9257507324219
 20
94.57742309570312
 30
0.0
 40
3.0
  1
型式ラベル
 41
0.8333333333333332
  7
FX_VECTOR
100
AcDbText
  0
ENDBLK
  5
123
330
121
100
AcDbEntity
  8
0
100
AcDbBlockEnd
  0
BLOCK
  5
12A
330
129
100
AcDbEntity
  8
0
100
AcDbBlockBegin
  2
FXDIM028
 70
     0
 10
0.0
 20
0.0
 30
0.0
  3
FXDIM028
  1

  0
LINE
  5
12D
330
129
100
AcDbEntity
  8
LAYER004
  6
Continuous
 62
     6
370
    20
100
AcDbLine
 10
141.9043949202464
 20
86.76664528147631
 30
0.0
 11
136.1942773203479
 21
74.35701995325262
 31
0.0
  0
INSERT
  5
12E
330
129
100
AcDbEntity
  8
LAYER004
  6
Continuous
 62
     6
370
    20
100
AcDbBlockReference
  2
FXTIP_ARROW_S
 10
141.9043949202464
 20
86.76664528147631
 30
0.0
 41
3.0
 42
3.0
 50
65.29113021778113
  0
LINE
  5
12F
330
129
100
AcDbEntity
  8
LAYER004
  6
Continuous
 62
     6
370
    20
100
AcDbLine
 10
136.1942773203479
 20
74.35701995325262
 30
0.0
 11
95.40571215235424
 21
74.35701995325262
 31
0.0
  0
TEXT
  5
130
330
129
100
AcDbEntity
  8
LAYER004
  6
Continuous
 62
     6
370
    20
100
AcDbText
 10
97.05001831054687
 20
74.85702514321189
 30
0.0
 40
3.0
  1
警告/注意/SerNo.ラベル
 50
0.0000000100000079
 41
0.8333333333333332
  7
FX_VECTOR
100
AcDbText
  0
ENDBLK
  5
12B
330
129
100
AcDbEntity
  8
0
100
AcDbBlockEnd
  0
BLOCK
  5
132
330
131
100
AcDbEntity
  8
0
100
AcDbBlockBegin
  2
BLKF029
 70
     0
 10
0.0
 20
0.0
 30
0.0
  3
BLKF029
  1

  0
LINE
  5
135
330
131
100
AcDbEntity
  8
LAYER004
  6
Continuous
 62
     7
370
    20
100
AcDbLine
 10
85.71359157106668
 20
115.8592423738957
 30
0.0
 11
92.51359157106675
 21
115.8592423738955
 31
0.0
  0
LINE
  5
136
330
131
100
AcDbEntity
  8
LAYER004
  6
Continuous
 62
     7
370
    20
100
AcDbLine
 10
92.51359157106675
 20
115.8592423738955
 30
0.0
 11
92.51359157106675
 21
103.8592423738959
 31
0.0
  0
LINE
  5
137
330
131
100
AcDbEntity
  8
LAYER004
  6
Continuous
 62
     7
370
    20
100
AcDbLine
 10
85.71359157106668
 20
103.8592423738954
 30
0.0
 11
85.71359157106668
 21
115.8592423738957
 31
0.0
  0
LINE
  5
138
330
131
100
AcDbEntity
  8
LAYER004
  6
Continuous
 62
     7
370
    20
100
AcDbLine
 10
85.7135915710668
 20
103.8592423738954
 30
0.0
 11
92.51359157106675
 21
103.8592423738954
 31
0.0
  0
ENDBLK
  5
133
330
131
100
AcDbEntity
  8
0
100
AcDbBlockEnd
  0
BLOCK
  5
14B
330
14A
100
AcDbEntity
  8
0
100
AcDbBlockBegin
  2
*D28
 70
     1
 10
0.0
 20
0.0
 30
0.0
  3
*D28
  1

  0
TEXT
  5
14D
330
14A
100
AcDbEntity
  8
LAYER004
  6
Continuous
 62
     6
370
    20
100
AcDbText
 10
216.5356140136719
 20
139.6663513183594
 30
0.0
 40
3.0
  1
43
 41
0.8333333333333332
  7
FX_VECTOR
100
AcDbText
  0
LINE
  5
14E
330
14A
100
AcDbEntity
  8
LAYER004
  6
Continuous
 62
     6
370
    20
100
AcDbLine
 10
197.7443267716649
 20
139.1663390888394
 30
0.0
 11
240.3268875727451
 21
139.1663390888394
 31
0.0
  0
INSERT
  5
14F
330
14A
100
AcDbEntity
  8
LAYER004
  6
Continuous
 62
     6
370
    20
100
AcDbBlockReference
  2
FXTIP_ARROW_S
 10
197.7443267716649
 20
139.1663390888394
 30
0.0
 41
3.0
 42
3.0
 50
180.0
  0
INSERT
  5
150
330
14A
100
AcDbEntity
  8
LAYER004
  6
Continuous
 62
     6
370
    20
100
AcDbBlockReference
  2
FXTIP_ARROW_E
 10
240.3268875727451
 20
139.1663390888394
 30
0.0
 41
3.0
 42
3.0
 50
360.0
  0
LINE
  5
151
330
14A
100
AcDbEntity
  8
LAYER004
  6
Continuous
 62
     6
370
    20
100
AcDbLine
 10
197.7443267716649
 20
115.013207516783
 30
0.0
 11
197.7443267716649
 21
140.6663390888397
 31
0.0
  0
LINE
  5
152
330
14A
100
AcDbEntity
  8
LAYER004
  6
Continuous
 62
     6
370
    20
100
AcDbLine
 10
240.3268875727451
 20
115.6092423738954
 30
0.0
 11
240.3268875727451
 21
140.6663390888397
 31
0.0
  0
TEXT
  5
153
330
14A
100
AcDbEntity
  8
LAYER004
  6
Continuous
 62
     6
370
    20
100
AcDbText
 10
214.0356140136719
 20
139.6663513183594
 30
0.0
 40
3.0
  1
(
 41
0.8333333333333332
  7
FX_VECTOR
100
AcDbText
  0
TEXT
  5
154
330
14A
100
AcDbEntity
  8
LAYER004
  6
Continuous
 62
     6
370
    20
100
AcDbText
 10
221.5356140136718
 20
139.6663513183594
 30
0.0
 40
3.0
  1
)
 41
0.8333333333333332
  7
FX_VECTOR
100
AcDbText
  0
ENDBLK
  5
14C
330
14A
100
AcDbEntity
  8
0
100
AcDbBlockEnd
  0
BLOCK
  5
157
330
156
100
AcDbEntity
  8
0
100
AcDbBlockBegin
  2
*D29
 70
     1
 10
0.0
 20
0.0
 30
0.0
  3
*D29
  1

  0
TEXT
  5
159
330
156
100
AcDbEntity
  8
LAYER004
  6
Continuous
 62
     6
370
    20
100
AcDbText
 10
152.9789733886719
 20
139.6663513183594
 30
0.0
 40
3.0
  1
2000
 41
0.8333333333333332
  7
FX_VECTOR
100
AcDbText
  0
LINE
  5
15A
330
156
100
AcDbEntity
  8
LAYER004
  6
Continuous
 62
     6
370
    20
100
AcDbLine
 10
118.2135915710663
 20
139.1663390888394
 30
0.0
 11
197.7443267716649
 21
139.1663390888394
 31
0.0
  0
INSERT
  5
15B
330
156
100
AcDbEntity
  8
LAYER004
  6
Continuous
 62
     6
370
    20
100
AcDbBlockReference
  2
FXTIP_ARROW_S
 10
118.2135915710663
 20
139.1663390888394
 30
0.0
 41
3.0
 42
3.0
 50
180.0
  0
INSERT
  5
15C
330
156
100
AcDbEntity
  8
LAYER004
  6
Continuous
 62
     6
370
    20
100
AcDbBlockReference
  2
FXTIP_ARROW_E
 10
197.7443267716649
 20
139.1663390888394
 30
0.0
 41
3.0
 42
3.0
 50
360.0
  0
LINE
  5
15D
330
156
100
AcDbEntity
  8
LAYER004
  6
Continuous
 62
     6
370
    20
100
AcDbLine
 10
118.2135915710663
 20
116.5592423738954
 30
0.0
 11
118.2135915710663
 21
140.6663390888397
 31
0.0
  0
ENDBLK
  5
158
330
156
100
AcDbEntity
  8
0
100
AcDbBlockEnd
  0
BLOCK
  5
160
330
15F
100
AcDbEntity
  8
0
100
AcDbBlockBegin
  2
*D30
 70
     1
 10
0.0
 20
0.0
 30
0.0
  3
*D30
  1

  0
TEXT
  5
162
330
15F
100
AcDbEntity
  8
LAYER004
  6
Continuous
 62
     6
370
    20
100
AcDbText
 10
80.53858947753907
 20
139.666320800563
 30
0.0
 40
3.0
  1
(
 50
0.0000000099999999
 41
0.8333333333333332
  7
FX_VECTOR
100
AcDbText
  0
TEXT
  5
163
330
15F
100
AcDbEntity
  8
LAYER004
  6
Continuous
 62
     6
370
    20
100
AcDbText
 10
83.03858947753907
 20
139.6663207999085
 30
0.0
 40
3.0
  1
60.4
 50
0.0000000099999999
 41
0.8333333333333332
  7
FX_VECTOR
100
AcDbText
  0
TEXT
  5
164
330
15F
100
AcDbEntity
  8
LAYER004
  6
Continuous
 62
     6
370
    20
100
AcDbText
 10
93.03858947753907
 20
139.666320800563
 30
0.0
 40
3.0
  1
)
 50
0.0000000099999999
 41
0.8333333333333332
  7
FX_VECTOR
100
AcDbText
  0
LINE
  5
165
330
15F
100
AcDbEntity
  8
LAYER004
  6
Continuous
 62
     6
370
    20
100
AcDbLine
 10
57.86359157073287
 20
139.1663390888394
 30
0.0
 11
118.2135915710664
 21
139.1663390888394
 31
0.0
  0
INSERT
  5
166
330
15F
100
AcDbEntity
  8
LAYER004
  6
Continuous
 62
     6
370
    20
100
AcDbBlockReference
  2
FXTIP_ARROW_S
 10
57.86359157073287
 20
139.1663390888394
 30
0.0
 41
3.0
 42
3.0
 50
180.0
  0
INSERT
  5
167
330
15F
100
AcDbEntity
  8
LAYER004
  6
Continuous
 62
     6
370
    20
100
AcDbBlockReference
  2
FXTIP_ARROW_E
 10
118.2135915710664
 20
139.1663390888394
 30
0.0
 41
3.0
 42
3.0
 50
360.0
  0
LINE
  5
168
330
15F
100
AcDbEntity
  8
LAYER004
  6
Continuous
 62
     6
370
    20
100
AcDbLine
 10
57.86359157073279
 20
116.6592423738952
 30
0.0
 11
57.86359157073288
 21
140.6663390888397
 31
0.0
  0
LINE
  5
169
330
15F
100
AcDbEntity
  8
LAYER004
  6
Continuous
 62
     6
370
    20
100
AcDbLine
 10
118.2135915710663
 20
116.5592423738954
 30
0.0
 11
118.2135915710664
 21
140.6663390888397
 31
0.0
  0
ENDBLK
  5
161
330
15F
100
AcDbEntity
  8
0
100
AcDbBlockEnd
  0
BLOCK
  5
16B
330
16A
100
AcDbEntity
  8
0
100
AcDbBlockBegin
  2
BLKF033
 70
     0
 10
0.0
 20
0.0
 30
0.0
  3
BLKF033
  1

  0
LINE
  5
16E
330
16A
100
AcDbEntity
  8
LAYER004
  6
Continuous
 62
     7
370
    20
100
AcDbLine
 10
79.51359157106662
 20
115.8092423738954
 30
0.0
 11
79.51359157106684
 21
109.8592423738955
 31
0.0
  0
LINE
  5
16F
330
16A
100
AcDbEntity
  8
LAYER004
  6
Continuous
 62
     7
370
    20
100
AcDbLine
 10
79.51359157106664
 20
115.4472423738953
 30
0.0
 11
79.26359157073277
 21
115.4472423738953
 31
0.0
  0
LINE
  5
170
330
16A
100
AcDbEntity
  8
LAYER004
  6
Continuous
 62
     7
370
    20
100
AcDbLine
 10
85.61359157106663
 20
115.8092423738954
 30
0.0
 11
79.51359157106662
 21
115.8092423738954
 31
0.0
  0
LINE
  5
171
330
16A
100
AcDbEntity
  8
LAYER004
  6
Continuous
 62
     7
370
    20
100
AcDbLine
 10
85.61359157106663
 20
115.8092423738954
 30
0.0
 11
85.71359157106664
 21
115.7092423738955
 31
0.0
  0
LINE
  5
172
330
16A
100
AcDbEntity
  8
LAYER004
  6
Continuous
 62
     7
370
    20
100
AcDbLine
 10
85.71359157106662
 20
109.8592423738955
 30
0.0
 11
85.71359157106664
 21
115.7092423738955
 31
0.0
  0
LINE
  5
173
330
16A
100
AcDbEntity
  8
LAYER004
  6
Continuous
 62
     7
370
    20
100
AcDbLine
 10
57.86359157073278
 20
115.6592423738952
 30
0.0
 11
57.86359157073277
 21
109.8592423738955
 31
0.0
  0
LINE
  5
174
330
16A
100
AcDbEntity
  8
LAYER004
  6
Continuous
 62
     7
370
    20
100
AcDbLine
 10
58.06359157073278
 20
115.8592423738955
 30
0.0
 11
79.26359157073277
 21
115.8592423738955
 31
0.0
  0
LINE
  5
175
330
16A
100
AcDbEntity
  8
LAYER004
  6
DASHDOT
 62
     6
370
    20
100
AcDbLine
 10
85.71359157106662
 20
109.8592423738955
 30
0.0
 11
53.93078042045553
 21
109.8592423738955
 31
0.0
  0
LINE
  5
176
330
16A
100
AcDbEntity
  8
LAYER004
  6
Continuous
 62
     7
370
    20
100
AcDbLine
 10
79.26359157073277
 20
109.8592423738955
 30
0.0
 11
79.26359157073277
 21
115.8592423738955
 31
0.0
  0
LINE
  5
177
330
16A
100
AcDbEntity
  8
LAYER004
  6
Continuous
 62
     7
370
    20
100
AcDbLine
 10
58.06359157073278
 20
115.8592423738955
 30
0.0
 11
57.86359157073278
 21
115.6592423738952
 31
0.0
  0
LINE
  5
178
330
16A
100
AcDbEntity
  8
LAYER004
  6
Continuous
 62
     6
370
    20
100
AcDbLine
 10
58.06359157073277
 20
115.8592423738955
 30
0.0
 11
58.06359157073277
 21
109.8592423738955
 31
0.0
  0
LINE
  5
179
330
16A
100
AcDbEntity
  8
LAYER004
  6
Continuous
 62
     6
370
    20
100
AcDbLine
 10
85.61359157106663
 20
115.8092423738954
 30
0.0
 11
85.61359157106663
 21
109.8592423738955
 31
0.0
  0
LINE
  5
17A
330
16A
100
AcDbEntity
  8
LAYER004
  6
Continuous
 62
     7
370
    20
100
AcDbLine
 10
79.51359157106665
 20
103.9092423738956
 30
0.0
 11
79.51359157106684
 21
109.8592423738955
 31
0.0
  0
LINE
  5
17B
330
16A
100
AcDbEntity
  8
LAYER004
  6
Continuous
 62
     7
370
    20
100
AcDbLine
 10
79.51359157106667
 20
104.2712423738954
 30
0.0
 11
79.2635915707328
 21
104.2712423738954
 31
0.0
  0
LINE
  5
17C
330
16A
100
AcDbEntity
  8
LAYER004
  6
Continuous
 62
     7
370
    20
100
AcDbLine
 10
85.61359157106663
 20
103.9092423738956
 30
0.0
 11
79.51359157106665
 21
103.9092423738956
 31
0.0
  0
LINE
  5
17D
330
16A
100
AcDbEntity
  8
LAYER004
  6
Continuous
 62
     7
370
    20
100
AcDbLine
 10
85.61359157106663
 20
103.9092423738956
 30
0.0
 11
85.71359157106668
 21
104.0092423738954
 31
0.0
  0
LINE
  5
17E
330
16A
100
AcDbEntity
  8
LAYER004
  6
Continuous
 62
     7
370
    20
100
AcDbLine
 10
85.71359157106662
 20
109.8592423738955
 30
0.0
 11
85.71359157106668
 21
104.0092423738954
 31
0.0
  0
LINE
  5
17F
330
16A
100
AcDbEntity
  8
LAYER004
  6
Continuous
 62
     7
370
    20
100
AcDbLine
 10
57.86359157073279
 20
104.0592423738954
 30
0.0
 11
57.86359157073277
 21
109.8592423738955
 31
0.0
  0
LINE
  5
180
330
16A
100
AcDbEntity
  8
LAYER004
  6
Continuous
 62
     7
370
    20
100
AcDbLine
 10
58.0635915707328
 20
103.8592423738954
 30
0.0
 11
79.2635915707328
 21
103.8592423738954
 31
0.0
  0
LINE
  5
181
330
16A
100
AcDbEntity
  8
LAYER004
  6
Continuous
 62
     7
370
    20
100
AcDbLine
 10
79.26359157073277
 20
109.8592423738955
 30
0.0
 11
79.2635915707328
 21
103.8592423738954
 31
0.0
  0
LINE
  5
182
330
16A
100
AcDbEntity
  8
LAYER004
  6
Continuous
 62
     7
370
    20
100
AcDbLine
 10
58.0635915707328
 20
103.8592423738954
 30
0.0
 11
57.86359157073279
 21
104.0592423738954
 31
0.0
  0
LINE
  5
183
330
16A
100
AcDbEntity
  8
LAYER004
  6
Continuous
 62
     6
370
    20
100
AcDbLine
 10
58.06359157073278
 20
103.8592423738954
 30
0.0
 11
58.06359157073277
 21
109.8592423738955
 31
0.0
  0
LINE
  5
184
330
16A
100
AcDbEntity
  8
LAYER004
  6
Continuous
 62
     6
370
    20
100
AcDbLine
 10
85.61359157106663
 20
103.9092423738956
 30
0.0
 11
85.61359157106663
 21
109.8592423738955
 31
0.0
  0
ENDBLK
  5
16C
330
16A
100
AcDbEntity
  8
0
100
AcDbBlockEnd
  0
BLOCK
  5
187
330
186
100
AcDbEntity
  8
0
100
AcDbBlockBegin
  2
*D32
 70
     1
 10
0.0
 20
0.0
 30
0.0
  3
*D32
  1

  0
TEXT
  5
189
330
186
100
AcDbEntity
  8
LAYER004
  6
Continuous
 62
     6
370
    20
100
AcDbText
 10
66.78858947753906
 20
129.6343994131897
 30
0.0
 40
3.0
  1
27.9
 50
0.0000000099999999
 41
0.8333333333333332
 51
15.0
  7
FX_VECTOR
100
AcDbText
  0
LINE
  5
18A
330
186
100
AcDbEntity
  8
LAYER004
  6
Continuous
 62
     6
370
    20
100
AcDbLine
 10
57.86359157073279
 20
129.1343784752768
 30
0.0
 11
85.71359157106668
 21
129.1343784752768
 31
0.0
  0
INSERT
  5
18B
330
186
100
AcDbEntity
  8
LAYER004
  6
Continuous
 62
     6
370
    20
100
AcDbBlockReference
  2
FXTIP_ARROW_S
 10
57.86359157073279
 20
129.1343784752768
 30
0.0
 41
3.0
 42
3.0
 50
180.0
  0
INSERT
  5
18C
330
186
100
AcDbEntity
  8
LAYER004
  6
Continuous
 62
     6
370
    20
100
AcDbBlockReference
  2
FXTIP_ARROW_E
 10
85.71359157106668
 20
129.1343784752768
 30
0.0
 41
3.0
 42
3.0
 50
360.0
  0
LINE
  5
18D
330
186
100
AcDbEntity
  8
LAYER004
  6
Continuous
 62
     6
370
    20
100
AcDbLine
 10
57.86359157073279
 20
116.6592423738952
 30
0.0
 11
57.86359157073279
 21
130.6343784752768
 31
0.0
  0
LINE
  5
18E
330
186
100
AcDbEntity
  8
LAYER004
  6
Continuous
 62
     6
370
    20
100
AcDbLine
 10
85.71359157106668
 20
116.8592423738955
 30
0.0
 11
85.71359157106668
 21
130.6343784752768
 31
0.0
  0
TEXT
  5
18F
330
186
100
AcDbEntity
  8
LAYER004
  6
Continuous
 62
     6
370
    20
100
AcDbText
 10
64.28858947753906
 20
129.6343994138443
 30
0.0
 40
3.0
  1
（
 50
0.0000000099999999
 41
0.8333333333333332
 51
15.0
  7
FX_VECTOR
100
AcDbText
  0
TEXT
  5
190
330
186
100
AcDbEntity
  8
LAYER004
  6
Continuous
 62
     6
370
    20
100
AcDbText
 10
76.78858947753906
 20
129.6343994138443
 30
0.0
 40
3.0
  1
）
 50
0.0000000099999999
 41
0.8333333333333332
 51
15.0
  7
FX_VECTOR
100
AcDbText
  0
ENDBLK
  5
188
330
186
100
AcDbEntity
  8
0
100
AcDbBlockEnd
  0
ENDSEC
  0
SECTION
  2
ENTITIES
  0
TEXT
  5
AC
330
1F
100
AcDbEntity
  8
LAYER004
  6
Continuous
 62
     6
370
    20
100
AcDbText
 10
58.05631786274921
 20
155.728241785642
 30
0.0
 40
3.5
  1
H-1VH-01P
 41
0.8571428571428571
  7
STYLE003
100
AcDbText
  0
LINE
  5
AD
330
1F
100
AcDbEntity
  8
LAYER004
  6
DASHDOT
 62
     6
370
    20
100
AcDbLine
 10
243.3664898436288
 20
109.8592423738955
 30
0.0
 11
85.71359157106643
 21
109.8592423738955
 31
0.0
  0
LINE
  5
AE
330
1F
100
AcDbEntity
  8
LAYER004
  6
Continuous
 62
     7
370
    20
100
AcDbLine
 10
217.560787464254
 20
116.6703952767047
 30
0.0
 11
219.501565571495
 21
115.2094600170946
 31
0.0
  0
LINE
  5
AF
330
1F
100
AcDbEntity
  8
LAYER004
  6
Continuous
 62
     7
370
    20
100
AcDbLine
 10
217.560787464254
 20
116.6703952767047
 30
0.0
 11
212.878242982155
 21
116.6703952767047
 31
0.0
  0
LINE
  5
B0
330
1F
100
AcDbEntity
  8
LAYER004
  6
Continuous
 62
     7
370
    20
100
AcDbLine
 10
222.6930669711219
 20
116.6703952767047
 30
0.0
 11
220.7522888638814
 21
115.2094600170946
 31
0.0
  0
LINE
  5
B1
330
1F
100
AcDbEntity
  8
LAYER004
  6
Continuous
 62
     7
370
    20
100
AcDbLine
 10
224.0749057641058
 20
116.6703952767047
 30
0.0
 11
224.5583806634683
 21
117.2092423738954
 31
0.0
  0
LINE
  5
B2
330
1F
100
AcDbEntity
  8
LAYER004
  6
Continuous
 62
     7
370
    20
100
AcDbLine
 10
224.0749057641058
 20
116.6703952767047
 30
0.0
 11
222.6930669711219
 21
116.6703952767047
 31
0.0
  0
LINE
  5
B3
330
1F
100
AcDbEntity
  8
LAYER004
  6
Continuous
 62
     7
370
    20
100
AcDbLine
 10
220.7522888638814
 20
115.2094600170946
 30
0.0
 11
219.501565571495
 21
115.2094600170946
 31
0.0
  0
LINE
  5
B4
330
1F
100
AcDbEntity
  8
LAYER004
  6
Continuous
 62
     7
370
    20
100
AcDbLine
 10
217.560787464254
 20
103.0480894710858
 30
0.0
 11
219.501565571495
 21
104.5090247306964
 31
0.0
  0
LINE
  5
B5
330
1F
100
AcDbEntity
  8
LAYER004
  6
Continuous
 62
     7
370
    20
100
AcDbLine
 10
217.560787464254
 20
103.0480894710858
 30
0.0
 11
212.878242982155
 21
103.0480894710858
 31
0.0
  0
LINE
  5
B6
330
1F
100
AcDbEntity
  8
LAYER004
  6
Continuous
 62
     7
370
    20
100
AcDbLine
 10
222.6930669711219
 20
103.0480894710858
 30
0.0
 11
220.7522888638814
 21
104.5090247306964
 31
0.0
  0
LINE
  5
B7
330
1F
100
AcDbEntity
  8
LAYER004
  6
Continuous
 62
     7
370
    20
100
AcDbLine
 10
224.0749057641058
 20
103.0480894710858
 30
0.0
 11
224.5583806634683
 21
102.5092423738954
 31
0.0
  0
LINE
  5
B8
330
1F
100
AcDbEntity
  8
LAYER004
  6
Continuous
 62
     7
370
    20
100
AcDbLine
 10
224.0749057641058
 20
103.0480894710858
 30
0.0
 11
222.6930669711219
 21
103.0480894710858
 31
0.0
  0
LINE
  5
B9
330
1F
100
AcDbEntity
  8
LAYER004
  6
Continuous
 62
     7
370
    20
100
AcDbLine
 10
220.7522888638814
 20
104.5090247306964
 30
0.0
 11
219.501565571495
 21
104.5090247306964
 31
0.0
  0
LINE
  5
BA
330
1F
100
AcDbEntity
  8
LAYER004
  6
Continuous
 62
     7
370
    20
100
AcDbLine
 10
212.878242982155
 20
116.6703952767047
 30
0.0
 11
212.878242982155
 21
103.0480894710858
 31
0.0
  0
LINE
  5
BB
330
1F
100
AcDbEntity
  8
LAYER004
  6
Continuous
 62
     7
370
    20
100
AcDbLine
 10
224.0749057641058
 20
116.6703952767047
 30
0.0
 11
224.0749057641058
 21
103.0480894710858
 31
0.0
  0
LINE
  5
BC
330
1F
100
AcDbEntity
  8
LAYER004
  6
Continuous
 62
     7
370
    20
100
AcDbLine
 10
222.6930669711219
 20
116.6703952767047
 30
0.0
 11
222.6930669711219
 21
103.0480894710858
 31
0.0
  0
LINE
  5
BD
330
1F
100
AcDbEntity
  8
LAYER004
  6
Continuous
 62
     7
370
    20
100
AcDbLine
 10
221.7226779175018
 20
115.9399276468995
 30
0.0
 11
221.7226779175018
 21
103.7785571008909
 31
0.0
  0
LINE
  5
BE
330
1F
100
AcDbEntity
  8
LAYER004
  6
Continuous
 62
     7
370
    20
100
AcDbLine
 10
220.7522888638814
 20
115.2094600170946
 30
0.0
 11
220.7522888638814
 21
104.5090247306964
 31
0.0
  0
LINE
  5
BF
330
1F
100
AcDbEntity
  8
LAYER004
  6
Continuous
 62
     7
370
    20
100
AcDbLine
 10
219.501565571495
 20
115.2094600170946
 30
0.0
 11
219.501565571495
 21
104.5090247306964
 31
0.0
  0
LINE
  5
C0
330
1F
100
AcDbEntity
  8
LAYER004
  6
Continuous
 62
     7
370
    20
100
AcDbLine
 10
217.560787464254
 20
116.6703952767047
 30
0.0
 11
217.560787464254
 21
103.0480894710858
 31
0.0
  0
LINE
  5
C1
330
1F
100
AcDbEntity
  8
LAYER004
  6
Continuous
 62
     7
370
    20
100
AcDbLine
 10
212.878242982155
 20
104.0747183255882
 30
0.0
 11
197.7443267716649
 21
105.7052772310077
 31
0.0
  0
LINE
  5
C2
330
1F
100
AcDbEntity
  8
LAYER004
  6
Continuous
 62
     7
370
    20
100
AcDbLine
 10
212.878242982155
 20
115.6437664222024
 30
0.0
 11
197.7443267716649
 21
114.013207516783
 31
0.0
  0
LINE
  5
C3
330
1F
100
AcDbEntity
  8
LAYER004
  6
Continuous
 62
     7
370
    20
100
AcDbLine
 10
229.7567031882702
 20
116.6703952767047
 30
0.0
 11
228.8647643228962
 21
116.6703952767047
 31
0.0
  0
LINE
  5
C4
330
1F
100
AcDbEntity
  8
LAYER004
  6
Continuous
 62
     7
370
    20
100
AcDbLine
 10
229.7567031882702
 20
116.6703952767047
 30
0.0
 11
230.2401780876319
 21
117.2092423738954
 31
0.0
  0
LINE
  5
C5
330
1F
100
AcDbEntity
  8
LAYER004
  6
Continuous
 62
     7
370
    20
100
AcDbLine
 10
228.8647643228962
 20
116.6703952767047
 30
0.0
 11
228.3812894235343
 21
117.2092423738954
 31
0.0
  0
LINE
  5
C6
330
1F
100
AcDbEntity
  8
LAYER004
  6
Continuous
 62
     7
370
    20
100
AcDbLine
 10
235.4979448381619
 20
116.6703952767047
 30
0.0
 11
235.0144699387997
 21
117.2092423738954
 31
0.0
  0
LINE
  5
C7
330
1F
100
AcDbEntity
  8
LAYER004
  6
Continuous
 62
     7
370
    20
100
AcDbLine
 10
235.0144699387997
 20
117.2092423738954
 30
0.0
 11
230.2401780876319
 21
117.2092423738954
 31
0.0
  0
LINE
  5
C8
330
1F
100
AcDbEntity
  8
LAYER004
  6
Continuous
 62
     7
370
    20
100
AcDbLine
 10
239.547030697506
 20
114.6092423738954
 30
0.0
 11
240.3268875727451
 21
114.6092423738954
 31
0.0
  0
LINE
  5
C9
330
1F
100
AcDbEntity
  8
LAYER004
  6
Continuous
 62
     7
370
    20
100
AcDbLine
 10
239.547030697506
 20
116.6703952767047
 30
0.0
 11
235.4979448381619
 21
116.6703952767047
 31
0.0
  0
LINE
  5
CA
330
1F
100
AcDbEntity
  8
LAYER004
  6
Continuous
 62
     7
370
    20
100
AcDbLine
 10
229.7567031882702
 20
103.0480894710858
 30
0.0
 11
228.8647643228962
 21
103.0480894710858
 31
0.0
  0
LINE
  5
CB
330
1F
100
AcDbEntity
  8
LAYER004
  6
Continuous
 62
     7
370
    20
100
AcDbLine
 10
229.7567031882702
 20
103.0480894710858
 30
0.0
 11
230.2401780876319
 21
102.5092423738954
 31
0.0
  0
LINE
  5
CC
330
1F
100
AcDbEntity
  8
LAYER004
  6
Continuous
 62
     7
370
    20
100
AcDbLine
 10
228.8647643228962
 20
103.0480894710858
 30
0.0
 11
228.3812894235343
 21
102.5092423738954
 31
0.0
  0
LINE
  5
CD
330
1F
100
AcDbEntity
  8
LAYER004
  6
Continuous
 62
     7
370
    20
100
AcDbLine
 10
235.4979448381619
 20
103.0480894710858
 30
0.0
 11
235.0144699387997
 21
102.5092423738954
 31
0.0
  0
LINE
  5
CE
330
1F
100
AcDbEntity
  8
LAYER004
  6
Continuous
 62
     7
370
    20
100
AcDbLine
 10
235.0144699387997
 20
102.5092423738954
 30
0.0
 11
230.2401780876319
 21
102.5092423738954
 31
0.0
  0
LINE
  5
CF
330
1F
100
AcDbEntity
  8
LAYER004
  6
Continuous
 62
     7
370
    20
100
AcDbLine
 10
239.547030697506
 20
105.1092423738952
 30
0.0
 11
240.3268875727451
 21
105.1092423738952
 31
0.0
  0
LINE
  5
D0
330
1F
100
AcDbEntity
  8
LAYER004
  6
Continuous
 62
     7
370
    20
100
AcDbLine
 10
239.547030697506
 20
103.0480894710858
 30
0.0
 11
235.4979448381619
 21
103.0480894710858
 31
0.0
  0
LINE
  5
D1
330
1F
100
AcDbEntity
  8
LAYER004
  6
Continuous
 62
     7
370
    20
100
AcDbLine
 10
240.3268875727451
 20
114.6092423738954
 30
0.0
 11
240.3268875727451
 21
105.1092423738952
 31
0.0
  0
LINE
  5
D2
330
1F
100
AcDbEntity
  8
LAYER004
  6
Continuous
 62
     7
370
    20
100
AcDbLine
 10
235.4979448381619
 20
116.6703952767047
 30
0.0
 11
235.4979448381619
 21
103.0480894710858
 31
0.0
  0
LINE
  5
D3
330
1F
100
AcDbEntity
  8
LAYER004
  6
Continuous
 62
     7
370
    20
100
AcDbLine
 10
229.7567031882702
 20
116.6703952767047
 30
0.0
 11
229.7567031882702
 21
103.0480894710858
 31
0.0
  0
LINE
  5
D4
330
1F
100
AcDbEntity
  8
LAYER004
  6
Continuous
 62
     7
370
    20
100
AcDbLine
 10
228.8647643228962
 20
116.6703952767047
 30
0.0
 11
228.8647643228962
 21
103.0480894710858
 31
0.0
  0
LINE
  5
D5
330
1F
100
AcDbEntity
  8
LAYER004
  6
Continuous
 62
     7
370
    20
100
AcDbLine
 10
239.547030697506
 20
103.0480894710858
 30
0.0
 11
239.547030697506
 21
116.6703952767047
 31
0.0
  0
LINE
  5
D6
330
1F
100
AcDbEntity
  8
LAYER004
  6
Continuous
 62
     7
370
    20
100
AcDbLine
 10
228.3812894235343
 20
102.5092423738954
 30
0.0
 11
224.5583806634683
 21
102.5092423738954
 31
0.0
  0
LINE
  5
D7
330
1F
100
AcDbEntity
  8
LAYER004
  6
Continuous
 62
     7
370
    20
100
AcDbLine
 10
228.3812894235343
 20
117.2092423738954
 30
0.0
 11
224.5583806634683
 21
117.2092423738954
 31
0.0
  0
LINE
  5
D8
330
1F
100
AcDbEntity
  8
LAYER004
  6
Continuous
 62
     7
370
    20
100
AcDbLine
 10
197.7443267716649
 20
114.013207516783
 30
0.0
 11
197.7443267716649
 21
105.7052772310077
 31
0.0
  0
LINE
  5
D9
330
1F
100
AcDbEntity
  8
LAYER004
  6
Continuous
 62
     6
370
    20
100
AcDbLine
 10
224.5583806634683
 20
102.5092423738954
 30
0.0
 11
224.5583806634683
 21
117.2092423738954
 31
0.0
  0
LINE
  5
DA
330
1F
100
AcDbEntity
  8
LAYER004
  6
Continuous
 62
     6
370
    20
100
AcDbLine
 10
228.3812894235343
 20
102.5092423738954
 30
0.0
 11
228.3812894235343
 21
117.2092423738954
 31
0.0
  0
HATCH
  5
DB
330
1F
100
AcDbEntity
  8
LAYER004
  6
Continuous
 62
     6
370
    20
100
AcDbHatch
 10
0.0
 20
0.0
 30
0.0
210
0.0
220
0.0
230
1.0
  2

 70
     0
 71
     1
 91
        2
 92
        0
 93
        4
 72
     1
 10
228.3812894235343
 20
117.2092423738954
 11
224.5583806634683
 21
117.2092423738954
 72
     1
 10
224.5583806634683
 20
117.2092423738954
 11
224.558380663468
 21
109.8592423738955
 72
     1
 10
224.558380663468
 20
109.8592423738955
 11
228.3812894235343
 21
109.8592423738955
 72
     1
 10
228.3812894235343
 20
109.8592423738955
 11
228.3812894235343
 21
117.2092423738954
 97
        0
 92
        0
 93
        5
 72
     1
 10
228.3812894235343
 20
109.8592423738955
 11
224.558380663468
 21
109.8592423738955
 72
     1
 10
224.558380663468
 20
109.8592423738955
 11
224.5583806634683
 21
102.5092423738954
 72
     1
 10
224.5583806634683
 20
102.5092423738954
 11
228.3812894235343
 21
102.5092423738954
 72
     1
 10
228.3812894235343
 20
102.5092423738954
 11
228.3812894235343
 21
107.0470580606406
 72
     1
 10
228.3812894235343
 20
107.0470580606406
 11
228.3812894235343
 21
109.8592423738955
 97
        0
 75
     0
 76
     0
 52
45.0
 41
0.635
 77
     0
 78
     1
 53
45.0
 43
0.0
 44
0.0
 45
-0.4490128060534577
 46
0.4490128060534577
 79
     0
 98
        0
  0
HATCH
  5
DC
330
1F
100
AcDbEntity
  8
LAYER004
  6
Continuous
 62
     6
370
    20
100
AcDbHatch
 10
0.0
 20
0.0
 30
0.0
210
0.0
220
0.0
230
1.0
  2

 70
     0
 71
     1
 91
        2
 92
        0
 93
        4
 72
     1
 10
228.3812894235343
 20
117.2092423738954
 11
224.5583806634683
 21
117.2092423738954
 72
     1
 10
224.5583806634683
 20
117.2092423738954
 11
224.558380663468
 21
109.8592423738955
 72
     1
 10
224.558380663468
 20
109.8592423738955
 11
228.3812894235343
 21
109.8592423738955
 72
     1
 10
228.3812894235343
 20
109.8592423738955
 11
228.3812894235343
 21
117.2092423738954
 97
        0
 92
        0
 93
        5
 72
     1
 10
228.3812894235343
 20
109.8592423738955
 11
224.558380663468
 21
109.8592423738955
 72
     1
 10
224.558380663468
 20
109.8592423738955
 11
224.5583806634683
 21
102.5092423738954
 72
     1
 10
224.5583806634683
 20
102.5092423738954
 11
228.3812894235343
 21
102.5092423738954
 72
     1
 10
228.3812894235343
 20
102.5092423738954
 11
228.3812894235343
 21
109.2684064671076
 72
     1
 10
228.3812894235343
 20
109.2684064671076
 11
228.3812894235343
 21
109.8592423738955
 97
        0
 75
     0
 76
     0
 52
-45.0
 41
0.635
 77
     0
 78
     1
 53
-45.0
 43
0.0
 44
0.0
 45
0.4490128060534577
 46
0.4490128060534577
 79
     0
 98
        0
  0
LINE
  5
DD
330
1F
100
AcDbEntity
  8
LAYER004
  6
Continuous
 62
     6
370
    20
100
AcDbLine
 10
230.2401780876319
 20
102.5092423738954
 30
0.0
 11
230.2401780876319
 21
117.2092423738954
 31
0.0
  0
LINE
  5
DE
330
1F
100
AcDbEntity
  8
LAYER004
  6
Continuous
 62
     6
370
    20
100
AcDbLine
 10
235.0144699387997
 20
102.5092423738954
 30
0.0
 11
235.0144699387997
 21
117.2092423738954
 31
0.0
  0
HATCH
  5
DF
330
1F
100
AcDbEntity
  8
LAYER004
  6
Continuous
 62
     6
370
    20
100
AcDbHatch
 10
0.0
 20
0.0
 30
0.0
210
0.0
220
0.0
230
1.0
  2

 70
     0
 71
     1
 91
        2
 92
        0
 93
        4
 72
     1
 10
235.0144699387997
 20
117.2092423738954
 11
230.2401780876319
 21
117.2092423738954
 72
     1
 10
230.2401780876319
 20
117.2092423738954
 11
230.2401780876319
 21
109.8592423738955
 72
     1
 10
230.2401780876319
 20
109.8592423738955
 11
235.0144699387997
 21
109.8592423738955
 72
     1
 10
235.0144699387997
 20
109.8592423738955
 11
235.0144699387997
 21
117.2092423738954
 97
        0
 92
        0
 93
        5
 72
     1
 10
235.0144699387997
 20
109.8592423738955
 11
230.2401780876319
 21
109.8592423738955
 72
     1
 10
230.2401780876319
 20
109.8592423738955
 11
230.2401780876319
 21
102.5092423738954
 72
     1
 10
230.2401780876319
 20
102.5092423738954
 11
235.0144699387997
 21
102.5092423738954
 72
     1
 10
235.0144699387997
 20
102.5092423738954
 11
235.0144699387997
 21
107.7017712751783
 72
     1
 10
235.0144699387997
 20
107.7017712751783
 11
235.0144699387997
 21
109.8592423738955
 97
        0
 75
     0
 76
     0
 52
-45.0
 41
0.635
 77
     0
 78
     1
 53
-45.0
 43
0.0
 44
0.0
 45
0.4490128060534577
 46
0.4490128060534577
 79
     0
 98
        0
  0
HATCH
  5
E0
330
1F
100
AcDbEntity
  8
LAYER004
  6
Continuous
 62
     6
370
    20
100
AcDbHatch
 10
0.0
 20
0.0
 30
0.0
210
0.0
220
0.0
230
1.0
  2

 70
     0
 71
     1
 91
        2
 92
        0
 93
        4
 72
     1
 10
235.0144699388001
 20
117.2092423738954
 11
230.2401780876319
 21
117.2092423738954
 72
     1
 10
230.2401780876319
 20
117.2092423738954
 11
230.2401780876319
 21
109.8592423738955
 72
     1
 10
230.2401780876319
 20
109.8592423738955
 11
235.0144699387997
 21
109.8592423738955
 72
     1
 10
235.0144699387997
 20
109.8592423738955
 11
235.0144699388001
 21
117.2092423738954
 97
        0
 92
        0
 93
        5
 72
     1
 10
235.0144699388001
 20
109.8592423738955
 11
230.2401780876319
 21
109.8592423738955
 72
     1
 10
230.2401780876319
 20
109.8592423738955
 11
230.2401780876319
 21
102.5092423738954
 72
     1
 10
230.2401780876319
 20
102.5092423738954
 11
235.0144699387997
 21
102.5092423738954
 72
     1
 10
235.0144699387997
 20
102.5092423738954
 11
235.0144699387997
 21
108.6838410969847
 72
     1
 10
235.0144699387997
 20
108.6838410969847
 11
235.0144699388001
 21
109.8592423738955
 97
        0
 75
     0
 76
     0
 52
45.0
 41
0.635
 77
     0
 78
     1
 53
45.0
 43
0.0
 44
0.0
 45
-0.4490128060534577
 46
0.4490128060534577
 79
     0
 98
        0
  0
DIMENSION
  5
E1
330
1F
100
AcDbEntity
  8
LAYER004
100
AcDbDimension
  2
*D19
 10
45.86359157073277
 20
115.8592423738955
 30
0.0
 11
45.36359024047852
 21
111.1092529296874
 31
0.0
 70
    33
 71
     5
 42
-1.0
  3
FXDIMINFO
100
AcDbAlignedDimension
 13
58.06359157073278
 23
103.8592423738954
 33
0.0
 14
58.06359157073274
 24
115.8592423738955
 34
0.0
1001
ACAD
1000
DSTYLE
1002
{
1070
   173
1070
     1
1070
   344
1005
48
1070
   343
1005
42
1002
}
  0
LINE
  5
EC
330
1F
100
AcDbEntity
  8
LAYER004
  6
Continuous
 62
     7
370
    20
100
AcDbLine
 10
118.2135915710663
 20
113.1592423738956
 30
0.0
 11
179.8658319891135
 21
113.1592423738956
 31
0.0
  0
INSERT
  5
F0
330
1F
100
AcDbEntity
  8
0
100
AcDbBlockReference
  2
BLKF022
 10
0.0
 20
0.0
 30
0.0
  0
LINE
  5
F5
330
1F
100
AcDbEntity
  8
LAYER004
  6
Continuous
 62
     7
370
    20
100
AcDbLine
 10
180.9675670402427
 20
113.1592423738956
 30
0.0
 11
197.7443267716649
 21
113.1592423738956
 31
0.0
  0
LINE
  5
F6
330
1F
100
AcDbEntity
  8
LAYER004
  6
Continuous
 62
     7
370
    20
100
AcDbLine
 10
118.2135915710663
 20
106.5592423738954
 30
0.0
 11
179.5918535139148
 21
106.5592423738954
 31
0.0
  0
LINE
  5
F7
330
1F
100
AcDbEntity
  8
LAYER004
  6
Continuous
 62
     7
370
    20
100
AcDbLine
 10
180.7102128645595
 20
106.5592423738954
 30
0.0
 11
197.7443267716649
 21
106.5592423738954
 31
0.0
  0
DIMENSION
  5
F8
330
1F
100
AcDbEntity
  8
LAYER004
100
AcDbDimension
  2
*D21
 10
141.9043949202464
 20
129.1343784752768
 30
0.0
 11
130.0589904785154
 21
129.6343994140624
 31
0.0
 70
    32
 71
     5
 42
-1.0
  3
FXDIMINFO
100
AcDbAlignedDimension
 13
118.2135915710663
 23
115.5592423738954
 33
0.0
 14
141.9043949202464
 24
113.4004275365062
 34
0.0
 50
180.0
100
AcDbRotatedDimension
1001
ACAD
1000
DSTYLE
1002
{
1070
   173
1070
     1
1070
   344
1005
48
1070
   343
1005
42
1002
}
  0
DIMENSION
  5
102
330
1F
100
AcDbEntity
  8
LAYER004
100
AcDbDimension
  2
*D22
 10
252.8582221659454
 20
117.2092423738954
 30
0.0
 11
252.3582458496094
 21
111.1092529296874
 31
0.0
 70
    33
 71
     5
 42
-1.0
  3
FXDIMINFO
100
AcDbAlignedDimension
 13
235.0144699387997
 23
102.5092423738954
 33
0.0
 14
235.0144699387997
 24
117.2092423738954
 34
0.0
1001
ACAD
1000
DSTYLE
1002
{
1070
   173
1070
     1
1070
   344
1005
48
1070
   343
1005
42
1002
}
  0
DIMENSION
  5
10D
330
1F
100
AcDbEntity
  8
LAYER004
100
AcDbDimension
  2
*D23
 10
190.3825688556115
 20
113.1592423738956
 30
0.0
 11
189.882568359375
 21
97.55923461914065
 31
0.0
 70
    33
 71
     5
 42
-1.0
  3
FXDIMINFO
100
AcDbAlignedDimension
 13
197.7443267716649
 23
106.5592423738954
 33
0.0
 14
197.7443267716649
 24
113.1592423738956
 34
0.0
  0
INSERT
  5
11C
330
1F
100
AcDbEntity
  8
0
100
AcDbBlockReference
  2
FXDIM026
 10
0.0
 20
0.0
 30
0.0
  0
INSERT
  5
124
330
1F
100
AcDbEntity
  8
0
100
AcDbBlockReference
  2
FXDIM027
 10
0.0
 20
0.0
 30
0.0
  0
INSERT
  5
12C
330
1F
100
AcDbEntity
  8
0
100
AcDbBlockReference
  2
FXDIM028
 10
0.0
 20
0.0
 30
0.0
  0
INSERT
  5
134
330
1F
100
AcDbEntity
  8
0
100
AcDbBlockReference
  2
BLKF029
 10
0.0
 20
0.0
 30
0.0
  0
LINE
  5
139
330
1F
100
AcDbEntity
  8
LAYER004
  6
Continuous
 62
     7
370
    20
100
AcDbLine
 10
118.2135915710663
 20
115.5592423738954
 30
0.0
 11
118.2135915710663
 21
104.1592423738952
 31
0.0
  0
LINE
  5
13A
330
1F
100
AcDbEntity
  8
LAYER004
  6
Continuous
 62
     7
370
    20
100
AcDbLine
 10
117.913591571066
 20
115.8592423738955
 30
0.0
 11
118.2135915710663
 21
115.5592423738954
 31
0.0
  0
LINE
  5
13B
330
1F
100
AcDbEntity
  8
LAYER004
  6
Continuous
 62
     7
370
    20
100
AcDbLine
 10
117.9135915710659
 20
115.8592423738957
 30
0.0
 11
99.91359157106659
 21
115.8592423738955
 31
0.0
  0
LINE
  5
13C
330
1F
100
AcDbEntity
  8
LAYER004
  6
Continuous
 62
     7
370
    20
100
AcDbLine
 10
99.91359157106657
 20
103.8592423738954
 30
0.0
 11
99.91359157106659
 21
115.8592423738955
 31
0.0
  0
LINE
  5
13D
330
1F
100
AcDbEntity
  8
LAYER004
  6
Continuous
 62
     7
370
    20
100
AcDbLine
 10
117.913591571066
 20
103.8592423738954
 30
0.0
 11
118.2135915710663
 21
104.1592423738952
 31
0.0
  0
LINE
  5
13E
330
1F
100
AcDbEntity
  8
LAYER004
  6
Continuous
 62
     7
370
    20
100
AcDbLine
 10
117.9135915710659
 20
103.8592423738952
 30
0.0
 11
99.91359157106659
 21
103.8592423738954
 31
0.0
  0
LINE
  5
13F
330
1F
100
AcDbEntity
  8
LAYER004
  6
Continuous
 62
     7
370
    20
100
AcDbLine
 10
99.91359157106659
 20
115.8592423738955
 30
0.0
 11
92.51359157106675
 21
115.8592423738953
 31
0.0
  0
LINE
  5
140
330
1F
100
AcDbEntity
  8
LAYER004
  6
Continuous
 62
     7
370
    20
100
AcDbLine
 10
99.91359157106659
 20
115.8592423738955
 30
0.0
 11
99.91359157106659
 21
115.1092423738957
 31
0.0
  0
LINE
  5
141
330
1F
100
AcDbEntity
  8
LAYER004
  6
Continuous
 62
     7
370
    20
100
AcDbLine
 10
99.91359157106659
 20
103.8592423738954
 30
0.0
 11
92.51359157106696
 21
103.8592423738959
 31
0.0
  0
LINE
  5
142
330
1F
100
AcDbEntity
  8
LAYER004
  6
Continuous
 62
     7
370
    20
100
AcDbLine
 10
99.91359157106659
 20
103.8592423738954
 30
0.0
 11
99.91359157106659
 21
104.6092423738953
 31
0.0
  0
LINE
  5
143
330
1F
100
AcDbEntity
  8
LAYER004
  6
Continuous
 62
     6
370
    20
100
AcDbLine
 10
117.9135915710659
 20
103.8592423738952
 30
0.0
 11
117.9135915710659
 21
115.8592423738957
 31
0.0
  0
LINE
  5
144
330
1F
100
AcDbEntity
  8
LAYER004
  6
Continuous
 62
     6
370
    20
100
AcDbLine
 10
92.71359157106664
 20
115.8592423738953
 30
0.0
 11
92.71359157106664
 21
103.8592423738954
 31
0.0
  0
HATCH
  5
145
330
1F
100
AcDbEntity
  8
LAYER004
  6
Continuous
 62
     7
370
    20
100
AcDbHatch
 10
0.0
 20
0.0
 30
0.0
210
0.0
220
0.0
230
1.0
  2

 70
     0
 71
     1
 91
        2
 92
        0
 93
        4
 72
     1
 10
85.71359157106662
 20
115.8592423738955
 11
85.71359157106662
 21
109.8592423738955
 72
     1
 10
85.71359157106662
 20
109.8592423738955
 11
92.71359157106664
 21
109.8592423738955
 72
     1
 10
92.71359157106664
 20
109.8592423738955
 11
92.71359157106664
 21
115.8592423738953
 72
     1
 10
92.71359157106664
 20
115.8592423738953
 11
85.71359157106662
 21
115.8592423738955
 97
        0
 92
        0
 93
        4
 72
     1
 10
92.71359157106664
 20
103.8592423738954
 11
92.71359157106664
 21
109.8592423738955
 72
     1
 10
92.71359157106664
 20
109.8592423738955
 11
85.71359157106662
 21
109.8592423738955
 72
     1
 10
85.71359157106662
 20
109.8592423738955
 11
85.71359157106662
 21
103.8592423738954
 72
     1
 10
85.71359157106662
 20
103.8592423738954
 11
92.71359157106664
 21
103.8592423738954
 97
        0
 75
     0
 76
     0
 52
45.0
 41
1.0
 77
     0
 78
     1
 53
45.0
 43
0.0
 44
0.0
 45
-0.7071067811865475
 46
0.7071067811865476
 79
     0
 98
        0
  0
LINE
  5
146
330
1F
100
AcDbEntity
  8
LAYER004
  6
Continuous
 62
     6
370
    20
100
AcDbLine
 10
115.9635915710667
 20
103.8592423738952
 30
0.0
 11
115.9635915710667
 21
115.8592423738957
 31
0.0
  0
LINE
  5
147
330
1F
100
AcDbEntity
  8
LAYER004
  6
Continuous
 62
     6
370
    20
100
AcDbLine
 10
111.4635915710667
 20
115.8592423738955
 30
0.0
 11
111.4635915710667
 21
103.8592423738952
 31
0.0
  0
HATCH
  5
148
330
1F
100
AcDbEntity
  8
LAYER004
  6
Continuous
 62
     6
370
    20
100
AcDbHatch
 10
0.0
 20
0.0
 30
0.0
210
0.0
220
0.0
230
1.0
  2

 70
     0
 71
     1
 91
        2
 92
        0
 93
        4
 72
     1
 10
115.9635915710664
 20
115.8592423738957
 11
111.4635915710667
 21
115.8592423738955
 72
     1
 10
111.4635915710667
 20
115.8592423738955
 11
111.4635915710667
 21
109.8592423738955
 72
     1
 10
111.4635915710667
 20
109.8592423738955
 11
115.9635915710667
 21
109.8592423738955
 72
     1
 10
115.9635915710667
 20
109.8592423738955
 11
115.9635915710664
 21
115.8592423738957
 97
        0
 92
        0
 93
        5
 72
     1
 10
115.9635915710667
 20
109.8592423738955
 11
111.4635915710667
 21
109.8592423738955
 72
     1
 10
111.4635915710667
 20
109.8592423738955
 11
111.4635915710667
 21
103.8592423738954
 72
     1
 10
111.4635915710667
 20
103.8592423738954
 11
115.9635915710667
 21
103.8592423738952
 72
     1
 10
115.9635915710667
 20
103.8592423738952
 11
115.9635915710667
 21
106.6726931435701
 72
     1
 10
115.9635915710667
 20
106.6726931435701
 11
115.9635915710667
 21
109.8592423738955
 97
        0
 75
     0
 76
     0
 52
45.0
 41
1.0
 77
     0
 78
     1
 53
45.0
 43
0.0
 44
0.0
 45
-0.7071067811865475
 46
0.7071067811865476
 79
     0
 98
        0
  0
DIMENSION
  5
149
330
1F
100
AcDbEntity
  8
LAYER004
100
AcDbDimension
  2
*D28
 10
240.3268875727451
 20
139.1663390888394
 30
0.0
 11
219.0356140136719
 21
139.6663513183594
 31
0.0
 70
    32
 71
     5
 42
-1.0
  3
FXDIMINFO
100
AcDbAlignedDimension
 13
197.7443267716649
 23
114.013207516783
 33
0.0
 14
240.3268875727451
 24
114.6092423738954
 34
0.0
 50
180.0
100
AcDbRotatedDimension
1001
ACAD
1000
DSTYLE
1002
{
1070
   173
1070
     1
1070
   344
1005
48
1070
   343
1005
42
1002
}
  0
DIMENSION
  5
155
330
1F
100
AcDbEntity
  8
LAYER004
100
AcDbDimension
  2
*D29
 10
197.7443267716649
 20
139.1663390888394
 30
0.0
 11
157.9789733886719
 21
139.6663513183594
 31
0.0
 70
    32
 71
     5
 42
-1.0
  3
FXDIMINFO
100
AcDbAlignedDimension
 13
118.2135915710663
 23
115.5592423738954
 33
0.0
 14
197.7443267716649
 24
114.013207516783
 34
0.0
 50
180.0
100
AcDbRotatedDimension
1001
ACAD
1000
DSTYLE
1002
{
1070
   173
1070
     1
1070
   344
1005
48
1070
   343
1005
42
1002
}
  0
DIMENSION
  5
15E
330
1F
100
AcDbEntity
  8
LAYER004
100
AcDbDimension
  2
*D30
 10
118.2135915710664
 20
139.1663390888394
 30
0.0
 11
88.03858947753907
 21
139.6663208007812
 31
0.0
 70
    32
 71
     5
 42
-1.0
  3
FXDIMINFO
100
AcDbAlignedDimension
 13
57.86359157073279
 23
115.6592423738952
 33
0.0
 14
118.2135915710663
 24
115.5592423738954
 34
0.0
 50
180.0
100
AcDbRotatedDimension
1001
ACAD
1000
DSTYLE
1002
{
1070
   173
1070
     1
1070
   344
1005
48
1070
   343
1005
42
1002
}
  0
INSERT
  5
16D
330
1F
100
AcDbEntity
  8
0
100
AcDbBlockReference
  2
BLKF033
 10
0.0
 20
0.0
 30
0.0
  0
DIMENSION
  5
185
330
1F
100
AcDbEntity
  8
LAYER004
100
AcDbDimension
  2
*D32
 10
85.71359157106668
 20
129.1343784752768
 30
0.0
 11
71.78858947753906
 21
129.6343994140624
 31
0.0
 70
    32
 71
     5
 42
-1.0
  3
FXDIMINFO
100
AcDbAlignedDimension
 13
57.86359157073279
 23
115.6592423738952
 33
0.0
 14
85.71359157106668
 24
115.8592423738957
 34
0.0
 50
180.0
100
AcDbRotatedDimension
1001
ACAD
1000
DSTYLE
1002
{
1070
   173
1070
     1
1070
   344
1005
48
1070
   343
1005
42
1002
}
  0
TEXT
  5
191
330
1F
100
AcDbEntity
  8
LAYER004
  6
Continuous
 62
     6
370
    20
100
AcDbText
 10
65.53858947753906
 20
125.1185302734375
 30
0.0
 40
3.0
  1
ステンレス
 41
0.8333333333333332
  7
FX_VECTOR
100
AcDbText
  0
SPLINE
  5
192
330
1F
100
AcDbEntity
  8
LAYER004
  6
Continuous
 62
     6
370
    20
100
AcDbSpline
210
0.0
220
0.0
230
1.0
 70
     8
 71
     3
 72
    11
 73
     7
 74
     0
 42
0.0000000001
 43
0.0000000001
 40
2.570962222818279
 40
2.570962222818279
 40
2.570962222818279
 40
2.570962222818279
 40
4.630902546408043
 40
8.525400007764536
 40
11.63955124479432
 40
15.96038704662982
 40
15.96038704662982
 40
15.96038704662982
 40
15.96038704662982
 10
180.3005180271236
 20
116.2257751144897
 30
0.0
 10
179.8099942018795
 20
115.7314126400412
 30
0.0
 10
178.8804763734288
 20
114.2153777057687
 30
0.0
 10
181.3375487100545
 20
111.2162874730671
 30
0.0
 10
180.1716144713359
 20
107.4065435883654
 30
0.0
 10
178.9053450312089
 20
105.2798472698652
 30
0.0
 10
178.1229456435279
 20
104.0785788947794
 30
0.0
  0
SPLINE
  5
193
330
1F
100
AcDbEntity
  8
LAYER004
  6
Continuous
 62
     6
370
    20
100
AcDbSpline
210
0.0
220
0.0
230
1.0
 70
     8
 71
     3
 72
    36
 73
    32
 74
     0
 42
0.0000000001
 43
0.0000000001
 40
1.417646429957278
 40
1.417646429957278
 40
1.417646429957278
 40
1.417646429957278
 40
2.12283227477387
 40
2.12283227477387
 40
3.207435514027281
 40
3.207435514027281
 40
4.02098085748214
 40
4.02098085748214
 40
4.513261743543089
 40
4.513261743543089
 40
4.912256018748855
 40
4.912256018748855
 40
5.31125029395462
 40
5.31125029395462
 40
6.35281475598648
 40
6.35281475598648
 40
7.39437921801834
 40
7.39437921801834
 40
8.435943680050202
 40
8.435943680050202
 40
8.944469886862703
 40
8.944469886862703
 40
9.452996093675203
 40
9.452996093675203
 40
10.47004850730021
 40
10.47004850730021
 40
11.5882437590945
 40
11.5882437590945
 40
14.02084623778198
 40
14.02084623778198
 40
15.32343694984882
 40
15.32343694984882
 40
15.32343694984882
 40
15.32343694984882
 10
181.8515857695631
 20
116.225775114465
 30
0.0
 10
181.6493738451933
 20
116.0771905771877
 30
0.0
 10
181.46262619996
 20
115.9309627933061
 30
0.0
 10
181.0435254764619
 20
115.5683995140736
 30
0.0
 10
180.8422296273173
 20
115.3568008015193
 30
0.0
 10
180.6075143167423
 20
115.0327261154607
 30
0.0
 10
180.5449539088273
 20
114.9106688410667
 30
0.0
 10
180.4893490430931
 20
114.7462659695047
 30
0.0
 10
180.4779287961588
 20
114.6911740158226
 30
0.0
 10
180.4691266638593
 20
114.5934136529757
 30
0.0
 10
180.4692234985803
 20
114.548847667745
 30
0.0
 10
180.4812836484653
 20
114.4309454871187
 30
0.0
 10
180.4936295943251
 20
114.360857971456
 30
0.0
 10
180.565846457621
 20
114.0725007496069
 30
0.0
 10
180.6729335815274
 20
113.7998013541307
 30
0.0
 10
180.9520362698323
 20
113.1851431209734
 30
0.0
 10
181.1220249375983
 20
112.8428877537444
 30
0.0
 10
181.446286530768
 20
112.0978603327364
 30
0.0
 10
181.6020188786851
 20
111.6940426962343
 30
0.0
 10
181.7462248474583
 20
111.0303379215081
 30
0.0
 10
181.7766907213021
 20
110.8066783687023
 30
0.0
 10
181.8040478189141
 20
110.3713594895141
 30
0.0
 10
181.8018224201789
 20
110.1568546689762
 30
0.0
 10
181.757325671411
 20
109.5265856965892
 30
0.0
 10
181.6777179709681
 20
109.1244111824744
 30
0.0
 10
181.4557308432003
 20
108.3204882267094
 30
0.0
 10
181.3077651251513
 20
107.9220458888457
 30
0.0
 10
180.8149697677733
 20
106.7260980273526
 30
0.0
 10
180.4245675533819
 20
105.9613672236558
 30
0.0
 10
179.7806995506838
 20
104.8364302148014
 30
0.0
 10
179.5481161035736
 20
104.4539157992536
 30
0.0
 10
179.3111767333909
 20
104.0785788947794
 30
0.0
  0
ENDSEC
  0
SECTION
  2
OBJECTS
  0
DICTIONARY
  5
C
330
0
100
AcDbDictionary
281
     1
  3
ACAD_GROUP
350
D
  3
ACAD_LAYOUT
350
1A
  3
ACAD_MLEADERSTYLE
350
195
  3
ACAD_MLINESTYLE
350
17
  3
ACAD_PLOTSETTINGS
350
19
  3
ACAD_PLOTSTYLENAME
350
E
  3
ACAD_TABLESTYLE
350
194
  3
ACAD_VISUALSTYLE
350
2A
  3
AcDbVariableDictionary
350
196
  0
DICTIONARY
  5
D
102
{ACAD_REACTORS
330
C
102
}
330
C
100
AcDbDictionary
281
     1
  0
DICTIONARY
  5
1A
102
{ACAD_REACTORS
330
C
102
}
330
C
100
AcDbDictionary
281
     1
  3
Layout1
350
1E
  3
Layout2
350
26
  3
Model
350
22
  0
DICTIONARY
  5
195
102
{ACAD_REACTORS
330
C
102
}
330
C
100
AcDbDictionary
281
     1
  0
DICTIONARY
  5
17
102
{ACAD_REACTORS
330
C
102
}
330
C
100
AcDbDictionary
281
     1
  3
Standard
350
18
  0
DICTIONARY
  5
19
102
{ACAD_REACTORS
330
C
102
}
330
C
100
AcDbDictionary
281
     1
  0
ACDBDICTIONARYWDFLT
  5
E
102
{ACAD_REACTORS
330
C
102
}
330
C
100
AcDbDictionary
281
     1
  3
Normal
350
F
100
AcDbDictionaryWithDefault
340
F
  0
DICTIONARY
  5
194
102
{ACAD_REACTORS
330
C
102
}
330
C
100
AcDbDictionary
281
     1
  0
DICTIONARY
  5
2A
102
{ACAD_REACTORS
330
C
102
}
330
C
100
AcDbDictionary
281
     1
  3
2dWireframe
350
2F
  3
3D Hidden
350
31
  3
3dWireframe
350
30
  3
Basic
350
32
  3
Brighten
350
36
  3
ColorChange
350
3A
  3
Conceptual
350
34
  3
Dim
350
35
  3
Facepattern
350
39
  3
Flat
350
2B
  3
FlatWithEdges
350
2C
  3
Gouraud
350
2D
  3
GouraudWithEdges
350
2E
  3
Linepattern
350
38
  3
Realistic
350
33
  3
Thicken
350
37
  0
DICTIONARY
  5
196
102
{ACAD_REACTORS
330
C
102
}
330
C
100
AcDbDictionary
281
     1
  3
PSOLHEIGHT
350
198
  3
PSOLWIDTH
350
197
  0
LAYOUT
  5
1E
102
{ACAD_REACTORS
330
1A
102
}
330
1A
100
AcDbPlotSettings
  1

  2
none_device
  4

  6

 40
0.0
 41
0.0
 42
0.0
 43
0.0
 44
0.0
 45
0.0
 46
0.0
 47
0.0
 48
0.0
 49
0.0
140
0.0
141
0.0
142
1.0
143
1.0
 70
   688
 72
     0
 73
     0
 74
     5
  7

 75
    16
147
1.0
148
0.0
149
0.0
100
AcDbLayout
  1
Layout1
 70
     1
 71
     1
 10
0.0
 20
0.0
 11
420.0
 21
297.0
 12
0.0
 22
0.0
 32
0.0
 14
1.000000000000000E+20
 24
1.000000000000000E+20
 34
1.000000000000000E+20
 15
-1.000000000000000E+20
 25
-1.000000000000000E+20
 35
-1.000000000000000E+20
146
0.0
 13
0.0
 23
0.0
 33
0.0
 16
1.0
 26
0.0
 36
0.0
 17
0.0
 27
1.0
 37
0.0
 76
     0
330
1B
  0
LAYOUT
  5
26
102
{ACAD_REACTORS
330
1A
102
}
330
1A
100
AcDbPlotSettings
  1

  2
none_device
  4

  6

 40
0.0
 41
0.0
 42
0.0
 43
0.0
 44
0.0
 45
0.0
 46
0.0
 47
0.0
 48
0.0
 49
0.0
140
0.0
141
0.0
142
1.0
143
1.0
 70
   688
 72
     0
 73
     0
 74
     5
  7

 75
    16
147
1.0
148
0.0
149
0.0
100
AcDbLayout
  1
Layout2
 70
     1
 71
     2
 10
0.0
 20
0.0
 11
0.0
 21
0.0
 12
0.0
 22
0.0
 32
0.0
 14
0.0
 24
0.0
 34
0.0
 15
0.0
 25
0.0
 35
0.0
146
0.0
 13
0.0
 23
0.0
 33
0.0
 16
1.0
 26
0.0
 36
0.0
 17
0.0
 27
1.0
 37
0.0
 76
     0
330
23
  0
LAYOUT
  5
22
102
{ACAD_REACTORS
330
1A
102
}
330
1A
100
AcDbPlotSettings
  1

  2
none_device
  4

  6

 40
0.0
 41
0.0
 42
0.0
 43
0.0
 44
0.0
 45
0.0
 46
0.0
 47
0.0
 48
0.0
 49
0.0
140
0.0
141
0.0
142
1.0
143
1.0
 70
  1712
 72
     0
 73
     0
 74
     0
  7

 75
     0
147
1.0
148
0.0
149
0.0
100
AcDbLayout
  1
Model
 70
     1
 71
     0
 10
0.0
 20
0.0
 11
297.0
 21
210.0
 12
0.0
 22
0.0
 32
0.0
 14
0.0
 24
0.0
 34
0.0
 15
297.0
 25
210.0
 35
0.0
146
0.0
 13
0.0
 23
0.0
 33
0.0
 16
1.0
 26
0.0
 36
0.0
 17
0.0
 27
1.0
 37
0.0
 76
     0
330
1F
331
29
  0
MLINESTYLE
  5
18
102
{ACAD_REACTORS
330
17
102
}
330
17
100
AcDbMlineStyle
  2
STANDARD
 70
     0
  3

 62
   256
 51
90.0
 52
90.0
 71
     2
 49
0.5
 62
   256
  6
BYLAYER
 49
-0.5
 62
   256
  6
BYLAYER
  0
ACDBPLACEHOLDER
  5
F
102
{ACAD_REACTORS
330
E
102
}
330
E
  0
VISUALSTYLE
  5
2F
102
{ACAD_REACTORS
330
2A
102
}
330
2A
100
AcDbVisualStyle
  2
2dWireframe
 70
     4
 71
     0
 72
     2
 73
     0
 90
        0
 40
-0.6
 41
-30.0
 62
     5
 63
     7
 74
     1
 91
        4
 64
     7
 65
   257
 75
     1
175
     1
 42
1.0
 92
        0
 66
   257
 43
1.0
 76
     1
 77
     6
 78
     2
 67
     7
 79
     5
170
     0
171
     0
290
     0
174
     0
 93
        1
 44
0.0
173
     0
291
     0
 45
0.0
1001
ACAD
1000
AcDbSavedByObjectVersion
1070
     0
  0
VISUALSTYLE
  5
31
102
{ACAD_REACTORS
330
2A
102
}
330
2A
100
AcDbVisualStyle
  2
3D Hidden
 70
     6
 71
     1
 72
     2
 73
     2
 90
        0
 40
-0.6
 41
-30.0
 62
     5
 63
     7
 74
     2
 91
        2
 64
     7
 65
   257
 75
     2
175
     1
 42
40.0
 92
        0
 66
   257
 43
1.0
 76
     1
 77
     6
 78
     2
 67
     7
 79
     3
170
     0
171
     0
290
     0
174
     0
 93
        1
 44
0.0
173
     0
291
     0
 45
0.0
1001
ACAD
1000
AcDbSavedByObjectVersion
1070
     0
  0
VISUALSTYLE
  5
30
102
{ACAD_REACTORS
330
2A
102
}
330
2A
100
AcDbVisualStyle
  2
3dWireframe
 70
     5
 71
     0
 72
     2
 73
     0
 90
        0
 40
-0.6
 41
-30.0
 62
     5
 63
     7
 74
     1
 91
        4
 64
     7
 65
   257
 75
     1
175
     1
 42
1.0
 92
        0
 66
   257
 43
1.0
 76
     1
 77
     6
 78
     2
 67
     7
 79
     5
170
     0
171
     0
290
     0
174
     0
 93
        1
 44
0.0
173
     0
291
     0
 45
0.0
1001
ACAD
1000
AcDbSavedByObjectVersion
1070
     0
  0
VISUALSTYLE
  5
32
102
{ACAD_REACTORS
330
2A
102
}
330
2A
100
AcDbVisualStyle
  2
Basic
 70
     7
 71
     1
 72
     0
 73
     1
 90
        0
 40
-0.6
 41
-30.0
 62
     5
 63
     7
 74
     0
 91
        4
 64
     7
 65
   257
 75
     1
175
     1
 42
1.0
 92
        8
 66
     7
 43
1.0
 76
     1
 77
     6
 78
     2
 67
     7
 79
     5
170
     0
171
     0
290
     0
174
     0
 93
        1
 44
0.0
173
     0
291
     1
 45
0.0
1001
ACAD
1000
AcDbSavedByObjectVersion
1070
     0
  0
VISUALSTYLE
  5
36
102
{ACAD_REACTORS
330
2A
102
}
330
2A
100
AcDbVisualStyle
  2
Brighten
 70
    12
 71
     2
 72
     2
 73
     0
 90
        0
 40
-0.6
 41
-30.0
 62
     5
 63
     7
 74
     1
 91
        4
 64
     7
 65
   257
 75
     1
175
     1
 42
1.0
 92
        8
 66
     7
 43
1.0
 76
     1
 77
     6
 78
     2
 67
     7
 79
     5
170
     0
171
     0
290
     0
174
     0
 93
        1
 44
50.0
173
     0
291
     1
 45
0.0
1001
ACAD
1000
AcDbSavedByObjectVersion
1070
     0
  0
VISUALSTYLE
  5
3A
102
{ACAD_REACTORS
330
2A
102
}
330
2A
100
AcDbVisualStyle
  2
ColorChange
 70
    16
 71
     2
 72
     2
 73
     3
 90
        0
 40
-0.6
 41
-30.0
 62
     5
 63
     8
 74
     1
 91
        4
 64
     7
 65
   257
 75
     1
175
     1
 42
1.0
 92
        8
 66
     8
 43
1.0
 76
     1
 77
     6
 78
     2
 67
     7
 79
     5
170
     0
171
     0
290
     0
174
     0
 93
        1
 44
0.0
173
     0
291
     1
 45
0.0
1001
ACAD
1000
AcDbSavedByObjectVersion
1070
     0
  0
VISUALSTYLE
  5
34
102
{ACAD_REACTORS
330
2A
102
}
330
2A
100
AcDbVisualStyle
  2
Conceptual
 70
     9
 71
     3
 72
     2
 73
     0
 90
        0
 40
-0.6
 41
-30.0
 62
     5
 63
     7
 74
     2
 91
        2
 64
     7
 65
   257
 75
     1
175
     1
 42
40.0
 92
        8
 66
     7
 43
1.0
 76
     1
 77
     6
 78
     2
 67
     7
 79
     3
170
     0
171
     0
290
     0
174
     0
 93
        1
 44
0.0
173
     0
291
     0
 45
0.0
1001
ACAD
1000
AcDbSavedByObjectVersion
1070
     0
  0
VISUALSTYLE
  5
35
102
{ACAD_REACTORS
330
2A
102
}
330
2A
100
AcDbVisualStyle
  2
Dim
 70
    11
 71
     2
 72
     2
 73
     0
 90
        0
 40
-0.6
 41
-30.0
 62
     5
 63
     7
 74
     1
 91
        4
 64
     7
 65
   257
 75
     1
175
     1
 42
1.0
 92
        8
 66
     7
 43
1.0
 76
     1
 77
     6
 78
     2
 67
     7
 79
     5
170
     0
171
     0
290
     0
174
     0
 93
        1
 44
-50.0
173
     0
291
     1
 45
0.0
1001
ACAD
1000
AcDbSavedByObjectVersion
1070
     0
  0
VISUALSTYLE
  5
39
102
{ACAD_REACTORS
330
2A
102
}
330
2A
100
AcDbVisualStyle
  2
Facepattern
 70
    15
 71
     2
 72
     2
 73
     0
 90
        0
 40
-0.6
 41
-30.0
 62
     5
 63
     7
 74
     1
 91
        4
 64
     7
 65
   257
 75
     1
175
     1
 42
1.0
 92
        8
 66
     7
 43
1.0
 76
     1
 77
     6
 78
     2
 67
     7
 79
     5
170
     0
171
     0
290
     0
174
     0
 93
        1
 44
0.0
173
     0
291
     1
 45
0.0
1001
ACAD
1000
AcDbSavedByObjectVersion
1070
     0
  0
VISUALSTYLE
  5
2B
102
{ACAD_REACTORS
330
2A
102
}
330
2A
100
AcDbVisualStyle
  2
Flat
 70
     0
 71
     2
 72
     1
 73
     1
 90
        2
 40
-0.6
 41
30.0
 62
     5
 63
     7
 74
     0
 91
        4
 64
     7
 65
   257
 75
     1
175
     1
 42
1.0
 92
        8
 66
     7
 43
1.0
 76
     1
 77
     6
 78
     2
 67
     7
 79
     5
170
     0
171
     0
290
     0
174
     0
 93
       13
 44
0.0
173
     0
291
     1
 45
0.0
1001
ACAD
1000
AcDbSavedByObjectVersion
1070
     0
  0
VISUALSTYLE
  5
2C
102
{ACAD_REACTORS
330
2A
102
}
330
2A
100
AcDbVisualStyle
  2
FlatWithEdges
 70
     1
 71
     2
 72
     1
 73
     1
 90
        2
 40
-0.6
 41
30.0
 62
     5
 63
     7
 74
     1
 91
        4
 64
     7
 65
   257
 75
     1
175
     1
 42
1.0
 92
        0
 66
   257
 43
1.0
 76
     1
 77
     6
 78
     2
 67
     7
 79
     5
170
     0
171
     0
290
     0
174
     0
 93
       13
 44
0.0
173
     0
291
     1
 45
0.0
1001
ACAD
1000
AcDbSavedByObjectVersion
1070
     0
  0
VISUALSTYLE
  5
2D
102
{ACAD_REACTORS
330
2A
102
}
330
2A
100
AcDbVisualStyle
  2
Gouraud
 70
     2
 71
     2
 72
     2
 73
     1
 90
        2
 40
-0.6
 41
30.0
 62
     5
 63
     7
 74
     0
 91
        4
 64
     7
 65
   257
 75
     1
175
     1
 42
1.0
 92
        0
 66
     7
 43
1.0
 76
     1
 77
     6
 78
     2
 67
     7
 79
     5
170
     0
171
     0
290
     0
174
     0
 93
       13
 44
0.0
173
     0
291
     1
 45
0.0
1001
ACAD
1000
AcDbSavedByObjectVersion
1070
     0
  0
VISUALSTYLE
  5
2E
102
{ACAD_REACTORS
330
2A
102
}
330
2A
100
AcDbVisualStyle
  2
GouraudWithEdges
 70
     3
 71
     2
 72
     2
 73
     1
 90
        2
 40
-0.6
 41
30.0
 62
     5
 63
     7
 74
     1
 91
        4
 64
     7
 65
   257
 75
     1
175
     1
 42
1.0
 92
        0
 66
   257
 43
1.0
 76
     1
 77
     6
 78
     2
 67
     7
 79
     5
170
     0
171
     0
290
     0
174
     0
 93
       13
 44
0.0
173
     0
291
     1
 45
0.0
1001
ACAD
1000
AcDbSavedByObjectVersion
1070
     0
  0
VISUALSTYLE
  5
38
102
{ACAD_REACTORS
330
2A
102
}
330
2A
100
AcDbVisualStyle
  2
Linepattern
 70
    14
 71
     2
 72
     2
 73
     0
 90
        0
 40
-0.6
 41
-30.0
 62
     5
 63
     7
 74
     1
 91
        4
 64
     7
 65
   257
 75
     7
175
     7
 42
1.0
 92
        8
 66
     7
 43
1.0
 76
     1
 77
     6
 78
     2
 67
     7
 79
     5
170
     0
171
     0
290
     0
174
     0
 93
        1
 44
0.0
173
     0
291
     1
 45
0.0
1001
ACAD
1000
AcDbSavedByObjectVersion
1070
     0
  0
VISUALSTYLE
  5
33
102
{ACAD_REACTORS
330
2A
102
}
330
2A
100
AcDbVisualStyle
  2
Realistic
 70
     8
 71
     2
 72
     2
 73
     0
 90
        0
 40
-0.6
 41
-30.0
 62
     5
 63
     7
 74
     1
 91
        0
 64
     7
 65
   257
 75
     1
175
     1
 42
1.0
 92
        8
 66
     8
 43
1.0
 76
     1
 77
     6
 78
     2
 67
     7
 79
     5
170
     0
171
     0
290
     0
174
     0
 93
       13
 44
0.0
173
     0
291
     0
 45
0.0
1001
ACAD
1000
AcDbSavedByObjectVersion
1070
     0
  0
VISUALSTYLE
  5
37
102
{ACAD_REACTORS
330
2A
102
}
330
2A
100
AcDbVisualStyle
  2
Thicken
 70
    13
 71
     2
 72
     2
 73
     0
 90
        0
 40
-0.6
 41
-30.0
 62
     5
 63
     7
 74
     1
 91
        4
 64
     7
 65
   257
 75
     1
175
     1
 42
1.0
 92
       12
 66
     7
 43
1.0
 76
     1
 77
     6
 78
     2
 67
     7
 79
     5
170
     0
171
     0
290
     0
174
     0
 93
        1
 44
0.0
173
     0
291
     1
 45
0.0
1001
ACAD
1000
AcDbSavedByObjectVersion
1070
     0
  0
DICTIONARYVAR
  5
198
102
{ACAD_REACTORS
330
196
102
}
330
196
100
DictionaryVariables
280
     0
  1
80.000000
  0
DICTIONARYVAR
  5
197
102
{ACAD_REACTORS
330
196
102
}
330
196
100
DictionaryVariables
280
     0
  1
5.000000
  0
ENDSEC
  0
EOF
