  0
SECTION
  2
HEADER
  9
$ACADVER
  1
AC1015
  9
$ACADMAINTVER
 70
    10
  9
$DWGCODEPAGE
  3
ANSI_932
  9
$INSBASE
 10
0.0
 20
0.0
 30
0.0
  9
$EXTMIN
 10
158.7304699126752
 20
110.7949226954892
 30
-0.0015258207003583
  9
$EXTMAX
 10
684.4674695474882
 20
457.346283837159
 30
0.0000000349246037
  9
$LIMMIN
 10
0.0
 20
0.0
  9
$LIMMAX
 10
420.0
 20
297.0
  9
$ORTHOMODE
 70
     0
  9
$REGENMODE
 70
     1
  9
$FILLMODE
 70
     1
  9
$QTEXTMODE
 70
     0
  9
$MIRRTEXT
 70
     1
  9
$LTSCALE
 40
1.0
  9
$ATTMODE
 70
     1
  9
$TEXTSIZE
 40
0.0
  9
$TRACEWID
 40
0.05
  9
$TEXTSTYLE
  7
STANDARD
  9
$CLAYER
  8
LAYER_1
  9
$CELTYPE
  6
CONTINUOUS
  9
$CECOLOR
 62
   256
  9
$CELTSCALE
 40
1.0
  9
$DISPSILH
 70
     0
  9
$DIMSCALE
 40
1.0
  9
$DIMASZ
 40
0.18
  9
$DIMEXO
 40
0.0625
  9
$DIMDLI
 40
0.38
  9
$DIMRND
 40
0.0
  9
$DIMDLE
 40
0.0
  9
$DIMEXE
 40
0.18
  9
$DIMTP
 40
0.0
  9
$DIMTM
 40
0.0
  9
$DIMTXT
 40
0.18
  9
$DIMCEN
 40
0.09
  9
$DIMTSZ
 40
0.0
  9
$DIMTOL
 70
     0
  9
$DIMLIM
 70
     0
  9
$DIMTIH
 70
     1
  9
$DIMTOH
 70
     1
  9
$DIMSE1
 70
     0
  9
$DIMSE2
 70
     0
  9
$DIMTAD
 70
     0
  9
$DIMZIN
 70
     0
  9
$DIMBLK
  1

  9
$DIMASO
 70
     1
  9
$DIMSHO
 70
     1
  9
$DIMPOST
  1

  9
$DIMAPOST
  1

  9
$DIMALT
 70
     0
  9
$DIMALTD
 70
     2
  9
$DIMALTF
 40
25.4
  9
$DIMLFAC
 40
1.0
  9
$DIMTOFL
 70
     0
  9
$DIMTVP
 40
0.0
  9
$DIMTIX
 70
     0
  9
$DIMSOXD
 70
     0
  9
$DIMSAH
 70
     0
  9
$DIMBLK1
  1

  9
$DIMBLK2
  1

  9
$DIMSTYLE
  2
STANDARD
  9
$DIMCLRD
 70
     0
  9
$DIMCLRE
 70
     0
  9
$DIMCLRT
 70
     0
  9
$DIMTFAC
 40
1.0
  9
$DIMGAP
 40
0.09
  9
$DIMJUST
 70
     0
  9
$DIMSD1
 70
     0
  9
$DIMSD2
 70
     0
  9
$DIMTOLJ
 70
     1
  9
$DIMTZIN
 70
     0
  9
$DIMALTZ
 70
     0
  9
$DIMALTTZ
 70
     0
  9
$DIMUPT
 70
     0
  9
$DIMDEC
 70
     4
  9
$DIMTDEC
 70
     4
  9
$DIMALTU
 70
     2
  9
$DIMALTTD
 70
     2
  9
$DIMTXSTY
  7
STANDARD
  9
$DIMAUNIT
 70
     0
  9
$DIMADEC
 70
     0
  9
$DIMALTRND
 40
0.0
  9
$DIMAZIN
 70
     0
  9
$DIMDSEP
 70
    46
  9
$DIMATFIT
 70
     3
  9
$DIMFRAC
 70
     0
  9
$DIMLDRBLK
  1

  9
$DIMLUNIT
 70
     2
  9
$DIMLWD
 70
    -2
  9
$DIMLWE
 70
    -2
  9
$DIMTMOVE
 70
     0
  9
$LUNITS
 70
     2
  9
$LUPREC
 70
     4
  9
$SKETCHINC
 40
0.1
  9
$FILLETRAD
 40
0.0
  9
$AUNITS
 70
     0
  9
$AUPREC
 70
     0
  9
$MENU
  1
acad
  9
$ELEVATION
 40
0.0
  9
$PELEVATION
 40
0.0
  9
$THICKNESS
 40
0.0
  9
$LIMCHECK
 70
     0
  9
$CHAMFERA
 40
0.0
  9
$CHAMFERB
 40
0.0
  9
$CHAMFERC
 40
0.0
  9
$CHAMFERD
 40
0.0
  9
$SKPOLY
 70
     0
  9
$TDCREATE
 40
2311945.702129432
  9
$TDUCREATE
 40
2311945.327129433
  9
$TDUPDATE
 40
2456666.482167534
  9
$TDUUPDATE
 40
2456666.107167534
  9
$TDINDWG
 40
0.0013133102
  9
$TDUSRTIMER
 40
0.0013131250
  9
$USRTIMER
 70
     1
  9
$ANGBASE
 50
0.0
  9
$ANGDIR
 70
     0
  9
$PDMODE
 70
     0
  9
$PDSIZE
 40
0.0
  9
$PLINEWID
 40
0.0
  9
$SPLFRAME
 70
     0
  9
$SPLINETYPE
 70
     6
  9
$SPLINESEGS
 70
     8
  9
$HANDSEED
  5
16E3
  9
$SURFTAB1
 70
     6
  9
$SURFTAB2
 70
     6
  9
$SURFTYPE
 70
     6
  9
$SURFU
 70
     6
  9
$SURFV
 70
     6
  9
$UCSBASE
  2

  9
$UCSNAME
  2

  9
$UCSORG
 10
0.0
 20
0.0
 30
0.0
  9
$UCSXDIR
 10
1.0
 20
0.0
 30
0.0
  9
$UCSYDIR
 10
0.0
 20
1.0
 30
0.0
  9
$UCSORTHOREF
  2

  9
$UCSORTHOVIEW
 70
     0
  9
$UCSORGTOP
 10
0.0
 20
0.0
 30
0.0
  9
$UCSORGBOTTOM
 10
0.0
 20
0.0
 30
0.0
  9
$UCSORGLEFT
 10
0.0
 20
0.0
 30
0.0
  9
$UCSORGRIGHT
 10
0.0
 20
0.0
 30
0.0
  9
$UCSORGFRONT
 10
0.0
 20
0.0
 30
0.0
  9
$UCSORGBACK
 10
0.0
 20
0.0
 30
0.0
  9
$PUCSBASE
  2

  9
$PUCSNAME
  2

  9
$PUCSORG
 10
0.0
 20
0.0
 30
0.0
  9
$PUCSXDIR
 10
1.0
 20
0.0
 30
0.0
  9
$PUCSYDIR
 10
0.0
 20
1.0
 30
0.0
  9
$PUCSORTHOREF
  2

  9
$PUCSORTHOVIEW
 70
     0
  9
$PUCSORGTOP
 10
0.0
 20
0.0
 30
0.0
  9
$PUCSORGBOTTOM
 10
0.0
 20
0.0
 30
0.0
  9
$PUCSORGLEFT
 10
0.0
 20
0.0
 30
0.0
  9
$PUCSORGRIGHT
 10
0.0
 20
0.0
 30
0.0
  9
$PUCSORGFRONT
 10
0.0
 20
0.0
 30
0.0
  9
$PUCSORGBACK
 10
0.0
 20
0.0
 30
0.0
  9
$USERI1
 70
     0
  9
$USERI2
 70
     0
  9
$USERI3
 70
     0
  9
$USERI4
 70
     0
  9
$USERI5
 70
     0
  9
$USERR1
 40
0.0
  9
$USERR2
 40
0.0
  9
$USERR3
 40
0.0
  9
$USERR4
 40
0.0
  9
$USERR5
 40
0.0
  9
$WORLDVIEW
 70
     1
  9
$SHADEDGE
 70
     3
  9
$SHADEDIF
 70
    70
  9
$TILEMODE
 70
     1
  9
$MAXACTVP
 70
    16
  9
$PINSBASE
 10
0.0
 20
0.0
 30
0.0
  9
$PLIMCHECK
 70
     0
  9
$PEXTMIN
 10
1.000000000000000E+20
 20
1.000000000000000E+20
 30
1.000000000000000E+20
  9
$PEXTMAX
 10
-1.000000000000000E+20
 20
-1.000000000000000E+20
 30
-1.000000000000000E+20
  9
$PLIMMIN
 10
0.0
 20
0.0
  9
$PLIMMAX
 10
12.0
 20
9.0
  9
$UNITMODE
 70
     0
  9
$VISRETAIN
 70
     0
  9
$PLINEGEN
 70
     1
  9
$PSLTSCALE
 70
     0
  9
$TREEDEPTH
 70
  3020
  9
$CMLSTYLE
  2
STANDARD
  9
$CMLJUST
 70
     0
  9
$CMLSCALE
 40
1.0
  9
$PROXYGRAPHICS
 70
     1
  9
$MEASUREMENT
 70
     0
  9
$CELWEIGHT
370
    -1
  9
$ENDCAPS
280
     0
  9
$JOINSTYLE
280
     0
  9
$LWDISPLAY
290
     0
  9
$INSUNITS
 70
     0
  9
$HYPERLINKBASE
  1

  9
$STYLESHEET
  1

  9
$XEDIT
290
     1
  9
$CEPSNTYPE
380
     0
  9
$PSTYLEMODE
290
     1
  9
$FINGERPRINTGUID
  2
{4F76A938-0F93-421D-96D0-6E4647D41EFD}
  9
$VERSIONGUID
  2
{1FB890E8-548E-4C20-8D27-DB4F460D5732}
  9
$EXTNAMES
290
     1
  9
$PSVPSCALE
 40
0.0
  9
$OLESTARTUP
290
     0
  0
ENDSEC
  0
SECTION
  2
CLASSES
  0
CLASS
  1
LWPOLYLINE
  2
AcDbPolyline
  3
AutoCAD 2000
 90
    32768
280
     0
281
     1
  0
CLASS
  1
IMAGE
  2
AcDbRasterImage
  3
ISM
 90
    32895
280
     0
281
     1
  0
CLASS
  1
OLE2FRAME
  2
AcDbOle2Frame
  3
AutoCAD 2000
 90
    32768
280
     0
281
     1
  0
CLASS
  1
HATCH
  2
AcDbHatch
  3
AutoCAD 2000
 90
    32768
280
     0
281
     1
  0
CLASS
  1
DICTIONARYVAR
  2
AcDbDictionaryVar
  3
AutoCAD 2000
 90
    32768
280
     0
281
     0
  0
CLASS
  1
RASTERVARIABLES
  2
AcDbRasterVariables
  3
ISM
 90
    32768
280
     0
281
     0
  0
CLASS
  1
IMAGEDEF
  2
AcDbRasterImageDef
  3
ISM
 90
    32768
280
     0
281
     0
  0
CLASS
  1
IMAGEDEF_REACTOR
  2
AcDbRasterImageDefReactor
  3
ISM
 90
    32769
280
     0
281
     0
  0
CLASS
  1
IDBUFFER
  2
AcDbIdBuffer
  3
AutoCAD 2000
 90
    32768
280
     0
281
     0
  0
CLASS
  1
SPATIAL_FILTER
  2
AcDbSpatialFilter
  3
AutoCAD 2000
 90
    32768
280
     0
281
     0
  0
CLASS
  1
XRECORD
  2
AcDbXrecord
  3
AutoCAD 2000
 90
    32768
280
     0
281
     0
  0
CLASS
  1
SORTENTSTABLE
  2
AcDbSortentsTable
  3
AutoCAD 2000
 90
    32768
280
     0
281
     0
  0
CLASS
  1
LAYER_INDEX
  2
AcDbLayerIndex
  3
AutoCAD 2000
 90
    32768
280
     0
281
     0
  0
CLASS
  1
SPATIAL_INDEX
  2
AcDbSpatialIndex
  3
AutoCAD 2000
 90
    32768
280
     0
281
     0
  0
CLASS
  1
OBJECT_PTR
  2
CAseDLPNTableRecord
  3
"ASE-LPNTableRecord"
 90
    32769
280
     0
281
     0
  0
CLASS
  1
LAYOUT
  2
AcDbLayout
  3
AutoCAD 2000
 90
        0
280
     0
281
     0
  0
CLASS
  1
PLOTSETTINGS
  2
AcDbPlotSettings
  3
AutoCAD 2000
 90
    32768
280
     0
281
     0
  0
CLASS
  1
ACDBDICTIONARYWDFLT
  2
AcDbDictionaryWithDefault
  3
AutoCAD 2000
 90
        0
280
     0
281
     0
  0
CLASS
  1
ACDBPLACEHOLDER
  2
AcDbPlaceHolder
  3
AutoCAD 2000
 90
        0
280
     0
281
     0
  0
CLASS
  1
VBA_PROJECT
  2
AcDbVbaProject
  3
"acadvba"
 90
    32768
280
     0
281
     0
  0
CLASS
  1
WIPEOUT
  2
AcDbWipeout
  3
WipeOut|AutoCAD Express Tool|expresstools@autodesk.com
 90
    32895
280
     0
281
     1
  0
CLASS
  1
WIPEOUTVARIABLES
  2
AcDbWipeoutVariables
  3
WipeOut|AutoCAD Express Tool|expresstools@autodesk.com
 90
    32768
280
     0
281
     0
  0
CLASS
  1
RTEXT
  2
RText
  3
RText|AutoCAD Express Tool|expresstools@autodesk.com
 90
    32768
280
     0
281
     1
  0
CLASS
  1
ARCALIGNEDTEXT
  2
AcDbArcAlignedText
  3
ATEXT|AutoCAD Express Tool|expresstools@autodesk.com
 90
    32768
280
     0
281
     1
  0
ENDSEC
  0
SECTION
  2
TABLES
  0
TABLE
  2
VPORT
  5
7
330
0
100
AcDbSymbolTable
 70
     3
  0
VPORT
  5
16E2
330
7
100
AcDbSymbolTableRecord
100
AcDbViewportTableRecord
  2
*Active
 70
     0
 10
0.0
 20
0.0
 11
1.0
 21
1.0
 12
342.2337347737441
 22
228.6731419185795
 13
0.0
 23
0.0
 14
1.0
 24
1.0
 15
0.0
 25
0.0
 16
0.0
 26
0.0
 36
1.0
 17
0.0
 27
0.0
 37
0.0
 40
462.2116698354267
 41
2.119005328596802
 42
50.0
 43
0.0
 44
0.0
 50
0.0
 51
0.0
 71
     0
 72
   100
 73
     1
 74
     1
 75
     0
 76
     0
 77
     0
 78
     0
281
     0
 65
     1
110
0.0
120
0.0
130
0.0
111
1.0
121
0.0
131
0.0
112
0.0
122
1.0
132
0.0
 79
     0
146
0.0
  0
ENDTAB
  0
TABLE
  2
LTYPE
  5
4
330
0
100
AcDbSymbolTable
 70
     6
  0
LTYPE
  5
11
330
4
100
AcDbSymbolTableRecord
100
AcDbLinetypeTableRecord
  2
BYBLOCK
 70
     0
  3

 72
    65
 73
     0
 40
0.0
  0
LTYPE
  5
12
330
4
100
AcDbSymbolTableRecord
100
AcDbLinetypeTableRecord
  2
BYLAYER
 70
     0
  3

 72
    65
 73
     0
 40
0.0
  0
LTYPE
  5
13
330
4
100
AcDbSymbolTableRecord
100
AcDbLinetypeTableRecord
  2
CONTINUOUS
 70
     0
  3
Solid line
 72
    65
 73
     0
 40
0.0
  0
LTYPE
  5
1D
330
4
100
AcDbSymbolTableRecord
100
AcDbLinetypeTableRecord
  2
DASHED
 70
     0
  3
__ __ __ __ __ __ __ __ __ __ __ __ __ __ __
 72
    65
 73
     2
 40
4.0
 49
3.0
 74
     0
 49
-1.0
 74
     0
  0
LTYPE
  5
1E
330
4
100
AcDbSymbolTableRecord
100
AcDbLinetypeTableRecord
  2
HIDDEN
 70
     0
  3
_ _ _ _ _ _ _ _ _ _ _ _ _ _ _ _ _ _ _ _ _ _ _
 72
    65
 73
     2
 40
2.25
 49
0.25
 74
     0
 49
-2.0
 74
     0
  0
LTYPE
  5
1F
330
4
100
AcDbSymbolTableRecord
100
AcDbLinetypeTableRecord
  2
DOT
 70
     0
  3
...............................................
 72
    65
 73
     2
 40
4.0
 49
1.0
 74
     0
 49
-3.0
 74
     0
  0
LTYPE
  5
20
330
4
100
AcDbSymbolTableRecord
100
AcDbLinetypeTableRecord
  2
DASHDOT
 70
     0
  3
__ . __ . __ . __ . __ . __ . __ . __ . __ . __
 72
    65
 73
     4
 40
7.5
 49
6.0
 74
     0
 49
-0.5
 74
     0
 49
0.5
 74
     0
 49
-0.5
 74
     0
  0
LTYPE
  5
21
330
4
100
AcDbSymbolTableRecord
100
AcDbLinetypeTableRecord
  2
DIVIDE
 70
     0
  3
__ . . __ . . __ . . __ . . __ . . __ . . __
 72
    65
 73
     6
 40
8.5
 49
6.0
 74
     0
 49
-0.5
 74
     0
 49
0.5
 74
     0
 49
-0.5
 74
     0
 49
0.5
 74
     0
 49
-0.5
 74
     0
  0
ENDTAB
  0
TABLE
  2
LAYER
  5
2
330
0
100
AcDbSymbolTable
 70
    17
  0
LAYER
  5
14
330
2
100
AcDbSymbolTableRecord
100
AcDbLayerTableRecord
  2
0
 70
     0
 62
     7
  6
CONTINUOUS
370
    -3
390
14C6
  0
LAYER
  5
22
330
2
100
AcDbSymbolTableRecord
100
AcDbLayerTableRecord
  2
LAYER_1
 70
     0
 62
     7
  6
CONTINUOUS
370
    -3
390
14C6
  0
LAYER
  5
23
330
2
100
AcDbSymbolTableRecord
100
AcDbLayerTableRecord
  2
LAYER_3
 70
     0
 62
     7
  6
CONTINUOUS
370
    -3
390
14C6
  0
LAYER
  5
24
330
2
100
AcDbSymbolTableRecord
100
AcDbLayerTableRecord
  2
LAYER_4
 70
     0
 62
     7
  6
CONTINUOUS
370
    -3
390
14C6
  0
LAYER
  5
25
330
2
100
AcDbSymbolTableRecord
100
AcDbLayerTableRecord
  2
LAYER_5
 70
     0
 62
     7
  6
CONTINUOUS
370
    -3
390
14C6
  0
LAYER
  5
26
330
2
100
AcDbSymbolTableRecord
100
AcDbLayerTableRecord
  2
LAYER_6
 70
     0
 62
     7
  6
CONTINUOUS
370
    -3
390
14C6
  0
LAYER
  5
27
330
2
100
AcDbSymbolTableRecord
100
AcDbLayerTableRecord
  2
LAYER_7
 70
     0
 62
     7
  6
CONTINUOUS
370
    -3
390
14C6
  0
LAYER
  5
28
330
2
100
AcDbSymbolTableRecord
100
AcDbLayerTableRecord
  2
LAYER_8
 70
     0
 62
     7
  6
CONTINUOUS
370
    -3
390
14C6
  0
LAYER
  5
29
330
2
100
AcDbSymbolTableRecord
100
AcDbLayerTableRecord
  2
LAYER_9
 70
     0
 62
     7
  6
CONTINUOUS
370
    -3
390
14C6
  0
LAYER
  5
2A
330
2
100
AcDbSymbolTableRecord
100
AcDbLayerTableRecord
  2
LAYER_10
 70
     0
 62
     7
  6
CONTINUOUS
370
    -3
390
14C6
  0
LAYER
  5
2B
330
2
100
AcDbSymbolTableRecord
100
AcDbLayerTableRecord
  2
LAYER_11
 70
     0
 62
     7
  6
CONTINUOUS
370
    -3
390
14C6
  0
LAYER
  5
2C
330
2
100
AcDbSymbolTableRecord
100
AcDbLayerTableRecord
  2
LAYER_12
 70
     0
 62
     7
  6
CONTINUOUS
370
    -3
390
14C6
  0
LAYER
  5
2D
330
2
100
AcDbSymbolTableRecord
100
AcDbLayerTableRecord
  2
LAYER_13
 70
     0
 62
     7
  6
CONTINUOUS
370
    -3
390
14C6
  0
LAYER
  5
2E
330
2
100
AcDbSymbolTableRecord
100
AcDbLayerTableRecord
  2
LAYER_14
 70
     0
 62
     7
  6
CONTINUOUS
370
    -3
390
14C6
  0
LAYER
  5
2F
330
2
100
AcDbSymbolTableRecord
100
AcDbLayerTableRecord
  2
LAYER_15
 70
     0
 62
     7
  6
CONTINUOUS
370
    -3
390
14C6
  0
LAYER
  5
30
330
2
100
AcDbSymbolTableRecord
100
AcDbLayerTableRecord
  2
LAYER_16
 70
     0
 62
     7
  6
CONTINUOUS
370
    -3
390
14C6
  0
LAYER
  5
14D0
330
2
100
AcDbSymbolTableRecord
100
AcDbLayerTableRecord
  2
Defpoints
 70
     0
 62
     7
  6
CONTINUOUS
290
     0
370
    -3
390
14C6
  0
ENDTAB
  0
TABLE
  2
STYLE
  5
3
330
0
100
AcDbSymbolTable
 70
     3
  0
STYLE
  5
17
330
3
100
AcDbSymbolTableRecord
100
AcDbTextStyleTableRecord
  2
STANDARD
 70
     0
 40
0.0
 41
1.0
 50
0.0
 71
     0
 42
0.0
  3
txt
  4

  0
STYLE
  5
31
330
3
100
AcDbSymbolTableRecord
100
AcDbTextStyleTableRecord
  2
BIGFONT
 70
     0
 40
1.0
 41
1.0
 50
0.0
 71
     0
 42
0.0
  3
monotxt.shx
  4
bigfont
  0
STYLE
  5
32
330
3
100
AcDbSymbolTableRecord
100
AcDbTextStyleTableRecord
  2
ＭＳ_ゴシック
 70
     0
 40
0.0
 41
1.0
 50
0.0
 71
     0
 42
0.0
  3
MS Gothic.ttf
  4

1001
ACAD
1000
MS Gothic
1071
    32817
  0
ENDTAB
  0
TABLE
  2
VIEW
  5
5
330
0
100
AcDbSymbolTable
 70
     0
  0
ENDTAB
  0
TABLE
  2
UCS
  5
6
330
0
100
AcDbSymbolTable
 70
     0
  0
ENDTAB
  0
TABLE
  2
APPID
  5
8
330
0
100
AcDbSymbolTable
 70
     1
  0
APPID
  5
16
330
8
100
AcDbSymbolTableRecord
100
AcDbRegAppTableRecord
  2
ACAD
 70
     0
  0
ENDTAB
  0
TABLE
  2
DIMSTYLE
  5
9
330
0
100
AcDbSymbolTable
 70
     2
100
AcDbDimStyleTable
 71
     0
  0
DIMSTYLE
105
18
330
9
100
AcDbSymbolTableRecord
100
AcDbDimStyleTableRecord
  2
STANDARD
 70
     0
340
17
  0
DIMSTYLE
105
33
102
{ACAD_REACTORS
330
DB5
330
DB6
330
DB7
330
DB8
330
DCB
330
13A3
330
13A4
330
13A5
330
13A6
330
13A7
330
13A8
330
13A9
330
13AA
330
13AB
102
}
330
9
100
AcDbSymbolTableRecord
100
AcDbDimStyleTableRecord
  2
MARK2_DIMSTYLE
 70
     0
 41
2.0
 42
1.0
 43
10.0
 44
1.0
 73
     0
 77
     1
140
6.0
146
0.5
147
1.0
271
     2
340
32
341
34
342
34
  0
ENDTAB
  0
TABLE
  2
BLOCK_RECORD
  5
1
330
0
100
AcDbSymbolTable
 70
    78
  0
BLOCK_RECORD
  5
A
330
1
100
AcDbSymbolTableRecord
100
AcDbBlockTableRecord
  2
*MODEL_SPACE
340
14C9
  0
BLOCK_RECORD
  5
B
330
1
100
AcDbSymbolTableRecord
100
AcDbBlockTableRecord
  2
*PAPER_SPACE
340
14CA
  0
BLOCK_RECORD
  5
34
330
1
100
AcDbSymbolTableRecord
100
AcDbBlockTableRecord
  2
_OPEN
340
0
102
{BLKREFS
331
42
331
45
331
4F
331
52
331
5B
331
5C
331
5D
331
5E
331
65
331
66
331
67
331
68
331
6F
331
70
331
71
331
72
331
7B
331
7E
331
87
331
88
331
89
331
8A
331
92
331
93
331
94
331
95
331
9E
331
A1
331
AA
331
AB
331
AC
331
AD
331
B4
331
B5
331
B6
331
B7
331
BE
331
BF
331
C0
331
C1
331
C9
331
CA
331
CB
331
CC
331
D5
331
D8
331
E2
331
E5
331
EE
331
EF
331
F0
331
F1
331
F8
331
F9
331
FA
331
FB
331
102
331
103
331
104
331
105
331
10E
331
111
331
11A
331
11B
331
11C
331
11D
331
124
331
125
331
126
331
127
331
12E
331
12F
331
130
331
131
331
13A
331
13D
331
147
331
14A
331
153
331
154
331
155
331
156
331
15E
331
15F
331
160
331
161
331
169
331
16A
331
16B
331
16C
331
174
331
175
331
176
331
177
331
180
331
183
331
18C
331
18D
331
18E
331
18F
331
198
331
19B
331
1A3
331
1A6
331
1AF
331
1B0
331
1B1
331
1B2
331
1BA
331
1BB
331
1BC
331
1BD
331
1C5
331
1C6
331
1C7
331
1C8
331
1D0
331
1D1
331
1D2
331
1D3
331
1DB
331
1DC
331
1DD
331
1DE
331
1E5
331
1E6
331
1E7
331
1E8
331
1F0
331
1F1
331
1F2
331
1F3
331
1FB
331
1FC
331
1FD
331
1FE
331
205
331
208
331
211
331
212
331
213
331
214
331
21B
331
21C
331
21D
331
21E
331
226
331
227
331
228
331
229
331
230
331
231
331
232
331
233
331
23B
331
23C
331
23D
331
23E
331
246
331
247
331
248
331
249
331
251
331
252
331
253
331
254
331
25C
331
25D
331
25E
331
25F
331
267
331
268
331
269
331
26A
331
272
331
273
331
274
331
275
331
27E
331
281
331
14D5
331
14E1
331
14E2
331
14ED
331
14EE
331
14F9
331
14FA
331
1505
331
1506
331
1511
331
1512
331
151F
331
1520
331
152B
331
152C
331
1539
331
153A
331
1547
331
1548
331
1555
331
1556
331
1560
331
1561
331
156B
331
156C
331
1574
331
1575
331
157E
331
157F
331
1587
331
158F
331
1590
331
1598
331
1599
331
15A3
331
15A4
331
15AC
331
15AD
331
15B6
331
15B7
331
15C2
331
15C3
331
15CE
331
15CF
331
15D9
331
15DA
331
15E4
331
15E5
331
15ED
331
15EE
331
15F6
331
15F7
331
15FF
331
1600
331
160A
331
160B
331
1613
331
1614
331
161E
331
161F
331
1627
331
1628
331
1631
331
1632
331
163A
331
163B
331
1643
331
164D
331
164E
331
1656
331
1657
331
165F
331
1660
331
166A
331
166B
331
1673
331
1674
331
167C
331
167D
331
1687
331
1688
331
1692
331
1693
331
169B
331
169C
331
16A4
331
16A5
331
16AD
331
16AE
331
16B6
331
16BF
331
16C0
331
16C8
331
16C9
331
16D3
331
16D4
331
16DC
331
16DD
102
}
  0
BLOCK_RECORD
  5
3A
330
1
100
AcDbSymbolTableRecord
100
AcDbBlockTableRecord
  2
_NONE
340
0
102
{BLKREFS
331
43
331
46
331
50
331
53
331
7C
331
7F
331
9F
331
A2
331
D6
331
D9
331
E3
331
E6
331
10F
331
112
331
13B
331
13E
331
148
331
14B
331
181
331
184
331
199
331
19C
331
1A4
331
1A7
331
206
331
209
331
27F
331
282
102
}
  0
BLOCK_RECORD
  5
3D
330
1
100
AcDbSymbolTableRecord
100
AcDbBlockTableRecord
  2
*D2
340
0
  0
BLOCK_RECORD
  5
4A
330
1
100
AcDbSymbolTableRecord
100
AcDbBlockTableRecord
  2
*D3
340
0
  0
BLOCK_RECORD
  5
57
330
1
100
AcDbSymbolTableRecord
100
AcDbBlockTableRecord
  2
*D4
340
0
  0
BLOCK_RECORD
  5
62
330
1
100
AcDbSymbolTableRecord
100
AcDbBlockTableRecord
  2
*D5
340
0
  0
BLOCK_RECORD
  5
6C
330
1
100
AcDbSymbolTableRecord
100
AcDbBlockTableRecord
  2
*D6
340
0
  0
BLOCK_RECORD
  5
76
330
1
100
AcDbSymbolTableRecord
100
AcDbBlockTableRecord
  2
*D7
340
0
  0
BLOCK_RECORD
  5
83
330
1
100
AcDbSymbolTableRecord
100
AcDbBlockTableRecord
  2
*D8
340
0
  0
BLOCK_RECORD
  5
8E
330
1
100
AcDbSymbolTableRecord
100
AcDbBlockTableRecord
  2
*D9
340
0
  0
BLOCK_RECORD
  5
99
330
1
100
AcDbSymbolTableRecord
100
AcDbBlockTableRecord
  2
*D10
340
0
  0
BLOCK_RECORD
  5
A6
330
1
100
AcDbSymbolTableRecord
100
AcDbBlockTableRecord
  2
*D11
340
0
  0
BLOCK_RECORD
  5
B1
330
1
100
AcDbSymbolTableRecord
100
AcDbBlockTableRecord
  2
*D12
340
0
  0
BLOCK_RECORD
  5
BB
330
1
100
AcDbSymbolTableRecord
100
AcDbBlockTableRecord
  2
*D13
340
0
  0
BLOCK_RECORD
  5
C5
330
1
100
AcDbSymbolTableRecord
100
AcDbBlockTableRecord
  2
*D14
340
0
  0
BLOCK_RECORD
  5
D0
330
1
100
AcDbSymbolTableRecord
100
AcDbBlockTableRecord
  2
*D15
340
0
  0
BLOCK_RECORD
  5
DD
330
1
100
AcDbSymbolTableRecord
100
AcDbBlockTableRecord
  2
*D16
340
0
  0
BLOCK_RECORD
  5
EA
330
1
100
AcDbSymbolTableRecord
100
AcDbBlockTableRecord
  2
*D17
340
0
  0
BLOCK_RECORD
  5
F5
330
1
100
AcDbSymbolTableRecord
100
AcDbBlockTableRecord
  2
*D18
340
0
  0
BLOCK_RECORD
  5
FF
330
1
100
AcDbSymbolTableRecord
100
AcDbBlockTableRecord
  2
*D19
340
0
  0
BLOCK_RECORD
  5
109
330
1
100
AcDbSymbolTableRecord
100
AcDbBlockTableRecord
  2
*D20
340
0
  0
BLOCK_RECORD
  5
116
330
1
100
AcDbSymbolTableRecord
100
AcDbBlockTableRecord
  2
*D21
340
0
  0
BLOCK_RECORD
  5
121
330
1
100
AcDbSymbolTableRecord
100
AcDbBlockTableRecord
  2
*D22
340
0
  0
BLOCK_RECORD
  5
12B
330
1
100
AcDbSymbolTableRecord
100
AcDbBlockTableRecord
  2
*D23
340
0
  0
BLOCK_RECORD
  5
135
330
1
100
AcDbSymbolTableRecord
100
AcDbBlockTableRecord
  2
*D24
340
0
  0
BLOCK_RECORD
  5
142
330
1
100
AcDbSymbolTableRecord
100
AcDbBlockTableRecord
  2
*D25
340
0
  0
BLOCK_RECORD
  5
14F
330
1
100
AcDbSymbolTableRecord
100
AcDbBlockTableRecord
  2
*D26
340
0
  0
BLOCK_RECORD
  5
15A
330
1
100
AcDbSymbolTableRecord
100
AcDbBlockTableRecord
  2
*D27
340
0
  0
BLOCK_RECORD
  5
165
330
1
100
AcDbSymbolTableRecord
100
AcDbBlockTableRecord
  2
*D28
340
0
  0
BLOCK_RECORD
  5
170
330
1
100
AcDbSymbolTableRecord
100
AcDbBlockTableRecord
  2
*D29
340
0
  0
BLOCK_RECORD
  5
17B
330
1
100
AcDbSymbolTableRecord
100
AcDbBlockTableRecord
  2
*D30
340
0
  0
BLOCK_RECORD
  5
188
330
1
100
AcDbSymbolTableRecord
100
AcDbBlockTableRecord
  2
*D31
340
0
  0
BLOCK_RECORD
  5
193
330
1
100
AcDbSymbolTableRecord
100
AcDbBlockTableRecord
  2
*D32
340
0
  0
BLOCK_RECORD
  5
1A0
330
1
100
AcDbSymbolTableRecord
100
AcDbBlockTableRecord
  2
*D33
340
0
  0
BLOCK_RECORD
  5
1AB
330
1
100
AcDbSymbolTableRecord
100
AcDbBlockTableRecord
  2
*D34
340
0
  0
BLOCK_RECORD
  5
1B6
330
1
100
AcDbSymbolTableRecord
100
AcDbBlockTableRecord
  2
*D35
340
0
  0
BLOCK_RECORD
  5
1C1
330
1
100
AcDbSymbolTableRecord
100
AcDbBlockTableRecord
  2
*D36
340
0
  0
BLOCK_RECORD
  5
1CC
330
1
100
AcDbSymbolTableRecord
100
AcDbBlockTableRecord
  2
*D37
340
0
  0
BLOCK_RECORD
  5
1D7
330
1
100
AcDbSymbolTableRecord
100
AcDbBlockTableRecord
  2
*D38
340
0
  0
BLOCK_RECORD
  5
1E2
330
1
100
AcDbSymbolTableRecord
100
AcDbBlockTableRecord
  2
*D39
340
0
  0
BLOCK_RECORD
  5
1EC
330
1
100
AcDbSymbolTableRecord
100
AcDbBlockTableRecord
  2
*D40
340
0
  0
BLOCK_RECORD
  5
1F7
330
1
100
AcDbSymbolTableRecord
100
AcDbBlockTableRecord
  2
*D41
340
0
  0
BLOCK_RECORD
  5
202
330
1
100
AcDbSymbolTableRecord
100
AcDbBlockTableRecord
  2
*D42
340
0
  0
BLOCK_RECORD
  5
20D
330
1
100
AcDbSymbolTableRecord
100
AcDbBlockTableRecord
  2
*D43
340
0
  0
BLOCK_RECORD
  5
218
330
1
100
AcDbSymbolTableRecord
100
AcDbBlockTableRecord
  2
*D44
340
0
  0
BLOCK_RECORD
  5
222
330
1
100
AcDbSymbolTableRecord
100
AcDbBlockTableRecord
  2
*D45
340
0
  0
BLOCK_RECORD
  5
22D
330
1
100
AcDbSymbolTableRecord
100
AcDbBlockTableRecord
  2
*D46
340
0
  0
BLOCK_RECORD
  5
237
330
1
100
AcDbSymbolTableRecord
100
AcDbBlockTableRecord
  2
*D47
340
0
  0
BLOCK_RECORD
  5
242
330
1
100
AcDbSymbolTableRecord
100
AcDbBlockTableRecord
  2
*D48
340
0
  0
BLOCK_RECORD
  5
24D
330
1
100
AcDbSymbolTableRecord
100
AcDbBlockTableRecord
  2
*D49
340
0
  0
BLOCK_RECORD
  5
258
330
1
100
AcDbSymbolTableRecord
100
AcDbBlockTableRecord
  2
*D50
340
0
  0
BLOCK_RECORD
  5
263
330
1
100
AcDbSymbolTableRecord
100
AcDbBlockTableRecord
  2
*D51
340
0
  0
BLOCK_RECORD
  5
26E
330
1
100
AcDbSymbolTableRecord
100
AcDbBlockTableRecord
  2
*D52
340
0
  0
BLOCK_RECORD
  5
279
330
1
100
AcDbSymbolTableRecord
100
AcDbBlockTableRecord
  2
*D53
340
0
  0
BLOCK_RECORD
  5
286
330
1
100
AcDbSymbolTableRecord
100
AcDbBlockTableRecord
  2
HATCHING__PATTERN_$40$
340
0
102
{BLKREFS
331
14B6
102
}
  0
BLOCK_RECORD
  5
28F
330
1
100
AcDbSymbolTableRecord
100
AcDbBlockTableRecord
  2
HATCHING__PATTERN_$41$
340
0
102
{BLKREFS
331
14B7
102
}
  0
BLOCK_RECORD
  5
298
330
1
100
AcDbSymbolTableRecord
100
AcDbBlockTableRecord
  2
HATCHING__PATTERN_$42$
340
0
102
{BLKREFS
331
14B8
102
}
  0
BLOCK_RECORD
  5
2A1
330
1
100
AcDbSymbolTableRecord
100
AcDbBlockTableRecord
  2
HATCHING__PATTERN_$43$
340
0
102
{BLKREFS
331
14B9
102
}
  0
BLOCK_RECORD
  5
2AA
330
1
100
AcDbSymbolTableRecord
100
AcDbBlockTableRecord
  2
HATCHING__PATTERN_$44$
340
0
102
{BLKREFS
331
14BA
102
}
  0
BLOCK_RECORD
  5
2C5
330
1
100
AcDbSymbolTableRecord
100
AcDbBlockTableRecord
  2
HATCHING__PATTERN_$45$
340
0
102
{BLKREFS
331
14BB
102
}
  0
BLOCK_RECORD
  5
2CE
330
1
100
AcDbSymbolTableRecord
100
AcDbBlockTableRecord
  2
HATCHING__PATTERN_$46$
340
0
102
{BLKREFS
331
14BC
102
}
  0
BLOCK_RECORD
  5
2D7
330
1
100
AcDbSymbolTableRecord
100
AcDbBlockTableRecord
  2
HATCHING__PATTERN_$47$
340
0
102
{BLKREFS
331
14BD
102
}
  0
BLOCK_RECORD
  5
2DE
330
1
100
AcDbSymbolTableRecord
100
AcDbBlockTableRecord
  2
HATCHING__PATTERN_$48$
340
0
102
{BLKREFS
331
14BE
102
}
  0
BLOCK_RECORD
  5
2E4
330
1
100
AcDbSymbolTableRecord
100
AcDbBlockTableRecord
  2
HATCHING__PATTERN_$49$
340
0
102
{BLKREFS
331
14BF
102
}
  0
BLOCK_RECORD
  5
14D1
330
1
100
AcDbSymbolTableRecord
100
AcDbBlockTableRecord
  2
*D64
340
0
  0
BLOCK_RECORD
  5
14DC
330
1
100
AcDbSymbolTableRecord
100
AcDbBlockTableRecord
  2
*D65
340
0
  0
BLOCK_RECORD
  5
14E9
330
1
100
AcDbSymbolTableRecord
100
AcDbBlockTableRecord
  2
*D66
340
0
  0
BLOCK_RECORD
  5
14F5
330
1
100
AcDbSymbolTableRecord
100
AcDbBlockTableRecord
  2
*D67
340
0
  0
BLOCK_RECORD
  5
1501
330
1
100
AcDbSymbolTableRecord
100
AcDbBlockTableRecord
  2
*D68
340
0
  0
BLOCK_RECORD
  5
150D
330
1
100
AcDbSymbolTableRecord
100
AcDbBlockTableRecord
  2
*D69
340
0
  0
BLOCK_RECORD
  5
1519
330
1
100
AcDbSymbolTableRecord
100
AcDbBlockTableRecord
  2
*D70
340
0
  0
BLOCK_RECORD
  5
1527
330
1
100
AcDbSymbolTableRecord
100
AcDbBlockTableRecord
  2
*D71
340
0
  0
BLOCK_RECORD
  5
1533
330
1
100
AcDbSymbolTableRecord
100
AcDbBlockTableRecord
  2
*D72
340
0
  0
BLOCK_RECORD
  5
1541
330
1
100
AcDbSymbolTableRecord
100
AcDbBlockTableRecord
  2
*D73
340
0
  0
BLOCK_RECORD
  5
154F
330
1
100
AcDbSymbolTableRecord
100
AcDbBlockTableRecord
  2
*D74
340
0
  0
BLOCK_RECORD
  5
15B2
330
1
100
AcDbSymbolTableRecord
100
AcDbBlockTableRecord
  2
*D75
340
0
  0
BLOCK_RECORD
  5
15BE
330
1
100
AcDbSymbolTableRecord
100
AcDbBlockTableRecord
  2
*D76
340
0
  0
BLOCK_RECORD
  5
15CA
330
1
100
AcDbSymbolTableRecord
100
AcDbBlockTableRecord
  2
*D77
340
0
  0
ENDTAB
  0
ENDSEC
  0
SECTION
  2
BLOCKS
  0
BLOCK
  5
D
330
A
100
AcDbEntity
  8
0
100
AcDbBlockBegin
  2
*MODEL_SPACE
 70
     0
 10
0.0
 20
0.0
 30
0.0
  3
*MODEL_SPACE
  1

  0
ENDBLK
  5
E
330
A
100
AcDbEntity
  8
0
100
AcDbBlockEnd
  0
BLOCK
  5
F
330
B
100
AcDbEntity
 67
     1
  8
0
100
AcDbBlockBegin
  2
*PAPER_SPACE
 70
     0
 10
0.0
 20
0.0
 30
0.0
  3
*PAPER_SPACE
  1

  0
ENDBLK
  5
10
330
B
100
AcDbEntity
 67
     1
  8
0
100
AcDbBlockEnd
  0
BLOCK
  5
35
330
34
100
AcDbEntity
  8
0
 62
     0
100
AcDbBlockBegin
  2
_OPEN
 70
     0
 10
0.0
 20
0.0
 30
0.0
  3
_OPEN
  1

  0
LINE
  5
36
330
34
100
AcDbEntity
  8
0
 62
     0
100
AcDbLine
 10
-1.0
 20
0.166666666667
 30
0.0
 11
0.0
 21
0.0
 31
0.0
  0
LINE
  5
37
330
34
100
AcDbEntity
  8
0
 62
     0
100
AcDbLine
 10
-1.0
 20
-0.166666666667
 30
0.0
 11
0.0
 21
0.0
 31
0.0
  0
LINE
  5
38
330
34
100
AcDbEntity
  8
0
 62
     0
100
AcDbLine
 10
0.0
 20
0.0
 30
0.0
 11
-1.0
 21
0.0
 31
0.0
  0
ENDBLK
  5
39
330
34
100
AcDbEntity
  8
0
100
AcDbBlockEnd
  0
BLOCK
  5
3B
330
3A
100
AcDbEntity
  8
0
 62
     0
100
AcDbBlockBegin
  2
_NONE
 70
     0
 10
0.0
 20
0.0
 30
0.0
  3
_NONE
  1

  0
ENDBLK
  5
3C
330
3A
100
AcDbEntity
  8
0
100
AcDbBlockEnd
  0
BLOCK
  5
3E
330
3D
100
AcDbEntity
  8
0
 62
     7
100
AcDbBlockBegin
  2
*D2
 70
     1
 10
0.0
 20
0.0
 30
0.0
  3
*D2
  1

  0
LINE
  5
3F
330
3D
100
AcDbEntity
  8
LAYER_1
  6
Continuous
 62
     7
100
AcDbLine
 10
161.43388638016
 20
679.4097520661161
 30
0.0
 11
137.791074380165
 21
679.4097520661161
 31
0.0
  0
LINE
  5
40
330
3D
100
AcDbEntity
  8
LAYER_1
  6
Continuous
 62
     7
100
AcDbLine
 10
161.43388638016
 20
691.4097520661161
 30
0.0
 11
137.791074380165
 21
691.4097520661161
 31
0.0
  0
LINE
  5
41
330
3D
100
AcDbEntity
  8
LAYER_1
  6
Continuous
 62
     7
100
AcDbLine
 10
139.791074380165
 20
679.4097520661161
 30
0.0
 11
139.791074380165
 21
691.4097520661161
 31
0.0
  0
INSERT
  5
42
330
3D
100
AcDbEntity
  8
LAYER_1
  6
Continuous
 62
     7
100
AcDbBlockReference
  2
_OPEN
 10
139.791074380165
 20
679.4097520661161
 30
0.0
 41
6.0
 42
6.0
 50
90.0
  0
INSERT
  5
43
330
3D
100
AcDbEntity
  8
LAYER_1
  6
Continuous
 62
     7
100
AcDbBlockReference
  2
_NONE
 10
139.791074380165
 20
658.506330401779
 30
0.0
 41
6.0
 42
6.0
 50
270.0
  0
LINE
  5
44
330
3D
100
AcDbEntity
  8
LAYER_1
  6
Continuous
 62
     7
100
AcDbLine
 10
139.791074380165
 20
679.4097520661161
 30
0.0
 11
139.791074380165
 21
658.506330401779
 31
0.0
  0
INSERT
  5
45
330
3D
100
AcDbEntity
  8
LAYER_1
  6
Continuous
 62
     7
100
AcDbBlockReference
  2
_OPEN
 10
139.791074380165
 20
691.4097520661161
 30
0.0
 41
6.0
 42
6.0
 50
270.0
  0
INSERT
  5
46
330
3D
100
AcDbEntity
  8
LAYER_1
  6
Continuous
 62
     7
100
AcDbBlockReference
  2
_NONE
 10
139.791074380165
 20
703.4097520661161
 30
0.0
 41
6.0
 42
6.0
 50
90.0
  0
LINE
  5
47
330
3D
100
AcDbEntity
  8
LAYER_1
  6
Continuous
 62
     7
100
AcDbLine
 10
139.791074380165
 20
691.4097520661161
 30
0.0
 11
139.791074380165
 21
703.4097520661161
 31
0.0
  0
TEXT
  5
48
330
3D
100
AcDbEntity
  8
LAYER_1
 62
     7
100
AcDbText
 10
136.791074380165
 20
658.506330401779
 30
0.0
 40
5.4
  1
φ12
 50
90.0
 41
1.033333333332999
  7
ＭＳ_ゴシック
100
AcDbText
  0
ENDBLK
  5
49
330
3D
100
AcDbEntity
  8
0
100
AcDbBlockEnd
  0
BLOCK
  5
4B
330
4A
100
AcDbEntity
  8
0
 62
     7
100
AcDbBlockBegin
  2
*D3
 70
     1
 10
0.0
 20
0.0
 30
0.0
  3
*D3
  1

  0
LINE
  5
4C
330
4A
100
AcDbEntity
  8
LAYER_1
  6
Continuous
 62
     7
100
AcDbLine
 10
321.47865674622
 20
678.059752066115
 30
0.0
 11
346.791074380165
 21
678.059752066115
 31
0.0
  0
LINE
  5
4D
330
4A
100
AcDbEntity
  8
LAYER_1
  6
Continuous
 62
     7
100
AcDbLine
 10
321.47865674622
 20
692.759752066115
 30
0.0
 11
346.791074380165
 21
692.759752066115
 31
0.0
  0
LINE
  5
4E
330
4A
100
AcDbEntity
  8
LAYER_1
  6
Continuous
 62
     7
100
AcDbLine
 10
344.791074380165
 20
678.059752066115
 30
0.0
 11
344.791074380165
 21
692.759752066115
 31
0.0
  0
INSERT
  5
4F
330
4A
100
AcDbEntity
  8
LAYER_1
  6
Continuous
 62
     7
100
AcDbBlockReference
  2
_OPEN
 10
344.791074380165
 20
678.059752066115
 30
0.0
 41
6.0
 42
6.0
 50
90.0
  0
INSERT
  5
50
330
4A
100
AcDbEntity
  8
LAYER_1
  6
Continuous
 62
     7
100
AcDbBlockReference
  2
_NONE
 10
344.791074380165
 20
643.022696473253
 30
0.0
 41
6.0
 42
6.0
 50
270.0
  0
LINE
  5
51
330
4A
100
AcDbEntity
  8
LAYER_1
  6
Continuous
 62
     7
100
AcDbLine
 10
344.791074380165
 20
678.059752066115
 30
0.0
 11
344.791074380165
 21
643.022696473253
 31
0.0
  0
INSERT
  5
52
330
4A
100
AcDbEntity
  8
LAYER_1
  6
Continuous
 62
     7
100
AcDbBlockReference
  2
_OPEN
 10
344.791074380165
 20
692.759752066115
 30
0.0
 41
6.0
 42
6.0
 50
270.0
  0
INSERT
  5
53
330
4A
100
AcDbEntity
  8
LAYER_1
  6
Continuous
 62
     7
100
AcDbBlockReference
  2
_NONE
 10
344.791074380165
 20
704.7597520661149
 30
0.0
 41
6.0
 42
6.0
 50
90.0
  0
LINE
  5
54
330
4A
100
AcDbEntity
  8
LAYER_1
  6
Continuous
 62
     7
100
AcDbLine
 10
344.791074380165
 20
692.759752066115
 30
0.0
 11
344.791074380165
 21
704.7597520661149
 31
0.0
  0
TEXT
  5
55
330
4A
100
AcDbEntity
  8
LAYER_1
 62
     7
100
AcDbText
 10
341.7910743801649
 20
643.022696473253
 30
0.0
 40
5.4
  1
(φ14.7)
 50
90.0
 41
1.033333333332999
  7
ＭＳ_ゴシック
100
AcDbText
  0
ENDBLK
  5
56
330
4A
100
AcDbEntity
  8
0
100
AcDbBlockEnd
  0
BLOCK
  5
58
330
57
100
AcDbEntity
  8
0
 62
     7
100
AcDbBlockBegin
  2
*D4
 70
     1
 10
0.0
 20
0.0
 30
0.0
  3
*D4
  1

  0
LINE
  5
59
330
57
100
AcDbEntity
  8
LAYER_1
  6
Continuous
 62
     7
100
AcDbLine
 10
159.791074380165
 20
692.309752066116
 30
0.0
 11
159.791074380165
 21
708.4097520661149
 31
0.0
  0
LINE
  5
5A
330
57
100
AcDbEntity
  8
LAYER_1
  6
Continuous
 62
     7
100
AcDbLine
 10
201.7910743801649
 20
693.109752066115
 30
0.0
 11
201.7910743801649
 21
708.4097520661149
 31
0.0
  0
INSERT
  5
5B
330
57
100
AcDbEntity
  8
LAYER_1
  6
Continuous
 62
     7
100
AcDbBlockReference
  2
_OPEN
 10
159.791074380165
 20
706.409752066115
 30
0.0
 41
6.0
 42
6.0
 50
180.0
  0
INSERT
  5
5C
330
57
100
AcDbEntity
  8
LAYER_1
  6
Continuous
 62
     7
100
AcDbBlockReference
  2
_OPEN
 10
201.7910743801649
 20
706.409752066115
 30
0.0
 41
6.0
 42
6.0
  0
INSERT
  5
5D
330
57
100
AcDbEntity
  8
LAYER_1
  6
Continuous
 62
     7
100
AcDbBlockReference
  2
_OPEN
 10
159.791074380165
 20
706.409752066115
 30
0.0
 41
6.0
 42
6.0
 50
180.0
  0
INSERT
  5
5E
330
57
100
AcDbEntity
  8
LAYER_1
  6
Continuous
 62
     7
100
AcDbBlockReference
  2
_OPEN
 10
201.7910743801649
 20
706.409752066115
 30
0.0
 41
6.0
 42
6.0
  0
LINE
  5
5F
330
57
100
AcDbEntity
  8
LAYER_1
  6
Continuous
 62
     7
100
AcDbLine
 10
159.791074380165
 20
706.409752066115
 30
0.0
 11
201.7910743801649
 21
706.409752066115
 31
0.0
  0
TEXT
  5
60
330
57
100
AcDbEntity
  8
LAYER_1
 62
     7
100
AcDbText
 10
173.5399068674769
 20
709.4097520661149
 30
0.0
 40
5.4
  1
(42)
 41
1.033333333332999
  7
ＭＳ_ゴシック
 72
     1
 11
180.7910743801649
 21
709.4097520661149
 31
0.0
100
AcDbText
  0
ENDBLK
  5
61
330
57
100
AcDbEntity
  8
0
100
AcDbBlockEnd
  0
BLOCK
  5
63
330
62
100
AcDbEntity
  8
0
 62
     7
100
AcDbBlockBegin
  2
*D5
 70
     1
 10
0.0
 20
0.0
 30
0.0
  3
*D5
  1

  0
LINE
  5
64
330
62
100
AcDbEntity
  8
LAYER_1
  6
Continuous
 62
     7
100
AcDbLine
 10
281.7910743801649
 20
691.070580601028
 30
0.0
 11
281.7910743801649
 21
708.4097520661149
 31
0.0
  0
INSERT
  5
65
330
62
100
AcDbEntity
  8
LAYER_1
  6
Continuous
 62
     7
100
AcDbBlockReference
  2
_OPEN
 10
201.7910743801649
 20
706.409752066115
 30
0.0
 41
6.0
 42
6.0
 50
180.0
  0
INSERT
  5
66
330
62
100
AcDbEntity
  8
LAYER_1
  6
Continuous
 62
     7
100
AcDbBlockReference
  2
_OPEN
 10
281.7910743801649
 20
706.409752066115
 30
0.0
 41
6.0
 42
6.0
  0
INSERT
  5
67
330
62
100
AcDbEntity
  8
LAYER_1
  6
Continuous
 62
     7
100
AcDbBlockReference
  2
_OPEN
 10
201.7910743801649
 20
706.409752066115
 30
0.0
 41
6.0
 42
6.0
 50
180.0
  0
INSERT
  5
68
330
62
100
AcDbEntity
  8
LAYER_1
  6
Continuous
 62
     7
100
AcDbBlockReference
  2
_OPEN
 10
281.7910743801649
 20
706.409752066115
 30
0.0
 41
6.0
 42
6.0
  0
LINE
  5
69
330
62
100
AcDbEntity
  8
LAYER_1
  6
Continuous
 62
     7
100
AcDbLine
 10
201.7910743801649
 20
706.409752066115
 30
0.0
 11
281.7910743801649
 21
706.409752066115
 31
0.0
  0
TEXT
  5
6A
330
62
100
AcDbEntity
  8
LAYER_1
 62
     7
100
AcDbText
 10
230.9143231111329
 20
709.4097520661149
 30
0.0
 40
5.4
  1
(2000)
 41
1.033333333332999
  7
ＭＳ_ゴシック
 72
     1
 11
241.791074380165
 21
709.4097520661149
 31
0.0
100
AcDbText
  0
ENDBLK
  5
6B
330
62
100
AcDbEntity
  8
0
100
AcDbBlockEnd
  0
BLOCK
  5
6D
330
6C
100
AcDbEntity
  8
0
 62
     7
100
AcDbBlockBegin
  2
*D6
 70
     1
 10
0.0
 20
0.0
 30
0.0
  3
*D6
  1

  0
LINE
  5
6E
330
6C
100
AcDbEntity
  8
LAYER_1
  6
Continuous
 62
     7
100
AcDbLine
 10
324.7910743801649
 20
692.1597520661149
 30
0.0
 11
324.7910743801649
 21
708.4097520661149
 31
0.0
  0
INSERT
  5
6F
330
6C
100
AcDbEntity
  8
LAYER_1
  6
Continuous
 62
     7
100
AcDbBlockReference
  2
_OPEN
 10
281.7910743801649
 20
706.409752066115
 30
0.0
 41
6.0
 42
6.0
 50
180.0
  0
INSERT
  5
70
330
6C
100
AcDbEntity
  8
LAYER_1
  6
Continuous
 62
     7
100
AcDbBlockReference
  2
_OPEN
 10
324.7910743801649
 20
706.409752066115
 30
0.0
 41
6.0
 42
6.0
  0
INSERT
  5
71
330
6C
100
AcDbEntity
  8
LAYER_1
  6
Continuous
 62
     7
100
AcDbBlockReference
  2
_OPEN
 10
281.7910743801649
 20
706.409752066115
 30
0.0
 41
6.0
 42
6.0
 50
180.0
  0
INSERT
  5
72
330
6C
100
AcDbEntity
  8
LAYER_1
  6
Continuous
 62
     7
100
AcDbBlockReference
  2
_OPEN
 10
324.7910743801649
 20
706.409752066115
 30
0.0
 41
6.0
 42
6.0
  0
LINE
  5
73
330
6C
100
AcDbEntity
  8
LAYER_1
  6
Continuous
 62
     7
100
AcDbLine
 10
281.7910743801649
 20
706.409752066115
 30
0.0
 11
324.7910743801649
 21
706.409752066115
 31
0.0
  0
TEXT
  5
74
330
6C
100
AcDbEntity
  8
LAYER_1
 62
     7
100
AcDbText
 10
296.0399068674769
 20
709.4097520661149
 30
0.0
 40
5.4
  1
(43)
 41
1.033333333332999
  7
ＭＳ_ゴシック
 72
     1
 11
303.2910743801649
 21
709.4097520661149
 31
0.0
100
AcDbText
  0
ENDBLK
  5
75
330
6C
100
AcDbEntity
  8
0
100
AcDbBlockEnd
  0
BLOCK
  5
77
330
76
100
AcDbEntity
  8
0
 62
     7
100
AcDbBlockBegin
  2
*D7
 70
     1
 10
0.0
 20
0.0
 30
0.0
  3
*D7
  1

  0
LINE
  5
78
330
76
100
AcDbEntity
  8
LAYER_1
  6
Continuous
 62
     7
100
AcDbLine
 10
149.991074380165
 20
539.459752066122
 30
0.0
 11
137.791074380165
 21
539.459752066122
 31
0.0
  0
LINE
  5
79
330
76
100
AcDbEntity
  8
LAYER_1
  6
Continuous
 62
     7
100
AcDbLine
 10
149.991074380165
 20
551.4597520661219
 30
0.0
 11
137.791074380165
 21
551.4597520661219
 31
0.0
  0
LINE
  5
7A
330
76
100
AcDbEntity
  8
LAYER_1
  6
Continuous
 62
     7
100
AcDbLine
 10
139.791074380165
 20
539.459752066122
 30
0.0
 11
139.791074380165
 21
551.4597520661219
 31
0.0
  0
INSERT
  5
7B
330
76
100
AcDbEntity
  8
LAYER_1
  6
Continuous
 62
     7
100
AcDbBlockReference
  2
_OPEN
 10
139.791074380165
 20
539.459752066122
 30
0.0
 41
6.0
 42
6.0
 50
90.0
  0
INSERT
  5
7C
330
76
100
AcDbEntity
  8
LAYER_1
  6
Continuous
 62
     7
100
AcDbBlockReference
  2
_NONE
 10
139.791074380165
 20
517.8522364073049
 30
0.0
 41
6.0
 42
6.0
 50
270.0
  0
LINE
  5
7D
330
76
100
AcDbEntity
  8
LAYER_1
  6
Continuous
 62
     7
100
AcDbLine
 10
139.791074380165
 20
539.459752066122
 30
0.0
 11
139.791074380165
 21
517.8522364073049
 31
0.0
  0
INSERT
  5
7E
330
76
100
AcDbEntity
  8
LAYER_1
  6
Continuous
 62
     7
100
AcDbBlockReference
  2
_OPEN
 10
139.791074380165
 20
551.4597520661219
 30
0.0
 41
6.0
 42
6.0
 50
270.0
  0
INSERT
  5
7F
330
76
100
AcDbEntity
  8
LAYER_1
  6
Continuous
 62
     7
100
AcDbBlockReference
  2
_NONE
 10
139.791074380165
 20
563.4597520661219
 30
0.0
 41
6.0
 42
6.0
 50
90.0
  0
LINE
  5
80
330
76
100
AcDbEntity
  8
LAYER_1
  6
Continuous
 62
     7
100
AcDbLine
 10
139.791074380165
 20
551.4597520661219
 30
0.0
 11
139.791074380165
 21
563.4597520661219
 31
0.0
  0
TEXT
  5
81
330
76
100
AcDbEntity
  8
LAYER_1
 62
     7
100
AcDbText
 10
136.791074380165
 20
517.8522364073049
 30
0.0
 40
5.4
  1
φ12
 50
90.0
 41
1.033333333332999
  7
ＭＳ_ゴシック
100
AcDbText
  0
ENDBLK
  5
82
330
76
100
AcDbEntity
  8
0
100
AcDbBlockEnd
  0
BLOCK
  5
84
330
83
100
AcDbEntity
  8
0
 62
     7
100
AcDbBlockBegin
  2
*D8
 70
     1
 10
0.0
 20
0.0
 30
0.0
  3
*D8
  1

  0
LINE
  5
85
330
83
100
AcDbEntity
  8
LAYER_1
  6
Continuous
 62
     7
100
AcDbLine
 10
151.791074380165
 20
553.2597520661219
 30
0.0
 11
151.791074380165
 21
568.459752066121
 31
0.0
  0
LINE
  5
86
330
83
100
AcDbEntity
  8
LAYER_1
  6
Continuous
 62
     7
100
AcDbLine
 10
201.7910743801649
 20
553.159752066122
 30
0.0
 11
201.7910743801649
 21
568.459752066121
 31
0.0
  0
INSERT
  5
87
330
83
100
AcDbEntity
  8
LAYER_1
  6
Continuous
 62
     7
100
AcDbBlockReference
  2
_OPEN
 10
151.791074380165
 20
566.459752066121
 30
0.0
 41
6.0
 42
6.0
 50
180.0
  0
INSERT
  5
88
330
83
100
AcDbEntity
  8
LAYER_1
  6
Continuous
 62
     7
100
AcDbBlockReference
  2
_OPEN
 10
201.7910743801649
 20
566.459752066121
 30
0.0
 41
6.0
 42
6.0
  0
INSERT
  5
89
330
83
100
AcDbEntity
  8
LAYER_1
  6
Continuous
 62
     7
100
AcDbBlockReference
  2
_OPEN
 10
151.791074380165
 20
566.459752066121
 30
0.0
 41
6.0
 42
6.0
 50
180.0
  0
INSERT
  5
8A
330
83
100
AcDbEntity
  8
LAYER_1
  6
Continuous
 62
     7
100
AcDbBlockReference
  2
_OPEN
 10
201.7910743801649
 20
566.459752066121
 30
0.0
 41
6.0
 42
6.0
  0
LINE
  5
8B
330
83
100
AcDbEntity
  8
LAYER_1
  6
Continuous
 62
     7
100
AcDbLine
 10
151.791074380165
 20
566.459752066121
 30
0.0
 11
201.7910743801649
 21
566.459752066121
 31
0.0
  0
TEXT
  5
8C
330
83
100
AcDbEntity
  8
LAYER_1
 62
     7
100
AcDbText
 10
169.5399068674769
 20
569.459752066121
 30
0.0
 40
5.4
  1
(50)
 41
1.033333333332999
  7
ＭＳ_ゴシック
 72
     1
 11
176.7910743801649
 21
569.459752066121
 31
0.0
100
AcDbText
  0
ENDBLK
  5
8D
330
83
100
AcDbEntity
  8
0
100
AcDbBlockEnd
  0
BLOCK
  5
8F
330
8E
100
AcDbEntity
  8
0
 62
     7
100
AcDbBlockBegin
  2
*D9
 70
     1
 10
0.0
 20
0.0
 30
0.0
  3
*D9
  1

  0
LINE
  5
90
330
8E
100
AcDbEntity
  8
LAYER_1
  6
Continuous
 62
     7
100
AcDbLine
 10
253.7910743801649
 20
555.209752066116
 30
0.0
 11
253.7910743801649
 21
568.409752066116
 31
0.0
  0
LINE
  5
91
330
8E
100
AcDbEntity
  8
LAYER_1
  6
Continuous
 62
     7
100
AcDbLine
 10
344.791074380165
 20
555.1097520661159
 30
0.0
 11
344.791074380165
 21
568.409752066116
 31
0.0
  0
INSERT
  5
92
330
8E
100
AcDbEntity
  8
LAYER_1
  6
Continuous
 62
     7
100
AcDbBlockReference
  2
_OPEN
 10
253.7910743801649
 20
566.4097520661161
 30
0.0
 41
6.0
 42
6.0
 50
180.0
  0
INSERT
  5
93
330
8E
100
AcDbEntity
  8
LAYER_1
  6
Continuous
 62
     7
100
AcDbBlockReference
  2
_OPEN
 10
344.791074380165
 20
566.4097520661161
 30
0.0
 41
6.0
 42
6.0
  0
INSERT
  5
94
330
8E
100
AcDbEntity
  8
LAYER_1
  6
Continuous
 62
     7
100
AcDbBlockReference
  2
_OPEN
 10
253.7910743801649
 20
566.4097520661161
 30
0.0
 41
6.0
 42
6.0
 50
180.0
  0
INSERT
  5
95
330
8E
100
AcDbEntity
  8
LAYER_1
  6
Continuous
 62
     7
100
AcDbBlockReference
  2
_OPEN
 10
344.791074380165
 20
566.4097520661161
 30
0.0
 41
6.0
 42
6.0
  0
LINE
  5
96
330
8E
100
AcDbEntity
  8
LAYER_1
  6
Continuous
 62
     7
100
AcDbLine
 10
253.7910743801649
 20
566.4097520661161
 30
0.0
 11
344.791074380165
 21
566.4097520661161
 31
0.0
  0
TEXT
  5
97
330
8E
100
AcDbEntity
  8
LAYER_1
 62
     7
100
AcDbText
 10
292.0399068674769
 20
569.409752066116
 30
0.0
 40
5.4
  1
(91)
 41
1.033333333332999
  7
ＭＳ_ゴシック
 72
     1
 11
299.2910743801649
 21
569.409752066116
 31
0.0
100
AcDbText
  0
ENDBLK
  5
98
330
8E
100
AcDbEntity
  8
0
100
AcDbBlockEnd
  0
BLOCK
  5
9A
330
99
100
AcDbEntity
  8
0
 62
     7
100
AcDbBlockBegin
  2
*D10
 70
     1
 10
0.0
 20
0.0
 30
0.0
  3
*D10
  1

  0
LINE
  5
9B
330
99
100
AcDbEntity
  8
LAYER_1
  6
Continuous
 62
     7
100
AcDbLine
 10
251.7910743801649
 20
539.509752066116
 30
0.0
 11
239.791074380165
 21
539.509752066116
 31
0.0
  0
LINE
  5
9C
330
99
100
AcDbEntity
  8
LAYER_1
  6
Continuous
 62
     7
100
AcDbLine
 10
251.7910743801649
 20
551.409752066116
 30
0.0
 11
239.791074380165
 21
551.409752066116
 31
0.0
  0
LINE
  5
9D
330
99
100
AcDbEntity
  8
LAYER_1
  6
Continuous
 62
     7
100
AcDbLine
 10
241.791074380165
 20
539.509752066116
 30
0.0
 11
241.791074380165
 21
551.409752066116
 31
0.0
  0
INSERT
  5
9E
330
99
100
AcDbEntity
  8
LAYER_1
  6
Continuous
 62
     7
100
AcDbBlockReference
  2
_OPEN
 10
241.791074380165
 20
539.509752066116
 30
0.0
 41
6.0
 42
6.0
 50
90.0
  0
INSERT
  5
9F
330
99
100
AcDbEntity
  8
LAYER_1
  6
Continuous
 62
     7
100
AcDbBlockReference
  2
_NONE
 10
241.791074380165
 20
516.844990476373
 30
0.0
 41
6.0
 42
6.0
 50
270.0
  0
LINE
  5
A0
330
99
100
AcDbEntity
  8
LAYER_1
  6
Continuous
 62
     7
100
AcDbLine
 10
241.791074380165
 20
539.509752066116
 30
0.0
 11
241.791074380165
 21
516.844990476373
 31
0.0
  0
INSERT
  5
A1
330
99
100
AcDbEntity
  8
LAYER_1
  6
Continuous
 62
     7
100
AcDbBlockReference
  2
_OPEN
 10
241.791074380165
 20
551.409752066116
 30
0.0
 41
6.0
 42
6.0
 50
270.0
  0
INSERT
  5
A2
330
99
100
AcDbEntity
  8
LAYER_1
  6
Continuous
 62
     7
100
AcDbBlockReference
  2
_NONE
 10
241.791074380165
 20
563.409752066116
 30
0.0
 41
6.0
 42
6.0
 50
90.0
  0
LINE
  5
A3
330
99
100
AcDbEntity
  8
LAYER_1
  6
Continuous
 62
     7
100
AcDbLine
 10
241.791074380165
 20
551.409752066116
 30
0.0
 11
241.791074380165
 21
563.409752066116
 31
0.0
  0
TEXT
  5
A4
330
99
100
AcDbEntity
  8
LAYER_1
 62
     7
100
AcDbText
 10
238.7910743801649
 20
516.844990476373
 30
0.0
 40
5.4
  1
φ12
 50
90.0
 41
1.033333333332999
  7
ＭＳ_ゴシック
100
AcDbText
  0
ENDBLK
  5
A5
330
99
100
AcDbEntity
  8
0
100
AcDbBlockEnd
  0
BLOCK
  5
A7
330
A6
100
AcDbEntity
  8
0
 62
     7
100
AcDbBlockBegin
  2
*D11
 70
     1
 10
0.0
 20
0.0
 30
0.0
  3
*D11
  1

  0
LINE
  5
A8
330
A6
100
AcDbEntity
  8
LAYER_1
  6
Continuous
 62
     7
100
AcDbLine
 10
434.791074380165
 20
693.109752066119
 30
0.0
 11
434.791074380165
 21
708.4097520661149
 31
0.0
  0
LINE
  5
A9
330
A6
100
AcDbEntity
  8
LAYER_1
  6
Continuous
 62
     7
100
AcDbLine
 10
584.791074380165
 20
693.109752066116
 30
0.0
 11
584.791074380165
 21
708.4097520661149
 31
0.0
  0
INSERT
  5
AA
330
A6
100
AcDbEntity
  8
LAYER_1
  6
Continuous
 62
     7
100
AcDbBlockReference
  2
_OPEN
 10
434.791074380165
 20
706.409752066115
 30
0.0
 41
6.0
 42
6.0
 50
180.0
  0
INSERT
  5
AB
330
A6
100
AcDbEntity
  8
LAYER_1
  6
Continuous
 62
     7
100
AcDbBlockReference
  2
_OPEN
 10
584.791074380165
 20
706.409752066115
 30
0.0
 41
6.0
 42
6.0
  0
INSERT
  5
AC
330
A6
100
AcDbEntity
  8
LAYER_1
  6
Continuous
 62
     7
100
AcDbBlockReference
  2
_OPEN
 10
434.791074380165
 20
706.409752066115
 30
0.0
 41
6.0
 42
6.0
 50
180.0
  0
INSERT
  5
AD
330
A6
100
AcDbEntity
  8
LAYER_1
  6
Continuous
 62
     7
100
AcDbBlockReference
  2
_OPEN
 10
584.791074380165
 20
706.409752066115
 30
0.0
 41
6.0
 42
6.0
  0
LINE
  5
AE
330
A6
100
AcDbEntity
  8
LAYER_1
  6
Continuous
 62
     7
100
AcDbLine
 10
434.791074380165
 20
706.409752066115
 30
0.0
 11
584.791074380165
 21
706.409752066115
 31
0.0
  0
TEXT
  5
AF
330
A6
100
AcDbEntity
  8
LAYER_1
 62
     7
100
AcDbText
 10
500.727114989305
 20
709.4097520661149
 30
0.0
 40
5.4
  1
(150)
 41
1.033333333332999
  7
ＭＳ_ゴシック
 72
     1
 11
509.791074380165
 21
709.4097520661149
 31
0.0
100
AcDbText
  0
ENDBLK
  5
B0
330
A6
100
AcDbEntity
  8
0
100
AcDbBlockEnd
  0
BLOCK
  5
B2
330
B1
100
AcDbEntity
  8
0
 62
     7
100
AcDbBlockBegin
  2
*D12
 70
     1
 10
0.0
 20
0.0
 30
0.0
  3
*D12
  1

  0
LINE
  5
B3
330
B1
100
AcDbEntity
  8
LAYER_1
  6
Continuous
 62
     7
100
AcDbLine
 10
664.791074380166
 20
684.709752066117
 30
0.0
 11
664.791074380166
 21
708.4097520661149
 31
0.0
  0
INSERT
  5
B4
330
B1
100
AcDbEntity
  8
LAYER_1
  6
Continuous
 62
     7
100
AcDbBlockReference
  2
_OPEN
 10
584.791074380165
 20
706.409752066115
 30
0.0
 41
6.0
 42
6.0
 50
180.0
  0
INSERT
  5
B5
330
B1
100
AcDbEntity
  8
LAYER_1
  6
Continuous
 62
     7
100
AcDbBlockReference
  2
_OPEN
 10
664.791074380166
 20
706.409752066115
 30
0.0
 41
6.0
 42
6.0
  0
INSERT
  5
B6
330
B1
100
AcDbEntity
  8
LAYER_1
  6
Continuous
 62
     7
100
AcDbBlockReference
  2
_OPEN
 10
584.791074380165
 20
706.409752066115
 30
0.0
 41
6.0
 42
6.0
 50
180.0
  0
INSERT
  5
B7
330
B1
100
AcDbEntity
  8
LAYER_1
  6
Continuous
 62
     7
100
AcDbBlockReference
  2
_OPEN
 10
664.791074380166
 20
706.409752066115
 30
0.0
 41
6.0
 42
6.0
  0
LINE
  5
B8
330
B1
100
AcDbEntity
  8
LAYER_1
  6
Continuous
 62
     7
100
AcDbLine
 10
584.791074380165
 20
706.409752066115
 30
0.0
 11
664.791074380166
 21
706.409752066115
 31
0.0
  0
TEXT
  5
B9
330
B1
100
AcDbEntity
  8
LAYER_1
 62
     7
100
AcDbText
 10
613.9143231111329
 20
709.4097520661149
 30
0.0
 40
5.4
  1
(2000)
 41
1.033333333332999
  7
ＭＳ_ゴシック
 72
     1
 11
624.791074380165
 21
709.4097520661149
 31
0.0
100
AcDbText
  0
ENDBLK
  5
BA
330
B1
100
AcDbEntity
  8
0
100
AcDbBlockEnd
  0
BLOCK
  5
BC
330
BB
100
AcDbEntity
  8
0
 62
     7
100
AcDbBlockBegin
  2
*D13
 70
     1
 10
0.0
 20
0.0
 30
0.0
  3
*D13
  1

  0
LINE
  5
BD
330
BB
100
AcDbEntity
  8
LAYER_1
  6
Continuous
 62
     7
100
AcDbLine
 10
707.0112175049271
 20
687.9197520661169
 30
0.0
 11
707.0112175049271
 21
708.4097520661149
 31
0.0
  0
INSERT
  5
BE
330
BB
100
AcDbEntity
  8
LAYER_1
  6
Continuous
 62
     7
100
AcDbBlockReference
  2
_OPEN
 10
664.791074380166
 20
706.409752066115
 30
0.0
 41
6.0
 42
6.0
 50
180.0
  0
INSERT
  5
BF
330
BB
100
AcDbEntity
  8
LAYER_1
  6
Continuous
 62
     7
100
AcDbBlockReference
  2
_OPEN
 10
707.0112175049271
 20
706.409752066115
 30
0.0
 41
6.0
 42
6.0
  0
INSERT
  5
C0
330
BB
100
AcDbEntity
  8
LAYER_1
  6
Continuous
 62
     7
100
AcDbBlockReference
  2
_OPEN
 10
664.791074380166
 20
706.409752066115
 30
0.0
 41
6.0
 42
6.0
 50
180.0
  0
INSERT
  5
C1
330
BB
100
AcDbEntity
  8
LAYER_1
  6
Continuous
 62
     7
100
AcDbBlockReference
  2
_OPEN
 10
707.0112175049271
 20
706.409752066115
 30
0.0
 41
6.0
 42
6.0
  0
LINE
  5
C2
330
BB
100
AcDbEntity
  8
LAYER_1
  6
Continuous
 62
     7
100
AcDbLine
 10
664.791074380166
 20
706.409752066115
 30
0.0
 11
707.0112175049271
 21
706.409752066115
 31
0.0
  0
TEXT
  5
C3
330
BB
100
AcDbEntity
  8
LAYER_1
 62
     7
100
AcDbText
 10
678.649978429858
 20
709.4097520661149
 30
0.0
 40
5.4
  1
(43)
 41
1.033333333332999
  7
ＭＳ_ゴシック
 72
     1
 11
685.901145942546
 21
709.4097520661149
 31
0.0
100
AcDbText
  0
ENDBLK
  5
C4
330
BB
100
AcDbEntity
  8
0
100
AcDbBlockEnd
  0
BLOCK
  5
C6
330
C5
100
AcDbEntity
  8
0
 62
     7
100
AcDbBlockBegin
  2
*D14
 70
     1
 10
0.0
 20
0.0
 30
0.0
  3
*D14
  1

  0
LINE
  5
C7
330
C5
100
AcDbEntity
  8
LAYER_1
  6
Continuous
 62
     7
100
AcDbLine
 10
433.091074380165
 20
667.4097520661139
 30
0.0
 11
417.791074380165
 21
667.4097520661139
 31
0.0
  0
LINE
  5
C8
330
C5
100
AcDbEntity
  8
LAYER_1
  6
Continuous
 62
     7
100
AcDbLine
 10
433.091074380165
 20
691.4097520661189
 30
0.0
 11
417.791074380165
 21
691.4097520661189
 31
0.0
  0
INSERT
  5
C9
330
C5
100
AcDbEntity
  8
LAYER_1
  6
Continuous
 62
     7
100
AcDbBlockReference
  2
_OPEN
 10
419.7910743801649
 20
667.4097520661139
 30
0.0
 41
6.0
 42
6.0
 50
270.0
  0
INSERT
  5
CA
330
C5
100
AcDbEntity
  8
LAYER_1
  6
Continuous
 62
     7
100
AcDbBlockReference
  2
_OPEN
 10
419.7910743801649
 20
691.4097520661189
 30
0.0
 41
6.0
 42
6.0
 50
90.0
  0
INSERT
  5
CB
330
C5
100
AcDbEntity
  8
LAYER_1
  6
Continuous
 62
     7
100
AcDbBlockReference
  2
_OPEN
 10
419.7910743801649
 20
667.4097520661139
 30
0.0
 41
6.0
 42
6.0
 50
270.0
  0
INSERT
  5
CC
330
C5
100
AcDbEntity
  8
LAYER_1
  6
Continuous
 62
     7
100
AcDbBlockReference
  2
_OPEN
 10
419.7910743801649
 20
691.4097520661189
 30
0.0
 41
6.0
 42
6.0
 50
90.0
  0
LINE
  5
CD
330
C5
100
AcDbEntity
  8
LAYER_1
  6
Continuous
 62
     7
100
AcDbLine
 10
419.7910743801649
 20
667.4097520661139
 30
0.0
 11
419.7910743801649
 21
691.4097520661189
 31
0.0
  0
TEXT
  5
CE
330
C5
100
AcDbEntity
  8
LAYER_1
 62
     7
100
AcDbText
 10
416.791074380165
 20
670.981314246209
 30
0.0
 40
5.4
  1
φ24
 50
90.0
 41
1.033333333332999
  7
ＭＳ_ゴシック
 72
     1
 11
416.791074380165
 21
678.232481758897
 31
0.0
100
AcDbText
  0
ENDBLK
  5
CF
330
C5
100
AcDbEntity
  8
0
100
AcDbBlockEnd
  0
BLOCK
  5
D1
330
D0
100
AcDbEntity
  8
0
 62
     7
100
AcDbBlockBegin
  2
*D15
 70
     1
 10
0.0
 20
0.0
 30
0.0
  3
*D15
  1

  0
LINE
  5
D2
330
D0
100
AcDbEntity
  8
LAYER_1
  6
Continuous
 62
     7
100
AcDbLine
 10
704.4786567462209
 20
672.058599163308
 30
0.0
 11
729.791074380166
 21
672.058599163308
 31
0.0
  0
LINE
  5
D3
330
D0
100
AcDbEntity
  8
LAYER_1
  6
Continuous
 62
     7
100
AcDbLine
 10
704.4786567462209
 20
686.758599163308
 30
0.0
 11
729.791074380166
 21
686.758599163308
 31
0.0
  0
LINE
  5
D4
330
D0
100
AcDbEntity
  8
LAYER_1
  6
Continuous
 62
     7
100
AcDbLine
 10
727.791074380166
 20
672.058599163308
 30
0.0
 11
727.791074380166
 21
686.758599163308
 31
0.0
  0
INSERT
  5
D5
330
D0
100
AcDbEntity
  8
LAYER_1
  6
Continuous
 62
     7
100
AcDbBlockReference
  2
_OPEN
 10
727.791074380166
 20
672.058599163308
 30
0.0
 41
6.0
 42
6.0
 50
90.0
  0
INSERT
  5
D6
330
D0
100
AcDbEntity
  8
LAYER_1
  6
Continuous
 62
     7
100
AcDbBlockReference
  2
_NONE
 10
727.791074380166
 20
637.021543570446
 30
0.0
 41
6.0
 42
6.0
 50
270.0
  0
LINE
  5
D7
330
D0
100
AcDbEntity
  8
LAYER_1
  6
Continuous
 62
     7
100
AcDbLine
 10
727.791074380166
 20
672.058599163308
 30
0.0
 11
727.791074380166
 21
637.021543570446
 31
0.0
  0
INSERT
  5
D8
330
D0
100
AcDbEntity
  8
LAYER_1
  6
Continuous
 62
     7
100
AcDbBlockReference
  2
_OPEN
 10
727.791074380166
 20
686.758599163308
 30
0.0
 41
6.0
 42
6.0
 50
270.0
  0
INSERT
  5
D9
330
D0
100
AcDbEntity
  8
LAYER_1
  6
Continuous
 62
     7
100
AcDbBlockReference
  2
_NONE
 10
727.791074380166
 20
698.7585991633079
 30
0.0
 41
6.0
 42
6.0
 50
90.0
  0
LINE
  5
DA
330
D0
100
AcDbEntity
  8
LAYER_1
  6
Continuous
 62
     7
100
AcDbLine
 10
727.791074380166
 20
686.758599163308
 30
0.0
 11
727.791074380166
 21
698.7585991633079
 31
0.0
  0
TEXT
  5
DB
330
D0
100
AcDbEntity
  8
LAYER_1
 62
     7
100
AcDbText
 10
724.791074380166
 20
637.021543570446
 30
0.0
 40
5.4
  1
(φ14.7)
 50
90.0
 41
1.033333333332999
  7
ＭＳ_ゴシック
100
AcDbText
  0
ENDBLK
  5
DC
330
D0
100
AcDbEntity
  8
0
100
AcDbBlockEnd
  0
BLOCK
  5
DE
330
DD
100
AcDbEntity
  8
0
 62
     7
100
AcDbBlockBegin
  2
*D16
 70
     1
 10
0.0
 20
0.0
 30
0.0
  3
*D16
  1

  0
LINE
  5
DF
330
DD
100
AcDbEntity
  8
LAYER_1
  6
Continuous
 62
     7
100
AcDbLine
 10
612.4786567462201
 20
538.059752066115
 30
0.0
 11
637.791074380165
 21
538.059752066115
 31
0.0
  0
LINE
  5
E0
330
DD
100
AcDbEntity
  8
LAYER_1
  6
Continuous
 62
     7
100
AcDbLine
 10
612.4786567462201
 20
552.759752066115
 30
0.0
 11
637.791074380165
 21
552.759752066115
 31
0.0
  0
LINE
  5
E1
330
DD
100
AcDbEntity
  8
LAYER_1
  6
Continuous
 62
     7
100
AcDbLine
 10
635.7910743801649
 20
538.059752066115
 30
0.0
 11
635.7910743801649
 21
552.759752066115
 31
0.0
  0
INSERT
  5
E2
330
DD
100
AcDbEntity
  8
LAYER_1
  6
Continuous
 62
     7
100
AcDbBlockReference
  2
_OPEN
 10
635.7910743801649
 20
538.059752066115
 30
0.0
 41
6.0
 42
6.0
 50
90.0
  0
INSERT
  5
E3
330
DD
100
AcDbEntity
  8
LAYER_1
  6
Continuous
 62
     7
100
AcDbBlockReference
  2
_NONE
 10
635.7910743801649
 20
503.022696473253
 30
0.0
 41
6.0
 42
6.0
 50
270.0
  0
LINE
  5
E4
330
DD
100
AcDbEntity
  8
LAYER_1
  6
Continuous
 62
     7
100
AcDbLine
 10
635.7910743801649
 20
538.059752066115
 30
0.0
 11
635.7910743801649
 21
503.022696473253
 31
0.0
  0
INSERT
  5
E5
330
DD
100
AcDbEntity
  8
LAYER_1
  6
Continuous
 62
     7
100
AcDbBlockReference
  2
_OPEN
 10
635.7910743801649
 20
552.759752066115
 30
0.0
 41
6.0
 42
6.0
 50
270.0
  0
INSERT
  5
E6
330
DD
100
AcDbEntity
  8
LAYER_1
  6
Continuous
 62
     7
100
AcDbBlockReference
  2
_NONE
 10
635.7910743801649
 20
564.759752066115
 30
0.0
 41
6.0
 42
6.0
 50
90.0
  0
LINE
  5
E7
330
DD
100
AcDbEntity
  8
LAYER_1
  6
Continuous
 62
     7
100
AcDbLine
 10
635.7910743801649
 20
552.759752066115
 30
0.0
 11
635.7910743801649
 21
564.759752066115
 31
0.0
  0
TEXT
  5
E8
330
DD
100
AcDbEntity
  8
LAYER_1
 62
     7
100
AcDbText
 10
632.791074380165
 20
503.022696473253
 30
0.0
 40
5.4
  1
(φ14.7)
 50
90.0
 41
1.033333333332999
  7
ＭＳ_ゴシック
100
AcDbText
  0
ENDBLK
  5
E9
330
DD
100
AcDbEntity
  8
0
100
AcDbBlockEnd
  0
BLOCK
  5
EB
330
EA
100
AcDbEntity
  8
0
 62
     7
100
AcDbBlockBegin
  2
*D17
 70
     1
 10
0.0
 20
0.0
 30
0.0
  3
*D17
  1

  0
LINE
  5
EC
330
EA
100
AcDbEntity
  8
LAYER_1
  6
Continuous
 62
     7
100
AcDbLine
 10
434.791074380165
 20
552.309752066116
 30
0.0
 11
434.791074380165
 21
568.409752066116
 31
0.0
  0
LINE
  5
ED
330
EA
100
AcDbEntity
  8
LAYER_1
  6
Continuous
 62
     7
100
AcDbLine
 10
492.791074380165
 20
553.1097520661149
 30
0.0
 11
492.791074380165
 21
568.409752066116
 31
0.0
  0
INSERT
  5
EE
330
EA
100
AcDbEntity
  8
LAYER_1
  6
Continuous
 62
     7
100
AcDbBlockReference
  2
_OPEN
 10
434.791074380165
 20
566.4097520661161
 30
0.0
 41
6.0
 42
6.0
 50
180.0
  0
INSERT
  5
EF
330
EA
100
AcDbEntity
  8
LAYER_1
  6
Continuous
 62
     7
100
AcDbBlockReference
  2
_OPEN
 10
492.791074380165
 20
566.4097520661161
 30
0.0
 41
6.0
 42
6.0
  0
INSERT
  5
F0
330
EA
100
AcDbEntity
  8
LAYER_1
  6
Continuous
 62
     7
100
AcDbBlockReference
  2
_OPEN
 10
434.791074380165
 20
566.4097520661161
 30
0.0
 41
6.0
 42
6.0
 50
180.0
  0
INSERT
  5
F1
330
EA
100
AcDbEntity
  8
LAYER_1
  6
Continuous
 62
     7
100
AcDbBlockReference
  2
_OPEN
 10
492.791074380165
 20
566.4097520661161
 30
0.0
 41
6.0
 42
6.0
  0
LINE
  5
F2
330
EA
100
AcDbEntity
  8
LAYER_1
  6
Continuous
 62
     7
100
AcDbLine
 10
434.791074380165
 20
566.4097520661161
 30
0.0
 11
492.791074380165
 21
566.4097520661161
 31
0.0
  0
TEXT
  5
F3
330
EA
100
AcDbEntity
  8
LAYER_1
 62
     7
100
AcDbText
 10
456.539906867477
 20
569.409752066116
 30
0.0
 40
5.4
  1
(58)
 41
1.033333333332999
  7
ＭＳ_ゴシック
 72
     1
 11
463.791074380165
 21
569.409752066116
 31
0.0
100
AcDbText
  0
ENDBLK
  5
F4
330
EA
100
AcDbEntity
  8
0
100
AcDbBlockEnd
  0
BLOCK
  5
F6
330
F5
100
AcDbEntity
  8
0
 62
     7
100
AcDbBlockBegin
  2
*D18
 70
     1
 10
0.0
 20
0.0
 30
0.0
  3
*D18
  1

  0
LINE
  5
F7
330
F5
100
AcDbEntity
  8
LAYER_1
  6
Continuous
 62
     7
100
AcDbLine
 10
572.791074380165
 20
551.070580601028
 30
0.0
 11
572.791074380165
 21
568.409752066116
 31
0.0
  0
INSERT
  5
F8
330
F5
100
AcDbEntity
  8
LAYER_1
  6
Continuous
 62
     7
100
AcDbBlockReference
  2
_OPEN
 10
492.791074380165
 20
566.4097520661161
 30
0.0
 41
6.0
 42
6.0
 50
180.0
  0
INSERT
  5
F9
330
F5
100
AcDbEntity
  8
LAYER_1
  6
Continuous
 62
     7
100
AcDbBlockReference
  2
_OPEN
 10
572.791074380165
 20
566.4097520661161
 30
0.0
 41
6.0
 42
6.0
  0
INSERT
  5
FA
330
F5
100
AcDbEntity
  8
LAYER_1
  6
Continuous
 62
     7
100
AcDbBlockReference
  2
_OPEN
 10
492.791074380165
 20
566.4097520661161
 30
0.0
 41
6.0
 42
6.0
 50
180.0
  0
INSERT
  5
FB
330
F5
100
AcDbEntity
  8
LAYER_1
  6
Continuous
 62
     7
100
AcDbBlockReference
  2
_OPEN
 10
572.791074380165
 20
566.4097520661161
 30
0.0
 41
6.0
 42
6.0
  0
LINE
  5
FC
330
F5
100
AcDbEntity
  8
LAYER_1
  6
Continuous
 62
     7
100
AcDbLine
 10
492.791074380165
 20
566.4097520661161
 30
0.0
 11
572.791074380165
 21
566.4097520661161
 31
0.0
  0
TEXT
  5
FD
330
F5
100
AcDbEntity
  8
LAYER_1
 62
     7
100
AcDbText
 10
521.9143231111329
 20
569.409752066116
 30
0.0
 40
5.4
  1
(2000)
 41
1.033333333332999
  7
ＭＳ_ゴシック
 72
     1
 11
532.791074380165
 21
569.409752066116
 31
0.0
100
AcDbText
  0
ENDBLK
  5
FE
330
F5
100
AcDbEntity
  8
0
100
AcDbBlockEnd
  0
BLOCK
  5
100
330
FF
100
AcDbEntity
  8
0
 62
     7
100
AcDbBlockBegin
  2
*D19
 70
     1
 10
0.0
 20
0.0
 30
0.0
  3
*D19
  1

  0
LINE
  5
101
330
FF
100
AcDbEntity
  8
LAYER_1
  6
Continuous
 62
     7
100
AcDbLine
 10
615.791074380165
 20
552.159752066115
 30
0.0
 11
615.791074380165
 21
568.409752066116
 31
0.0
  0
INSERT
  5
102
330
FF
100
AcDbEntity
  8
LAYER_1
  6
Continuous
 62
     7
100
AcDbBlockReference
  2
_OPEN
 10
572.791074380165
 20
566.4097520661161
 30
0.0
 41
6.0
 42
6.0
 50
180.0
  0
INSERT
  5
103
330
FF
100
AcDbEntity
  8
LAYER_1
  6
Continuous
 62
     7
100
AcDbBlockReference
  2
_OPEN
 10
615.791074380165
 20
566.4097520661161
 30
0.0
 41
6.0
 42
6.0
  0
INSERT
  5
104
330
FF
100
AcDbEntity
  8
LAYER_1
  6
Continuous
 62
     7
100
AcDbBlockReference
  2
_OPEN
 10
572.791074380165
 20
566.4097520661161
 30
0.0
 41
6.0
 42
6.0
 50
180.0
  0
INSERT
  5
105
330
FF
100
AcDbEntity
  8
LAYER_1
  6
Continuous
 62
     7
100
AcDbBlockReference
  2
_OPEN
 10
615.791074380165
 20
566.4097520661161
 30
0.0
 41
6.0
 42
6.0
  0
LINE
  5
106
330
FF
100
AcDbEntity
  8
LAYER_1
  6
Continuous
 62
     7
100
AcDbLine
 10
572.791074380165
 20
566.4097520661161
 30
0.0
 11
615.791074380165
 21
566.4097520661161
 31
0.0
  0
TEXT
  5
107
330
FF
100
AcDbEntity
  8
LAYER_1
 62
     7
100
AcDbText
 10
587.039906867477
 20
569.409752066116
 30
0.0
 40
5.4
  1
(43)
 41
1.033333333332999
  7
ＭＳ_ゴシック
 72
     1
 11
594.2910743801649
 21
569.409752066116
 31
0.0
100
AcDbText
  0
ENDBLK
  5
108
330
FF
100
AcDbEntity
  8
0
100
AcDbBlockEnd
  0
BLOCK
  5
10A
330
109
100
AcDbEntity
  8
0
 62
     7
100
AcDbBlockBegin
  2
*D20
 70
     1
 10
0.0
 20
0.0
 30
0.0
  3
*D20
  1

  0
LINE
  5
10B
330
109
100
AcDbEntity
  8
LAYER_1
  6
Continuous
 62
     7
100
AcDbLine
 10
878.47865674622
 20
538.059752066115
 30
0.0
 11
903.7910743801649
 21
538.059752066115
 31
0.0
  0
LINE
  5
10C
330
109
100
AcDbEntity
  8
LAYER_1
  6
Continuous
 62
     7
100
AcDbLine
 10
878.47865674622
 20
552.759752066115
 30
0.0
 11
903.7910743801649
 21
552.759752066115
 31
0.0
  0
LINE
  5
10D
330
109
100
AcDbEntity
  8
LAYER_1
  6
Continuous
 62
     7
100
AcDbLine
 10
901.7910743801648
 20
538.059752066115
 30
0.0
 11
901.7910743801648
 21
552.759752066115
 31
0.0
  0
INSERT
  5
10E
330
109
100
AcDbEntity
  8
LAYER_1
  6
Continuous
 62
     7
100
AcDbBlockReference
  2
_OPEN
 10
901.7910743801648
 20
538.059752066115
 30
0.0
 41
6.0
 42
6.0
 50
90.0
  0
INSERT
  5
10F
330
109
100
AcDbEntity
  8
LAYER_1
  6
Continuous
 62
     7
100
AcDbBlockReference
  2
_NONE
 10
901.7910743801648
 20
503.022696473253
 30
0.0
 41
6.0
 42
6.0
 50
270.0
  0
LINE
  5
110
330
109
100
AcDbEntity
  8
LAYER_1
  6
Continuous
 62
     7
100
AcDbLine
 10
901.7910743801648
 20
538.059752066115
 30
0.0
 11
901.7910743801648
 21
503.022696473253
 31
0.0
  0
INSERT
  5
111
330
109
100
AcDbEntity
  8
LAYER_1
  6
Continuous
 62
     7
100
AcDbBlockReference
  2
_OPEN
 10
901.7910743801648
 20
552.759752066115
 30
0.0
 41
6.0
 42
6.0
 50
270.0
  0
INSERT
  5
112
330
109
100
AcDbEntity
  8
LAYER_1
  6
Continuous
 62
     7
100
AcDbBlockReference
  2
_NONE
 10
901.7910743801648
 20
564.759752066115
 30
0.0
 41
6.0
 42
6.0
 50
90.0
  0
LINE
  5
113
330
109
100
AcDbEntity
  8
LAYER_1
  6
Continuous
 62
     7
100
AcDbLine
 10
901.7910743801648
 20
552.759752066115
 30
0.0
 11
901.7910743801648
 21
564.759752066115
 31
0.0
  0
TEXT
  5
114
330
109
100
AcDbEntity
  8
LAYER_1
 62
     7
100
AcDbText
 10
898.7910743801649
 20
503.022696473253
 30
0.0
 40
5.4
  1
(φ14.7)
 50
90.0
 41
1.033333333332999
  7
ＭＳ_ゴシック
100
AcDbText
  0
ENDBLK
  5
115
330
109
100
AcDbEntity
  8
0
100
AcDbBlockEnd
  0
BLOCK
  5
117
330
116
100
AcDbEntity
  8
0
 62
     7
100
AcDbBlockBegin
  2
*D21
 70
     1
 10
0.0
 20
0.0
 30
0.0
  3
*D21
  1

  0
LINE
  5
118
330
116
100
AcDbEntity
  8
LAYER_1
  6
Continuous
 62
     7
100
AcDbLine
 10
709.7910743801649
 20
552.309752066116
 30
0.0
 11
709.7910743801649
 21
568.4097520661151
 31
0.0
  0
LINE
  5
119
330
116
100
AcDbEntity
  8
LAYER_1
  6
Continuous
 62
     7
100
AcDbLine
 10
758.7910743801649
 20
553.1097520661149
 30
0.0
 11
758.7910743801649
 21
568.4097520661151
 31
0.0
  0
INSERT
  5
11A
330
116
100
AcDbEntity
  8
LAYER_1
  6
Continuous
 62
     7
100
AcDbBlockReference
  2
_OPEN
 10
709.7910743801649
 20
566.409752066115
 30
0.0
 41
6.0
 42
6.0
 50
180.0
  0
INSERT
  5
11B
330
116
100
AcDbEntity
  8
LAYER_1
  6
Continuous
 62
     7
100
AcDbBlockReference
  2
_OPEN
 10
758.7910743801649
 20
566.409752066115
 30
0.0
 41
6.0
 42
6.0
  0
INSERT
  5
11C
330
116
100
AcDbEntity
  8
LAYER_1
  6
Continuous
 62
     7
100
AcDbBlockReference
  2
_OPEN
 10
709.7910743801649
 20
566.409752066115
 30
0.0
 41
6.0
 42
6.0
 50
180.0
  0
INSERT
  5
11D
330
116
100
AcDbEntity
  8
LAYER_1
  6
Continuous
 62
     7
100
AcDbBlockReference
  2
_OPEN
 10
758.7910743801649
 20
566.409752066115
 30
0.0
 41
6.0
 42
6.0
  0
LINE
  5
11E
330
116
100
AcDbEntity
  8
LAYER_1
  6
Continuous
 62
     7
100
AcDbLine
 10
709.7910743801649
 20
566.409752066115
 30
0.0
 11
758.7910743801649
 21
566.409752066115
 31
0.0
  0
TEXT
  5
11F
330
116
100
AcDbEntity
  8
LAYER_1
 62
     7
100
AcDbText
 10
727.0399068674769
 20
569.409752066115
 30
0.0
 40
5.4
  1
(49)
 41
1.033333333332999
  7
ＭＳ_ゴシック
 72
     1
 11
734.2910743801649
 21
569.409752066115
 31
0.0
100
AcDbText
  0
ENDBLK
  5
120
330
116
100
AcDbEntity
  8
0
100
AcDbBlockEnd
  0
BLOCK
  5
122
330
121
100
AcDbEntity
  8
0
 62
     7
100
AcDbBlockBegin
  2
*D22
 70
     1
 10
0.0
 20
0.0
 30
0.0
  3
*D22
  1

  0
LINE
  5
123
330
121
100
AcDbEntity
  8
LAYER_1
  6
Continuous
 62
     7
100
AcDbLine
 10
838.7910743801649
 20
551.070580601028
 30
0.0
 11
838.7910743801649
 21
568.4097520661151
 31
0.0
  0
INSERT
  5
124
330
121
100
AcDbEntity
  8
LAYER_1
  6
Continuous
 62
     7
100
AcDbBlockReference
  2
_OPEN
 10
758.7910743801649
 20
566.409752066115
 30
0.0
 41
6.0
 42
6.0
 50
180.0
  0
INSERT
  5
125
330
121
100
AcDbEntity
  8
LAYER_1
  6
Continuous
 62
     7
100
AcDbBlockReference
  2
_OPEN
 10
838.7910743801649
 20
566.409752066115
 30
0.0
 41
6.0
 42
6.0
  0
INSERT
  5
126
330
121
100
AcDbEntity
  8
LAYER_1
  6
Continuous
 62
     7
100
AcDbBlockReference
  2
_OPEN
 10
758.7910743801649
 20
566.409752066115
 30
0.0
 41
6.0
 42
6.0
 50
180.0
  0
INSERT
  5
127
330
121
100
AcDbEntity
  8
LAYER_1
  6
Continuous
 62
     7
100
AcDbBlockReference
  2
_OPEN
 10
838.7910743801649
 20
566.409752066115
 30
0.0
 41
6.0
 42
6.0
  0
LINE
  5
128
330
121
100
AcDbEntity
  8
LAYER_1
  6
Continuous
 62
     7
100
AcDbLine
 10
758.7910743801649
 20
566.409752066115
 30
0.0
 11
838.7910743801649
 21
566.409752066115
 31
0.0
  0
TEXT
  5
129
330
121
100
AcDbEntity
  8
LAYER_1
 62
     7
100
AcDbText
 10
787.9143231111328
 20
569.409752066115
 30
0.0
 40
5.4
  1
(2000)
 41
1.033333333332999
  7
ＭＳ_ゴシック
 72
     1
 11
798.7910743801649
 21
569.409752066115
 31
0.0
100
AcDbText
  0
ENDBLK
  5
12A
330
121
100
AcDbEntity
  8
0
100
AcDbBlockEnd
  0
BLOCK
  5
12C
330
12B
100
AcDbEntity
  8
0
 62
     7
100
AcDbBlockBegin
  2
*D23
 70
     1
 10
0.0
 20
0.0
 30
0.0
  3
*D23
  1

  0
LINE
  5
12D
330
12B
100
AcDbEntity
  8
LAYER_1
  6
Continuous
 62
     7
100
AcDbLine
 10
881.7910743801649
 20
552.159752066115
 30
0.0
 11
881.7910743801649
 21
568.4097520661151
 31
0.0
  0
INSERT
  5
12E
330
12B
100
AcDbEntity
  8
LAYER_1
  6
Continuous
 62
     7
100
AcDbBlockReference
  2
_OPEN
 10
838.7910743801649
 20
566.409752066115
 30
0.0
 41
6.0
 42
6.0
 50
180.0
  0
INSERT
  5
12F
330
12B
100
AcDbEntity
  8
LAYER_1
  6
Continuous
 62
     7
100
AcDbBlockReference
  2
_OPEN
 10
881.7910743801649
 20
566.409752066115
 30
0.0
 41
6.0
 42
6.0
  0
INSERT
  5
130
330
12B
100
AcDbEntity
  8
LAYER_1
  6
Continuous
 62
     7
100
AcDbBlockReference
  2
_OPEN
 10
838.7910743801649
 20
566.409752066115
 30
0.0
 41
6.0
 42
6.0
 50
180.0
  0
INSERT
  5
131
330
12B
100
AcDbEntity
  8
LAYER_1
  6
Continuous
 62
     7
100
AcDbBlockReference
  2
_OPEN
 10
881.7910743801649
 20
566.409752066115
 30
0.0
 41
6.0
 42
6.0
  0
LINE
  5
132
330
12B
100
AcDbEntity
  8
LAYER_1
  6
Continuous
 62
     7
100
AcDbLine
 10
838.7910743801649
 20
566.409752066115
 30
0.0
 11
881.7910743801649
 21
566.409752066115
 31
0.0
  0
TEXT
  5
133
330
12B
100
AcDbEntity
  8
LAYER_1
 62
     7
100
AcDbText
 10
853.0399068674769
 20
569.409752066115
 30
0.0
 40
5.4
  1
(43)
 41
1.033333333332999
  7
ＭＳ_ゴシック
 72
     1
 11
860.2910743801649
 21
569.409752066115
 31
0.0
100
AcDbText
  0
ENDBLK
  5
134
330
12B
100
AcDbEntity
  8
0
100
AcDbBlockEnd
  0
BLOCK
  5
136
330
135
100
AcDbEntity
  8
0
 62
     7
100
AcDbBlockBegin
  2
*D24
 70
     1
 10
0.0
 20
0.0
 30
0.0
  3
*D24
  1

  0
LINE
  5
137
330
135
100
AcDbEntity
  8
LAYER_1
  6
Continuous
 62
     7
100
AcDbLine
 10
432.991074380165
 20
539.409752066116
 30
0.0
 11
417.791074380165
 21
539.409752066116
 31
0.0
  0
LINE
  5
138
330
135
100
AcDbEntity
  8
LAYER_1
  6
Continuous
 62
     7
100
AcDbLine
 10
432.991074380165
 20
551.409752066116
 30
0.0
 11
417.791074380165
 21
551.409752066116
 31
0.0
  0
LINE
  5
139
330
135
100
AcDbEntity
  8
LAYER_1
  6
Continuous
 62
     7
100
AcDbLine
 10
419.7910743801649
 20
539.409752066116
 30
0.0
 11
419.7910743801649
 21
551.409752066116
 31
0.0
  0
INSERT
  5
13A
330
135
100
AcDbEntity
  8
LAYER_1
  6
Continuous
 62
     7
100
AcDbBlockReference
  2
_OPEN
 10
419.7910743801649
 20
539.409752066116
 30
0.0
 41
6.0
 42
6.0
 50
90.0
  0
INSERT
  5
13B
330
135
100
AcDbEntity
  8
LAYER_1
  6
Continuous
 62
     7
100
AcDbBlockReference
  2
_NONE
 10
419.7910743801649
 20
517.8022364072989
 30
0.0
 41
6.0
 42
6.0
 50
270.0
  0
LINE
  5
13C
330
135
100
AcDbEntity
  8
LAYER_1
  6
Continuous
 62
     7
100
AcDbLine
 10
419.7910743801649
 20
539.409752066116
 30
0.0
 11
419.7910743801649
 21
517.8022364072989
 31
0.0
  0
INSERT
  5
13D
330
135
100
AcDbEntity
  8
LAYER_1
  6
Continuous
 62
     7
100
AcDbBlockReference
  2
_OPEN
 10
419.7910743801649
 20
551.409752066116
 30
0.0
 41
6.0
 42
6.0
 50
270.0
  0
INSERT
  5
13E
330
135
100
AcDbEntity
  8
LAYER_1
  6
Continuous
 62
     7
100
AcDbBlockReference
  2
_NONE
 10
419.7910743801649
 20
563.409752066116
 30
0.0
 41
6.0
 42
6.0
 50
90.0
  0
LINE
  5
13F
330
135
100
AcDbEntity
  8
LAYER_1
  6
Continuous
 62
     7
100
AcDbLine
 10
419.7910743801649
 20
551.409752066116
 30
0.0
 11
419.7910743801649
 21
563.409752066116
 31
0.0
  0
TEXT
  5
140
330
135
100
AcDbEntity
  8
LAYER_1
 62
     7
100
AcDbText
 10
416.791074380165
 20
517.8022364072989
 30
0.0
 40
5.4
  1
φ12
 50
90.0
 41
1.033333333332999
  7
ＭＳ_ゴシック
100
AcDbText
  0
ENDBLK
  5
141
330
135
100
AcDbEntity
  8
0
100
AcDbBlockEnd
  0
BLOCK
  5
143
330
142
100
AcDbEntity
  8
0
 62
     7
100
AcDbBlockBegin
  2
*D25
 70
     1
 10
0.0
 20
0.0
 30
0.0
  3
*D25
  1

  0
LINE
  5
144
330
142
100
AcDbEntity
  8
LAYER_1
  6
Continuous
 62
     7
100
AcDbLine
 10
707.9910743801649
 20
539.409752066116
 30
0.0
 11
692.7910743801649
 21
539.409752066116
 31
0.0
  0
LINE
  5
145
330
142
100
AcDbEntity
  8
LAYER_1
  6
Continuous
 62
     7
100
AcDbLine
 10
707.9910743801649
 20
551.409752066116
 30
0.0
 11
692.7910743801649
 21
551.409752066116
 31
0.0
  0
LINE
  5
146
330
142
100
AcDbEntity
  8
LAYER_1
  6
Continuous
 62
     7
100
AcDbLine
 10
694.7910743801648
 20
539.409752066116
 30
0.0
 11
694.7910743801648
 21
551.409752066116
 31
0.0
  0
INSERT
  5
147
330
142
100
AcDbEntity
  8
LAYER_1
  6
Continuous
 62
     7
100
AcDbBlockReference
  2
_OPEN
 10
694.7910743801648
 20
539.409752066116
 30
0.0
 41
6.0
 42
6.0
 50
90.0
  0
INSERT
  5
148
330
142
100
AcDbEntity
  8
LAYER_1
  6
Continuous
 62
     7
100
AcDbBlockReference
  2
_NONE
 10
694.7910743801648
 20
517.8022364072989
 30
0.0
 41
6.0
 42
6.0
 50
270.0
  0
LINE
  5
149
330
142
100
AcDbEntity
  8
LAYER_1
  6
Continuous
 62
     7
100
AcDbLine
 10
694.7910743801648
 20
539.409752066116
 30
0.0
 11
694.7910743801648
 21
517.8022364072989
 31
0.0
  0
INSERT
  5
14A
330
142
100
AcDbEntity
  8
LAYER_1
  6
Continuous
 62
     7
100
AcDbBlockReference
  2
_OPEN
 10
694.7910743801648
 20
551.409752066116
 30
0.0
 41
6.0
 42
6.0
 50
270.0
  0
INSERT
  5
14B
330
142
100
AcDbEntity
  8
LAYER_1
  6
Continuous
 62
     7
100
AcDbBlockReference
  2
_NONE
 10
694.7910743801648
 20
563.409752066116
 30
0.0
 41
6.0
 42
6.0
 50
90.0
  0
LINE
  5
14C
330
142
100
AcDbEntity
  8
LAYER_1
  6
Continuous
 62
     7
100
AcDbLine
 10
694.7910743801648
 20
551.409752066116
 30
0.0
 11
694.7910743801648
 21
563.409752066116
 31
0.0
  0
TEXT
  5
14D
330
142
100
AcDbEntity
  8
LAYER_1
 62
     7
100
AcDbText
 10
691.7910743801648
 20
517.8022364072989
 30
0.0
 40
5.4
  1
φ12
 50
90.0
 41
1.033333333332999
  7
ＭＳ_ゴシック
100
AcDbText
  0
ENDBLK
  5
14E
330
142
100
AcDbEntity
  8
0
100
AcDbBlockEnd
  0
BLOCK
  5
150
330
14F
100
AcDbEntity
  8
0
 62
     7
100
AcDbBlockBegin
  2
*D26
 70
     1
 10
0.0
 20
0.0
 30
0.0
  3
*D26
  1

  0
LINE
  5
151
330
14F
100
AcDbEntity
  8
LAYER_1
  6
Continuous
 62
     7
100
AcDbLine
 10
650.902268239758
 20
305.0018683770729
 30
0.0
 11
630.9022682397579
 21
305.0018683770729
 31
0.0
  0
LINE
  5
152
330
14F
100
AcDbEntity
  8
LAYER_1
  6
Continuous
 62
     7
100
AcDbLine
 10
660.9022682397579
 20
322.0018683770729
 30
0.0
 11
630.9022682397579
 21
322.0018683770729
 31
0.0
  0
INSERT
  5
153
330
14F
100
AcDbEntity
  8
LAYER_1
  6
Continuous
 62
     7
100
AcDbBlockReference
  2
_OPEN
 10
633.902268239758
 20
305.0018683770729
 30
0.0
 41
6.0
 42
6.0
 50
270.0
  0
INSERT
  5
154
330
14F
100
AcDbEntity
  8
LAYER_1
  6
Continuous
 62
     7
100
AcDbBlockReference
  2
_OPEN
 10
633.902268239758
 20
322.0018683770729
 30
0.0
 41
6.0
 42
6.0
 50
90.0
  0
INSERT
  5
155
330
14F
100
AcDbEntity
  8
LAYER_1
  6
Continuous
 62
     7
100
AcDbBlockReference
  2
_OPEN
 10
633.902268239758
 20
305.0018683770729
 30
0.0
 41
6.0
 42
6.0
 50
270.0
  0
INSERT
  5
156
330
14F
100
AcDbEntity
  8
LAYER_1
  6
Continuous
 62
     7
100
AcDbBlockReference
  2
_OPEN
 10
633.902268239758
 20
322.0018683770729
 30
0.0
 41
6.0
 42
6.0
 50
90.0
  0
LINE
  5
157
330
14F
100
AcDbEntity
  8
LAYER_1
  6
Continuous
 62
     7
100
AcDbLine
 10
633.902268239758
 20
305.0018683770729
 30
0.0
 11
633.902268239758
 21
322.0018683770729
 31
0.0
  0
TEXT
  5
158
330
14F
100
AcDbEntity
  8
LAYER_1
 62
     7
100
AcDbText
 10
630.9022682397579
 20
309.8762846207289
 30
0.0
 40
5.4
  1
17
 50
90.0
 41
1.033333333332999
  7
ＭＳ_ゴシック
 72
     1
 11
630.9022682397579
 21
313.5018683770729
 31
0.0
100
AcDbText
  0
ENDBLK
  5
159
330
14F
100
AcDbEntity
  8
0
100
AcDbBlockEnd
  0
BLOCK
  5
15B
330
15A
100
AcDbEntity
  8
0
 62
     7
100
AcDbBlockBegin
  2
*D27
 70
     1
 10
0.0
 20
0.0
 30
0.0
  3
*D27
  1

  0
LINE
  5
15C
330
15A
100
AcDbEntity
  8
LAYER_1
  6
Continuous
 62
     7
100
AcDbLine
 10
645.902268239758
 20
301.0018683770729
 30
0.0
 11
615.9022682397579
 21
301.0018683770729
 31
0.0
  0
LINE
  5
15D
330
15A
100
AcDbEntity
  8
LAYER_1
  6
Continuous
 62
     7
100
AcDbLine
 10
645.902268239758
 20
326.0018683770729
 30
0.0
 11
615.9022682397579
 21
326.0018683770729
 31
0.0
  0
INSERT
  5
15E
330
15A
100
AcDbEntity
  8
LAYER_1
  6
Continuous
 62
     7
100
AcDbBlockReference
  2
_OPEN
 10
618.9022682397579
 20
301.0018683770729
 30
0.0
 41
6.0
 42
6.0
 50
270.0
  0
INSERT
  5
15F
330
15A
100
AcDbEntity
  8
LAYER_1
  6
Continuous
 62
     7
100
AcDbBlockReference
  2
_OPEN
 10
618.9022682397579
 20
326.0018683770729
 30
0.0
 41
6.0
 42
6.0
 50
90.0
  0
INSERT
  5
160
330
15A
100
AcDbEntity
  8
LAYER_1
  6
Continuous
 62
     7
100
AcDbBlockReference
  2
_OPEN
 10
618.9022682397579
 20
301.0018683770729
 30
0.0
 41
6.0
 42
6.0
 50
270.0
  0
INSERT
  5
161
330
15A
100
AcDbEntity
  8
LAYER_1
  6
Continuous
 62
     7
100
AcDbBlockReference
  2
_OPEN
 10
618.9022682397579
 20
326.0018683770729
 30
0.0
 41
6.0
 42
6.0
 50
90.0
  0
LINE
  5
162
330
15A
100
AcDbEntity
  8
LAYER_1
  6
Continuous
 62
     7
100
AcDbLine
 10
618.9022682397579
 20
301.0018683770729
 30
0.0
 11
618.9022682397579
 21
326.0018683770729
 31
0.0
  0
TEXT
  5
163
330
15A
100
AcDbEntity
  8
LAYER_1
 62
     7
100
AcDbText
 10
615.9022682397579
 20
309.8762846207289
 30
0.0
 40
5.4
  1
25
 50
90.0
 41
1.033333333332999
  7
ＭＳ_ゴシック
 72
     1
 11
615.9022682397579
 21
313.5018683770729
 31
0.0
100
AcDbText
  0
ENDBLK
  5
164
330
15A
100
AcDbEntity
  8
0
100
AcDbBlockEnd
  0
BLOCK
  5
166
330
165
100
AcDbEntity
  8
0
 62
     7
100
AcDbBlockBegin
  2
*D28
 70
     1
 10
0.0
 20
0.0
 30
0.0
  3
*D28
  1

  0
LINE
  5
167
330
165
100
AcDbEntity
  8
LAYER_1
  6
Continuous
 62
     7
100
AcDbLine
 10
658.902268239758
 20
297.0018683770729
 30
0.0
 11
658.902268239758
 21
278.0018683770729
 31
0.0
  0
LINE
  5
168
330
165
100
AcDbEntity
  8
LAYER_1
  6
Continuous
 62
     7
100
AcDbLine
 10
678.9022682397579
 20
297.0018683770729
 30
0.0
 11
678.9022682397579
 21
278.0018683770729
 31
0.0
  0
INSERT
  5
169
330
165
100
AcDbEntity
  8
LAYER_1
  6
Continuous
 62
     7
100
AcDbBlockReference
  2
_OPEN
 10
658.902268239758
 20
281.0018683770729
 30
0.0
 41
6.0
 42
6.0
 50
180.0
  0
INSERT
  5
16A
330
165
100
AcDbEntity
  8
LAYER_1
  6
Continuous
 62
     7
100
AcDbBlockReference
  2
_OPEN
 10
678.9022682397579
 20
281.0018683770729
 30
0.0
 41
6.0
 42
6.0
  0
INSERT
  5
16B
330
165
100
AcDbEntity
  8
LAYER_1
  6
Continuous
 62
     7
100
AcDbBlockReference
  2
_OPEN
 10
658.902268239758
 20
281.0018683770729
 30
0.0
 41
6.0
 42
6.0
 50
180.0
  0
INSERT
  5
16C
330
165
100
AcDbEntity
  8
LAYER_1
  6
Continuous
 62
     7
100
AcDbBlockReference
  2
_OPEN
 10
678.9022682397579
 20
281.0018683770729
 30
0.0
 41
6.0
 42
6.0
  0
LINE
  5
16D
330
165
100
AcDbEntity
  8
LAYER_1
  6
Continuous
 62
     7
100
AcDbLine
 10
658.902268239758
 20
281.0018683770729
 30
0.0
 11
678.9022682397579
 21
281.0018683770729
 31
0.0
  0
TEXT
  5
16E
330
165
100
AcDbEntity
  8
LAYER_1
 62
     7
100
AcDbText
 10
665.276684483414
 20
284.0018683770729
 30
0.0
 40
5.4
  1
20
 41
1.033333333332999
  7
ＭＳ_ゴシック
 72
     1
 11
668.9022682397579
 21
284.0018683770729
 31
0.0
100
AcDbText
  0
ENDBLK
  5
16F
330
165
100
AcDbEntity
  8
0
100
AcDbBlockEnd
  0
BLOCK
  5
171
330
170
100
AcDbEntity
  8
0
 62
     7
100
AcDbBlockBegin
  2
*D29
 70
     1
 10
0.0
 20
0.0
 30
0.0
  3
*D29
  1

  0
LINE
  5
172
330
170
100
AcDbEntity
  8
LAYER_1
  6
Continuous
 62
     7
100
AcDbLine
 10
728.9022682397579
 20
328.5018683770729
 30
0.0
 11
728.9022682397579
 21
354.0018683770729
 31
0.0
  0
LINE
  5
173
330
170
100
AcDbEntity
  8
LAYER_1
  6
Continuous
 62
     7
100
AcDbLine
 10
748.9022682397579
 20
329.0018683770729
 30
0.0
 11
748.9022682397579
 21
354.0018683770729
 31
0.0
  0
INSERT
  5
174
330
170
100
AcDbEntity
  8
LAYER_1
  6
Continuous
 62
     7
100
AcDbBlockReference
  2
_OPEN
 10
728.9022682397579
 20
351.0018683770729
 30
0.0
 41
6.0
 42
6.0
 50
180.0
  0
INSERT
  5
175
330
170
100
AcDbEntity
  8
LAYER_1
  6
Continuous
 62
     7
100
AcDbBlockReference
  2
_OPEN
 10
748.9022682397579
 20
351.0018683770729
 30
0.0
 41
6.0
 42
6.0
  0
INSERT
  5
176
330
170
100
AcDbEntity
  8
LAYER_1
  6
Continuous
 62
     7
100
AcDbBlockReference
  2
_OPEN
 10
728.9022682397579
 20
351.0018683770729
 30
0.0
 41
6.0
 42
6.0
 50
180.0
  0
INSERT
  5
177
330
170
100
AcDbEntity
  8
LAYER_1
  6
Continuous
 62
     7
100
AcDbBlockReference
  2
_OPEN
 10
748.9022682397579
 20
351.0018683770729
 30
0.0
 41
6.0
 42
6.0
  0
LINE
  5
178
330
170
100
AcDbEntity
  8
LAYER_1
  6
Continuous
 62
     7
100
AcDbLine
 10
728.9022682397579
 20
351.0018683770729
 30
0.0
 11
748.9022682397579
 21
351.0018683770729
 31
0.0
  0
TEXT
  5
179
330
170
100
AcDbEntity
  8
LAYER_1
 62
     7
100
AcDbText
 10
731.6511007270699
 20
354.0018683770729
 30
0.0
 40
5.4
  1
(20)
 41
1.033333333332999
  7
ＭＳ_ゴシック
 72
     1
 11
738.9022682397579
 21
354.0018683770729
 31
0.0
100
AcDbText
  0
ENDBLK
  5
17A
330
170
100
AcDbEntity
  8
0
100
AcDbBlockEnd
  0
BLOCK
  5
17C
330
17B
100
AcDbEntity
  8
0
 62
     7
100
AcDbBlockBegin
  2
*D30
 70
     1
 10
0.0
 20
0.0
 30
0.0
  3
*D30
  1

  0
LINE
  5
17D
330
17B
100
AcDbEntity
  8
LAYER_1
  6
Continuous
 62
     7
100
AcDbLine
 10
738.9022682397579
 20
324.5018683770729
 30
0.0
 11
738.9022682397579
 21
339.0018683770729
 31
0.0
  0
LINE
  5
17E
330
17B
100
AcDbEntity
  8
LAYER_1
  6
Continuous
 62
     7
100
AcDbLine
 10
748.9022682397579
 20
329.0018683770729
 30
0.0
 11
748.9022682397579
 21
339.0018683770729
 31
0.0
  0
LINE
  5
17F
330
17B
100
AcDbEntity
  8
LAYER_1
  6
Continuous
 62
     7
100
AcDbLine
 10
738.9022682397579
 20
336.0018683770729
 30
0.0
 11
748.9022682397579
 21
336.0018683770729
 31
0.0
  0
INSERT
  5
180
330
17B
100
AcDbEntity
  8
LAYER_1
  6
Continuous
 62
     7
100
AcDbBlockReference
  2
_OPEN
 10
738.9022682397579
 20
336.0018683770729
 30
0.0
 41
6.0
 42
6.0
  0
INSERT
  5
181
330
17B
100
AcDbEntity
  8
LAYER_1
  6
Continuous
 62
     7
100
AcDbBlockReference
  2
_NONE
 10
723.7587678437259
 20
336.0018683770729
 30
0.0
 41
6.0
 42
6.0
 50
180.0
  0
LINE
  5
182
330
17B
100
AcDbEntity
  8
LAYER_1
  6
Continuous
 62
     7
100
AcDbLine
 10
738.9022682397579
 20
336.0018683770729
 30
0.0
 11
723.7587678437259
 21
336.0018683770729
 31
0.0
  0
INSERT
  5
183
330
17B
100
AcDbEntity
  8
LAYER_1
  6
Continuous
 62
     7
100
AcDbBlockReference
  2
_OPEN
 10
748.9022682397579
 20
336.0018683770729
 30
0.0
 41
6.0
 42
6.0
 50
180.0
  0
INSERT
  5
184
330
17B
100
AcDbEntity
  8
LAYER_1
  6
Continuous
 62
     7
100
AcDbBlockReference
  2
_NONE
 10
764.2292690389999
 20
336.0018683770729
 30
0.0
 41
6.0
 42
6.0
  0
LINE
  5
185
330
17B
100
AcDbEntity
  8
LAYER_1
  6
Continuous
 62
     7
100
AcDbLine
 10
748.9022682397579
 20
336.0018683770729
 30
0.0
 11
764.2292690389999
 21
336.0018683770729
 31
0.0
  0
TEXT
  5
186
330
17B
100
AcDbEntity
  8
LAYER_1
 62
     7
100
AcDbText
 10
739.691197713912
 20
339.0018683770729
 30
0.0
 40
5.4
  1
10
 41
1.033333333332999
  7
ＭＳ_ゴシック
 72
     2
 11
746.9423652266
 21
339.0018683770729
 31
0.0
100
AcDbText
  0
ENDBLK
  5
187
330
17B
100
AcDbEntity
  8
0
100
AcDbBlockEnd
  0
BLOCK
  5
189
330
188
100
AcDbEntity
  8
0
 62
     7
100
AcDbBlockBegin
  2
*D31
 70
     1
 10
0.0
 20
0.0
 30
0.0
  3
*D31
  1

  0
LINE
  5
18A
330
188
100
AcDbEntity
  8
LAYER_1
  6
Continuous
 62
     7
100
AcDbLine
 10
658.902268239758
 20
368.0018683770729
 30
0.0
 11
658.902268239758
 21
384.0018683770729
 31
0.0
  0
LINE
  5
18B
330
188
100
AcDbEntity
  8
LAYER_1
  6
Continuous
 62
     7
100
AcDbLine
 10
678.9022682397579
 20
368.0018683770729
 30
0.0
 11
678.9022682397579
 21
384.0018683770729
 31
0.0
  0
INSERT
  5
18C
330
188
100
AcDbEntity
  8
LAYER_1
  6
Continuous
 62
     7
100
AcDbBlockReference
  2
_OPEN
 10
658.902268239758
 20
381.0018683770729
 30
0.0
 41
6.0
 42
6.0
 50
180.0
  0
INSERT
  5
18D
330
188
100
AcDbEntity
  8
LAYER_1
  6
Continuous
 62
     7
100
AcDbBlockReference
  2
_OPEN
 10
678.9022682397579
 20
381.0018683770729
 30
0.0
 41
6.0
 42
6.0
  0
INSERT
  5
18E
330
188
100
AcDbEntity
  8
LAYER_1
  6
Continuous
 62
     7
100
AcDbBlockReference
  2
_OPEN
 10
658.902268239758
 20
381.0018683770729
 30
0.0
 41
6.0
 42
6.0
 50
180.0
  0
INSERT
  5
18F
330
188
100
AcDbEntity
  8
LAYER_1
  6
Continuous
 62
     7
100
AcDbBlockReference
  2
_OPEN
 10
678.9022682397579
 20
381.0018683770729
 30
0.0
 41
6.0
 42
6.0
  0
LINE
  5
190
330
188
100
AcDbEntity
  8
LAYER_1
  6
Continuous
 62
     7
100
AcDbLine
 10
658.902268239758
 20
381.0018683770729
 30
0.0
 11
678.9022682397579
 21
381.0018683770729
 31
0.0
  0
TEXT
  5
191
330
188
100
AcDbEntity
  8
LAYER_1
 62
     7
100
AcDbText
 10
665.276684483414
 20
384.0018683770729
 30
0.0
 40
5.4
  1
20
 41
1.033333333332999
  7
ＭＳ_ゴシック
 72
     1
 11
668.9022682397579
 21
384.0018683770729
 31
0.0
100
AcDbText
  0
ENDBLK
  5
192
330
188
100
AcDbEntity
  8
0
100
AcDbBlockEnd
  0
BLOCK
  5
194
330
193
100
AcDbEntity
  8
0
 62
     7
100
AcDbBlockBegin
  2
*D32
 70
     1
 10
0.0
 20
0.0
 30
0.0
  3
*D32
  1

  0
LINE
  5
195
330
193
100
AcDbEntity
  8
LAYER_1
  6
Continuous
 62
     7
100
AcDbLine
 10
651.9022682397579
 20
361.0018683770729
 30
0.0
 11
630.9022682397579
 21
361.0018683770729
 31
0.0
  0
LINE
  5
196
330
193
100
AcDbEntity
  8
LAYER_1
  6
Continuous
 62
     7
100
AcDbLine
 10
645.902268239758
 20
371.001868377073
 30
0.0
 11
630.9022682397579
 21
371.001868377073
 31
0.0
  0
LINE
  5
197
330
193
100
AcDbEntity
  8
LAYER_1
  6
Continuous
 62
     7
100
AcDbLine
 10
633.902268239758
 20
361.0018683770729
 30
0.0
 11
633.902268239758
 21
371.001868377073
 31
0.0
  0
INSERT
  5
198
330
193
100
AcDbEntity
  8
LAYER_1
  6
Continuous
 62
     7
100
AcDbBlockReference
  2
_OPEN
 10
633.902268239758
 20
361.0018683770729
 30
0.0
 41
6.0
 42
6.0
 50
90.0
  0
INSERT
  5
199
330
193
100
AcDbEntity
  8
LAYER_1
  6
Continuous
 62
     7
100
AcDbBlockReference
  2
_NONE
 10
633.902268239758
 20
345.0835391882559
 30
0.0
 41
6.0
 42
6.0
 50
270.0
  0
LINE
  5
19A
330
193
100
AcDbEntity
  8
LAYER_1
  6
Continuous
 62
     7
100
AcDbLine
 10
633.902268239758
 20
361.0018683770729
 30
0.0
 11
633.902268239758
 21
345.0835391882559
 31
0.0
  0
INSERT
  5
19B
330
193
100
AcDbEntity
  8
LAYER_1
  6
Continuous
 62
     7
100
AcDbBlockReference
  2
_OPEN
 10
633.902268239758
 20
371.001868377073
 30
0.0
 41
6.0
 42
6.0
 50
270.0
  0
INSERT
  5
19C
330
193
100
AcDbEntity
  8
LAYER_1
  6
Continuous
 62
     7
100
AcDbBlockReference
  2
_NONE
 10
633.902268239758
 20
381.0018683770729
 30
0.0
 41
6.0
 42
6.0
 50
90.0
  0
LINE
  5
19D
330
193
100
AcDbEntity
  8
LAYER_1
  6
Continuous
 62
     7
100
AcDbLine
 10
633.902268239758
 20
371.001868377073
 30
0.0
 11
633.902268239758
 21
381.0018683770729
 31
0.0
  0
TEXT
  5
19E
330
193
100
AcDbEntity
  8
LAYER_1
 62
     7
100
AcDbText
 10
630.9022682397579
 20
347.2078367089169
 30
0.0
 40
5.4
  1
10
 50
90.0
 41
1.033333333332999
  7
ＭＳ_ゴシック
100
AcDbText
  0
ENDBLK
  5
19F
330
193
100
AcDbEntity
  8
0
100
AcDbBlockEnd
  0
BLOCK
  5
1A1
330
1A0
100
AcDbEntity
  8
0
 62
     7
100
AcDbBlockBegin
  2
*D33
 70
     1
 10
0.0
 20
0.0
 30
0.0
  3
*D33
  1

  0
LINE
  5
1A2
330
1A0
100
AcDbEntity
  8
LAYER_1
  6
Continuous
 62
     7
100
AcDbLine
 10
733.7061158170508
 20
310.501868377073
 30
0.0
 11
744.098420662464
 21
316.5018683770729
 31
0.0
  0
INSERT
  5
1A3
330
1A0
100
AcDbEntity
  8
LAYER_1
  6
Continuous
 62
     7
100
AcDbBlockReference
  2
_OPEN
 10
744.098420662464
 20
316.5018683770729
 30
0.0
 41
6.0
 42
6.0
 50
210.0
  0
INSERT
  5
1A4
330
1A0
100
AcDbEntity
  8
LAYER_1
  6
Continuous
 62
     7
100
AcDbBlockReference
  2
_NONE
 10
756.939920359342
 20
323.9159116838639
 30
0.0
 41
6.0
 42
6.0
 50
30.0
  0
LINE
  5
1A5
330
1A0
100
AcDbEntity
  8
LAYER_1
  6
Continuous
 62
     7
100
AcDbLine
 10
744.098420662464
 20
316.5018683770729
 30
0.0
 11
756.939920359342
 21
323.9159116838639
 31
0.0
  0
INSERT
  5
1A6
330
1A0
100
AcDbEntity
  8
LAYER_1
  6
Continuous
 62
     7
100
AcDbBlockReference
  2
_OPEN
 10
733.7061158170508
 20
310.501868377073
 30
0.0
 41
6.0
 42
6.0
 50
30.0
  0
INSERT
  5
1A7
330
1A0
100
AcDbEntity
  8
LAYER_1
  6
Continuous
 62
     7
100
AcDbBlockReference
  2
_NONE
 10
713.236534638904
 20
298.683750173671
 30
0.0
 41
6.0
 42
6.0
 50
210.0
  0
LINE
  5
1A8
330
1A0
100
AcDbEntity
  8
LAYER_1
  6
Continuous
 62
     7
100
AcDbLine
 10
733.7061158170508
 20
310.501868377073
 30
0.0
 11
713.236534638904
 21
298.683750173671
 31
0.0
  0
TEXT
  5
1A9
330
1A0
100
AcDbEntity
  8
LAYER_1
 62
     7
100
AcDbText
 10
713.7660187137425
 20
302.4535495619479
 30
0.0
 40
5.4
  1
φ12
 50
30.0
 41
1.033333333332999
  7
ＭＳ_ゴシック
 72
     2
 11
726.325409259911
 21
309.704717074636
 31
0.0
100
AcDbText
  0
ENDBLK
  5
1AA
330
1A0
100
AcDbEntity
  8
0
100
AcDbBlockEnd
  0
BLOCK
  5
1AC
330
1AB
100
AcDbEntity
  8
0
 62
     7
100
AcDbBlockBegin
  2
*D34
 70
     1
 10
0.0
 20
0.0
 30
0.0
  3
*D34
  1

  0
LINE
  5
1AD
330
1AB
100
AcDbEntity
  8
LAYER_1
  6
Continuous
 62
     7
100
AcDbLine
 10
648.9022682397579
 20
298.0018683770729
 30
0.0
 11
648.9022682397579
 21
263.001868377073
 31
0.0
  0
LINE
  5
1AE
330
1AB
100
AcDbEntity
  8
LAYER_1
  6
Continuous
 62
     7
100
AcDbLine
 10
688.9022682397579
 20
298.0018683770729
 30
0.0
 11
688.9022682397579
 21
263.001868377073
 31
0.0
  0
INSERT
  5
1AF
330
1AB
100
AcDbEntity
  8
LAYER_1
  6
Continuous
 62
     7
100
AcDbBlockReference
  2
_OPEN
 10
648.9022682397579
 20
266.0018683770729
 30
0.0
 41
6.0
 42
6.0
 50
180.0
  0
INSERT
  5
1B0
330
1AB
100
AcDbEntity
  8
LAYER_1
  6
Continuous
 62
     7
100
AcDbBlockReference
  2
_OPEN
 10
688.9022682397579
 20
266.0018683770729
 30
0.0
 41
6.0
 42
6.0
  0
INSERT
  5
1B1
330
1AB
100
AcDbEntity
  8
LAYER_1
  6
Continuous
 62
     7
100
AcDbBlockReference
  2
_OPEN
 10
648.9022682397579
 20
266.0018683770729
 30
0.0
 41
6.0
 42
6.0
 50
180.0
  0
INSERT
  5
1B2
330
1AB
100
AcDbEntity
  8
LAYER_1
  6
Continuous
 62
     7
100
AcDbBlockReference
  2
_OPEN
 10
688.9022682397579
 20
266.0018683770729
 30
0.0
 41
6.0
 42
6.0
  0
LINE
  5
1B3
330
1AB
100
AcDbEntity
  8
LAYER_1
  6
Continuous
 62
     7
100
AcDbLine
 10
648.9022682397579
 20
266.0018683770729
 30
0.0
 11
688.9022682397579
 21
266.0018683770729
 31
0.0
  0
TEXT
  5
1B4
330
1AB
100
AcDbEntity
  8
LAYER_1
 62
     7
100
AcDbText
 10
665.276684483414
 20
269.001868377073
 30
0.0
 40
5.4
  1
40
 41
1.033333333332999
  7
ＭＳ_ゴシック
 72
     1
 11
668.9022682397579
 21
269.001868377073
 31
0.0
100
AcDbText
  0
ENDBLK
  5
1B5
330
1AB
100
AcDbEntity
  8
0
100
AcDbBlockEnd
  0
BLOCK
  5
1B7
330
1B6
100
AcDbEntity
  8
0
 62
     7
100
AcDbBlockBegin
  2
*D35
 70
     1
 10
0.0
 20
0.0
 30
0.0
  3
*D35
  1

  0
LINE
  5
1B8
330
1B6
100
AcDbEntity
  8
LAYER_1
  6
Continuous
 62
     7
100
AcDbLine
 10
583.9022682397589
 20
162.701868377073
 30
0.0
 11
583.9022682397589
 21
193.0018683770729
 31
0.0
  0
LINE
  5
1B9
330
1B6
100
AcDbEntity
  8
LAYER_1
  6
Continuous
 62
     7
100
AcDbLine
 10
648.9022682397569
 20
162.701868377073
 30
0.0
 11
648.9022682397569
 21
193.0018683770729
 31
0.0
  0
INSERT
  5
1BA
330
1B6
100
AcDbEntity
  8
LAYER_1
  6
Continuous
 62
     7
100
AcDbBlockReference
  2
_OPEN
 10
583.9022682397589
 20
191.0018683770729
 30
0.0
 41
6.0
 42
6.0
 50
180.0
  0
INSERT
  5
1BB
330
1B6
100
AcDbEntity
  8
LAYER_1
  6
Continuous
 62
     7
100
AcDbBlockReference
  2
_OPEN
 10
648.9022682397569
 20
191.0018683770729
 30
0.0
 41
6.0
 42
6.0
  0
INSERT
  5
1BC
330
1B6
100
AcDbEntity
  8
LAYER_1
  6
Continuous
 62
     7
100
AcDbBlockReference
  2
_OPEN
 10
583.9022682397589
 20
191.0018683770729
 30
0.0
 41
6.0
 42
6.0
 50
180.0
  0
INSERT
  5
1BD
330
1B6
100
AcDbEntity
  8
LAYER_1
  6
Continuous
 62
     7
100
AcDbBlockReference
  2
_OPEN
 10
648.9022682397569
 20
191.0018683770729
 30
0.0
 41
6.0
 42
6.0
  0
LINE
  5
1BE
330
1B6
100
AcDbEntity
  8
LAYER_1
  6
Continuous
 62
     7
100
AcDbLine
 10
583.9022682397589
 20
191.0018683770729
 30
0.0
 11
648.9022682397569
 21
191.0018683770729
 31
0.0
  0
TEXT
  5
1BF
330
1B6
100
AcDbEntity
  8
LAYER_1
 62
     7
100
AcDbText
 10
612.7766844834139
 20
194.0018683770729
 30
0.0
 40
5.4
  1
65
 41
1.033333333332999
  7
ＭＳ_ゴシック
 72
     1
 11
616.4022682397579
 21
194.0018683770729
 31
0.0
100
AcDbText
  0
ENDBLK
  5
1C0
330
1B6
100
AcDbEntity
  8
0
100
AcDbBlockEnd
  0
BLOCK
  5
1C2
330
1C1
100
AcDbEntity
  8
0
 62
     7
100
AcDbBlockBegin
  2
*D36
 70
     1
 10
0.0
 20
0.0
 30
0.0
  3
*D36
  1

  0
LINE
  5
1C3
330
1C1
100
AcDbEntity
  8
LAYER_1
  6
Continuous
 62
     7
100
AcDbLine
 10
640.902268239759
 20
129.5018683770709
 30
0.0
 11
670.9022682397569
 21
129.5018683770709
 31
0.0
  0
LINE
  5
1C4
330
1C1
100
AcDbEntity
  8
LAYER_1
  6
Continuous
 62
     7
100
AcDbLine
 10
640.902268239759
 20
156.501868377073
 30
0.0
 11
670.9022682397569
 21
156.501868377073
 31
0.0
  0
INSERT
  5
1C5
330
1C1
100
AcDbEntity
  8
LAYER_1
  6
Continuous
 62
     7
100
AcDbBlockReference
  2
_OPEN
 10
668.902268239757
 20
129.5018683770709
 30
0.0
 41
6.0
 42
6.0
 50
270.0
  0
INSERT
  5
1C6
330
1C1
100
AcDbEntity
  8
LAYER_1
  6
Continuous
 62
     7
100
AcDbBlockReference
  2
_OPEN
 10
668.902268239757
 20
156.501868377073
 30
0.0
 41
6.0
 42
6.0
 50
90.0
  0
INSERT
  5
1C7
330
1C1
100
AcDbEntity
  8
LAYER_1
  6
Continuous
 62
     7
100
AcDbBlockReference
  2
_OPEN
 10
668.902268239757
 20
129.5018683770709
 30
0.0
 41
6.0
 42
6.0
 50
270.0
  0
INSERT
  5
1C8
330
1C1
100
AcDbEntity
  8
LAYER_1
  6
Continuous
 62
     7
100
AcDbBlockReference
  2
_OPEN
 10
668.902268239757
 20
156.501868377073
 30
0.0
 41
6.0
 42
6.0
 50
90.0
  0
LINE
  5
1C9
330
1C1
100
AcDbEntity
  8
LAYER_1
  6
Continuous
 62
     7
100
AcDbLine
 10
668.902268239757
 20
129.5018683770709
 30
0.0
 11
668.902268239757
 21
156.501868377073
 31
0.0
  0
TEXT
  5
1CA
330
1C1
100
AcDbEntity
  8
LAYER_1
 62
     7
100
AcDbText
 10
665.9022682397569
 20
139.3762846207279
 30
0.0
 40
5.4
  1
27
 50
90.0
 41
1.033333333332999
  7
ＭＳ_ゴシック
 72
     1
 11
665.9022682397569
 21
143.0018683770719
 31
0.0
100
AcDbText
  0
ENDBLK
  5
1CB
330
1C1
100
AcDbEntity
  8
0
100
AcDbBlockEnd
  0
BLOCK
  5
1CD
330
1CC
100
AcDbEntity
  8
0
 62
     7
100
AcDbBlockBegin
  2
*D37
 70
     1
 10
0.0
 20
0.0
 30
0.0
  3
*D37
  1

  0
LINE
  5
1CE
330
1CC
100
AcDbEntity
  8
LAYER_1
  6
Continuous
 62
     7
100
AcDbLine
 10
650.602268239759
 20
125.001868377071
 30
0.0
 11
685.9022682397569
 21
125.001868377071
 31
0.0
  0
LINE
  5
1CF
330
1CC
100
AcDbEntity
  8
LAYER_1
  6
Continuous
 62
     7
100
AcDbLine
 10
650.602268239759
 20
161.001868377073
 30
0.0
 11
685.9022682397569
 21
161.001868377073
 31
0.0
  0
INSERT
  5
1D0
330
1CC
100
AcDbEntity
  8
LAYER_1
  6
Continuous
 62
     7
100
AcDbBlockReference
  2
_OPEN
 10
683.9022682397569
 20
125.001868377071
 30
0.0
 41
6.0
 42
6.0
 50
270.0
  0
INSERT
  5
1D1
330
1CC
100
AcDbEntity
  8
LAYER_1
  6
Continuous
 62
     7
100
AcDbBlockReference
  2
_OPEN
 10
683.9022682397569
 20
161.001868377073
 30
0.0
 41
6.0
 42
6.0
 50
90.0
  0
INSERT
  5
1D2
330
1CC
100
AcDbEntity
  8
LAYER_1
  6
Continuous
 62
     7
100
AcDbBlockReference
  2
_OPEN
 10
683.9022682397569
 20
125.001868377071
 30
0.0
 41
6.0
 42
6.0
 50
270.0
  0
INSERT
  5
1D3
330
1CC
100
AcDbEntity
  8
LAYER_1
  6
Continuous
 62
     7
100
AcDbBlockReference
  2
_OPEN
 10
683.9022682397569
 20
161.001868377073
 30
0.0
 41
6.0
 42
6.0
 50
90.0
  0
LINE
  5
1D4
330
1CC
100
AcDbEntity
  8
LAYER_1
  6
Continuous
 62
     7
100
AcDbLine
 10
683.9022682397569
 20
125.001868377071
 30
0.0
 11
683.9022682397569
 21
161.001868377073
 31
0.0
  0
TEXT
  5
1D5
330
1CC
100
AcDbEntity
  8
LAYER_1
 62
     7
100
AcDbText
 10
680.9022682397569
 20
139.3762846207279
 30
0.0
 40
5.4
  1
36
 50
90.0
 41
1.033333333332999
  7
ＭＳ_ゴシック
 72
     1
 11
680.9022682397569
 21
143.0018683770719
 31
0.0
100
AcDbText
  0
ENDBLK
  5
1D6
330
1CC
100
AcDbEntity
  8
0
100
AcDbBlockEnd
  0
BLOCK
  5
1D8
330
1D7
100
AcDbEntity
  8
0
 62
     7
100
AcDbBlockBegin
  2
*D38
 70
     1
 10
0.0
 20
0.0
 30
0.0
  3
*D38
  1

  0
LINE
  5
1D9
330
1D7
100
AcDbEntity
  8
LAYER_1
  6
Continuous
 62
     7
100
AcDbLine
 10
583.9022682397589
 20
162.701868377073
 30
0.0
 11
583.9022682397589
 21
178.0018683770729
 31
0.0
  0
LINE
  5
1DA
330
1D7
100
AcDbEntity
  8
LAYER_1
  6
Continuous
 62
     7
100
AcDbLine
 10
598.902268239759
 20
163.501868377073
 30
0.0
 11
598.902268239759
 21
178.0018683770729
 31
0.0
  0
INSERT
  5
1DB
330
1D7
100
AcDbEntity
  8
LAYER_1
  6
Continuous
 62
     7
100
AcDbBlockReference
  2
_OPEN
 10
583.9022682397589
 20
176.0018683770729
 30
0.0
 41
6.0
 42
6.0
 50
180.0
  0
INSERT
  5
1DC
330
1D7
100
AcDbEntity
  8
LAYER_1
  6
Continuous
 62
     7
100
AcDbBlockReference
  2
_OPEN
 10
598.902268239759
 20
176.0018683770729
 30
0.0
 41
6.0
 42
6.0
  0
INSERT
  5
1DD
330
1D7
100
AcDbEntity
  8
LAYER_1
  6
Continuous
 62
     7
100
AcDbBlockReference
  2
_OPEN
 10
583.9022682397589
 20
176.0018683770729
 30
0.0
 41
6.0
 42
6.0
 50
180.0
  0
INSERT
  5
1DE
330
1D7
100
AcDbEntity
  8
LAYER_1
  6
Continuous
 62
     7
100
AcDbBlockReference
  2
_OPEN
 10
598.902268239759
 20
176.0018683770729
 30
0.0
 41
6.0
 42
6.0
  0
LINE
  5
1DF
330
1D7
100
AcDbEntity
  8
LAYER_1
  6
Continuous
 62
     7
100
AcDbLine
 10
583.9022682397589
 20
176.0018683770729
 30
0.0
 11
598.902268239759
 21
176.0018683770729
 31
0.0
  0
TEXT
  5
1E0
330
1D7
100
AcDbEntity
  8
LAYER_1
 62
     7
100
AcDbText
 10
587.0270823035939
 20
179.0018683770729
 30
0.0
 40
5.4
  1
15
 41
1.033333333332999
  7
ＭＳ_ゴシック
 72
     1
 11
590.6526660599379
 21
179.0018683770729
 31
0.0
100
AcDbText
  0
ENDBLK
  5
1E1
330
1D7
100
AcDbEntity
  8
0
100
AcDbBlockEnd
  0
BLOCK
  5
1E3
330
1E2
100
AcDbEntity
  8
0
 62
     7
100
AcDbBlockBegin
  2
*D39
 70
     1
 10
0.0
 20
0.0
 30
0.0
  3
*D39
  1

  0
LINE
  5
1E4
330
1E2
100
AcDbEntity
  8
LAYER_1
  6
Continuous
 62
     7
100
AcDbLine
 10
633.9022682397589
 20
163.001868377073
 30
0.0
 11
633.9022682397589
 21
178.0018683770729
 31
0.0
  0
INSERT
  5
1E5
330
1E2
100
AcDbEntity
  8
LAYER_1
  6
Continuous
 62
     7
100
AcDbBlockReference
  2
_OPEN
 10
598.902268239759
 20
176.0018683770729
 30
0.0
 41
6.0
 42
6.0
 50
180.0
  0
INSERT
  5
1E6
330
1E2
100
AcDbEntity
  8
LAYER_1
  6
Continuous
 62
     7
100
AcDbBlockReference
  2
_OPEN
 10
633.9022682397589
 20
176.0018683770729
 30
0.0
 41
6.0
 42
6.0
 50
360.0
  0
INSERT
  5
1E7
330
1E2
100
AcDbEntity
  8
LAYER_1
  6
Continuous
 62
     7
100
AcDbBlockReference
  2
_OPEN
 10
598.902268239759
 20
176.0018683770729
 30
0.0
 41
6.0
 42
6.0
 50
180.0
  0
INSERT
  5
1E8
330
1E2
100
AcDbEntity
  8
LAYER_1
  6
Continuous
 62
     7
100
AcDbBlockReference
  2
_OPEN
 10
633.9022682397589
 20
176.0018683770729
 30
0.0
 41
6.0
 42
6.0
 50
360.0
  0
LINE
  5
1E9
330
1E2
100
AcDbEntity
  8
LAYER_1
  6
Continuous
 62
     7
100
AcDbLine
 10
598.902268239759
 20
176.0018683770729
 30
0.0
 11
633.9022682397589
 21
176.0018683770729
 31
0.0
  0
TEXT
  5
1EA
330
1E2
100
AcDbEntity
  8
LAYER_1
 62
     7
100
AcDbText
 10
612.776684483415
 20
179.0018683770729
 30
0.0
 40
5.4
  1
35
 41
1.033333333332999
  7
ＭＳ_ゴシック
 72
     1
 11
616.402268239759
 21
179.0018683770729
 31
0.0
100
AcDbText
  0
ENDBLK
  5
1EB
330
1E2
100
AcDbEntity
  8
0
100
AcDbBlockEnd
  0
BLOCK
  5
1ED
330
1EC
100
AcDbEntity
  8
0
 62
     7
100
AcDbBlockBegin
  2
*D40
 70
     1
 10
0.0
 20
0.0
 30
0.0
  3
*D40
  1

  0
LINE
  5
1EE
330
1EC
100
AcDbEntity
  8
LAYER_1
  6
Continuous
 62
     7
100
AcDbLine
 10
718.9022682397579
 20
162.701868377073
 30
0.0
 11
718.9022682397579
 21
178.0018683770729
 31
0.0
  0
LINE
  5
1EF
330
1EC
100
AcDbEntity
  8
LAYER_1
  6
Continuous
 62
     7
100
AcDbLine
 10
758.902268239758
 20
162.701868377073
 30
0.0
 11
758.902268239758
 21
178.0018683770729
 31
0.0
  0
INSERT
  5
1F0
330
1EC
100
AcDbEntity
  8
LAYER_1
  6
Continuous
 62
     7
100
AcDbBlockReference
  2
_OPEN
 10
718.9022682397579
 20
176.0018683770729
 30
0.0
 41
6.0
 42
6.0
 50
180.0
  0
INSERT
  5
1F1
330
1EC
100
AcDbEntity
  8
LAYER_1
  6
Continuous
 62
     7
100
AcDbBlockReference
  2
_OPEN
 10
758.902268239758
 20
176.0018683770729
 30
0.0
 41
6.0
 42
6.0
  0
INSERT
  5
1F2
330
1EC
100
AcDbEntity
  8
LAYER_1
  6
Continuous
 62
     7
100
AcDbBlockReference
  2
_OPEN
 10
718.9022682397579
 20
176.0018683770729
 30
0.0
 41
6.0
 42
6.0
 50
180.0
  0
INSERT
  5
1F3
330
1EC
100
AcDbEntity
  8
LAYER_1
  6
Continuous
 62
     7
100
AcDbBlockReference
  2
_OPEN
 10
758.902268239758
 20
176.0018683770729
 30
0.0
 41
6.0
 42
6.0
  0
LINE
  5
1F4
330
1EC
100
AcDbEntity
  8
LAYER_1
  6
Continuous
 62
     7
100
AcDbLine
 10
718.9022682397579
 20
176.0018683770729
 30
0.0
 11
758.902268239758
 21
176.0018683770729
 31
0.0
  0
TEXT
  5
1F5
330
1EC
100
AcDbEntity
  8
LAYER_1
 62
     7
100
AcDbText
 10
731.6511007270699
 20
179.0018683770729
 30
0.0
 40
5.4
  1
(40)
 41
1.033333333332999
  7
ＭＳ_ゴシック
 72
     1
 11
738.9022682397579
 21
179.0018683770729
 31
0.0
100
AcDbText
  0
ENDBLK
  5
1F6
330
1EC
100
AcDbEntity
  8
0
100
AcDbBlockEnd
  0
BLOCK
  5
1F8
330
1F7
100
AcDbEntity
  8
0
 62
     7
100
AcDbBlockBegin
  2
*D41
 70
     1
 10
0.0
 20
0.0
 30
0.0
  3
*D41
  1

  0
LINE
  5
1F9
330
1F7
100
AcDbEntity
  8
LAYER_1
  6
Continuous
 62
     7
100
AcDbLine
 10
735.4022682397579
 20
127.5018683770719
 30
0.0
 11
735.4022682397579
 21
108.0018683770709
 31
0.0
  0
LINE
  5
1FA
330
1F7
100
AcDbEntity
  8
LAYER_1
  6
Continuous
 62
     7
100
AcDbLine
 10
758.902268239758
 20
123.3018683770719
 30
0.0
 11
758.902268239758
 21
108.0018683770709
 31
0.0
  0
INSERT
  5
1FB
330
1F7
100
AcDbEntity
  8
LAYER_1
  6
Continuous
 62
     7
100
AcDbBlockReference
  2
_OPEN
 10
735.4022682397579
 20
110.0018683770709
 30
0.0
 41
6.0
 42
6.0
 50
180.0
  0
INSERT
  5
1FC
330
1F7
100
AcDbEntity
  8
LAYER_1
  6
Continuous
 62
     7
100
AcDbBlockReference
  2
_OPEN
 10
758.902268239758
 20
110.0018683770709
 30
0.0
 41
6.0
 42
6.0
  0
INSERT
  5
1FD
330
1F7
100
AcDbEntity
  8
LAYER_1
  6
Continuous
 62
     7
100
AcDbBlockReference
  2
_OPEN
 10
735.4022682397579
 20
110.0018683770709
 30
0.0
 41
6.0
 42
6.0
 50
180.0
  0
INSERT
  5
1FE
330
1F7
100
AcDbEntity
  8
LAYER_1
  6
Continuous
 62
     7
100
AcDbBlockReference
  2
_OPEN
 10
758.902268239758
 20
110.0018683770709
 30
0.0
 41
6.0
 42
6.0
  0
LINE
  5
1FF
330
1F7
100
AcDbEntity
  8
LAYER_1
  6
Continuous
 62
     7
100
AcDbLine
 10
735.4022682397579
 20
110.0018683770709
 30
0.0
 11
758.902268239758
 21
110.0018683770709
 31
0.0
  0
TEXT
  5
200
330
1F7
100
AcDbEntity
  8
LAYER_1
 62
     7
100
AcDbText
 10
740.473848744013
 20
113.001868377071
 30
0.0
 40
5.4
  1
23.5
 41
1.033333333332999
  7
ＭＳ_ゴシック
 72
     1
 11
747.725016256701
 21
113.001868377071
 31
0.0
100
AcDbText
  0
ENDBLK
  5
201
330
1F7
100
AcDbEntity
  8
0
100
AcDbBlockEnd
  0
BLOCK
  5
203
330
202
100
AcDbEntity
  8
0
 62
     7
100
AcDbBlockBegin
  2
*D42
 70
     1
 10
0.0
 20
0.0
 30
0.0
  3
*D42
  1

  0
LINE
  5
204
330
202
100
AcDbEntity
  8
LAYER_1
  6
Continuous
 62
     7
100
AcDbLine
 10
746.9933781552259
 20
146.107696918302
 30
0.0
 11
723.8111583242889
 21
139.896039835842
 31
0.0
  0
INSERT
  5
205
330
202
100
AcDbEntity
  8
LAYER_1
  6
Continuous
 62
     7
100
AcDbBlockReference
  2
_OPEN
 10
723.8111583242889
 20
139.896039835842
 30
0.0
 41
6.0
 42
6.0
 50
15.0
  0
INSERT
  5
206
330
202
100
AcDbEntity
  8
LAYER_1
  6
Continuous
 62
     7
100
AcDbBlockReference
  2
_NONE
 10
699.117076141105
 20
133.27928045703
 30
0.0
 41
6.0
 42
6.0
 50
195.0
  0
LINE
  5
207
330
202
100
AcDbEntity
  8
LAYER_1
  6
Continuous
 62
     7
100
AcDbLine
 10
723.8111583242889
 20
139.896039835842
 30
0.0
 11
699.117076141105
 21
133.27928045703
 31
0.0
  0
INSERT
  5
208
330
202
100
AcDbEntity
  8
LAYER_1
  6
Continuous
 62
     7
100
AcDbBlockReference
  2
_OPEN
 10
746.9933781552259
 20
146.107696918302
 30
0.0
 41
6.0
 42
6.0
 50
195.0
  0
INSERT
  5
209
330
202
100
AcDbEntity
  8
LAYER_1
  6
Continuous
 62
     7
100
AcDbBlockReference
  2
_NONE
 10
756.054760116769
 20
148.5356868972069
 30
0.0
 41
6.0
 42
6.0
 50
15.0
  0
LINE
  5
20A
330
202
100
AcDbEntity
  8
LAYER_1
  6
Continuous
 62
     7
100
AcDbLine
 10
746.9933781552259
 20
146.107696918302
 30
0.0
 11
756.054760116769
 21
148.5356868972069
 31
0.0
  0
TEXT
  5
20B
330
202
100
AcDbEntity
  8
LAYER_1
 62
     7
100
AcDbText
 10
703.7873634824158
 20
137.636508719785
 30
0.0
 40
5.4
  1
φ24
 50
15.0
 41
1.033333333332999
  7
ＭＳ_ゴシック
100
AcDbText
  0
ENDBLK
  5
20C
330
202
100
AcDbEntity
  8
0
100
AcDbBlockEnd
  0
BLOCK
  5
20E
330
20D
100
AcDbEntity
  8
0
 62
     7
100
AcDbBlockBegin
  2
*D43
 70
     1
 10
0.0
 20
0.0
 30
0.0
  3
*D43
  1

  0
LINE
  5
20F
330
20D
100
AcDbEntity
  8
LAYER_1
  6
Continuous
 62
     7
100
AcDbLine
 10
808.9022682397569
 20
162.001868377073
 30
0.0
 11
808.9022682397569
 21
178.0018683770729
 31
0.0
  0
LINE
  5
210
330
20D
100
AcDbEntity
  8
LAYER_1
  6
Continuous
 62
     7
100
AcDbLine
 10
843.9022682397569
 20
162.001868377073
 30
0.0
 11
843.9022682397569
 21
178.0018683770729
 31
0.0
  0
INSERT
  5
211
330
20D
100
AcDbEntity
  8
LAYER_1
  6
Continuous
 62
     7
100
AcDbBlockReference
  2
_OPEN
 10
808.9022682397569
 20
176.0018683770729
 30
0.0
 41
6.0
 42
6.0
 50
180.0
  0
INSERT
  5
212
330
20D
100
AcDbEntity
  8
LAYER_1
  6
Continuous
 62
     7
100
AcDbBlockReference
  2
_OPEN
 10
843.9022682397569
 20
176.0018683770729
 30
0.0
 41
6.0
 42
6.0
  0
INSERT
  5
213
330
20D
100
AcDbEntity
  8
LAYER_1
  6
Continuous
 62
     7
100
AcDbBlockReference
  2
_OPEN
 10
808.9022682397569
 20
176.0018683770729
 30
0.0
 41
6.0
 42
6.0
 50
180.0
  0
INSERT
  5
214
330
20D
100
AcDbEntity
  8
LAYER_1
  6
Continuous
 62
     7
100
AcDbBlockReference
  2
_OPEN
 10
843.9022682397569
 20
176.0018683770729
 30
0.0
 41
6.0
 42
6.0
  0
LINE
  5
215
330
20D
100
AcDbEntity
  8
LAYER_1
  6
Continuous
 62
     7
100
AcDbLine
 10
808.9022682397569
 20
176.0018683770729
 30
0.0
 11
843.9022682397569
 21
176.0018683770729
 31
0.0
  0
TEXT
  5
216
330
20D
100
AcDbEntity
  8
LAYER_1
 62
     7
100
AcDbText
 10
822.776684483413
 20
179.0018683770729
 30
0.0
 40
5.4
  1
35
 41
1.033333333332999
  7
ＭＳ_ゴシック
 72
     1
 11
826.402268239757
 21
179.0018683770729
 31
0.0
100
AcDbText
  0
ENDBLK
  5
217
330
20D
100
AcDbEntity
  8
0
100
AcDbBlockEnd
  0
BLOCK
  5
219
330
218
100
AcDbEntity
  8
0
 62
     7
100
AcDbBlockBegin
  2
*D44
 70
     1
 10
0.0
 20
0.0
 30
0.0
  3
*D44
  1

  0
LINE
  5
21A
330
218
100
AcDbEntity
  8
LAYER_1
  6
Continuous
 62
     7
100
AcDbLine
 10
858.9022682397569
 20
162.701868377073
 30
0.0
 11
858.9022682397569
 21
178.0018683770729
 31
0.0
  0
INSERT
  5
21B
330
218
100
AcDbEntity
  8
LAYER_1
  6
Continuous
 62
     7
100
AcDbBlockReference
  2
_OPEN
 10
843.9022682397569
 20
176.0018683770729
 30
0.0
 41
6.0
 42
6.0
 50
180.0
  0
INSERT
  5
21C
330
218
100
AcDbEntity
  8
LAYER_1
  6
Continuous
 62
     7
100
AcDbBlockReference
  2
_OPEN
 10
858.9022682397569
 20
176.0018683770729
 30
0.0
 41
6.0
 42
6.0
  0
INSERT
  5
21D
330
218
100
AcDbEntity
  8
LAYER_1
  6
Continuous
 62
     7
100
AcDbBlockReference
  2
_OPEN
 10
843.9022682397569
 20
176.0018683770729
 30
0.0
 41
6.0
 42
6.0
 50
180.0
  0
INSERT
  5
21E
330
218
100
AcDbEntity
  8
LAYER_1
  6
Continuous
 62
     7
100
AcDbBlockReference
  2
_OPEN
 10
858.9022682397569
 20
176.0018683770729
 30
0.0
 41
6.0
 42
6.0
  0
LINE
  5
21F
330
218
100
AcDbEntity
  8
LAYER_1
  6
Continuous
 62
     7
100
AcDbLine
 10
843.9022682397569
 20
176.0018683770729
 30
0.0
 11
858.9022682397569
 21
176.0018683770729
 31
0.0
  0
TEXT
  5
220
330
218
100
AcDbEntity
  8
LAYER_1
 62
     7
100
AcDbText
 10
847.0731001011969
 20
179.0018683770729
 30
0.0
 40
5.4
  1
15
 41
1.033333333332999
  7
ＭＳ_ゴシック
 72
     1
 11
850.6986838575411
 21
179.0018683770729
 31
0.0
100
AcDbText
  0
ENDBLK
  5
221
330
218
100
AcDbEntity
  8
0
100
AcDbBlockEnd
  0
BLOCK
  5
223
330
222
100
AcDbEntity
  8
0
 62
     7
100
AcDbBlockBegin
  2
*D45
 70
     1
 10
0.0
 20
0.0
 30
0.0
  3
*D45
  1

  0
LINE
  5
224
330
222
100
AcDbEntity
  8
LAYER_1
  6
Continuous
 62
     7
100
AcDbLine
 10
165.323635138872
 20
146.4518683770729
 30
0.0
 11
165.323635138872
 21
177.7018683770729
 31
0.0
  0
LINE
  5
225
330
222
100
AcDbEntity
  8
LAYER_1
  6
Continuous
 62
     7
100
AcDbLine
 10
265.3236351388709
 20
162.701868377073
 30
0.0
 11
265.3236351388709
 21
177.7018683770729
 31
0.0
  0
INSERT
  5
226
330
222
100
AcDbEntity
  8
LAYER_1
  6
Continuous
 62
     7
100
AcDbBlockReference
  2
_OPEN
 10
165.323635138872
 20
175.7018683770729
 30
0.0
 41
6.0
 42
6.0
 50
180.0
  0
INSERT
  5
227
330
222
100
AcDbEntity
  8
LAYER_1
  6
Continuous
 62
     7
100
AcDbBlockReference
  2
_OPEN
 10
265.3236351388709
 20
175.7018683770729
 30
0.0
 41
6.0
 42
6.0
  0
INSERT
  5
228
330
222
100
AcDbEntity
  8
LAYER_1
  6
Continuous
 62
     7
100
AcDbBlockReference
  2
_OPEN
 10
165.323635138872
 20
175.7018683770729
 30
0.0
 41
6.0
 42
6.0
 50
180.0
  0
INSERT
  5
229
330
222
100
AcDbEntity
  8
LAYER_1
  6
Continuous
 62
     7
100
AcDbBlockReference
  2
_OPEN
 10
265.3236351388709
 20
175.7018683770729
 30
0.0
 41
6.0
 42
6.0
  0
LINE
  5
22A
330
222
100
AcDbEntity
  8
LAYER_1
  6
Continuous
 62
     7
100
AcDbLine
 10
165.323635138872
 20
175.7018683770729
 30
0.0
 11
265.3236351388709
 21
175.7018683770729
 31
0.0
  0
TEXT
  5
22B
330
222
100
AcDbEntity
  8
LAYER_1
 62
     7
100
AcDbText
 10
206.2596757480109
 20
178.7018683770729
 30
0.0
 40
5.4
  1
(100)
 41
1.033333333332999
  7
ＭＳ_ゴシック
 72
     1
 11
215.3236351388709
 21
178.7018683770729
 31
0.0
100
AcDbText
  0
ENDBLK
  5
22C
330
222
100
AcDbEntity
  8
0
100
AcDbBlockEnd
  0
BLOCK
  5
22E
330
22D
100
AcDbEntity
  8
0
 62
     7
100
AcDbBlockBegin
  2
*D46
 70
     1
 10
0.0
 20
0.0
 30
0.0
  3
*D46
  1

  0
LINE
  5
22F
330
22D
100
AcDbEntity
  8
LAYER_1
  6
Continuous
 62
     7
100
AcDbLine
 10
295.323635138872
 20
161.2018683770729
 30
0.0
 11
295.323635138872
 21
177.7018683770729
 31
0.0
  0
INSERT
  5
230
330
22D
100
AcDbEntity
  8
LAYER_1
  6
Continuous
 62
     7
100
AcDbBlockReference
  2
_OPEN
 10
265.3236351388709
 20
175.7018683770729
 30
0.0
 41
6.0
 42
6.0
 50
180.0
  0
INSERT
  5
231
330
22D
100
AcDbEntity
  8
LAYER_1
  6
Continuous
 62
     7
100
AcDbBlockReference
  2
_OPEN
 10
295.323635138872
 20
175.7018683770729
 30
0.0
 41
6.0
 42
6.0
  0
INSERT
  5
232
330
22D
100
AcDbEntity
  8
LAYER_1
  6
Continuous
 62
     7
100
AcDbBlockReference
  2
_OPEN
 10
265.3236351388709
 20
175.7018683770729
 30
0.0
 41
6.0
 42
6.0
 50
180.0
  0
INSERT
  5
233
330
22D
100
AcDbEntity
  8
LAYER_1
  6
Continuous
 62
     7
100
AcDbBlockReference
  2
_OPEN
 10
295.323635138872
 20
175.7018683770729
 30
0.0
 41
6.0
 42
6.0
  0
LINE
  5
234
330
22D
100
AcDbEntity
  8
LAYER_1
  6
Continuous
 62
     7
100
AcDbLine
 10
265.3236351388709
 20
175.7018683770729
 30
0.0
 11
295.323635138872
 21
175.7018683770729
 31
0.0
  0
TEXT
  5
235
330
22D
100
AcDbEntity
  8
LAYER_1
 62
     7
100
AcDbText
 10
273.0724676261829
 20
178.7018683770729
 30
0.0
 40
5.4
  1
(30)
 41
1.033333333332999
  7
ＭＳ_ゴシック
 72
     1
 11
280.323635138871
 21
178.7018683770729
 31
0.0
100
AcDbText
  0
ENDBLK
  5
236
330
22D
100
AcDbEntity
  8
0
100
AcDbBlockEnd
  0
BLOCK
  5
238
330
237
100
AcDbEntity
  8
0
 62
     7
100
AcDbBlockBegin
  2
*D47
 70
     1
 10
0.0
 20
0.0
 30
0.0
  3
*D47
  1

  0
LINE
  5
239
330
237
100
AcDbEntity
  8
LAYER_1
  6
Continuous
 62
     7
100
AcDbLine
 10
331.8236351388709
 20
162.701868377073
 30
0.0
 11
331.8236351388709
 21
177.7018683770729
 31
0.0
  0
LINE
  5
23A
330
237
100
AcDbEntity
  8
LAYER_1
  6
Continuous
 62
     7
100
AcDbLine
 10
354.8236351388709
 20
162.701868377073
 30
0.0
 11
354.8236351388709
 21
177.7018683770729
 31
0.0
  0
INSERT
  5
23B
330
237
100
AcDbEntity
  8
LAYER_1
  6
Continuous
 62
     7
100
AcDbBlockReference
  2
_OPEN
 10
331.8236351388709
 20
175.7018683770729
 30
0.0
 41
6.0
 42
6.0
 50
180.0
  0
INSERT
  5
23C
330
237
100
AcDbEntity
  8
LAYER_1
  6
Continuous
 62
     7
100
AcDbBlockReference
  2
_OPEN
 10
354.8236351388709
 20
175.7018683770729
 30
0.0
 41
6.0
 42
6.0
  0
INSERT
  5
23D
330
237
100
AcDbEntity
  8
LAYER_1
  6
Continuous
 62
     7
100
AcDbBlockReference
  2
_OPEN
 10
331.8236351388709
 20
175.7018683770729
 30
0.0
 41
6.0
 42
6.0
 50
180.0
  0
INSERT
  5
23E
330
237
100
AcDbEntity
  8
LAYER_1
  6
Continuous
 62
     7
100
AcDbBlockReference
  2
_OPEN
 10
354.8236351388709
 20
175.7018683770729
 30
0.0
 41
6.0
 42
6.0
  0
LINE
  5
23F
330
237
100
AcDbEntity
  8
LAYER_1
  6
Continuous
 62
     7
100
AcDbLine
 10
331.8236351388709
 20
175.7018683770729
 30
0.0
 11
354.8236351388709
 21
175.7018683770729
 31
0.0
  0
TEXT
  5
240
330
237
100
AcDbEntity
  8
LAYER_1
 62
     7
100
AcDbText
 10
336.0724676261829
 20
178.7018683770729
 30
0.0
 40
5.4
  1
(23)
 41
1.033333333332999
  7
ＭＳ_ゴシック
 72
     1
 11
343.323635138871
 21
178.7018683770729
 31
0.0
100
AcDbText
  0
ENDBLK
  5
241
330
237
100
AcDbEntity
  8
0
100
AcDbBlockEnd
  0
BLOCK
  5
243
330
242
100
AcDbEntity
  8
0
 62
     7
100
AcDbBlockBegin
  2
*D48
 70
     1
 10
0.0
 20
0.0
 30
0.0
  3
*D48
  1

  0
LINE
  5
244
330
242
100
AcDbEntity
  8
LAYER_1
  6
Continuous
 62
     7
100
AcDbLine
 10
356.8236351388709
 20
118.7018683770729
 30
0.0
 11
371.823635138871
 21
118.7018683770729
 31
0.0
  0
LINE
  5
245
330
242
100
AcDbEntity
  8
LAYER_1
  6
Continuous
 62
     7
100
AcDbLine
 10
356.8236351388709
 20
160.701868377073
 30
0.0
 11
371.823635138871
 21
160.701868377073
 31
0.0
  0
INSERT
  5
246
330
242
100
AcDbEntity
  8
LAYER_1
  6
Continuous
 62
     7
100
AcDbBlockReference
  2
_OPEN
 10
369.823635138871
 20
118.7018683770729
 30
0.0
 41
6.0
 42
6.0
 50
270.0
  0
INSERT
  5
247
330
242
100
AcDbEntity
  8
LAYER_1
  6
Continuous
 62
     7
100
AcDbBlockReference
  2
_OPEN
 10
369.823635138871
 20
160.701868377073
 30
0.0
 41
6.0
 42
6.0
 50
90.0
  0
INSERT
  5
248
330
242
100
AcDbEntity
  8
LAYER_1
  6
Continuous
 62
     7
100
AcDbBlockReference
  2
_OPEN
 10
369.823635138871
 20
118.7018683770729
 30
0.0
 41
6.0
 42
6.0
 50
270.0
  0
INSERT
  5
249
330
242
100
AcDbEntity
  8
LAYER_1
  6
Continuous
 62
     7
100
AcDbBlockReference
  2
_OPEN
 10
369.823635138871
 20
160.701868377073
 30
0.0
 41
6.0
 42
6.0
 50
90.0
  0
LINE
  5
24A
330
242
100
AcDbEntity
  8
LAYER_1
  6
Continuous
 62
     7
100
AcDbLine
 10
369.823635138871
 20
118.7018683770729
 30
0.0
 11
369.823635138871
 21
160.701868377073
 31
0.0
  0
TEXT
  5
24B
330
242
100
AcDbEntity
  8
LAYER_1
 62
     7
100
AcDbText
 10
366.8236351388709
 20
132.4507008643849
 30
0.0
 40
5.4
  1
(42)
 50
90.0
 41
1.033333333332999
  7
ＭＳ_ゴシック
 72
     1
 11
366.8236351388709
 21
139.7018683770729
 31
0.0
100
AcDbText
  0
ENDBLK
  5
24C
330
242
100
AcDbEntity
  8
0
100
AcDbBlockEnd
  0
BLOCK
  5
24E
330
24D
100
AcDbEntity
  8
0
 62
     7
100
AcDbBlockBegin
  2
*D49
 70
     1
 10
0.0
 20
0.0
 30
0.0
  3
*D49
  1

  0
LINE
  5
24F
330
24D
100
AcDbEntity
  8
LAYER_1
  6
Continuous
 62
     7
100
AcDbLine
 10
433.823635138871
 20
118.7018683770729
 30
0.0
 11
448.8236351388709
 21
118.7018683770729
 31
0.0
  0
LINE
  5
250
330
24D
100
AcDbEntity
  8
LAYER_1
  6
Continuous
 62
     7
100
AcDbLine
 10
433.823635138871
 20
160.701868377073
 30
0.0
 11
448.8236351388709
 21
160.701868377073
 31
0.0
  0
INSERT
  5
251
330
24D
100
AcDbEntity
  8
LAYER_1
  6
Continuous
 62
     7
100
AcDbBlockReference
  2
_OPEN
 10
446.823635138871
 20
118.7018683770729
 30
0.0
 41
6.0
 42
6.0
 50
270.0
  0
INSERT
  5
252
330
24D
100
AcDbEntity
  8
LAYER_1
  6
Continuous
 62
     7
100
AcDbBlockReference
  2
_OPEN
 10
446.823635138871
 20
160.701868377073
 30
0.0
 41
6.0
 42
6.0
 50
90.0
  0
INSERT
  5
253
330
24D
100
AcDbEntity
  8
LAYER_1
  6
Continuous
 62
     7
100
AcDbBlockReference
  2
_OPEN
 10
446.823635138871
 20
118.7018683770729
 30
0.0
 41
6.0
 42
6.0
 50
270.0
  0
INSERT
  5
254
330
24D
100
AcDbEntity
  8
LAYER_1
  6
Continuous
 62
     7
100
AcDbBlockReference
  2
_OPEN
 10
446.823635138871
 20
160.701868377073
 30
0.0
 41
6.0
 42
6.0
 50
90.0
  0
LINE
  5
255
330
24D
100
AcDbEntity
  8
LAYER_1
  6
Continuous
 62
     7
100
AcDbLine
 10
446.823635138871
 20
118.7018683770729
 30
0.0
 11
446.823635138871
 21
160.701868377073
 31
0.0
  0
TEXT
  5
256
330
24D
100
AcDbEntity
  8
LAYER_1
 62
     7
100
AcDbText
 10
443.8236351388709
 20
132.4507008643849
 30
0.0
 40
5.4
  1
(42)
 50
90.0
 41
1.033333333332999
  7
ＭＳ_ゴシック
 72
     1
 11
443.8236351388709
 21
139.7018683770729
 31
0.0
100
AcDbText
  0
ENDBLK
  5
257
330
24D
100
AcDbEntity
  8
0
100
AcDbBlockEnd
  0
BLOCK
  5
259
330
258
100
AcDbEntity
  8
0
 62
     7
100
AcDbBlockBegin
  2
*D50
 70
     1
 10
0.0
 20
0.0
 30
0.0
  3
*D50
  1

  0
LINE
  5
25A
330
258
100
AcDbEntity
  8
LAYER_1
  6
Continuous
 62
     7
100
AcDbLine
 10
510.8236351388709
 20
118.7018683770729
 30
0.0
 11
525.823635138871
 21
118.7018683770729
 31
0.0
  0
LINE
  5
25B
330
258
100
AcDbEntity
  8
LAYER_1
  6
Continuous
 62
     7
100
AcDbLine
 10
510.8236351388709
 20
160.701868377073
 30
0.0
 11
525.823635138871
 21
160.701868377073
 31
0.0
  0
INSERT
  5
25C
330
258
100
AcDbEntity
  8
LAYER_1
  6
Continuous
 62
     7
100
AcDbBlockReference
  2
_OPEN
 10
523.823635138871
 20
118.7018683770729
 30
0.0
 41
6.0
 42
6.0
 50
270.0
  0
INSERT
  5
25D
330
258
100
AcDbEntity
  8
LAYER_1
  6
Continuous
 62
     7
100
AcDbBlockReference
  2
_OPEN
 10
523.823635138871
 20
160.701868377073
 30
0.0
 41
6.0
 42
6.0
 50
90.0
  0
INSERT
  5
25E
330
258
100
AcDbEntity
  8
LAYER_1
  6
Continuous
 62
     7
100
AcDbBlockReference
  2
_OPEN
 10
523.823635138871
 20
118.7018683770729
 30
0.0
 41
6.0
 42
6.0
 50
270.0
  0
INSERT
  5
25F
330
258
100
AcDbEntity
  8
LAYER_1
  6
Continuous
 62
     7
100
AcDbBlockReference
  2
_OPEN
 10
523.823635138871
 20
160.701868377073
 30
0.0
 41
6.0
 42
6.0
 50
90.0
  0
LINE
  5
260
330
258
100
AcDbEntity
  8
LAYER_1
  6
Continuous
 62
     7
100
AcDbLine
 10
523.823635138871
 20
118.7018683770729
 30
0.0
 11
523.823635138871
 21
160.701868377073
 31
0.0
  0
TEXT
  5
261
330
258
100
AcDbEntity
  8
LAYER_1
 62
     7
100
AcDbText
 10
520.823635138871
 20
132.4507008643849
 30
0.0
 40
5.4
  1
(42)
 50
90.0
 41
1.033333333332999
  7
ＭＳ_ゴシック
 72
     1
 11
520.823635138871
 21
139.7018683770729
 31
0.0
100
AcDbText
  0
ENDBLK
  5
262
330
258
100
AcDbEntity
  8
0
100
AcDbBlockEnd
  0
BLOCK
  5
264
330
263
100
AcDbEntity
  8
0
 62
     7
100
AcDbBlockBegin
  2
*D51
 70
     1
 10
0.0
 20
0.0
 30
0.0
  3
*D51
  1

  0
LINE
  5
265
330
263
100
AcDbEntity
  8
LAYER_1
  6
Continuous
 62
     7
100
AcDbLine
 10
389.8236351388709
 20
162.701868377073
 30
0.0
 11
389.8236351388709
 21
177.7018683770729
 31
0.0
  0
LINE
  5
266
330
263
100
AcDbEntity
  8
LAYER_1
  6
Continuous
 62
     7
100
AcDbLine
 10
431.8236351388709
 20
162.701868377073
 30
0.0
 11
431.8236351388709
 21
177.7018683770729
 31
0.0
  0
INSERT
  5
267
330
263
100
AcDbEntity
  8
LAYER_1
  6
Continuous
 62
     7
100
AcDbBlockReference
  2
_OPEN
 10
389.8236351388709
 20
175.7018683770729
 30
0.0
 41
6.0
 42
6.0
 50
180.0
  0
INSERT
  5
268
330
263
100
AcDbEntity
  8
LAYER_1
  6
Continuous
 62
     7
100
AcDbBlockReference
  2
_OPEN
 10
431.8236351388709
 20
175.7018683770729
 30
0.0
 41
6.0
 42
6.0
  0
INSERT
  5
269
330
263
100
AcDbEntity
  8
LAYER_1
  6
Continuous
 62
     7
100
AcDbBlockReference
  2
_OPEN
 10
389.8236351388709
 20
175.7018683770729
 30
0.0
 41
6.0
 42
6.0
 50
180.0
  0
INSERT
  5
26A
330
263
100
AcDbEntity
  8
LAYER_1
  6
Continuous
 62
     7
100
AcDbBlockReference
  2
_OPEN
 10
431.8236351388709
 20
175.7018683770729
 30
0.0
 41
6.0
 42
6.0
  0
LINE
  5
26B
330
263
100
AcDbEntity
  8
LAYER_1
  6
Continuous
 62
     7
100
AcDbLine
 10
389.8236351388709
 20
175.7018683770729
 30
0.0
 11
431.8236351388709
 21
175.7018683770729
 31
0.0
  0
TEXT
  5
26C
330
263
100
AcDbEntity
  8
LAYER_1
 62
     7
100
AcDbText
 10
403.5724676261829
 20
178.7018683770729
 30
0.0
 40
5.4
  1
(42)
 41
1.033333333332999
  7
ＭＳ_ゴシック
 72
     1
 11
410.8236351388709
 21
178.7018683770729
 31
0.0
100
AcDbText
  0
ENDBLK
  5
26D
330
263
100
AcDbEntity
  8
0
100
AcDbBlockEnd
  0
BLOCK
  5
26F
330
26E
100
AcDbEntity
  8
0
 62
     7
100
AcDbBlockBegin
  2
*D52
 70
     1
 10
0.0
 20
0.0
 30
0.0
  3
*D52
  1

  0
LINE
  5
270
330
26E
100
AcDbEntity
  8
LAYER_1
  6
Continuous
 62
     7
100
AcDbLine
 10
466.823635138871
 20
162.701868377073
 30
0.0
 11
466.823635138871
 21
177.7018683770729
 31
0.0
  0
LINE
  5
271
330
26E
100
AcDbEntity
  8
LAYER_1
  6
Continuous
 62
     7
100
AcDbLine
 10
508.823635138871
 20
162.701868377073
 30
0.0
 11
508.823635138871
 21
177.7018683770729
 31
0.0
  0
INSERT
  5
272
330
26E
100
AcDbEntity
  8
LAYER_1
  6
Continuous
 62
     7
100
AcDbBlockReference
  2
_OPEN
 10
466.823635138871
 20
175.7018683770729
 30
0.0
 41
6.0
 42
6.0
 50
180.0
  0
INSERT
  5
273
330
26E
100
AcDbEntity
  8
LAYER_1
  6
Continuous
 62
     7
100
AcDbBlockReference
  2
_OPEN
 10
508.823635138871
 20
175.7018683770729
 30
0.0
 41
6.0
 42
6.0
  0
INSERT
  5
274
330
26E
100
AcDbEntity
  8
LAYER_1
  6
Continuous
 62
     7
100
AcDbBlockReference
  2
_OPEN
 10
466.823635138871
 20
175.7018683770729
 30
0.0
 41
6.0
 42
6.0
 50
180.0
  0
INSERT
  5
275
330
26E
100
AcDbEntity
  8
LAYER_1
  6
Continuous
 62
     7
100
AcDbBlockReference
  2
_OPEN
 10
508.823635138871
 20
175.7018683770729
 30
0.0
 41
6.0
 42
6.0
  0
LINE
  5
276
330
26E
100
AcDbEntity
  8
LAYER_1
  6
Continuous
 62
     7
100
AcDbLine
 10
466.823635138871
 20
175.7018683770729
 30
0.0
 11
508.823635138871
 21
175.7018683770729
 31
0.0
  0
TEXT
  5
277
330
26E
100
AcDbEntity
  8
LAYER_1
 62
     7
100
AcDbText
 10
480.572467626183
 20
178.7018683770729
 30
0.0
 40
5.4
  1
(42)
 41
1.033333333332999
  7
ＭＳ_ゴシック
 72
     1
 11
487.823635138871
 21
178.7018683770729
 31
0.0
100
AcDbText
  0
ENDBLK
  5
278
330
26E
100
AcDbEntity
  8
0
100
AcDbBlockEnd
  0
BLOCK
  5
27A
330
279
100
AcDbEntity
  8
0
 62
     7
100
AcDbBlockBegin
  2
*D53
 70
     1
 10
0.0
 20
0.0
 30
0.0
  3
*D53
  1

  0
LINE
  5
27B
330
279
100
AcDbEntity
  8
LAYER_1
  6
Continuous
 62
     7
100
AcDbLine
 10
163.10349201411
 20
132.351868377073
 30
0.0
 11
137.791074380165
 21
132.351868377073
 31
0.0
  0
LINE
  5
27C
330
279
100
AcDbEntity
  8
LAYER_1
  6
Continuous
 62
     7
100
AcDbLine
 10
163.10349201411
 20
147.051868377073
 30
0.0
 11
137.791074380165
 21
147.051868377073
 31
0.0
  0
LINE
  5
27D
330
279
100
AcDbEntity
  8
LAYER_1
  6
Continuous
 62
     7
100
AcDbLine
 10
139.791074380165
 20
132.351868377073
 30
0.0
 11
139.791074380165
 21
147.051868377073
 31
0.0
  0
INSERT
  5
27E
330
279
100
AcDbEntity
  8
LAYER_1
  6
Continuous
 62
     7
100
AcDbBlockReference
  2
_OPEN
 10
139.791074380165
 20
132.351868377073
 30
0.0
 41
6.0
 42
6.0
 50
90.0
  0
INSERT
  5
27F
330
279
100
AcDbEntity
  8
LAYER_1
  6
Continuous
 62
     7
100
AcDbBlockReference
  2
_NONE
 10
139.791074380165
 20
97.314812784211
 30
0.0
 41
6.0
 42
6.0
 50
270.0
  0
LINE
  5
280
330
279
100
AcDbEntity
  8
LAYER_1
  6
Continuous
 62
     7
100
AcDbLine
 10
139.791074380165
 20
132.351868377073
 30
0.0
 11
139.791074380165
 21
97.314812784211
 31
0.0
  0
INSERT
  5
281
330
279
100
AcDbEntity
  8
LAYER_1
  6
Continuous
 62
     7
100
AcDbBlockReference
  2
_OPEN
 10
139.791074380165
 20
147.051868377073
 30
0.0
 41
6.0
 42
6.0
 50
270.0
  0
INSERT
  5
282
330
279
100
AcDbEntity
  8
LAYER_1
  6
Continuous
 62
     7
100
AcDbBlockReference
  2
_NONE
 10
139.791074380165
 20
159.0518683770729
 30
0.0
 41
6.0
 42
6.0
 50
90.0
  0
LINE
  5
283
330
279
100
AcDbEntity
  8
LAYER_1
  6
Continuous
 62
     7
100
AcDbLine
 10
139.791074380165
 20
147.051868377073
 30
0.0
 11
139.791074380165
 21
159.0518683770729
 31
0.0
  0
TEXT
  5
284
330
279
100
AcDbEntity
  8
LAYER_1
 62
     7
100
AcDbText
 10
136.791074380165
 20
97.314812784211
 30
0.0
 40
5.4
  1
(φ14.7)
 50
90.0
 41
1.033333333332999
  7
ＭＳ_ゴシック
100
AcDbText
  0
ENDBLK
  5
285
330
279
100
AcDbEntity
  8
0
100
AcDbBlockEnd
  0
BLOCK
  5
287
330
286
100
AcDbEntity
  8
0
100
AcDbBlockBegin
  2
HATCHING__PATTERN_$40$
 70
     0
 10
0.0
 20
0.0
 30
0.0
  3
HATCHING__PATTERN_$40$
  1

  0
LINE
  5
288
330
286
100
AcDbEntity
  8
LAYER_1
  6
Continuous
 62
     7
100
AcDbLine
 10
474.64321728452
 20
129.482824277329
 30
0.0
 11
476.2549294501139
 21
129.482824277329
 31
0.0
  0
LINE
  5
289
330
286
100
AcDbEntity
  8
LAYER_1
  6
Continuous
 62
     7
100
AcDbLine
 10
476.2549294501139
 20
133.3296402314929
 30
0.0
 11
476.2549294501139
 21
130.2018683770729
 31
0.0
  0
LINE
  5
28A
330
286
100
AcDbEntity
  8
LAYER_1
  6
Continuous
 62
     7
100
AcDbLine
 10
476.2549294501139
 20
130.2018683770729
 30
0.0
 11
476.2549294501139
 21
127.074096522652
 31
0.0
  0
LINE
  5
28B
330
286
100
AcDbEntity
  8
LAYER_1
  6
Continuous
 62
     7
100
AcDbLine
 10
481.0174294501139
 20
129.482824277329
 30
0.0
 11
482.004052993222
 21
129.482824277329
 31
0.0
  0
LINE
  5
28C
330
286
100
AcDbEntity
  8
LAYER_1
  6
Continuous
 62
     7
100
AcDbLine
 10
481.0174294501139
 20
132.8106942065819
 30
0.0
 11
481.0174294501139
 21
130.2018683770729
 31
0.0
  0
LINE
  5
28D
330
286
100
AcDbEntity
  8
LAYER_1
  6
Continuous
 62
     7
100
AcDbLine
 10
481.0174294501139
 20
130.2018683770729
 30
0.0
 11
481.0174294501139
 21
127.593042547564
 31
0.0
  0
ENDBLK
  5
28E
330
286
100
AcDbEntity
  8
0
100
AcDbBlockEnd
  0
BLOCK
  5
290
330
28F
100
AcDbEntity
  8
0
100
AcDbBlockBegin
  2
HATCHING__PATTERN_$41$
 70
     0
 10
0.0
 20
0.0
 30
0.0
  3
HATCHING__PATTERN_$41$
  1

  0
LINE
  5
291
330
28F
100
AcDbEntity
  8
LAYER_1
  6
Continuous
 62
     7
100
AcDbLine
 10
474.6338004552299
 20
148.532824277329
 30
0.0
 11
476.2549294501139
 21
148.532824277329
 31
0.0
  0
LINE
  5
292
330
28F
100
AcDbEntity
  8
LAYER_1
  6
Continuous
 62
     7
100
AcDbLine
 10
476.2549294501139
 20
152.329640231493
 30
0.0
 11
476.2549294501139
 21
149.201868377073
 31
0.0
  0
LINE
  5
293
330
28F
100
AcDbEntity
  8
LAYER_1
  6
Continuous
 62
     7
100
AcDbLine
 10
476.2549294501139
 20
149.201868377073
 30
0.0
 11
476.2549294501139
 21
146.0740965226519
 31
0.0
  0
LINE
  5
294
330
28F
100
AcDbEntity
  8
LAYER_1
  6
Continuous
 62
     7
100
AcDbLine
 10
481.0174294501139
 20
148.532824277329
 30
0.0
 11
482.0134698225119
 21
148.532824277329
 31
0.0
  0
LINE
  5
295
330
28F
100
AcDbEntity
  8
LAYER_1
  6
Continuous
 62
     7
100
AcDbLine
 10
481.0174294501139
 20
151.8106942065819
 30
0.0
 11
481.0174294501139
 21
149.201868377073
 31
0.0
  0
LINE
  5
296
330
28F
100
AcDbEntity
  8
LAYER_1
  6
Continuous
 62
     7
100
AcDbLine
 10
481.0174294501139
 20
149.201868377073
 30
0.0
 11
481.0174294501139
 21
146.5930425475639
 31
0.0
  0
ENDBLK
  5
297
330
28F
100
AcDbEntity
  8
0
100
AcDbBlockEnd
  0
BLOCK
  5
299
330
298
100
AcDbEntity
  8
0
100
AcDbBlockBegin
  2
HATCHING__PATTERN_$42$
 70
     0
 10
0.0
 20
0.0
 30
0.0
  3
HATCHING__PATTERN_$42$
  1

  0
LINE
  5
29A
330
298
100
AcDbEntity
  8
LAYER_1
  6
Continuous
 62
     7
100
AcDbLine
 10
493.64321728452
 20
129.482824277329
 30
0.0
 11
495.3049294501139
 21
129.482824277329
 31
0.0
  0
LINE
  5
29B
330
298
100
AcDbEntity
  8
LAYER_1
  6
Continuous
 62
     7
100
AcDbLine
 10
495.3049294501139
 20
133.3621416788909
 30
0.0
 11
495.3049294501139
 21
130.2018683770729
 31
0.0
  0
LINE
  5
29C
330
298
100
AcDbEntity
  8
LAYER_1
  6
Continuous
 62
     7
100
AcDbLine
 10
495.3049294501139
 20
130.2018683770729
 30
0.0
 11
495.3049294501139
 21
127.0415950752549
 31
0.0
  0
LINE
  5
29D
330
298
100
AcDbEntity
  8
LAYER_1
  6
Continuous
 62
     7
100
AcDbLine
 10
500.0674294501139
 20
129.482824277329
 30
0.0
 11
501.004052993221
 21
129.482824277329
 31
0.0
  0
LINE
  5
29E
330
298
100
AcDbEntity
  8
LAYER_1
  6
Continuous
 62
     7
100
AcDbLine
 10
500.0674294501139
 20
132.758055533285
 30
0.0
 11
500.0674294501139
 21
130.2018683770729
 31
0.0
  0
LINE
  5
29F
330
298
100
AcDbEntity
  8
LAYER_1
  6
Continuous
 62
     7
100
AcDbLine
 10
500.0674294501139
 20
130.2018683770729
 30
0.0
 11
500.0674294501139
 21
127.6456812208599
 31
0.0
  0
ENDBLK
  5
2A0
330
298
100
AcDbEntity
  8
0
100
AcDbBlockEnd
  0
BLOCK
  5
2A2
330
2A1
100
AcDbEntity
  8
0
100
AcDbBlockBegin
  2
HATCHING__PATTERN_$43$
 70
     0
 10
0.0
 20
0.0
 30
0.0
  3
HATCHING__PATTERN_$43$
  1

  0
LINE
  5
2A3
330
2A1
100
AcDbEntity
  8
LAYER_1
  6
Continuous
 62
     7
100
AcDbLine
 10
493.6338004552299
 20
148.532824277329
 30
0.0
 11
495.3049294501139
 21
148.532824277329
 31
0.0
  0
LINE
  5
2A4
330
2A1
100
AcDbEntity
  8
LAYER_1
  6
Continuous
 62
     7
100
AcDbLine
 10
495.3049294501139
 20
152.3621416788899
 30
0.0
 11
495.3049294501139
 21
149.201868377073
 31
0.0
  0
LINE
  5
2A5
330
2A1
100
AcDbEntity
  8
LAYER_1
  6
Continuous
 62
     7
100
AcDbLine
 10
495.3049294501139
 20
149.201868377073
 30
0.0
 11
495.3049294501139
 21
146.0415950752549
 31
0.0
  0
LINE
  5
2A6
330
2A1
100
AcDbEntity
  8
LAYER_1
  6
Continuous
 62
     7
100
AcDbLine
 10
500.0674294501139
 20
148.532824277329
 30
0.0
 11
501.013469822512
 21
148.532824277329
 31
0.0
  0
LINE
  5
2A7
330
2A1
100
AcDbEntity
  8
LAYER_1
  6
Continuous
 62
     7
100
AcDbLine
 10
500.0674294501139
 20
151.758055533286
 30
0.0
 11
500.0674294501139
 21
149.201868377073
 31
0.0
  0
LINE
  5
2A8
330
2A1
100
AcDbEntity
  8
LAYER_1
  6
Continuous
 62
     7
100
AcDbLine
 10
500.0674294501139
 20
149.201868377073
 30
0.0
 11
500.0674294501139
 21
146.64568122086
 31
0.0
  0
ENDBLK
  5
2A9
330
2A1
100
AcDbEntity
  8
0
100
AcDbBlockEnd
  0
BLOCK
  5
2AB
330
2AA
100
AcDbEntity
  8
0
100
AcDbBlockBegin
  2
HATCHING__PATTERN_$44$
 70
     0
 10
0.0
 20
0.0
 30
0.0
  3
HATCHING__PATTERN_$44$
  1

  0
LINE
  5
2AC
330
2AA
100
AcDbEntity
  8
LAYER_1
  6
Continuous
 62
     7
100
AcDbLine
 10
179.2366819662319
 20
147.051868377073
 30
0.0
 11
179.2366819662319
 21
144.571830931578
 31
0.0
  0
LINE
  5
2AD
330
2AA
100
AcDbEntity
  8
LAYER_1
  6
Continuous
 62
     7
100
AcDbLine
 10
175.045681966232
 20
147.051868377073
 30
0.0
 11
175.045681966232
 21
144.571830931578
 31
0.0
  0
LINE
  5
2AE
330
2AA
100
AcDbEntity
  8
LAYER_1
  6
Continuous
 62
     7
100
AcDbLine
 10
170.8546819662319
 20
147.051868377073
 30
0.0
 11
170.8546819662319
 21
144.571830931578
 31
0.0
  0
LINE
  5
2AF
330
2AA
100
AcDbEntity
  8
LAYER_1
  6
Continuous
 62
     7
100
AcDbLine
 10
181.0921420481479
 20
143.428830931578
 30
0.0
 11
180.379681966232
 21
143.428830931578
 31
0.0
  0
LINE
  5
2B0
330
2AA
100
AcDbEntity
  8
LAYER_1
  6
Continuous
 62
     7
100
AcDbLine
 10
179.2366819662319
 20
143.428830931578
 30
0.0
 11
179.2366819662319
 21
140.380830931578
 31
0.0
  0
LINE
  5
2B1
330
2AA
100
AcDbEntity
  8
LAYER_1
  6
Continuous
 62
     7
100
AcDbLine
 10
179.2366819662319
 20
143.428830931578
 30
0.0
 11
177.269233288082
 21
143.428830931578
 31
0.0
  0
LINE
  5
2B2
330
2AA
100
AcDbEntity
  8
LAYER_1
  6
Continuous
 62
     7
100
AcDbLine
 10
175.045681966232
 20
143.428830931578
 30
0.0
 11
175.045681966232
 21
140.380830931578
 31
0.0
  0
LINE
  5
2B3
330
2AA
100
AcDbEntity
  8
LAYER_1
  6
Continuous
 62
     7
100
AcDbLine
 10
175.045681966232
 20
143.428830931578
 30
0.0
 11
171.997681966232
 21
143.428830931578
 31
0.0
  0
LINE
  5
2B4
330
2AA
100
AcDbEntity
  8
LAYER_1
  6
Continuous
 62
     7
100
AcDbLine
 10
170.8546819662319
 20
143.428830931578
 30
0.0
 11
170.8546819662319
 21
140.380830931578
 31
0.0
  0
LINE
  5
2B5
330
2AA
100
AcDbEntity
  8
LAYER_1
  6
Continuous
 62
     7
100
AcDbLine
 10
170.8546819662319
 20
143.428830931578
 30
0.0
 11
170.636052772816
 21
143.428830931578
 31
0.0
  0
LINE
  5
2B6
330
2AA
100
AcDbEntity
  8
LAYER_1
  6
Continuous
 62
     7
100
AcDbLine
 10
181.0921420481479
 20
139.2378309315779
 30
0.0
 11
180.379681966232
 21
139.2378309315779
 31
0.0
  0
LINE
  5
2B7
330
2AA
100
AcDbEntity
  8
LAYER_1
  6
Continuous
 62
     7
100
AcDbLine
 10
179.2366819662319
 20
139.2378309315779
 30
0.0
 11
179.2366819662319
 21
136.1898309315779
 31
0.0
  0
LINE
  5
2B8
330
2AA
100
AcDbEntity
  8
LAYER_1
  6
Continuous
 62
     7
100
AcDbLine
 10
179.2366819662319
 20
139.2378309315779
 30
0.0
 11
177.269233288082
 21
139.2378309315779
 31
0.0
  0
LINE
  5
2B9
330
2AA
100
AcDbEntity
  8
LAYER_1
  6
Continuous
 62
     7
100
AcDbLine
 10
175.045681966232
 20
139.2378309315779
 30
0.0
 11
175.045681966232
 21
136.1898309315779
 31
0.0
  0
LINE
  5
2BA
330
2AA
100
AcDbEntity
  8
LAYER_1
  6
Continuous
 62
     7
100
AcDbLine
 10
175.045681966232
 20
139.2378309315779
 30
0.0
 11
171.997681966232
 21
139.2378309315779
 31
0.0
  0
LINE
  5
2BB
330
2AA
100
AcDbEntity
  8
LAYER_1
  6
Continuous
 62
     7
100
AcDbLine
 10
170.8546819662319
 20
139.2378309315779
 30
0.0
 11
170.8546819662319
 21
136.1898309315779
 31
0.0
  0
LINE
  5
2BC
330
2AA
100
AcDbEntity
  8
LAYER_1
  6
Continuous
 62
     7
100
AcDbLine
 10
170.8546819662319
 20
139.2378309315779
 30
0.0
 11
170.636052772816
 21
139.2378309315779
 31
0.0
  0
LINE
  5
2BD
330
2AA
100
AcDbEntity
  8
LAYER_1
  6
Continuous
 62
     7
100
AcDbLine
 10
181.0921420481479
 20
135.046830931578
 30
0.0
 11
180.379681966232
 21
135.046830931578
 31
0.0
  0
LINE
  5
2BE
330
2AA
100
AcDbEntity
  8
LAYER_1
  6
Continuous
 62
     7
100
AcDbLine
 10
179.2366819662319
 20
135.046830931578
 30
0.0
 11
179.2366819662319
 21
132.351868377073
 31
0.0
  0
LINE
  5
2BF
330
2AA
100
AcDbEntity
  8
LAYER_1
  6
Continuous
 62
     7
100
AcDbLine
 10
179.2366819662319
 20
135.046830931578
 30
0.0
 11
177.269233288082
 21
135.046830931578
 31
0.0
  0
LINE
  5
2C0
330
2AA
100
AcDbEntity
  8
LAYER_1
  6
Continuous
 62
     7
100
AcDbLine
 10
175.045681966232
 20
135.046830931578
 30
0.0
 11
175.045681966232
 21
132.351868377073
 31
0.0
  0
LINE
  5
2C1
330
2AA
100
AcDbEntity
  8
LAYER_1
  6
Continuous
 62
     7
100
AcDbLine
 10
175.045681966232
 20
135.046830931578
 30
0.0
 11
171.997681966232
 21
135.046830931578
 31
0.0
  0
LINE
  5
2C2
330
2AA
100
AcDbEntity
  8
LAYER_1
  6
Continuous
 62
     7
100
AcDbLine
 10
170.8546819662319
 20
135.046830931578
 30
0.0
 11
170.8546819662319
 21
132.351868377073
 31
0.0
  0
LINE
  5
2C3
330
2AA
100
AcDbEntity
  8
LAYER_1
  6
Continuous
 62
     7
100
AcDbLine
 10
170.8546819662319
 20
135.046830931578
 30
0.0
 11
170.636052772816
 21
135.046830931578
 31
0.0
  0
ENDBLK
  5
2C4
330
2AA
100
AcDbEntity
  8
0
100
AcDbBlockEnd
  0
BLOCK
  5
2C6
330
2C5
100
AcDbEntity
  8
0
100
AcDbBlockBegin
  2
HATCHING__PATTERN_$45$
 70
     0
 10
0.0
 20
0.0
 30
0.0
  3
HATCHING__PATTERN_$45$
  1

  0
LINE
  5
2C7
330
2C5
100
AcDbEntity
  8
LAYER_1
  6
Continuous
 62
     7
100
AcDbLine
 10
342.544028612154
 20
152.8699351244889
 30
0.0
 11
342.544028612154
 21
151.0488309315759
 31
0.0
  0
LINE
  5
2C8
330
2C5
100
AcDbEntity
  8
LAYER_1
  6
Continuous
 62
     7
100
AcDbLine
 10
346.5872572558239
 20
151.0488309315759
 30
0.0
 11
343.323635138871
 21
151.0488309315759
 31
0.0
  0
LINE
  5
2C9
330
2C5
100
AcDbEntity
  8
LAYER_1
  6
Continuous
 62
     7
100
AcDbLine
 10
343.323635138871
 20
151.0488309315759
 30
0.0
 11
340.060013021918
 21
151.0488309315759
 31
0.0
  0
LINE
  5
2CA
330
2C5
100
AcDbEntity
  8
LAYER_1
  6
Continuous
 62
     7
100
AcDbLine
 10
342.544028612154
 20
146.286330931576
 30
0.0
 11
342.544028612154
 21
145.533801629657
 31
0.0
  0
LINE
  5
2CB
330
2C5
100
AcDbEntity
  8
LAYER_1
  6
Continuous
 62
     7
100
AcDbLine
 10
345.68205439844
 20
146.286330931576
 30
0.0
 11
343.323635138871
 21
146.286330931576
 31
0.0
  0
LINE
  5
2CC
330
2C5
100
AcDbEntity
  8
LAYER_1
  6
Continuous
 62
     7
100
AcDbLine
 10
343.323635138871
 20
146.286330931576
 30
0.0
 11
340.9652158793019
 21
146.286330931576
 31
0.0
  0
ENDBLK
  5
2CD
330
2C5
100
AcDbEntity
  8
0
100
AcDbBlockEnd
  0
BLOCK
  5
2CF
330
2CE
100
AcDbEntity
  8
0
100
AcDbBlockBegin
  2
HATCHING__PATTERN_$46$
 70
     0
 10
0.0
 20
0.0
 30
0.0
  3
HATCHING__PATTERN_$46$
  1

  0
LINE
  5
2D0
330
2CE
100
AcDbEntity
  8
LAYER_1
  6
Continuous
 62
     7
100
AcDbLine
 10
342.544028612154
 20
133.8699351244889
 30
0.0
 11
342.544028612154
 21
131.998830931576
 31
0.0
  0
LINE
  5
2D1
330
2CE
100
AcDbEntity
  8
LAYER_1
  6
Continuous
 62
     7
100
AcDbLine
 10
346.6150520947899
 20
131.998830931576
 30
0.0
 11
343.323635138871
 21
131.998830931576
 31
0.0
  0
LINE
  5
2D2
330
2CE
100
AcDbEntity
  8
LAYER_1
  6
Continuous
 62
     7
100
AcDbLine
 10
343.323635138871
 20
131.998830931576
 30
0.0
 11
340.032218182952
 21
131.998830931576
 31
0.0
  0
LINE
  5
2D3
330
2CE
100
AcDbEntity
  8
LAYER_1
  6
Continuous
 62
     7
100
AcDbLine
 10
342.544028612154
 20
127.236330931576
 30
0.0
 11
342.544028612154
 21
126.533801629657
 31
0.0
  0
LINE
  5
2D4
330
2CE
100
AcDbEntity
  8
LAYER_1
  6
Continuous
 62
     7
100
AcDbLine
 10
345.6188666433949
 20
127.236330931576
 30
0.0
 11
343.323635138871
 21
127.236330931576
 31
0.0
  0
LINE
  5
2D5
330
2CE
100
AcDbEntity
  8
LAYER_1
  6
Continuous
 62
     7
100
AcDbLine
 10
343.323635138871
 20
127.236330931576
 30
0.0
 11
341.0284036343469
 21
127.236330931576
 31
0.0
  0
ENDBLK
  5
2D6
330
2CE
100
AcDbEntity
  8
0
100
AcDbBlockEnd
  0
BLOCK
  5
2D8
330
2D7
100
AcDbEntity
  8
0
100
AcDbBlockBegin
  2
HATCHING__PATTERN_$47$
 70
     0
 10
0.0
 20
0.0
 30
0.0
  3
HATCHING__PATTERN_$47$
  1

  0
LINE
  5
2D9
330
2D7
100
AcDbEntity
  8
LAYER_1
  6
Continuous
 62
     7
100
AcDbLine
 10
401.318400192106
 20
135.501864723115
 30
0.0
 11
401.318400192106
 21
131.751868377073
 31
0.0
  0
LINE
  5
2DA
330
2D7
100
AcDbEntity
  8
LAYER_1
  6
Continuous
 62
     7
100
AcDbLine
 10
401.318400192106
 20
131.751868377073
 30
0.0
 11
401.318400192106
 21
128.00187203103
 31
0.0
  0
LINE
  5
2DB
330
2D7
100
AcDbEntity
  8
LAYER_1
  6
Continuous
 62
     7
100
AcDbLine
 10
401.3184001921049
 20
132.5272481492939
 30
0.0
 11
401.323635138871
 21
132.5272481492939
 31
0.0
  0
LINE
  5
2DC
330
2D7
100
AcDbEntity
  8
LAYER_1
  6
Continuous
 62
     7
100
AcDbLine
 10
401.323635138871
 20
132.5272481492939
 30
0.0
 11
404.992597690987
 21
132.5272481492939
 31
0.0
  0
ENDBLK
  5
2DD
330
2D7
100
AcDbEntity
  8
0
100
AcDbBlockEnd
  0
BLOCK
  5
2DF
330
2DE
100
AcDbEntity
  8
0
100
AcDbBlockBegin
  2
HATCHING__PATTERN_$48$
 70
     0
 10
0.0
 20
0.0
 30
0.0
  3
HATCHING__PATTERN_$48$
  1

  0
LINE
  5
2E0
330
2DE
100
AcDbEntity
  8
LAYER_1
  6
Continuous
 62
     7
100
AcDbLine
 10
420.3684001921049
 20
135.501601179555
 30
0.0
 11
420.3684001921049
 21
131.751868377073
 31
0.0
  0
LINE
  5
2E1
330
2DE
100
AcDbEntity
  8
LAYER_1
  6
Continuous
 62
     7
100
AcDbLine
 10
420.3684001921049
 20
131.751868377073
 30
0.0
 11
420.3684001921049
 21
128.0021355745909
 31
0.0
  0
LINE
  5
2E2
330
2DE
100
AcDbEntity
  8
LAYER_1
  6
Continuous
 62
     7
100
AcDbLine
 10
420.3684001921049
 20
132.5272481492939
 30
0.0
 11
423.9925976909869
 21
132.5272481492939
 31
0.0
  0
ENDBLK
  5
2E3
330
2DE
100
AcDbEntity
  8
0
100
AcDbBlockEnd
  0
BLOCK
  5
2E5
330
2E4
100
AcDbEntity
  8
0
100
AcDbBlockBegin
  2
HATCHING__PATTERN_$49$
 70
     0
 10
0.0
 20
0.0
 30
0.0
  3
HATCHING__PATTERN_$49$
  1

  0
LINE
  5
2E6
330
2E4
100
AcDbEntity
  8
LAYER_1
  6
Continuous
 62
     7
100
AcDbLine
 10
410.843400192105
 20
151.956298960972
 30
0.0
 11
410.843400192105
 21
148.206351048978
 31
0.0
  0
LINE
  5
2E7
330
2E4
100
AcDbEntity
  8
LAYER_1
  6
Continuous
 62
     7
100
AcDbLine
 10
410.843400192105
 20
148.206351048978
 30
0.0
 11
410.843400192105
 21
146.8147481492939
 31
0.0
  0
LINE
  5
2E8
330
2E4
100
AcDbEntity
  8
LAYER_1
  6
Continuous
 62
     7
100
AcDbLine
 10
407.3414028994029
 20
146.8147481492939
 30
0.0
 11
410.8236351388709
 21
146.8147481492939
 31
0.0
  0
LINE
  5
2E9
330
2E4
100
AcDbEntity
  8
LAYER_1
  6
Continuous
 62
     7
100
AcDbLine
 10
410.8236351388709
 20
146.8147481492939
 30
0.0
 11
410.843400192105
 21
146.8147481492939
 31
0.0
  0
LINE
  5
2EA
330
2E4
100
AcDbEntity
  8
LAYER_1
  6
Continuous
 62
     7
100
AcDbLine
 10
410.843400192105
 20
146.8147481492939
 30
0.0
 11
410.843400192105
 21
144.456403136983
 31
0.0
  0
LINE
  5
2EB
330
2E4
100
AcDbEntity
  8
LAYER_1
  6
Continuous
 62
     7
100
AcDbLine
 10
410.843400192105
 20
151.577248149294
 30
0.0
 11
412.4666667085859
 21
151.577248149294
 31
0.0
  0
ENDBLK
  5
2EC
330
2E4
100
AcDbEntity
  8
0
100
AcDbBlockEnd
  0
BLOCK
  5
14DA
330
14D1
100
AcDbEntity
  8
0
100
AcDbBlockBegin
  2
*D64
 70
     1
 10
0.0
 20
0.0
 30
0.0
  3
*D64
  1

  0
LINE
  5
16B3
330
14D1
100
AcDbEntity
  8
LAYER_1
  6
Continuous
 62
     0
370
    -2
100
AcDbLine
 10
374.2202031645025
 20
168.307422644361
 30
0.0
 11
352.5795940274467
 21
168.307422644361
 31
0.0
  0
LINE
  5
16B4
330
14D1
100
AcDbEntity
  8
LAYER_1
  6
Continuous
 62
     0
370
    -2
100
AcDbLine
 10
352.5795940274467
 20
168.307422644361
 30
0.0
 11
347.3834416047401
 21
165.3074226443611
 31
0.0
  0
MTEXT
  5
16B5
330
14D1
100
AcDbEntity
  8
LAYER_1
  6
Continuous
 62
     0
100
AcDbMText
 10
363.8998985959746
 20
172.007422644361
 30
0.0
 40
5.4
 41
0.0
 71
     5
 72
     1
  1
\A1;\U+220512.00
  7
ＭＳ_ゴシック
 73
     1
 44
1.0
  0
INSERT
  5
16B6
330
14D1
100
AcDbEntity
  8
LAYER_1
  6
Continuous
 62
     0
370
    -2
100
AcDbBlockReference
  2
_OPEN
 10
342.1872891820334
 20
162.3074226443611
 30
0.0
 41
6.0
 42
6.0
 43
6.0
 50
209.9999999999999
  0
LINE
  5
16B7
330
14D1
100
AcDbEntity
  8
LAYER_1
  6
Continuous
 62
     0
370
    -2
100
AcDbLine
 10
336.9011367593268
 20
159.307422644361
 30
0.0
 11
337.0811367593267
 21
159.307422644361
 31
0.0
  0
LINE
  5
16B8
330
14D1
100
AcDbEntity
  8
LAYER_1
  6
Continuous
 62
     0
370
    -2
100
AcDbLine
 10
336.9911367593268
 20
159.217422644361
 30
0.0
 11
336.9911367593268
 21
159.3974226443611
 31
0.0
  0
POINT
  5
16B9
330
14D1
100
AcDbEntity
  8
Defpoints
  6
Continuous
 62
     0
100
AcDbPoint
 10
342.1872891820334
 20
162.3074226443611
 30
0.0
  0
POINT
  5
16BA
330
14D1
100
AcDbEntity
  8
Defpoints
  6
Continuous
 62
     0
100
AcDbPoint
 10
331.7949843366201
 20
156.307422644361
 30
0.0
  0
ENDBLK
  5
14DB
330
14D1
100
AcDbEntity
  8
0
100
AcDbBlockEnd
  0
BLOCK
  5
14E7
330
14DC
100
AcDbEntity
  8
0
100
AcDbBlockBegin
  2
*D65
 70
     1
 10
0.0
 20
0.0
 30
0.0
  3
*D65
  1

  0
LINE
  5
16BB
330
14DC
100
AcDbEntity
  8
LAYER_1
  6
Continuous
 62
     0
370
    -2
100
AcDbLine
 10
336.9911367593273
 20
168.3074226443611
 30
0.0
 11
336.9911367593273
 21
182.8074226443611
 31
0.0
  0
LINE
  5
16BC
330
14DC
100
AcDbEntity
  8
LAYER_1
  6
Continuous
 62
     0
370
    -2
100
AcDbLine
 10
346.9911367593273
 20
172.8074226443611
 30
0.0
 11
346.9911367593273
 21
182.8074226443611
 31
0.0
  0
LINE
  5
16BD
330
14DC
100
AcDbEntity
  8
LAYER_1
  6
Continuous
 62
     0
370
    -2
100
AcDbLine
 10
330.9911367593273
 20
181.8074226443611
 30
0.0
 11
324.9911367593273
 21
181.8074226443611
 31
0.0
  0
LINE
  5
16BE
330
14DC
100
AcDbEntity
  8
LAYER_1
  6
Continuous
 62
     0
370
    -2
100
AcDbLine
 10
352.9911367593273
 20
181.8074226443611
 30
0.0
 11
377.574893104505
 21
181.8074226443611
 31
0.0
  0
INSERT
  5
16BF
330
14DC
100
AcDbEntity
  8
LAYER_1
  6
Continuous
 62
     0
370
    -2
100
AcDbBlockReference
  2
_OPEN
 10
336.9911367593273
 20
181.8074226443611
 30
0.0
 41
6.0
 42
6.0
 43
6.0
  0
INSERT
  5
16C0
330
14DC
100
AcDbEntity
  8
LAYER_1
  6
Continuous
 62
     0
370
    -2
100
AcDbBlockReference
  2
_OPEN
 10
346.9911367593273
 20
181.8074226443611
 30
0.0
 41
6.0
 42
6.0
 43
6.0
 50
180.0
  0
MTEXT
  5
16C1
330
14DC
100
AcDbEntity
  8
LAYER_1
  6
Continuous
 62
     0
100
AcDbMText
 10
368.2830149319161
 20
185.507422644361
 30
0.0
 40
5.4
 41
0.0
 71
     5
 72
     1
  1
\A1;10.00
  7
ＭＳ_ゴシック
 73
     1
 44
1.0
  0
POINT
  5
16C2
330
14DC
100
AcDbEntity
  8
Defpoints
  6
Continuous
 62
     0
100
AcDbPoint
 10
336.9911367593273
 20
167.3074226443611
 30
0.0
  0
POINT
  5
16C3
330
14DC
100
AcDbEntity
  8
Defpoints
  6
Continuous
 62
     0
100
AcDbPoint
 10
346.9911367593273
 20
171.8074226443611
 30
0.0
  0
POINT
  5
16C4
330
14DC
100
AcDbEntity
  8
Defpoints
  6
Continuous
 62
     0
100
AcDbPoint
 10
346.9911367593273
 20
181.8074226443611
 30
0.0
  0
ENDBLK
  5
14E8
330
14DC
100
AcDbEntity
  8
0
100
AcDbBlockEnd
  0
BLOCK
  5
14F3
330
14E9
100
AcDbEntity
  8
0
100
AcDbBlockBegin
  2
*D66
 70
     1
 10
0.0
 20
0.0
 30
0.0
  3
*D66
  1

  0
LINE
  5
16A1
330
14E9
100
AcDbEntity
  8
LAYER_1
  6
Continuous
 62
     0
370
    -2
100
AcDbLine
 10
326.9911367593273
 20
172.3074226443611
 30
0.0
 11
326.9911367593273
 21
197.8074226443611
 31
0.0
  0
LINE
  5
16A2
330
14E9
100
AcDbEntity
  8
LAYER_1
  6
Continuous
 62
     0
370
    -2
100
AcDbLine
 10
346.9911367593273
 20
172.8074226443611
 30
0.0
 11
346.9911367593273
 21
197.8074226443611
 31
0.0
  0
LINE
  5
16A3
330
14E9
100
AcDbEntity
  8
LAYER_1
  6
Continuous
 62
     0
370
    -2
100
AcDbLine
 10
332.9911367593273
 20
196.8074226443611
 30
0.0
 11
340.9911367593273
 21
196.8074226443611
 31
0.0
  0
INSERT
  5
16A4
330
14E9
100
AcDbEntity
  8
LAYER_1
  6
Continuous
 62
     0
370
    -2
100
AcDbBlockReference
  2
_OPEN
 10
326.9911367593273
 20
196.8074226443611
 30
0.0
 41
6.0
 42
6.0
 43
6.0
 50
180.0
  0
INSERT
  5
16A5
330
14E9
100
AcDbEntity
  8
LAYER_1
  6
Continuous
 62
     0
370
    -2
100
AcDbBlockReference
  2
_OPEN
 10
346.9911367593273
 20
196.8074226443611
 30
0.0
 41
6.0
 42
6.0
 43
6.0
  0
MTEXT
  5
16A6
330
14E9
100
AcDbEntity
  8
LAYER_1
  6
Continuous
 62
     0
100
AcDbMText
 10
336.9911367593273
 20
200.507422644361
 30
0.0
 40
5.4
 41
0.0
 71
     5
 72
     1
  1
\A1;20.00
  7
ＭＳ_ゴシック
 73
     1
 44
1.0
  0
POINT
  5
16A7
330
14E9
100
AcDbEntity
  8
Defpoints
  6
Continuous
 62
     0
100
AcDbPoint
 10
326.9911367593273
 20
171.3074226443611
 30
0.0
  0
POINT
  5
16A8
330
14E9
100
AcDbEntity
  8
Defpoints
  6
Continuous
 62
     0
100
AcDbPoint
 10
346.9911367593273
 20
171.8074226443611
 30
0.0
  0
POINT
  5
16A9
330
14E9
100
AcDbEntity
  8
Defpoints
  6
Continuous
 62
     0
100
AcDbPoint
 10
346.9911367593273
 20
196.8074226443611
 30
0.0
  0
ENDBLK
  5
14F4
330
14E9
100
AcDbEntity
  8
0
100
AcDbBlockEnd
  0
BLOCK
  5
14FF
330
14F5
100
AcDbEntity
  8
0
100
AcDbBlockBegin
  2
*D67
 70
     1
 10
0.0
 20
0.0
 30
0.0
  3
*D67
  1

  0
LINE
  5
165C
330
14F5
100
AcDbEntity
  8
LAYER_1
  6
Continuous
 62
     0
370
    -2
100
AcDbLine
 10
246.9911367593273
 20
145.8074226443611
 30
0.0
 11
246.9911367593273
 21
110.8074226443611
 31
0.0
  0
LINE
  5
165D
330
14F5
100
AcDbEntity
  8
LAYER_1
  6
Continuous
 62
     0
370
    -2
100
AcDbLine
 10
286.9911367593273
 20
145.8074226443611
 30
0.0
 11
286.9911367593273
 21
110.8074226443611
 31
0.0
  0
LINE
  5
165E
330
14F5
100
AcDbEntity
  8
LAYER_1
  6
Continuous
 62
     0
370
    -2
100
AcDbLine
 10
252.9911367593273
 20
111.8074226443611
 30
0.0
 11
280.9911367593273
 21
111.8074226443611
 31
0.0
  0
INSERT
  5
165F
330
14F5
100
AcDbEntity
  8
LAYER_1
  6
Continuous
 62
     0
370
    -2
100
AcDbBlockReference
  2
_OPEN
 10
246.9911367593273
 20
111.8074226443611
 30
0.0
 41
6.0
 42
6.0
 43
6.0
 50
180.0
  0
INSERT
  5
1660
330
14F5
100
AcDbEntity
  8
LAYER_1
  6
Continuous
 62
     0
370
    -2
100
AcDbBlockReference
  2
_OPEN
 10
286.9911367593273
 20
111.8074226443611
 30
0.0
 41
6.0
 42
6.0
 43
6.0
  0
MTEXT
  5
1661
330
14F5
100
AcDbEntity
  8
LAYER_1
  6
Continuous
 62
     0
100
AcDbMText
 10
266.9911367593273
 20
115.5074226443611
 30
0.0
 40
5.4
 41
0.0
 71
     5
 72
     1
  1
\A1;40.00
  7
ＭＳ_ゴシック
 73
     1
 44
1.0
  0
POINT
  5
1662
330
14F5
100
AcDbEntity
  8
Defpoints
  6
Continuous
 62
     0
100
AcDbPoint
 10
246.9911367593273
 20
146.8074226443611
 30
0.0
  0
POINT
  5
1663
330
14F5
100
AcDbEntity
  8
Defpoints
  6
Continuous
 62
     0
100
AcDbPoint
 10
286.9911367593273
 20
146.8074226443611
 30
0.0
  0
POINT
  5
1664
330
14F5
100
AcDbEntity
  8
Defpoints
  6
Continuous
 62
     0
100
AcDbPoint
 10
286.9911367593273
 20
111.8074226443611
 30
0.0
  0
ENDBLK
  5
1500
330
14F5
100
AcDbEntity
  8
0
100
AcDbBlockEnd
  0
BLOCK
  5
150B
330
1501
100
AcDbEntity
  8
0
100
AcDbBlockBegin
  2
*D68
 70
     1
 10
0.0
 20
0.0
 30
0.0
  3
*D68
  1

  0
LINE
  5
16AA
330
1501
100
AcDbEntity
  8
LAYER_1
  6
Continuous
 62
     0
370
    -2
100
AcDbLine
 10
256.9911367593273
 20
144.8074226443611
 30
0.0
 11
256.9911367593273
 21
125.8074226443611
 31
0.0
  0
LINE
  5
16AB
330
1501
100
AcDbEntity
  8
LAYER_1
  6
Continuous
 62
     0
370
    -2
100
AcDbLine
 10
276.9911367593273
 20
144.8074226443611
 30
0.0
 11
276.9911367593273
 21
125.8074226443611
 31
0.0
  0
LINE
  5
16AC
330
1501
100
AcDbEntity
  8
LAYER_1
  6
Continuous
 62
     0
370
    -2
100
AcDbLine
 10
262.9911367593273
 20
126.8074226443611
 30
0.0
 11
270.9911367593273
 21
126.8074226443611
 31
0.0
  0
INSERT
  5
16AD
330
1501
100
AcDbEntity
  8
LAYER_1
  6
Continuous
 62
     0
370
    -2
100
AcDbBlockReference
  2
_OPEN
 10
256.9911367593273
 20
126.8074226443611
 30
0.0
 41
6.0
 42
6.0
 43
6.0
 50
180.0
  0
INSERT
  5
16AE
330
1501
100
AcDbEntity
  8
LAYER_1
  6
Continuous
 62
     0
370
    -2
100
AcDbBlockReference
  2
_OPEN
 10
276.9911367593273
 20
126.8074226443611
 30
0.0
 41
6.0
 42
6.0
 43
6.0
  0
MTEXT
  5
16AF
330
1501
100
AcDbEntity
  8
LAYER_1
  6
Continuous
 62
     0
100
AcDbMText
 10
266.9911367593273
 20
130.5074226443611
 30
0.0
 40
5.4
 41
0.0
 71
     5
 72
     1
  1
\A1;20.00
  7
ＭＳ_ゴシック
 73
     1
 44
1.0
  0
POINT
  5
16B0
330
1501
100
AcDbEntity
  8
Defpoints
  6
Continuous
 62
     0
100
AcDbPoint
 10
256.9911367593273
 20
145.8074226443611
 30
0.0
  0
POINT
  5
16B1
330
1501
100
AcDbEntity
  8
Defpoints
  6
Continuous
 62
     0
100
AcDbPoint
 10
276.9911367593273
 20
145.8074226443611
 30
0.0
  0
POINT
  5
16B2
330
1501
100
AcDbEntity
  8
Defpoints
  6
Continuous
 62
     0
100
AcDbPoint
 10
276.9911367593273
 20
126.8074226443611
 30
0.0
  0
ENDBLK
  5
150C
330
1501
100
AcDbEntity
  8
0
100
AcDbBlockEnd
  0
BLOCK
  5
1517
330
150D
100
AcDbEntity
  8
0
100
AcDbBlockBegin
  2
*D69
 70
     1
 10
0.0
 20
0.0
 30
0.0
  3
*D69
  1

  0
LINE
  5
1679
330
150D
100
AcDbEntity
  8
LAYER_1
  6
Continuous
 62
     0
370
    -2
100
AcDbLine
 10
245.9911367593273
 20
146.8074226443611
 30
0.0
 11
215.9911367593273
 21
146.8074226443611
 31
0.0
  0
LINE
  5
167A
330
150D
100
AcDbEntity
  8
LAYER_1
  6
Continuous
 62
     0
370
    -2
100
AcDbLine
 10
245.9911367593273
 20
171.8074226443611
 30
0.0
 11
215.9911367593273
 21
171.8074226443611
 31
0.0
  0
LINE
  5
167B
330
150D
100
AcDbEntity
  8
LAYER_1
  6
Continuous
 62
     0
370
    -2
100
AcDbLine
 10
216.9911367593273
 20
152.8074226443611
 30
0.0
 11
216.9911367593273
 21
165.8074226443611
 31
0.0
  0
INSERT
  5
167C
330
150D
100
AcDbEntity
  8
LAYER_1
  6
Continuous
 62
     0
370
    -2
100
AcDbBlockReference
  2
_OPEN
 10
216.9911367593273
 20
146.8074226443611
 30
0.0
 41
6.0
 42
6.0
 43
6.0
 50
270.0
  0
INSERT
  5
167D
330
150D
100
AcDbEntity
  8
LAYER_1
  6
Continuous
 62
     0
370
    -2
100
AcDbBlockReference
  2
_OPEN
 10
216.9911367593273
 20
171.8074226443611
 30
0.0
 41
6.0
 42
6.0
 43
6.0
 50
90.0
  0
MTEXT
  5
167E
330
150D
100
AcDbEntity
  8
LAYER_1
  6
Continuous
 62
     0
100
AcDbMText
 10
213.2911367593273
 20
159.3074226443611
 30
0.0
 40
5.4
 41
0.0
 71
     5
 72
     1
  1
\A1;25.00
  7
ＭＳ_ゴシック
 11
0.0000000000000001
 21
1.0
 31
0.0
 73
     1
 44
1.0
  0
POINT
  5
167F
330
150D
100
AcDbEntity
  8
Defpoints
  6
Continuous
 62
     0
100
AcDbPoint
 10
246.9911367593273
 20
146.8074226443611
 30
0.0
  0
POINT
  5
1680
330
150D
100
AcDbEntity
  8
Defpoints
  6
Continuous
 62
     0
100
AcDbPoint
 10
246.9911367593273
 20
171.8074226443611
 30
0.0
  0
POINT
  5
1681
330
150D
100
AcDbEntity
  8
Defpoints
  6
Continuous
 62
     0
100
AcDbPoint
 10
216.9911367593273
 20
171.8074226443611
 30
0.0
  0
ENDBLK
  5
1518
330
150D
100
AcDbEntity
  8
0
100
AcDbBlockEnd
  0
BLOCK
  5
1525
330
1519
100
AcDbEntity
  8
0
100
AcDbBlockBegin
  2
*D70
 70
     1
 10
0.0
 20
0.0
 30
0.0
  3
*D70
  1

  0
LINE
  5
1665
330
1519
100
AcDbEntity
  8
LAYER_1
  6
Continuous
 62
     0
370
    -2
100
AcDbLine
 10
250.9911367593273
 20
150.8074226443611
 30
0.0
 11
230.9911367593273
 21
150.8074226443611
 31
0.0
  0
LINE
  5
1666
330
1519
100
AcDbEntity
  8
LAYER_1
  6
Continuous
 62
     0
370
    -2
100
AcDbLine
 10
260.9911367593273
 20
167.8074226443611
 30
0.0
 11
230.9911367593273
 21
167.8074226443611
 31
0.0
  0
LINE
  5
1667
330
1519
100
AcDbEntity
  8
LAYER_1
  6
Continuous
 62
     0
370
    -2
100
AcDbLine
 10
231.9911367593273
 20
156.8074226443611
 30
0.0
 11
231.9911367593273
 21
161.8074226443611
 31
0.0
  0
LINE
  5
1668
330
1519
100
AcDbEntity
  8
LAYER_1
  6
Continuous
 62
     0
370
    -2
100
AcDbLine
 10
231.9911367593273
 20
167.8074226443611
 30
0.0
 11
231.9911367593273
 21
173.8074226443611
 31
0.0
  0
LINE
  5
1669
330
1519
100
AcDbEntity
  8
LAYER_1
  6
Continuous
 62
     0
370
    -2
100
AcDbLine
 10
231.9911367593273
 20
173.8074226443611
 30
0.0
 11
249.574893104505
 21
173.8074226443611
 31
0.0
  0
INSERT
  5
166A
330
1519
100
AcDbEntity
  8
LAYER_1
  6
Continuous
 62
     0
370
    -2
100
AcDbBlockReference
  2
_OPEN
 10
231.9911367593273
 20
150.8074226443611
 30
0.0
 41
6.0
 42
6.0
 43
6.0
 50
270.0
  0
INSERT
  5
166B
330
1519
100
AcDbEntity
  8
LAYER_1
  6
Continuous
 62
     0
370
    -2
100
AcDbBlockReference
  2
_OPEN
 10
231.9911367593273
 20
167.8074226443611
 30
0.0
 41
6.0
 42
6.0
 43
6.0
 50
90.0
  0
MTEXT
  5
166C
330
1519
100
AcDbEntity
  8
LAYER_1
  6
Continuous
 62
     0
100
AcDbMText
 10
241.2830149319161
 20
177.5074226443611
 30
0.0
 40
5.4
 41
0.0
 71
     5
 72
     1
  1
\A1;17.00
  7
ＭＳ_ゴシック
 73
     1
 44
1.0
  0
POINT
  5
166D
330
1519
100
AcDbEntity
  8
Defpoints
  6
Continuous
 62
     0
100
AcDbPoint
 10
251.9911367593273
 20
150.8074226443611
 30
0.0
  0
POINT
  5
166E
330
1519
100
AcDbEntity
  8
Defpoints
  6
Continuous
 62
     0
100
AcDbPoint
 10
261.9911367593273
 20
167.8074226443611
 30
0.0
  0
POINT
  5
166F
330
1519
100
AcDbEntity
  8
Defpoints
  6
Continuous
 62
     0
100
AcDbPoint
 10
231.9911367593273
 20
167.8074226443611
 30
0.0
  0
ENDBLK
  5
1526
330
1519
100
AcDbEntity
  8
0
100
AcDbBlockEnd
  0
BLOCK
  5
1531
330
1527
100
AcDbEntity
  8
0
100
AcDbBlockBegin
  2
*D71
 70
     1
 10
0.0
 20
0.0
 30
0.0
  3
*D71
  1

  0
LINE
  5
16C5
330
1527
100
AcDbEntity
  8
LAYER_1
  6
Continuous
 62
     0
370
    -2
100
AcDbLine
 10
256.9911367593273
 20
211.807422644361
 30
0.0
 11
256.9911367593273
 21
227.8074226443611
 31
0.0
  0
LINE
  5
16C6
330
1527
100
AcDbEntity
  8
LAYER_1
  6
Continuous
 62
     0
370
    -2
100
AcDbLine
 10
276.9911367593273
 20
211.807422644361
 30
0.0
 11
276.9911367593273
 21
227.8074226443611
 31
0.0
  0
LINE
  5
16C7
330
1527
100
AcDbEntity
  8
LAYER_1
  6
Continuous
 62
     0
370
    -2
100
AcDbLine
 10
262.9911367593273
 20
226.8074226443611
 30
0.0
 11
270.9911367593273
 21
226.8074226443611
 31
0.0
  0
INSERT
  5
16C8
330
1527
100
AcDbEntity
  8
LAYER_1
  6
Continuous
 62
     0
370
    -2
100
AcDbBlockReference
  2
_OPEN
 10
256.9911367593273
 20
226.8074226443611
 30
0.0
 41
6.0
 42
6.0
 43
6.0
 50
180.0
  0
INSERT
  5
16C9
330
1527
100
AcDbEntity
  8
LAYER_1
  6
Continuous
 62
     0
370
    -2
100
AcDbBlockReference
  2
_OPEN
 10
276.9911367593273
 20
226.8074226443611
 30
0.0
 41
6.0
 42
6.0
 43
6.0
  0
MTEXT
  5
16CA
330
1527
100
AcDbEntity
  8
LAYER_1
  6
Continuous
 62
     0
100
AcDbMText
 10
266.9911367593273
 20
230.5074226443611
 30
0.0
 40
5.4
 41
0.0
 71
     5
 72
     1
  1
\A1;20.00
  7
ＭＳ_ゴシック
 73
     1
 44
1.0
  0
POINT
  5
16CB
330
1527
100
AcDbEntity
  8
Defpoints
  6
Continuous
 62
     0
100
AcDbPoint
 10
256.9911367593273
 20
210.8074226443611
 30
0.0
  0
POINT
  5
16CC
330
1527
100
AcDbEntity
  8
Defpoints
  6
Continuous
 62
     0
100
AcDbPoint
 10
276.9911367593273
 20
210.8074226443611
 30
0.0
  0
POINT
  5
16CD
330
1527
100
AcDbEntity
  8
Defpoints
  6
Continuous
 62
     0
100
AcDbPoint
 10
276.9911367593273
 20
226.8074226443611
 30
0.0
  0
ENDBLK
  5
1532
330
1527
100
AcDbEntity
  8
0
100
AcDbBlockEnd
  0
BLOCK
  5
153F
330
1533
100
AcDbEntity
  8
0
100
AcDbBlockBegin
  2
*D72
 70
     1
 10
0.0
 20
0.0
 30
0.0
  3
*D72
  1

  0
LINE
  5
1682
330
1533
100
AcDbEntity
  8
LAYER_1
  6
Continuous
 62
     0
370
    -2
100
AcDbLine
 10
251.9911367593273
 20
206.8074226443611
 30
0.0
 11
230.9911367593273
 21
206.8074226443611
 31
0.0
  0
LINE
  5
1683
330
1533
100
AcDbEntity
  8
LAYER_1
  6
Continuous
 62
     0
370
    -2
100
AcDbLine
 10
245.9911367593273
 20
216.8074226443611
 30
0.0
 11
230.9911367593273
 21
216.8074226443611
 31
0.0
  0
LINE
  5
1684
330
1533
100
AcDbEntity
  8
LAYER_1
  6
Continuous
 62
     0
370
    -2
100
AcDbLine
 10
231.9911367593273
 20
200.8074226443611
 30
0.0
 11
231.9911367593273
 21
194.807422644361
 31
0.0
  0
LINE
  5
1685
330
1533
100
AcDbEntity
  8
LAYER_1
  6
Continuous
 62
     0
370
    -2
100
AcDbLine
 10
231.9911367593273
 20
222.8074226443611
 30
0.0
 11
231.9911367593273
 21
228.8074226443611
 31
0.0
  0
LINE
  5
1686
330
1533
100
AcDbEntity
  8
LAYER_1
  6
Continuous
 62
     0
370
    -2
100
AcDbLine
 10
231.9911367593273
 20
228.8074226443611
 30
0.0
 11
249.574893104505
 21
228.8074226443611
 31
0.0
  0
INSERT
  5
1687
330
1533
100
AcDbEntity
  8
LAYER_1
  6
Continuous
 62
     0
370
    -2
100
AcDbBlockReference
  2
_OPEN
 10
231.9911367593273
 20
206.8074226443611
 30
0.0
 41
6.0
 42
6.0
 43
6.0
 50
90.0
  0
INSERT
  5
1688
330
1533
100
AcDbEntity
  8
LAYER_1
  6
Continuous
 62
     0
370
    -2
100
AcDbBlockReference
  2
_OPEN
 10
231.9911367593273
 20
216.8074226443611
 30
0.0
 41
6.0
 42
6.0
 43
6.0
 50
270.0
  0
MTEXT
  5
1689
330
1533
100
AcDbEntity
  8
LAYER_1
  6
Continuous
 62
     0
100
AcDbMText
 10
241.2830149319161
 20
232.5074226443611
 30
0.0
 40
5.4
 41
0.0
 71
     5
 72
     1
  1
\A1;10.00
  7
ＭＳ_ゴシック
 73
     1
 44
1.0
  0
POINT
  5
168A
330
1533
100
AcDbEntity
  8
Defpoints
  6
Continuous
 62
     0
100
AcDbPoint
 10
252.9911367593273
 20
206.8074226443611
 30
0.0
  0
POINT
  5
168B
330
1533
100
AcDbEntity
  8
Defpoints
  6
Continuous
 62
     0
100
AcDbPoint
 10
246.9911367593273
 20
216.8074226443611
 30
0.0
  0
POINT
  5
168C
330
1533
100
AcDbEntity
  8
Defpoints
  6
Continuous
 62
     0
100
AcDbPoint
 10
231.9911367593273
 20
216.8074226443611
 30
0.0
  0
ENDBLK
  5
1540
330
1533
100
AcDbEntity
  8
0
100
AcDbBlockEnd
  0
BLOCK
  5
154D
330
1541
100
AcDbEntity
  8
0
100
AcDbBlockBegin
  2
*D73
 70
     1
 10
0.0
 20
0.0
 30
0.0
  3
*D73
  1

  0
LINE
  5
168D
330
1541
100
AcDbEntity
  8
LAYER_1
  6
Continuous
 62
     0
370
    -2
100
AcDbLine
 10
191.3121089700549
 20
385.2153063334042
 30
0.0
 11
176.1121089700549
 21
385.2153063334042
 31
0.0
  0
LINE
  5
168E
330
1541
100
AcDbEntity
  8
LAYER_1
  6
Continuous
 62
     0
370
    -2
100
AcDbLine
 10
191.3121089700549
 20
397.2153063334042
 30
0.0
 11
176.1121089700549
 21
397.2153063334042
 31
0.0
  0
LINE
  5
168F
330
1541
100
AcDbEntity
  8
LAYER_1
  6
Continuous
 62
     0
370
    -2
100
AcDbLine
 10
177.1121089700549
 20
379.2153063334042
 30
0.0
 11
177.1121089700549
 21
373.2153063334042
 31
0.0
  0
LINE
  5
1690
330
1541
100
AcDbEntity
  8
LAYER_1
  6
Continuous
 62
     0
370
    -2
100
AcDbLine
 10
177.1121089700549
 20
403.2153063334042
 30
0.0
 11
177.1121089700549
 21
409.2153063334042
 31
0.0
  0
LINE
  5
1691
330
1541
100
AcDbEntity
  8
LAYER_1
  6
Continuous
 62
     0
370
    -2
100
AcDbLine
 10
177.1121089700549
 20
409.2153063334042
 30
0.0
 11
194.6958653152325
 21
409.2153063334042
 31
0.0
  0
INSERT
  5
1692
330
1541
100
AcDbEntity
  8
LAYER_1
  6
Continuous
 62
     0
370
    -2
100
AcDbBlockReference
  2
_OPEN
 10
177.1121089700549
 20
385.2153063334042
 30
0.0
 41
6.0
 42
6.0
 43
6.0
 50
90.0
  0
INSERT
  5
1693
330
1541
100
AcDbEntity
  8
LAYER_1
  6
Continuous
 62
     0
370
    -2
100
AcDbBlockReference
  2
_OPEN
 10
177.1121089700549
 20
397.2153063334042
 30
0.0
 41
6.0
 42
6.0
 43
6.0
 50
270.0
  0
MTEXT
  5
1694
330
1541
100
AcDbEntity
  8
LAYER_1
  6
Continuous
 62
     0
100
AcDbMText
 10
186.4039871426436
 20
412.9153063334042
 30
0.0
 40
5.4
 41
0.0
 71
     5
 72
     1
  1
\A1;12.00
  7
ＭＳ_ゴシック
 73
     1
 44
1.0
  0
POINT
  5
1695
330
1541
100
AcDbEntity
  8
Defpoints
  6
Continuous
 62
     0
100
AcDbPoint
 10
192.3121089700549
 20
385.2153063334042
 30
0.0
  0
POINT
  5
1696
330
1541
100
AcDbEntity
  8
Defpoints
  6
Continuous
 62
     0
100
AcDbPoint
 10
192.3121089700549
 20
397.2153063334042
 30
0.0
  0
POINT
  5
1697
330
1541
100
AcDbEntity
  8
Defpoints
  6
Continuous
 62
     0
100
AcDbPoint
 10
177.1121089700549
 20
397.2153063334042
 30
0.0
  0
ENDBLK
  5
154E
330
1541
100
AcDbEntity
  8
0
100
AcDbBlockEnd
  0
BLOCK
  5
155B
330
154F
100
AcDbEntity
  8
0
100
AcDbBlockBegin
  2
*D74
 70
     1
 10
0.0
 20
0.0
 30
0.0
  3
*D74
  1

  0
LINE
  5
16CE
330
154F
100
AcDbEntity
  8
LAYER_1
  6
Continuous
 62
     0
370
    -2
100
AcDbLine
 10
368.7996913361099
 20
383.8653063334031
 30
0.0
 11
394.1121089700548
 21
383.8653063334031
 31
0.0
  0
LINE
  5
16CF
330
154F
100
AcDbEntity
  8
LAYER_1
  6
Continuous
 62
     0
370
    -2
100
AcDbLine
 10
368.7996913361099
 20
398.5653063334032
 30
0.0
 11
394.1121089700549
 21
398.5653063334031
 31
0.0
  0
LINE
  5
16D0
330
154F
100
AcDbEntity
  8
LAYER_1
  6
Continuous
 62
     0
370
    -2
100
AcDbLine
 10
393.1121089700549
 20
389.8653063334031
 30
0.0
 11
393.1121089700549
 21
392.5653063334031
 31
0.0
  0
LINE
  5
16D1
330
154F
100
AcDbEntity
  8
LAYER_1
  6
Continuous
 62
     0
370
    -2
100
AcDbLine
 10
393.1121089700549
 20
398.5653063334031
 30
0.0
 11
393.1121089700549
 21
404.5653063334031
 31
0.0
  0
LINE
  5
16D2
330
154F
100
AcDbEntity
  8
LAYER_1
  6
Continuous
 62
     0
370
    -2
100
AcDbLine
 10
393.1121089700549
 20
404.5653063334031
 30
0.0
 11
410.6958653152325
 21
404.5653063334031
 31
0.0
  0
INSERT
  5
16D3
330
154F
100
AcDbEntity
  8
LAYER_1
  6
Continuous
 62
     0
370
    -2
100
AcDbBlockReference
  2
_OPEN
 10
393.1121089700548
 20
383.8653063334031
 30
0.0
 41
6.0
 42
6.0
 43
6.0
 50
270.0
  0
INSERT
  5
16D4
330
154F
100
AcDbEntity
  8
LAYER_1
  6
Continuous
 62
     0
370
    -2
100
AcDbBlockReference
  2
_OPEN
 10
393.1121089700549
 20
398.5653063334031
 30
0.0
 41
6.0
 42
6.0
 43
6.0
 50
90.0
  0
MTEXT
  5
16D5
330
154F
100
AcDbEntity
  8
LAYER_1
  6
Continuous
 62
     0
100
AcDbMText
 10
402.4039871426436
 20
408.2653063334032
 30
0.0
 40
5.4
 41
0.0
 71
     5
 72
     1
  1
\A1;14.70
  7
ＭＳ_ゴシック
 73
     1
 44
1.0
  0
POINT
  5
16D6
330
154F
100
AcDbEntity
  8
Defpoints
  6
Continuous
 62
     0
100
AcDbPoint
 10
367.7996913361099
 20
383.8653063334031
 30
0.0
  0
POINT
  5
16D7
330
154F
100
AcDbEntity
  8
Defpoints
  6
Continuous
 62
     0
100
AcDbPoint
 10
367.7996913361099
 20
398.5653063334032
 30
0.0
  0
POINT
  5
16D8
330
154F
100
AcDbEntity
  8
Defpoints
  6
Continuous
 62
     0
100
AcDbPoint
 10
393.1121089700549
 20
398.5653063334031
 30
0.0
  0
ENDBLK
  5
155C
330
154F
100
AcDbEntity
  8
0
100
AcDbBlockEnd
  0
BLOCK
  5
15BC
330
15B2
100
AcDbEntity
  8
0
100
AcDbBlockBegin
  2
*D75
 70
     1
 10
0.0
 20
0.0
 30
0.0
  3
*D75
  1

  0
LINE
  5
1698
330
15B2
100
AcDbEntity
  8
LAYER_1
  6
Continuous
 62
     0
370
    -2
100
AcDbLine
 10
192.1121089700549
 20
397.1153063334042
 30
0.0
 11
192.1121089700549
 21
413.2153063334042
 31
0.0
  0
LINE
  5
1699
330
15B2
100
AcDbEntity
  8
LAYER_1
  6
Continuous
 62
     0
370
    -2
100
AcDbLine
 10
250.1121089700549
 20
397.9153063334031
 30
0.0
 11
250.1121089700549
 21
413.2153063334042
 31
0.0
  0
LINE
  5
169A
330
15B2
100
AcDbEntity
  8
LAYER_1
  6
Continuous
 62
     0
370
    -2
100
AcDbLine
 10
198.1121089700549
 20
412.2153063334041
 30
0.0
 11
244.1121089700549
 21
412.2153063334041
 31
0.0
  0
INSERT
  5
169B
330
15B2
100
AcDbEntity
  8
LAYER_1
  6
Continuous
 62
     0
370
    -2
100
AcDbBlockReference
  2
_OPEN
 10
192.1121089700549
 20
412.2153063334041
 30
0.0
 41
6.0
 42
6.0
 43
6.0
 50
180.0
  0
INSERT
  5
169C
330
15B2
100
AcDbEntity
  8
LAYER_1
  6
Continuous
 62
     0
370
    -2
100
AcDbBlockReference
  2
_OPEN
 10
250.1121089700549
 20
412.2153063334041
 30
0.0
 41
6.0
 42
6.0
 43
6.0
  0
MTEXT
  5
169D
330
15B2
100
AcDbEntity
  8
LAYER_1
  6
Continuous
 62
     0
100
AcDbMText
 10
221.1121089700549
 20
415.9153063334041
 30
0.0
 40
5.4
 41
0.0
 71
     5
 72
     1
  1
\A1;58.00
  7
ＭＳ_ゴシック
 73
     1
 44
1.0
  0
POINT
  5
169E
330
15B2
100
AcDbEntity
  8
Defpoints
  6
Continuous
 62
     0
100
AcDbPoint
 10
192.1121089700549
 20
396.1153063334041
 30
0.0
  0
POINT
  5
169F
330
15B2
100
AcDbEntity
  8
Defpoints
  6
Continuous
 62
     0
100
AcDbPoint
 10
250.1121089700549
 20
396.9153063334031
 30
0.0
  0
POINT
  5
16A0
330
15B2
100
AcDbEntity
  8
Defpoints
  6
Continuous
 62
     0
100
AcDbPoint
 10
250.1121089700549
 20
412.2153063334041
 30
0.0
  0
ENDBLK
  5
15BD
330
15B2
100
AcDbEntity
  8
0
100
AcDbBlockEnd
  0
BLOCK
  5
15C8
330
15BE
100
AcDbEntity
  8
0
100
AcDbBlockBegin
  2
*D76
 70
     1
 10
0.0
 20
0.0
 30
0.0
  3
*D76
  1

  0
LINE
  5
16D9
330
15BE
100
AcDbEntity
  8
LAYER_1
  6
Continuous
 62
     0
370
    -2
100
AcDbLine
 10
330.1121089700549
 20
395.8761348683161
 30
0.0
 11
330.1121089700549
 21
413.2153063334042
 31
0.0
  0
LINE
  5
16DA
330
15BE
100
AcDbEntity
  8
LAYER_1
  6
Continuous
 62
     0
370
    -2
100
AcDbLine
 10
373.1121089700549
 20
396.9653063334031
 30
0.0
 11
373.1121089700549
 21
413.2153063334042
 31
0.0
  0
LINE
  5
16DB
330
15BE
100
AcDbEntity
  8
LAYER_1
  6
Continuous
 62
     0
370
    -2
100
AcDbLine
 10
336.1121089700549
 20
412.2153063334041
 30
0.0
 11
367.1121089700549
 21
412.2153063334041
 31
0.0
  0
INSERT
  5
16DC
330
15BE
100
AcDbEntity
  8
LAYER_1
  6
Continuous
 62
     0
370
    -2
100
AcDbBlockReference
  2
_OPEN
 10
330.1121089700549
 20
412.2153063334041
 30
0.0
 41
6.0
 42
6.0
 43
6.0
 50
180.0
  0
INSERT
  5
16DD
330
15BE
100
AcDbEntity
  8
LAYER_1
  6
Continuous
 62
     0
370
    -2
100
AcDbBlockReference
  2
_OPEN
 10
373.1121089700549
 20
412.2153063334041
 30
0.0
 41
6.0
 42
6.0
 43
6.0
  0
MTEXT
  5
16DE
330
15BE
100
AcDbEntity
  8
LAYER_1
  6
Continuous
 62
     0
100
AcDbMText
 10
351.6121089700549
 20
415.9153063334041
 30
0.0
 40
5.4
 41
0.0
 71
     5
 72
     1
  1
\A1;43.00
  7
ＭＳ_ゴシック
 73
     1
 44
1.0
  0
POINT
  5
16DF
330
15BE
100
AcDbEntity
  8
Defpoints
  6
Continuous
 62
     0
100
AcDbPoint
 10
330.1121089700549
 20
394.8761348683161
 30
0.0
  0
POINT
  5
16E0
330
15BE
100
AcDbEntity
  8
Defpoints
  6
Continuous
 62
     0
100
AcDbPoint
 10
373.1121089700549
 20
395.9653063334032
 30
0.0
  0
POINT
  5
16E1
330
15BE
100
AcDbEntity
  8
Defpoints
  6
Continuous
 62
     0
100
AcDbPoint
 10
373.1121089700549
 20
412.2153063334041
 30
0.0
  0
ENDBLK
  5
15C9
330
15BE
100
AcDbEntity
  8
0
100
AcDbBlockEnd
  0
BLOCK
  5
15D4
330
15CA
100
AcDbEntity
  8
0
100
AcDbBlockBegin
  2
*D77
 70
     1
 10
0.0
 20
0.0
 30
0.0
  3
*D77
  1

  0
LINE
  5
1670
330
15CA
100
AcDbEntity
  8
LAYER_1
  6
Continuous
 62
     0
370
    -2
100
AcDbLine
 10
250.1121089700549
 20
397.9153063334031
 30
0.0
 11
250.1121089700549
 21
413.2153063334042
 31
0.0
  0
LINE
  5
1671
330
15CA
100
AcDbEntity
  8
LAYER_1
  6
Continuous
 62
     0
370
    -2
100
AcDbLine
 10
330.1121089700549
 20
395.8761348683161
 30
0.0
 11
330.1121089700549
 21
413.2153063334042
 31
0.0
  0
LINE
  5
1672
330
15CA
100
AcDbEntity
  8
LAYER_1
  6
Continuous
 62
     0
370
    -2
100
AcDbLine
 10
256.1121089700549
 20
412.2153063334041
 30
0.0
 11
324.1121089700549
 21
412.2153063334041
 31
0.0
  0
INSERT
  5
1673
330
15CA
100
AcDbEntity
  8
LAYER_1
  6
Continuous
 62
     0
370
    -2
100
AcDbBlockReference
  2
_OPEN
 10
250.1121089700549
 20
412.2153063334041
 30
0.0
 41
6.0
 42
6.0
 43
6.0
 50
180.0
  0
INSERT
  5
1674
330
15CA
100
AcDbEntity
  8
LAYER_1
  6
Continuous
 62
     0
370
    -2
100
AcDbBlockReference
  2
_OPEN
 10
330.1121089700549
 20
412.2153063334041
 30
0.0
 41
6.0
 42
6.0
 43
6.0
  0
MTEXT
  5
1675
330
15CA
100
AcDbEntity
  8
LAYER_1
  6
Continuous
 62
     0
100
AcDbMText
 10
290.1121089700549
 20
415.9153063334041
 30
0.0
 40
5.4
 41
0.0
 71
     5
 72
     1
  1
\A1;80.00
  7
ＭＳ_ゴシック
 73
     1
 44
1.0
  0
POINT
  5
1676
330
15CA
100
AcDbEntity
  8
Defpoints
  6
Continuous
 62
     0
100
AcDbPoint
 10
250.1121089700549
 20
396.9153063334031
 30
0.0
  0
POINT
  5
1677
330
15CA
100
AcDbEntity
  8
Defpoints
  6
Continuous
 62
     0
100
AcDbPoint
 10
330.1121089700549
 20
394.8761348683161
 30
0.0
  0
POINT
  5
1678
330
15CA
100
AcDbEntity
  8
Defpoints
  6
Continuous
 62
     0
100
AcDbPoint
 10
330.1121089700549
 20
412.2153063334041
 30
0.0
  0
ENDBLK
  5
15D5
330
15CA
100
AcDbEntity
  8
0
100
AcDbBlockEnd
  0
ENDSEC
  0
SECTION
  2
ENTITIES
  0
LINE
  5
DB3
330
A
100
AcDbEntity
  8
LAYER_1
  6
Continuous
 62
     7
100
AcDbLine
 10
211.1121089700549
 20
385.4153063334041
 30
0.0
 11
211.1121089700549
 21
391.2153063334042
 31
0.0
  0
LINE
  5
DB4
330
A
100
AcDbEntity
  8
LAYER_1
  6
Continuous
 62
     7
100
AcDbLine
 10
211.1121089700549
 20
397.0153063334041
 30
0.0
 11
211.1121089700549
 21
391.2153063334042
 31
0.0
  0
DIMENSION
  5
DB5
330
A
100
AcDbEntity
  8
LAYER_1
  6
Continuous
 62
     7
100
AcDbDimension
  2
*D74
 10
393.1121089700549
 20
398.5653063334031
 30
0.0
 11
402.4039871426436
 21
408.2653063334032
 31
0.0
 70
    32
 71
     5
 42
14.70000000000004
  3
MARK2_DIMSTYLE
100
AcDbAlignedDimension
 13
367.7996913361099
 23
383.8653063334031
 33
0.0
 14
367.7996913361099
 24
398.5653063334032
 34
0.0
 50
90.0
100
AcDbRotatedDimension
1001
ACAD
1000
DSTYLE
1002
{
1070
    41
1040
6.0
1070
   140
1040
5.4
1002
}
  0
DIMENSION
  5
DB6
330
A
100
AcDbEntity
  8
LAYER_1
  6
Continuous
 62
     7
100
AcDbDimension
  2
*D75
 10
250.1121089700549
 20
412.2153063334041
 30
0.0
 11
221.1121089700549
 21
415.9153063334041
 31
0.0
 70
    32
 71
     5
 42
58.0
  3
MARK2_DIMSTYLE
100
AcDbAlignedDimension
 13
192.1121089700549
 23
396.1153063334041
 33
0.0
 14
250.1121089700549
 24
396.9153063334031
 34
0.0
100
AcDbRotatedDimension
1001
ACAD
1000
DSTYLE
1002
{
1070
    41
1040
6.0
1070
   140
1040
5.4
1002
}
  0
DIMENSION
  5
DB7
330
A
100
AcDbEntity
  8
LAYER_1
  6
Continuous
 62
     7
100
AcDbDimension
  2
*D77
 10
330.1121089700549
 20
412.2153063334041
 30
0.0
 11
290.1121089700549
 21
415.9153063334041
 31
0.0
 70
    32
 71
     5
 42
80.0
  3
MARK2_DIMSTYLE
100
AcDbAlignedDimension
 13
250.1121089700549
 23
396.9153063334031
 33
0.0
 14
330.1121089700549
 24
394.8761348683161
 34
0.0
100
AcDbRotatedDimension
1001
ACAD
1000
DSTYLE
1002
{
1070
    41
1040
6.0
1070
   140
1040
5.4
1002
}
  0
DIMENSION
  5
DB8
330
A
100
AcDbEntity
  8
LAYER_1
  6
Continuous
 62
     7
100
AcDbDimension
  2
*D76
 10
373.1121089700549
 20
412.2153063334041
 30
0.0
 11
351.6121089700549
 21
415.9153063334041
 31
0.0
 70
    32
 71
     5
 42
43.0
  3
MARK2_DIMSTYLE
100
AcDbAlignedDimension
 13
330.1121089700549
 23
394.8761348683161
 33
0.0
 14
373.1121089700549
 24
395.9653063334032
 34
0.0
100
AcDbRotatedDimension
1001
ACAD
1000
DSTYLE
1002
{
1070
    41
1040
6.0
1070
   140
1040
5.4
1002
}
  0
LWPOLYLINE
  5
DB9
330
A
100
AcDbEntity
  8
LAYER_1
  6
Continuous
 62
     7
100
AcDbPolyline
 90
        4
 70
     1
 43
0.0
 10
270.1121089700549
 20
394.5153063334031
 10
299.4936472011888
 20
394.5153063334031
 10
299.4936472011888
 20
341.6929716970191
 10
270.1121089700549
 20
341.6929716970191
  0
DIMENSION
  5
DCB
330
A
100
AcDbEntity
  8
LAYER_1
  6
Continuous
 62
     7
100
AcDbDimension
  2
*D73
 10
177.1121089700549
 20
397.2153063334042
 30
0.0
 11
186.4039871426436
 21
412.9153063334042
 31
0.0
 70
    32
 71
     5
 42
12.0
  3
MARK2_DIMSTYLE
100
AcDbAlignedDimension
 13
192.3121089700549
 23
385.2153063334042
 33
0.0
 14
192.3121089700549
 24
397.2153063334042
 34
0.0
 50
90.0
100
AcDbRotatedDimension
1001
ACAD
1000
DSTYLE
1002
{
1070
    41
1040
6.0
1070
   140
1040
5.4
1002
}
  0
LINE
  5
DCD
330
A
100
AcDbEntity
  8
LAYER_1
  6
Continuous
 62
     7
100
AcDbLine
 10
210.9121089700549
 20
385.2153063334042
 30
0.0
 11
211.1121089700549
 21
385.4153063334041
 31
0.0
  0
LINE
  5
DCE
330
A
100
AcDbEntity
  8
LAYER_1
  6
Continuous
 62
     7
100
AcDbLine
 10
192.1121089700549
 20
385.4153063334041
 30
0.0
 11
192.1121089700549
 21
391.2153063334042
 31
0.0
  0
LINE
  5
DCF
330
A
100
AcDbEntity
  8
LAYER_1
  6
Continuous
 62
     7
100
AcDbLine
 10
192.1121089700549
 20
397.0153063334041
 30
0.0
 11
192.1121089700549
 21
391.2153063334042
 31
0.0
  0
LINE
  5
DD0
330
A
100
AcDbEntity
  8
LAYER_1
  6
Continuous
 62
     7
100
AcDbLine
 10
192.3121089700549
 20
397.2153063334042
 30
0.0
 11
192.1121089700549
 21
397.0153063334041
 31
0.0
  0
LINE
  5
DD1
330
A
100
AcDbEntity
  8
LAYER_1
  6
Continuous
 62
     7
100
AcDbLine
 10
192.3121089700549
 20
385.2153063334042
 30
0.0
 11
192.1121089700549
 21
385.4153063334041
 31
0.0
  0
LWPOLYLINE
  5
DD2
330
A
100
AcDbEntity
  8
LAYER_1
  6
Continuous
 62
     7
100
AcDbPolyline
 90
        2
 70
     0
 43
0.0
 10
192.3121089700549
 20
397.2153063334042
 10
210.9121089700549
 20
397.2153063334042
  0
LWPOLYLINE
  5
DD6
330
A
100
AcDbEntity
  8
LAYER_1
  6
Continuous
 62
     7
100
AcDbPolyline
 90
        2
 70
     0
 43
0.0
 10
192.3121089700549
 20
385.2153063334042
 10
210.9121089700549
 20
385.2153063334042
  0
LINE
  5
DDA
330
A
100
AcDbEntity
  8
LAYER_1
  6
Continuous
 62
     7
100
AcDbLine
 10
210.9121089700549
 20
397.2153063334042
 30
0.0
 11
211.1121089700549
 21
397.0153063334041
 31
0.0
  0
LINE
  5
DDB
330
A
100
AcDbEntity
  8
LAYER_1
  6
Continuous
 62
     7
100
AcDbLine
 10
250.1121089700549
 20
396.9153063334031
 30
0.0
 11
250.1121089700549
 21
391.2153063334042
 31
0.0
  0
LINE
  5
DDC
330
A
100
AcDbEntity
  8
LAYER_1
  6
Continuous
 62
     7
100
AcDbLine
 10
249.8121089700549
 20
397.2153063334031
 30
0.0
 11
250.1121089700549
 21
396.9153063334031
 31
0.0
  0
LINE
  5
DDD
330
A
100
AcDbEntity
  8
LAYER_1
  6
Continuous
 62
     7
100
AcDbLine
 10
250.1121089700549
 20
385.5153063334031
 30
0.0
 11
250.1121089700549
 21
391.2153063334031
 31
0.0
  0
LINE
  5
DDE
330
A
100
AcDbEntity
  8
LAYER_1
  6
Continuous
 62
     7
100
AcDbLine
 10
249.8121089700549
 20
385.2153063334042
 30
0.0
 11
250.1121089700549
 21
385.5153063334031
 31
0.0
  0
LINE
  5
DDF
330
A
100
AcDbEntity
  8
LAYER_1
  6
Continuous
 62
     7
100
AcDbLine
 10
211.3121089700549
 20
397.2153063334042
 30
0.0
 11
249.8121089700559
 21
397.2153063334031
 31
0.0
  0
LINE
  5
DE0
330
A
100
AcDbEntity
  8
LAYER_1
  6
Continuous
 62
     7
100
AcDbLine
 10
211.3121089700549
 20
385.2153063334042
 30
0.0
 11
249.8121089700549
 21
385.2153063334042
 31
0.0
  0
LINE
  5
DE1
330
A
100
AcDbEntity
  8
LAYER_1
  6
Continuous
 62
     7
100
AcDbLine
 10
211.3121089700549
 20
397.2153063334042
 30
0.0
 11
211.1121089700549
 21
397.0153063334041
 31
0.0
  0
LINE
  5
DE2
330
A
100
AcDbEntity
  8
LAYER_1
  6
Continuous
 62
     7
100
AcDbLine
 10
211.3121089700549
 20
385.2153063334042
 30
0.0
 11
211.1121089700549
 21
385.4153063334041
 31
0.0
  0
ARC
  5
DE3
330
A
100
AcDbEntity
  8
LAYER_1
  6
Continuous
 62
     7
100
AcDbCircle
 10
330.6121089700549
 20
394.8761348683161
 30
0.0
 40
0.5
100
AcDbArc
 50
99.50429865573802
 51
180.0
  0
ARC
  5
DE4
330
A
100
AcDbEntity
  8
LAYER_1
  6
Continuous
 62
     7
100
AcDbCircle
 10
330.6121089700549
 20
387.5544777984901
 30
0.0
 40
0.5
100
AcDbArc
 50
180.0
 51
260.495701344262
  0
LINE
  5
DE5
330
A
100
AcDbEntity
  8
LAYER_1
  6
Continuous
 62
     7
100
AcDbLine
 10
330.1121089700549
 20
394.8761348683161
 30
0.0
 11
330.1121089700549
 21
387.5544777984901
 31
0.0
  0
LINE
  5
DE6
330
A
100
AcDbEntity
  8
LAYER_1
  6
Continuous
 62
     7
100
AcDbLine
 10
350.3460088615638
 20
398.0264592362122
 30
0.0
 11
352.2867869688049
 21
396.5655239766021
 31
0.0
  0
LINE
  5
DE7
330
A
100
AcDbEntity
  8
LAYER_1
  6
Continuous
 62
     7
100
AcDbLine
 10
350.3460088615638
 20
398.0264592362122
 30
0.0
 11
345.6634643794659
 21
398.0264592362122
 31
0.0
  0
LINE
  5
DE8
330
A
100
AcDbEntity
  8
LAYER_1
  6
Continuous
 62
     7
100
AcDbLine
 10
355.4782883684329
 20
398.0264592362122
 30
0.0
 11
353.537510261192
 21
396.5655239766021
 31
0.0
  0
LINE
  5
DE9
330
A
100
AcDbEntity
  8
LAYER_1
  6
Continuous
 62
     7
100
AcDbLine
 10
356.8601271614159
 20
398.0264592362122
 30
0.0
 11
357.3436020607779
 21
398.5653063334032
 31
0.0
  0
LINE
  5
DEA
330
A
100
AcDbEntity
  8
LAYER_1
  6
Continuous
 62
     7
100
AcDbLine
 10
356.8601271614159
 20
398.0264592362122
 30
0.0
 11
355.4782883684329
 21
398.0264592362122
 31
0.0
  0
LINE
  5
DEB
330
A
100
AcDbEntity
  8
LAYER_1
  6
Continuous
 62
     7
100
AcDbLine
 10
353.537510261192
 20
396.5655239766021
 30
0.0
 11
352.2867869688049
 21
396.5655239766021
 31
0.0
  0
LINE
  5
DEC
330
A
100
AcDbEntity
  8
LAYER_1
  6
Continuous
 62
     7
100
AcDbLine
 10
350.3460088615638
 20
384.404153430594
 30
0.0
 11
352.2867869688049
 21
385.8650886902042
 31
0.0
  0
LINE
  5
DED
330
A
100
AcDbEntity
  8
LAYER_1
  6
Continuous
 62
     7
100
AcDbLine
 10
350.3460088615638
 20
384.404153430594
 30
0.0
 11
345.6634643794659
 21
384.404153430594
 31
0.0
  0
LINE
  5
DEE
330
A
100
AcDbEntity
  8
LAYER_1
  6
Continuous
 62
     7
100
AcDbLine
 10
355.4782883684329
 20
384.404153430594
 30
0.0
 11
353.537510261192
 21
385.8650886902042
 31
0.0
  0
LINE
  5
DEF
330
A
100
AcDbEntity
  8
LAYER_1
  6
Continuous
 62
     7
100
AcDbLine
 10
356.8601271614159
 20
384.404153430594
 30
0.0
 11
357.3436020607779
 21
383.8653063334031
 31
0.0
  0
LINE
  5
DF0
330
A
100
AcDbEntity
  8
LAYER_1
  6
Continuous
 62
     7
100
AcDbLine
 10
356.8601271614159
 20
384.404153430594
 30
0.0
 11
355.4782883684329
 21
384.404153430594
 31
0.0
  0
LINE
  5
DF1
330
A
100
AcDbEntity
  8
LAYER_1
  6
Continuous
 62
     7
100
AcDbLine
 10
353.537510261192
 20
385.8650886902042
 30
0.0
 11
352.2867869688049
 21
385.8650886902042
 31
0.0
  0
LINE
  5
DF2
330
A
100
AcDbEntity
  8
LAYER_1
  6
Continuous
 62
     7
100
AcDbLine
 10
345.6634643794659
 20
398.0264592362122
 30
0.0
 11
345.6634643794659
 21
384.404153430594
 31
0.0
  0
LINE
  5
DF3
330
A
100
AcDbEntity
  8
LAYER_1
  6
Continuous
 62
     7
100
AcDbLine
 10
357.3436020607779
 20
398.5653063334032
 30
0.0
 11
357.3436020607779
 21
383.8653063334031
 31
0.0
  0
LINE
  5
DF4
330
A
100
AcDbEntity
  8
LAYER_1
  6
Continuous
 62
     7
100
AcDbLine
 10
356.8601271614159
 20
398.0264592362122
 30
0.0
 11
356.8601271614159
 21
384.404153430594
 31
0.0
  0
LINE
  5
DF5
330
A
100
AcDbEntity
  8
LAYER_1
  6
Continuous
 62
     7
100
AcDbLine
 10
355.4782883684329
 20
398.0264592362122
 30
0.0
 11
355.4782883684329
 21
384.404153430594
 31
0.0
  0
LINE
  5
DF6
330
A
100
AcDbEntity
  8
LAYER_1
  6
Continuous
 62
     7
100
AcDbLine
 10
354.5078993148119
 20
397.2959916064071
 30
0.0
 11
354.5078993148119
 21
385.1346210603991
 31
0.0
  0
LINE
  5
DF7
330
A
100
AcDbEntity
  8
LAYER_1
  6
Continuous
 62
     7
100
AcDbLine
 10
353.537510261192
 20
396.5655239766021
 30
0.0
 11
353.537510261192
 21
385.8650886902042
 31
0.0
  0
LINE
  5
DF8
330
A
100
AcDbEntity
  8
LAYER_1
  6
Continuous
 62
     7
100
AcDbLine
 10
352.2867869688049
 20
396.5655239766021
 30
0.0
 11
352.2867869688049
 21
385.8650886902042
 31
0.0
  0
LINE
  5
DF9
330
A
100
AcDbEntity
  8
LAYER_1
  6
Continuous
 62
     7
100
AcDbLine
 10
350.3460088615638
 20
398.0264592362122
 30
0.0
 11
350.3460088615638
 21
384.404153430594
 31
0.0
  0
LINE
  5
DFA
330
A
100
AcDbEntity
  8
LAYER_1
  6
Continuous
 62
     7
100
AcDbLine
 10
345.6634643794659
 20
385.4307822850961
 30
0.0
 11
330.5295481689759
 21
387.0613411905161
 31
0.0
  0
LINE
  5
DFB
330
A
100
AcDbEntity
  8
LAYER_1
  6
Continuous
 62
     7
100
AcDbLine
 10
345.6634643794659
 20
396.9998303817101
 30
0.0
 11
330.5295481689759
 21
395.3692714762911
 31
0.0
  0
LINE
  5
DFC
330
A
100
AcDbEntity
  8
LAYER_1
  6
Continuous
 62
     7
100
AcDbLine
 10
362.5419245855798
 20
398.0264592362122
 30
0.0
 11
361.6499857202069
 21
398.0264592362122
 31
0.0
  0
LINE
  5
DFD
330
A
100
AcDbEntity
  8
LAYER_1
  6
Continuous
 62
     7
100
AcDbLine
 10
362.5419245855798
 20
398.0264592362122
 30
0.0
 11
363.0253994849419
 21
398.5653063334032
 31
0.0
  0
LINE
  5
DFE
330
A
100
AcDbEntity
  8
LAYER_1
  6
Continuous
 62
     7
100
AcDbLine
 10
361.6499857202069
 20
398.0264592362122
 30
0.0
 11
361.1665108208439
 21
398.5653063334032
 31
0.0
  0
LINE
  5
DFF
330
A
100
AcDbEntity
  8
LAYER_1
  6
Continuous
 62
     7
100
AcDbLine
 10
368.2831662354718
 20
398.0264592362122
 30
0.0
 11
367.7996913361099
 21
398.5653063334032
 31
0.0
  0
LINE
  5
E00
330
A
100
AcDbEntity
  8
LAYER_1
  6
Continuous
 62
     7
100
AcDbLine
 10
367.7996913361099
 20
398.5653063334032
 30
0.0
 11
363.0253994849419
 21
398.5653063334032
 31
0.0
  0
LINE
  5
E01
330
A
100
AcDbEntity
  8
LAYER_1
  6
Continuous
 62
     7
100
AcDbLine
 10
372.3322520948158
 20
395.9653063334032
 30
0.0
 11
373.1121089700549
 21
395.9653063334032
 31
0.0
  0
LINE
  5
E02
330
A
100
AcDbEntity
  8
LAYER_1
  6
Continuous
 62
     7
100
AcDbLine
 10
372.3322520948158
 20
398.0264592362122
 30
0.0
 11
368.2831662354718
 21
398.0264592362122
 31
0.0
  0
LINE
  5
E03
330
A
100
AcDbEntity
  8
LAYER_1
  6
Continuous
 62
     7
100
AcDbLine
 10
362.5419245855798
 20
384.404153430594
 30
0.0
 11
361.6499857202069
 21
384.404153430594
 31
0.0
  0
LINE
  5
E04
330
A
100
AcDbEntity
  8
LAYER_1
  6
Continuous
 62
     7
100
AcDbLine
 10
362.5419245855798
 20
384.404153430594
 30
0.0
 11
363.0253994849419
 21
383.8653063334031
 31
0.0
  0
LINE
  5
E05
330
A
100
AcDbEntity
  8
LAYER_1
  6
Continuous
 62
     7
100
AcDbLine
 10
361.6499857202069
 20
384.404153430594
 30
0.0
 11
361.1665108208439
 21
383.8653063334031
 31
0.0
  0
LINE
  5
E06
330
A
100
AcDbEntity
  8
LAYER_1
  6
Continuous
 62
     7
100
AcDbLine
 10
368.2831662354718
 20
384.404153430594
 30
0.0
 11
367.7996913361099
 21
383.8653063334031
 31
0.0
  0
LINE
  5
E07
330
A
100
AcDbEntity
  8
LAYER_1
  6
Continuous
 62
     7
100
AcDbLine
 10
367.7996913361099
 20
383.8653063334031
 30
0.0
 11
363.0253994849419
 21
383.8653063334031
 31
0.0
  0
LINE
  5
E08
330
A
100
AcDbEntity
  8
LAYER_1
  6
Continuous
 62
     7
100
AcDbLine
 10
372.3322520948158
 20
386.4653063334031
 30
0.0
 11
373.1121089700549
 21
386.4653063334031
 31
0.0
  0
LINE
  5
E09
330
A
100
AcDbEntity
  8
LAYER_1
  6
Continuous
 62
     7
100
AcDbLine
 10
372.3322520948158
 20
384.404153430594
 30
0.0
 11
368.2831662354718
 21
384.404153430594
 31
0.0
  0
LINE
  5
E0A
330
A
100
AcDbEntity
  8
LAYER_1
  6
Continuous
 62
     7
100
AcDbLine
 10
373.1121089700549
 20
395.9653063334032
 30
0.0
 11
373.1121089700549
 21
386.4653063334031
 31
0.0
  0
LINE
  5
E0B
330
A
100
AcDbEntity
  8
LAYER_1
  6
Continuous
 62
     7
100
AcDbLine
 10
368.2831662354718
 20
398.0264592362122
 30
0.0
 11
368.2831662354718
 21
384.404153430594
 31
0.0
  0
LINE
  5
E0C
330
A
100
AcDbEntity
  8
LAYER_1
  6
Continuous
 62
     7
100
AcDbLine
 10
367.7996913361099
 20
398.5653063334032
 30
0.0
 11
367.7996913361099
 21
383.8653063334031
 31
0.0
  0
LINE
  5
E0D
330
A
100
AcDbEntity
  8
LAYER_1
  6
Continuous
 62
     7
100
AcDbLine
 10
363.0253994849419
 20
398.5653063334032
 30
0.0
 11
363.0253994849419
 21
383.8653063334031
 31
0.0
  0
LINE
  5
E0E
330
A
100
AcDbEntity
  8
LAYER_1
  6
Continuous
 62
     7
100
AcDbLine
 10
362.5419245855798
 20
398.0264592362122
 30
0.0
 11
362.5419245855798
 21
384.404153430594
 31
0.0
  0
LINE
  5
E0F
330
A
100
AcDbEntity
  8
LAYER_1
  6
Continuous
 62
     7
100
AcDbLine
 10
361.6499857202069
 20
398.0264592362122
 30
0.0
 11
361.6499857202069
 21
384.404153430594
 31
0.0
  0
LINE
  5
E10
330
A
100
AcDbEntity
  8
LAYER_1
  6
Continuous
 62
     7
100
AcDbLine
 10
361.1665108208439
 20
398.5653063334032
 30
0.0
 11
361.1665108208439
 21
383.8653063334031
 31
0.0
  0
LINE
  5
E11
330
A
100
AcDbEntity
  8
LAYER_1
  6
Continuous
 62
     7
100
AcDbLine
 10
372.3322520948158
 20
384.404153430594
 30
0.0
 11
372.3322520948158
 21
398.0264592362122
 31
0.0
  0
LINE
  5
E12
330
A
100
AcDbEntity
  8
LAYER_1
  6
Continuous
 62
     7
100
AcDbLine
 10
361.1665108208439
 20
383.8653063334031
 30
0.0
 11
357.3436020607779
 21
383.8653063334031
 31
0.0
  0
LINE
  5
E13
330
A
100
AcDbEntity
  8
LAYER_1
  6
Continuous
 62
     7
100
AcDbLine
 10
361.1665108208439
 20
398.5653063334032
 30
0.0
 11
357.3436020607779
 21
398.5653063334032
 31
0.0
  0
LINE
  5
E14
330
A
100
AcDbEntity
  8
LAYER_1
  6
Continuous
 62
     7
100
AcDbLine
 10
367.7996913361108
 20
397.7952982814841
 30
0.0
 11
367.0296832841909
 21
398.5653063334032
 31
0.0
  0
LINE
  5
E15
330
A
100
AcDbEntity
  8
LAYER_1
  6
Continuous
 62
     7
100
AcDbLine
 10
367.7996913361108
 20
396.8972726693771
 30
0.0
 11
366.1316576720838
 21
398.5653063334032
 31
0.0
  0
LINE
  5
E16
330
A
100
AcDbEntity
  8
LAYER_1
  6
Continuous
 62
     7
100
AcDbLine
 10
367.7996913361099
 20
395.9992470572701
 30
0.0
 11
365.2336320599768
 21
398.5653063334032
 31
0.0
  0
LINE
  5
E17
330
A
100
AcDbEntity
  8
LAYER_1
  6
Continuous
 62
     7
100
AcDbLine
 10
367.7996913361099
 20
395.1012214451631
 30
0.0
 11
364.3356064478698
 21
398.5653063334032
 31
0.0
  0
LINE
  5
E18
330
A
100
AcDbEntity
  8
LAYER_1
  6
Continuous
 62
     7
100
AcDbLine
 10
367.7996913361099
 20
394.2031958330561
 30
0.0
 11
363.4375808357639
 21
398.5653063334032
 31
0.0
  0
LINE
  5
E19
330
A
100
AcDbEntity
  8
LAYER_1
  6
Continuous
 62
     7
100
AcDbLine
 10
367.7996913361099
 20
393.305170220949
 30
0.0
 11
363.0253994849419
 21
398.0794620721182
 31
0.0
  0
LINE
  5
E1A
330
A
100
AcDbEntity
  8
LAYER_1
  6
Continuous
 62
     7
100
AcDbLine
 10
367.7996913361108
 20
392.4071446088421
 30
0.0
 11
363.0253994849419
 21
397.1814364600111
 31
0.0
  0
LINE
  5
E1B
330
A
100
AcDbEntity
  8
LAYER_1
  6
Continuous
 62
     7
100
AcDbLine
 10
367.7996913361108
 20
391.5091189967352
 30
0.0
 11
363.0253994849419
 21
396.2834108479041
 31
0.0
  0
LINE
  5
E1C
330
A
100
AcDbEntity
  8
LAYER_1
  6
Continuous
 62
     7
100
AcDbLine
 10
361.1665108208439
 20
398.1422995120011
 30
0.0
 11
360.7435039994419
 21
398.5653063334032
 31
0.0
  0
LINE
  5
E1D
330
A
100
AcDbEntity
  8
LAYER_1
  6
Continuous
 62
     7
100
AcDbLine
 10
367.7996913361108
 20
390.6110933846281
 30
0.0
 11
367.1954783873359
 21
391.2153063334031
 31
0.0
  0
LINE
  5
E1E
330
A
100
AcDbEntity
  8
LAYER_1
  6
Continuous
 62
     7
100
AcDbLine
 10
361.1665108208439
 20
397.2442738998941
 30
0.0
 11
359.8454783873358
 21
398.5653063334032
 31
0.0
  0
LINE
  5
E1F
330
A
100
AcDbEntity
  8
LAYER_1
  6
Continuous
 62
     7
100
AcDbLine
 10
367.1954783873359
 20
391.2153063334031
 30
0.0
 11
363.0253994849419
 21
395.3853852357971
 31
0.0
  0
LINE
  5
E20
330
A
100
AcDbEntity
  8
LAYER_1
  6
Continuous
 62
     7
100
AcDbLine
 10
367.7996913361099
 20
389.713067772522
 30
0.0
 11
366.2974527752288
 21
391.2153063334031
 31
0.0
  0
LINE
  5
E21
330
A
100
AcDbEntity
  8
LAYER_1
  6
Continuous
 62
     7
100
AcDbLine
 10
361.1665108208439
 20
396.3462482877881
 30
0.0
 11
358.9474527752288
 21
398.5653063334032
 31
0.0
  0
LINE
  5
E22
330
A
100
AcDbEntity
  8
LAYER_1
  6
Continuous
 62
     7
100
AcDbLine
 10
366.2974527752288
 20
391.2153063334031
 30
0.0
 11
363.0253994849419
 21
394.48735962369
 31
0.0
  0
LINE
  5
E23
330
A
100
AcDbEntity
  8
LAYER_1
  6
Continuous
 62
     7
100
AcDbLine
 10
367.7996913361108
 20
388.8150421604141
 30
0.0
 11
365.3994271631219
 21
391.2153063334031
 31
0.0
  0
LINE
  5
E24
330
A
100
AcDbEntity
  8
LAYER_1
  6
Continuous
 62
     7
100
AcDbLine
 10
361.1665108208439
 20
395.4482226756811
 30
0.0
 11
358.0494271631219
 21
398.5653063334032
 31
0.0
  0
LINE
  5
E25
330
A
100
AcDbEntity
  8
LAYER_1
  6
Continuous
 62
     7
100
AcDbLine
 10
365.3994271631219
 20
391.2153063334031
 30
0.0
 11
363.0253994849419
 21
393.5893340115831
 31
0.0
  0
LINE
  5
E26
330
A
100
AcDbEntity
  8
LAYER_1
  6
Continuous
 62
     7
100
AcDbLine
 10
367.7996913361099
 20
387.9170165483082
 30
0.0
 11
364.5014015510149
 21
391.2153063334031
 31
0.0
  0
LINE
  5
E27
330
A
100
AcDbEntity
  8
LAYER_1
  6
Continuous
 62
     7
100
AcDbLine
 10
361.1665108208439
 20
394.5501970635741
 30
0.0
 11
357.3436020607779
 21
398.3731058236401
 31
0.0
  0
LINE
  5
E28
330
A
100
AcDbEntity
  8
LAYER_1
  6
Continuous
 62
     7
100
AcDbLine
 10
364.5014015510149
 20
391.2153063334031
 30
0.0
 11
363.0253994849419
 21
392.6913083994761
 31
0.0
  0
LINE
  5
E29
330
A
100
AcDbEntity
  8
LAYER_1
  6
Continuous
 62
     7
100
AcDbLine
 10
367.7996913361099
 20
387.0189909362011
 30
0.0
 11
363.6033759389079
 21
391.2153063334031
 31
0.0
  0
LINE
  5
E2A
330
A
100
AcDbEntity
  8
LAYER_1
  6
Continuous
 62
     7
100
AcDbLine
 10
361.1665108208439
 20
393.652171451467
 30
0.0
 11
357.3436020607779
 21
397.4750802115331
 31
0.0
  0
LINE
  5
E2B
330
A
100
AcDbEntity
  8
LAYER_1
  6
Continuous
 62
     7
100
AcDbLine
 10
363.6033759389079
 20
391.2153063334031
 30
0.0
 11
363.0253994849419
 21
391.7932827873692
 31
0.0
  0
LINE
  5
E2C
330
A
100
AcDbEntity
  8
LAYER_1
  6
Continuous
 62
     7
100
AcDbLine
 10
367.7996913361108
 20
386.1209653240941
 30
0.0
 11
363.0253994849419
 21
390.8952571752621
 31
0.0
  0
LINE
  5
E2D
330
A
100
AcDbEntity
  8
LAYER_1
  6
Continuous
 62
     7
100
AcDbLine
 10
361.1665108208439
 20
392.7541458393601
 30
0.0
 11
357.3436020607779
 21
396.577054599426
 31
0.0
  0
LINE
  5
E2E
330
A
100
AcDbEntity
  8
LAYER_1
  6
Continuous
 62
     7
100
AcDbLine
 10
367.7996913361108
 20
385.2229397119871
 30
0.0
 11
363.0253994849419
 21
389.9972315631551
 31
0.0
  0
LINE
  5
E2F
330
A
100
AcDbEntity
  8
LAYER_1
  6
Continuous
 62
     7
100
AcDbLine
 10
361.1665108208439
 20
391.8561202272531
 30
0.0
 11
357.3436020607779
 21
395.6790289873191
 31
0.0
  0
LINE
  5
E30
330
A
100
AcDbEntity
  8
LAYER_1
  6
Continuous
 62
     7
100
AcDbLine
 10
367.7996913361108
 20
384.3249140998801
 30
0.0
 11
363.0253994849419
 21
389.0992059510491
 31
0.0
  0
LINE
  5
E31
330
A
100
AcDbEntity
  8
LAYER_1
  6
Continuous
 62
     7
100
AcDbLine
 10
360.9092991025869
 20
391.2153063334031
 30
0.0
 11
357.3436020607779
 21
394.7810033752121
 31
0.0
  0
LINE
  5
E32
330
A
100
AcDbEntity
  8
LAYER_1
  6
Continuous
 62
     7
100
AcDbLine
 10
361.1665108208439
 20
390.9580946151461
 30
0.0
 11
360.9092991025869
 21
391.2153063334031
 31
0.0
  0
LINE
  5
E33
330
A
100
AcDbEntity
  8
LAYER_1
  6
Continuous
 62
     7
100
AcDbLine
 10
367.3612734904809
 20
383.8653063334031
 30
0.0
 11
363.0253994849419
 21
388.2011803389421
 31
0.0
  0
LINE
  5
E34
330
A
100
AcDbEntity
  8
LAYER_1
  6
Continuous
 62
     7
100
AcDbLine
 10
360.0112734904799
 20
391.2153063334031
 30
0.0
 11
357.3436020607779
 21
393.8829777631051
 31
0.0
  0
LINE
  5
E35
330
A
100
AcDbEntity
  8
LAYER_1
  6
Continuous
 62
     7
100
AcDbLine
 10
361.1665108208439
 20
390.0600690030391
 30
0.0
 11
360.0112734904799
 21
391.2153063334031
 31
0.0
  0
LINE
  5
E36
330
A
100
AcDbEntity
  8
LAYER_1
  6
Continuous
 62
     7
100
AcDbLine
 10
366.4632478783728
 20
383.8653063334031
 30
0.0
 11
363.0253994849419
 21
387.3031547268351
 31
0.0
  0
LINE
  5
E37
330
A
100
AcDbEntity
  8
LAYER_1
  6
Continuous
 62
     7
100
AcDbLine
 10
359.1132478783738
 20
391.2153063334031
 30
0.0
 11
357.3436020607779
 21
392.984952150998
 31
0.0
  0
LINE
  5
E38
330
A
100
AcDbEntity
  8
LAYER_1
  6
Continuous
 62
     7
100
AcDbLine
 10
361.1665108208439
 20
389.1620433909321
 30
0.0
 11
359.1132478783738
 21
391.2153063334031
 31
0.0
  0
LINE
  5
E39
330
A
100
AcDbEntity
  8
LAYER_1
  6
Continuous
 62
     7
100
AcDbLine
 10
365.5652222662669
 20
383.8653063334031
 30
0.0
 11
363.0253994849419
 21
386.4051291147282
 31
0.0
  0
LINE
  5
E3A
330
A
100
AcDbEntity
  8
LAYER_1
  6
Continuous
 62
     7
100
AcDbLine
 10
358.2152222662668
 20
391.2153063334031
 30
0.0
 11
357.3436020607779
 21
392.0869265388911
 31
0.0
  0
LINE
  5
E3B
330
A
100
AcDbEntity
  8
LAYER_1
  6
Continuous
 62
     7
100
AcDbLine
 10
361.1665108208439
 20
388.2640177788251
 30
0.0
 11
358.2152222662668
 21
391.2153063334031
 31
0.0
  0
LINE
  5
E3C
330
A
100
AcDbEntity
  8
LAYER_1
  6
Continuous
 62
     7
100
AcDbLine
 10
364.6671966541599
 20
383.8653063334031
 30
0.0
 11
363.0253994849419
 21
385.5071035026211
 31
0.0
  0
LINE
  5
E3D
330
A
100
AcDbEntity
  8
LAYER_1
  6
Continuous
 62
     7
100
AcDbLine
 10
361.1665108208439
 20
387.3659921667181
 30
0.0
 11
357.3436020607779
 21
391.188900926785
 31
0.0
  0
LINE
  5
E3E
330
A
100
AcDbEntity
  8
LAYER_1
  6
Continuous
 62
     7
100
AcDbLine
 10
363.7691710420529
 20
383.8653063334031
 30
0.0
 11
363.0253994849419
 21
384.6090778905141
 31
0.0
  0
LINE
  5
E3F
330
A
100
AcDbEntity
  8
LAYER_1
  6
Continuous
 62
     7
100
AcDbLine
 10
361.1665108208439
 20
386.4679665546111
 30
0.0
 11
357.3436020607779
 21
390.2908753146771
 31
0.0
  0
LINE
  5
E40
330
A
100
AcDbEntity
  8
LAYER_1
  6
Continuous
 62
     7
100
AcDbLine
 10
361.1665108208439
 20
385.569940942504
 30
0.0
 11
357.3436020607779
 21
389.3928497025711
 31
0.0
  0
LINE
  5
E41
330
A
100
AcDbEntity
  8
LAYER_1
  6
Continuous
 62
     7
100
AcDbLine
 10
361.1665108208439
 20
384.6719153303971
 30
0.0
 11
357.3436020607779
 21
388.4948240904641
 31
0.0
  0
LINE
  5
E42
330
A
100
AcDbEntity
  8
LAYER_1
  6
Continuous
 62
     7
100
AcDbLine
 10
361.0750942057318
 20
383.8653063334031
 30
0.0
 11
357.3436020607779
 21
387.5967984783571
 31
0.0
  0
LINE
  5
E43
330
A
100
AcDbEntity
  8
LAYER_1
  6
Continuous
 62
     7
100
AcDbLine
 10
360.1770685936248
 20
383.8653063334031
 30
0.0
 11
357.3436020607779
 21
386.6987728662501
 31
0.0
  0
LINE
  5
E44
330
A
100
AcDbEntity
  8
LAYER_1
  6
Continuous
 62
     7
100
AcDbLine
 10
359.2790429815179
 20
383.8653063334031
 30
0.0
 11
357.3436020607779
 21
385.8007472541432
 31
0.0
  0
LINE
  5
E45
330
A
100
AcDbEntity
  8
LAYER_1
  6
Continuous
 62
     7
100
AcDbLine
 10
358.3810173694109
 20
383.8653063334031
 30
0.0
 11
357.3436020607779
 21
384.9027216420361
 31
0.0
  0
LINE
  5
E46
330
A
100
AcDbEntity
  8
LAYER_1
  6
Continuous
 62
     7
100
AcDbLine
 10
357.4829917573049
 20
383.8653063334031
 30
0.0
 11
357.3436020607779
 21
384.0046960299291
 31
0.0
  0
LINE
  5
E47
330
A
100
AcDbEntity
  8
LAYER_1
  6
Continuous
 62
     7
100
AcDbLine
 10
367.6794182696859
 20
383.8653063334031
 30
0.0
 11
367.7996913361108
 21
383.9855793998271
 31
0.0
  0
LINE
  5
E48
330
A
100
AcDbEntity
  8
LAYER_1
  6
Continuous
 62
     7
100
AcDbLine
 10
366.7813926575799
 20
383.8653063334031
 30
0.0
 11
367.7996913361099
 21
384.8836050119341
 31
0.0
  0
LINE
  5
E49
330
A
100
AcDbEntity
  8
LAYER_1
  6
Continuous
 62
     7
100
AcDbLine
 10
365.8833670454728
 20
383.8653063334031
 30
0.0
 11
367.7996913361099
 21
385.7816306240401
 31
0.0
  0
LINE
  5
E4A
330
A
100
AcDbEntity
  8
LAYER_1
  6
Continuous
 62
     7
100
AcDbLine
 10
364.985341433366
 20
383.8653063334031
 30
0.0
 11
367.7996913361099
 21
386.6796562361471
 31
0.0
  0
LINE
  5
E4B
330
A
100
AcDbEntity
  8
LAYER_1
  6
Continuous
 62
     7
100
AcDbLine
 10
364.0873158212579
 20
383.8653063334031
 30
0.0
 11
367.7996913361108
 21
387.5776818482551
 31
0.0
  0
LINE
  5
E4C
330
A
100
AcDbEntity
  8
LAYER_1
  6
Continuous
 62
     7
100
AcDbLine
 10
363.1892902091518
 20
383.8653063334031
 30
0.0
 11
367.7996913361099
 21
388.4757074603611
 31
0.0
  0
LINE
  5
E4D
330
A
100
AcDbEntity
  8
LAYER_1
  6
Continuous
 62
     7
100
AcDbLine
 10
363.0253994849419
 20
384.5994412213001
 30
0.0
 11
367.7996913361108
 21
389.3737330724681
 31
0.0
  0
LINE
  5
E4E
330
A
100
AcDbEntity
  8
LAYER_1
  6
Continuous
 62
     7
100
AcDbLine
 10
363.0253994849419
 20
385.4974668334061
 30
0.0
 11
367.7996913361108
 21
390.2717586845751
 31
0.0
  0
LINE
  5
E4F
330
A
100
AcDbEntity
  8
LAYER_1
  6
Continuous
 62
     7
100
AcDbLine
 10
360.4952133728309
 20
383.8653063334031
 30
0.0
 11
361.1665108208439
 21
384.5366037814161
 31
0.0
  0
LINE
  5
E50
330
A
100
AcDbEntity
  8
LAYER_1
  6
Continuous
 62
     7
100
AcDbLine
 10
363.0253994849419
 20
386.3954924455141
 30
0.0
 11
367.7996913361108
 21
391.169784296682
 31
0.0
  0
LINE
  5
E51
330
A
100
AcDbEntity
  8
LAYER_1
  6
Continuous
 62
     7
100
AcDbLine
 10
359.5971877607238
 20
383.8653063334031
 30
0.0
 11
361.1665108208439
 21
385.434629393523
 31
0.0
  0
LINE
  5
E52
330
A
100
AcDbEntity
  8
LAYER_1
  6
Continuous
 62
     7
100
AcDbLine
 10
366.9471877607238
 20
391.2153063334031
 30
0.0
 11
367.7996913361108
 21
392.0678099087891
 31
0.0
  0
LINE
  5
E53
330
A
100
AcDbEntity
  8
LAYER_1
  6
Continuous
 62
     7
100
AcDbLine
 10
363.0253994849419
 20
387.2935180576202
 30
0.0
 11
366.9471877607238
 21
391.2153063334031
 31
0.0
  0
LINE
  5
E54
330
A
100
AcDbEntity
  8
LAYER_1
  6
Continuous
 62
     7
100
AcDbLine
 10
358.6991621486169
 20
383.8653063334031
 30
0.0
 11
361.1665108208439
 21
386.3326550056301
 31
0.0
  0
LINE
  5
E55
330
A
100
AcDbEntity
  8
LAYER_1
  6
Continuous
 62
     7
100
AcDbLine
 10
366.0491621486169
 20
391.2153063334031
 30
0.0
 11
367.7996913361099
 21
392.9658355208961
 31
0.0
  0
LINE
  5
E56
330
A
100
AcDbEntity
  8
LAYER_1
  6
Continuous
 62
     7
100
AcDbLine
 10
363.0253994849419
 20
388.1915436697281
 30
0.0
 11
366.0491621486169
 21
391.2153063334031
 31
0.0
  0
LINE
  5
E57
330
A
100
AcDbEntity
  8
LAYER_1
  6
Continuous
 62
     7
100
AcDbLine
 10
357.8011365365099
 20
383.8653063334031
 30
0.0
 11
361.1665108208439
 21
387.2306806177371
 31
0.0
  0
LINE
  5
E58
330
A
100
AcDbEntity
  8
LAYER_1
  6
Continuous
 62
     7
100
AcDbLine
 10
365.1511365365099
 20
391.2153063334031
 30
0.0
 11
367.7996913361099
 21
393.8638611330032
 31
0.0
  0
LINE
  5
E59
330
A
100
AcDbEntity
  8
LAYER_1
  6
Continuous
 62
     7
100
AcDbLine
 10
363.0253994849419
 20
389.0895692818351
 30
0.0
 11
365.1511365365099
 21
391.2153063334031
 31
0.0
  0
LINE
  5
E5A
330
A
100
AcDbEntity
  8
LAYER_1
  6
Continuous
 62
     7
100
AcDbLine
 10
357.3436020607779
 20
384.3057974697771
 30
0.0
 11
361.1665108208439
 21
388.1287062298441
 31
0.0
  0
LINE
  5
E5B
330
A
100
AcDbEntity
  8
LAYER_1
  6
Continuous
 62
     7
100
AcDbLine
 10
364.2531109244039
 20
391.2153063334031
 30
0.0
 11
367.7996913361099
 21
394.7618867451101
 31
0.0
  0
LINE
  5
E5C
330
A
100
AcDbEntity
  8
LAYER_1
  6
Continuous
 62
     7
100
AcDbLine
 10
363.0253994849419
 20
389.9875948939411
 30
0.0
 11
364.2531109244039
 21
391.2153063334031
 31
0.0
  0
LINE
  5
E5D
330
A
100
AcDbEntity
  8
LAYER_1
  6
Continuous
 62
     7
100
AcDbLine
 10
357.3436020607779
 20
385.2038230818851
 30
0.0
 11
361.1665108208439
 21
389.0267318419511
 31
0.0
  0
LINE
  5
E5E
330
A
100
AcDbEntity
  8
LAYER_1
  6
Continuous
 62
     7
100
AcDbLine
 10
363.3550853122968
 20
391.2153063334031
 30
0.0
 11
367.7996913361108
 21
395.659912357217
 31
0.0
  0
LINE
  5
E5F
330
A
100
AcDbEntity
  8
LAYER_1
  6
Continuous
 62
     7
100
AcDbLine
 10
363.0253994849419
 20
390.8856205060481
 30
0.0
 11
363.3550853122968
 21
391.2153063334031
 31
0.0
  0
LINE
  5
E60
330
A
100
AcDbEntity
  8
LAYER_1
  6
Continuous
 62
     7
100
AcDbLine
 10
357.3436020607779
 20
386.1018486939912
 30
0.0
 11
361.1665108208439
 21
389.9247574540581
 31
0.0
  0
LINE
  5
E61
330
A
100
AcDbEntity
  8
LAYER_1
  6
Continuous
 62
     7
100
AcDbLine
 10
363.0253994849419
 20
391.7836461181551
 30
0.0
 11
367.7996913361108
 21
396.5579379693241
 31
0.0
  0
LINE
  5
E62
330
A
100
AcDbEntity
  8
LAYER_1
  6
Continuous
 62
     7
100
AcDbLine
 10
357.3436020607779
 20
386.9998743060981
 30
0.0
 11
361.1665108208439
 21
390.8227830661642
 31
0.0
  0
LINE
  5
E63
330
A
100
AcDbEntity
  8
LAYER_1
  6
Continuous
 62
     7
100
AcDbLine
 10
363.0253994849419
 20
392.6816717302621
 30
0.0
 11
367.7996913361108
 21
397.4559635814311
 31
0.0
  0
LINE
  5
E64
330
A
100
AcDbEntity
  8
LAYER_1
  6
Continuous
 62
     7
100
AcDbLine
 10
357.3436020607779
 20
387.897899918205
 30
0.0
 11
360.6610084759759
 21
391.2153063334031
 31
0.0
  0
LINE
  5
E65
330
A
100
AcDbEntity
  8
LAYER_1
  6
Continuous
 62
     7
100
AcDbLine
 10
363.0253994849419
 20
393.5796973423691
 30
0.0
 11
367.7996913361108
 21
398.3539891935381
 31
0.0
  0
LINE
  5
E66
330
A
100
AcDbEntity
  8
LAYER_1
  6
Continuous
 62
     7
100
AcDbLine
 10
360.6610084759759
 20
391.2153063334031
 30
0.0
 11
361.1665108208439
 21
391.7208086782721
 31
0.0
  0
LINE
  5
E67
330
A
100
AcDbEntity
  8
LAYER_1
  6
Continuous
 62
     7
100
AcDbLine
 10
357.3436020607779
 20
388.7959255303121
 30
0.0
 11
359.7629828638689
 21
391.2153063334031
 31
0.0
  0
LINE
  5
E68
330
A
100
AcDbEntity
  8
LAYER_1
  6
Continuous
 62
     7
100
AcDbLine
 10
363.0253994849419
 20
394.4777229544761
 30
0.0
 11
367.1129828638689
 21
398.5653063334032
 31
0.0
  0
LINE
  5
E69
330
A
100
AcDbEntity
  8
LAYER_1
  6
Continuous
 62
     7
100
AcDbLine
 10
359.7629828638689
 20
391.2153063334031
 30
0.0
 11
361.1665108208439
 21
392.6188342903782
 31
0.0
  0
LINE
  5
E6A
330
A
100
AcDbEntity
  8
LAYER_1
  6
Continuous
 62
     7
100
AcDbLine
 10
357.3436020607779
 20
389.6939511424191
 30
0.0
 11
358.8649572517618
 21
391.2153063334031
 31
0.0
  0
LINE
  5
E6B
330
A
100
AcDbEntity
  8
LAYER_1
  6
Continuous
 62
     7
100
AcDbLine
 10
363.0253994849419
 20
395.375748566583
 30
0.0
 11
366.2149572517619
 21
398.5653063334032
 31
0.0
  0
LINE
  5
E6C
330
A
100
AcDbEntity
  8
LAYER_1
  6
Continuous
 62
     7
100
AcDbLine
 10
358.8649572517618
 20
391.2153063334031
 30
0.0
 11
361.1665108208439
 21
393.516859902485
 31
0.0
  0
LINE
  5
E6D
330
A
100
AcDbEntity
  8
LAYER_1
  6
Continuous
 62
     7
100
AcDbLine
 10
357.3436020607779
 20
390.5919767545261
 30
0.0
 11
357.9669316396549
 21
391.2153063334031
 31
0.0
  0
LINE
  5
E6E
330
A
100
AcDbEntity
  8
LAYER_1
  6
Continuous
 62
     7
100
AcDbLine
 10
363.0253994849419
 20
396.2737741786891
 30
0.0
 11
365.3169316396549
 21
398.5653063334032
 31
0.0
  0
LINE
  5
E6F
330
A
100
AcDbEntity
  8
LAYER_1
  6
Continuous
 62
     7
100
AcDbLine
 10
357.9669316396549
 20
391.2153063334031
 30
0.0
 11
361.1665108208439
 21
394.4148855145921
 31
0.0
  0
LINE
  5
E70
330
A
100
AcDbEntity
  8
LAYER_1
  6
Continuous
 62
     7
100
AcDbLine
 10
357.3436020607779
 20
391.4900023666331
 30
0.0
 11
361.1665108208439
 21
395.3129111266992
 31
0.0
  0
LINE
  5
E71
330
A
100
AcDbEntity
  8
LAYER_1
  6
Continuous
 62
     7
100
AcDbLine
 10
363.0253994849419
 20
397.171799790797
 30
0.0
 11
364.4189060275479
 21
398.5653063334032
 31
0.0
  0
LINE
  5
E72
330
A
100
AcDbEntity
  8
LAYER_1
  6
Continuous
 62
     7
100
AcDbLine
 10
357.3436020607779
 20
392.3880279787401
 30
0.0
 11
361.1665108208439
 21
396.2109367388061
 31
0.0
  0
LINE
  5
E73
330
A
100
AcDbEntity
  8
LAYER_1
  6
Continuous
 62
     7
100
AcDbLine
 10
363.0253994849419
 20
398.0698254029031
 30
0.0
 11
363.5208804154409
 21
398.5653063334032
 31
0.0
  0
LINE
  5
E74
330
A
100
AcDbEntity
  8
LAYER_1
  6
Continuous
 62
     7
100
AcDbLine
 10
357.3436020607779
 20
393.2860535908471
 30
0.0
 11
361.1665108208439
 21
397.1089623509131
 31
0.0
  0
LINE
  5
E75
330
A
100
AcDbEntity
  8
LAYER_1
  6
Continuous
 62
     7
100
AcDbLine
 10
357.3436020607779
 20
394.1840792029541
 30
0.0
 11
361.1665108208439
 21
398.00698796302
 31
0.0
  0
LINE
  5
E76
330
A
100
AcDbEntity
  8
LAYER_1
  6
Continuous
 62
     7
100
AcDbLine
 10
357.3436020607779
 20
395.0821048150611
 30
0.0
 11
360.8268035791208
 21
398.5653063334032
 31
0.0
  0
LINE
  5
E77
330
A
100
AcDbEntity
  8
LAYER_1
  6
Continuous
 62
     7
100
AcDbLine
 10
357.3436020607779
 20
395.980130427168
 30
0.0
 11
359.9287779670139
 21
398.5653063334032
 31
0.0
  0
LINE
  5
E78
330
A
100
AcDbEntity
  8
LAYER_1
  6
Continuous
 62
     7
100
AcDbLine
 10
357.3436020607779
 20
396.8781560392741
 30
0.0
 11
359.0307523549058
 21
398.5653063334032
 31
0.0
  0
LINE
  5
E79
330
A
100
AcDbEntity
  8
LAYER_1
  6
Continuous
 62
     7
100
AcDbLine
 10
357.3436020607779
 20
397.7761816513812
 30
0.0
 11
358.1327267427998
 21
398.5653063334032
 31
0.0
  0
LINE
  5
E7A
330
A
100
AcDbEntity
  8
LAYER_1
  6
Continuous
 62
     7
100
AcDbLine
 10
250.1121089700549
 20
387.9153063334031
 30
0.0
 11
311.9595846035319
 21
387.9153063334031
 31
0.0
  0
LINE
  5
E7B
330
A
100
AcDbEntity
  8
LAYER_1
  6
Continuous
 62
     7
100
AcDbLine
 10
313.0779445035039
 20
387.9153063334031
 30
0.0
 11
330.1121089700549
 21
387.9153063334031
 31
0.0
  0
LINE
  5
E7C
330
A
100
AcDbEntity
  8
LAYER_1
  6
Continuous
 62
     7
100
AcDbLine
 10
250.1121089700549
 20
394.5153063334031
 30
0.0
 11
312.2336688196509
 21
394.5153063334031
 31
0.0
  0
LINE
  5
E7D
330
A
100
AcDbEntity
  8
LAYER_1
  6
Continuous
 62
     7
100
AcDbLine
 10
313.3353449155279
 20
394.5153063334031
 30
0.0
 11
330.1121089700549
 21
394.5153063334031
 31
0.0
  0
LWPOLYLINE
  5
E7E
330
A
100
AcDbEntity
  8
LAYER_1
  6
Continuous
 62
     7
100
AcDbPolyline
 90
      270
 70
     0
 43
0.0
 10
312.6683002255139
 20
397.5818390739981
 10
312.6390726270668
 20
397.552140999968
 10
312.6102570227129
 20
397.5223695027961
 10
312.5818599103938
 20
397.4925234244572
 10
312.553887788048
 20
397.4626016069271
 10
312.5263471536159
 20
397.432602892182
 10
312.4992445050359
 20
397.402526122197
 10
312.4725863402499
 20
397.3723701389491
 10
312.4463791571959
 20
397.3421337844131
 10
312.4206294538139
 20
397.311815900565
 10
312.3953437280448
 20
397.2814153293801
 10
312.3705284778269
 20
397.2509309128352
 10
312.3461902011009
 20
397.2203614929051
 10
312.3223353958059
 20
397.1897059115661
 10
312.2989705598819
 20
397.1589630107931
 10
312.2761021912689
 20
397.1281316325621
 10
312.2537367879058
 20
397.0972106188501
 10
312.2318808477329
 20
397.0661988116311
 10
312.2105408686908
 20
397.0350950528822
 10
312.1897233487178
 20
397.0038981845781
 10
312.1694347857538
 20
396.9726070486951
 10
312.1496816777399
 20
396.9412204872091
 10
312.1304705226149
 20
396.9097373420951
 10
312.1118078183178
 20
396.87815645533
 10
312.0937000627899
 20
396.8464766688891
 10
312.0761537539689
 20
396.8146968247472
 10
312.0591753897969
 20
396.782815764881
 10
312.0427714682118
 20
396.7508323312661
 10
312.0269484871548
 20
396.7187453658781
 10
312.0117129445639
 20
396.6865537106931
 10
311.9970713383809
 20
396.6542562076861
 10
311.9830301665428
 20
396.6218516988341
 10
311.9762367741108
 20
396.605608955333
 10
311.9695959269928
 20
396.5893390261111
 10
311.9631084374308
 20
396.5730417664161
 10
311.9567751176679
 20
396.5567170314941
 10
311.9505967799459
 20
396.540364676593
 10
311.9445742365089
 20
396.5239845569591
 10
311.9387082995979
 20
396.507576527839
 10
311.9329997814549
 20
396.4911404444801
 10
311.9274494943239
 20
396.4746761621301
 10
311.9220582504469
 20
396.458183536035
 10
311.9168268620659
 20
396.441662421442
 10
311.9117561414238
 20
396.425112673598
 10
311.9068469007618
 20
396.4085341477501
 10
311.9020999523248
 20
396.3919266991461
 10
311.8975161083529
 20
396.3752901830312
 10
311.8930961810908
 20
396.3586244546531
 10
311.8888409827789
 20
396.3419293692601
 10
311.88475132566
 20
396.3252047820972
 10
311.8808280219778
 20
396.308450548412
 10
311.8770718839739
 20
396.2916665234521
 10
311.8734837238909
 20
396.2748525624641
 10
311.8700643539718
 20
396.258008520695
 10
311.8668145864578
 20
396.2411342533921
 10
311.8637352335929
 20
396.2242296158011
 10
311.8608271076178
 20
396.2072944631701
 10
311.8580910207768
 20
396.1903286507462
 10
311.8555277853108
 20
396.173332033775
 10
311.8531382134629
 20
396.1563044675051
 10
311.8509231174769
 20
396.1392458071831
 10
311.8488833095929
 20
396.1221559080551
 10
311.8470196020548
 20
396.1050346253681
 10
311.8453328071049
 20
396.0878818143711
 10
311.8438237369849
 20
396.0706973303081
 10
311.8424932039389
 20
396.0534810284282
 10
311.8413420202078
 20
396.0362327639782
 10
311.8403709980339
 20
396.0189523922031
 10
311.8389726873318
 20
395.9842947476721
 10
311.8385652233019
 20
395.9678687334811
 10
311.8383195028868
 20
395.9514137771481
 10
311.8382341034748
 20
395.9349300150471
 10
311.8383076024529
 20
395.9184175835541
 10
311.8385385772069
 20
395.9018766190421
 10
311.8389256051238
 20
395.8853072578871
 10
311.8394672635919
 20
395.8687096364631
 10
311.8401621299958
 20
395.852083891144
 10
311.8420057961649
 20
395.8187485743231
 10
311.8444452227258
 20
395.7853023984221
 10
311.8474690287729
 20
395.7517464544371
 10
311.8510658334029
 20
395.7180818333661
 10
311.8552242557109
 20
395.684309626206
 10
311.8599329147929
 20
395.6504309239551
 10
311.8651804297428
 20
395.6164468176101
 10
311.8709554196568
 20
395.582358398169
 10
311.8772465036308
 20
395.5481667566291
 10
311.8840423007589
 20
395.5138729839871
 10
311.8913314301379
 20
395.4794781712411
 10
311.8991025108629
 20
395.444983409388
 10
311.9073441620279
 20
395.4103897894251
 10
311.9160450027298
 20
395.3756984023511
 10
311.9251936520638
 20
395.3409103391611
 10
311.9347787291248
 20
395.306026690854
 10
311.9447888530079
 20
395.271048548427
 10
311.9552126428088
 20
395.2359770028781
 10
311.9660387176238
 20
395.2008131452031
 10
311.9772556965468
 20
395.1655580664011
 10
311.9888521986749
 20
395.1302128574681
 10
312.0008168431019
 20
395.0947786094021
 10
312.0131382489238
 20
395.0592564132001
 10
312.0258050352358
 20
395.0236473598602
 10
312.0388058211339
 20
394.9879525403801
 10
312.0589083534748
 20
394.934251886201
 10
312.0796983672949
 20
394.8803643950661
 10
312.1011374520419
 20
394.8262937490901
 10
312.1231871971618
 20
394.7720436303901
 10
312.1458091921009
 20
394.7176177210822
 10
312.1689650263078
 20
394.663019703281
 10
312.1926162892289
 20
394.6082532591061
 10
312.2248555847348
 20
394.5349757011041
 10
312.2578163097339
 20
394.461413992398
 10
312.2914074169898
 20
394.3875768609671
 10
312.3341440713329
 20
394.2949064300002
 10
312.3862900551208
 20
394.1831758568681
 10
312.5453997628838
 20
393.844825612336
 10
312.5983026361889
 20
393.7310875455441
 10
312.6419591215409
 20
393.6359774521442
 10
312.6764753159839
 20
393.5596867173511
 10
312.7105293258399
 20
393.4832252955811
 10
312.7357117539939
 20
393.4257724663511
 10
312.7605445786948
 20
393.368232217301
 10
312.7849893893878
 20
393.3106082305461
 10
312.8090077755218
 20
393.252904188205
 10
312.8325613265428
 20
393.1951237723921
 10
312.8556116318979
 20
393.1372706652241
 10
312.8781202810339
 20
393.0793485488171
 10
312.9000488633979
 20
393.021361105287
 10
312.9143266908158
 20
392.9826683350832
 10
312.9283182585169
 20
392.9439492580961
 10
312.9420121855979
 20
392.9052049653231
 10
312.9553970911539
 20
392.8664365477621
 10
312.9684615942809
 20
392.8276450964091
 10
312.9811943140729
 20
392.7888317022631
 10
312.9935838696259
 20
392.7499974563201
 10
313.0056188800359
 20
392.7111434495791
 10
313.0172879643978
 20
392.6722707730352
 10
313.028579741807
 20
392.6333805176881
 10
313.0394828313589
 20
392.5944737745331
 10
313.0499858521488
 20
392.5555516345691
 10
313.0600774232728
 20
392.5166151887931
 10
313.0697461638249
 20
392.4776655282021
 10
313.0789806929019
 20
392.4387037437941
 10
313.0877696295979
 20
392.3997309265661
 10
313.0961015930088
 20
392.3607481675161
 10
313.1077178174868
 20
392.3022577745801
 10
313.1134677904508
 20
392.2710704967581
 10
313.1189099558679
 20
392.2398790452841
 10
313.1240468900869
 20
392.2086838593881
 10
313.1288811694529
 20
392.1774853783022
 10
313.1334153703158
 20
392.146284041256
 10
313.1376520690239
 20
392.1150802874821
 10
313.1415938419229
 20
392.0838745562111
 10
313.1452432653619
 20
392.0526672866731
 10
313.1486029156878
 20
392.021458918101
 10
313.1516753692488
 20
391.9902498897241
 10
313.1544632023929
 20
391.9590406407741
 10
313.1569689914679
 20
391.9278316104831
 10
313.1591953128209
 20
391.89662323808
 10
313.1611447427998
 20
391.8654159627981
 10
313.1628198577528
 20
391.8342102238671
 10
313.1642232340268
 20
391.803006460518
 10
313.1653574479709
 20
391.771805111982
 10
313.1662250759319
 20
391.7406066174911
 10
313.1668286942568
 20
391.709411416275
 10
313.1671708792948
 20
391.6782199475661
 10
313.1672542073928
 20
391.6470326505941
 10
313.1670812548989
 20
391.6158499645911
 10
313.1666545981599
 20
391.5846723287872
 10
313.1659768135249
 20
391.5535001824141
 10
313.1650504773418
 20
391.5223339647031
 10
313.1638781659569
 20
391.4911741148851
 10
313.1624624557179
 20
391.4600210721911
 10
313.1608059229739
 20
391.428875275852
 10
313.1589111440719
 20
391.397737165098
 10
313.1567806953599
 20
391.3666071791621
 10
313.1544171531859
 20
391.3354857572741
 10
313.1518230938959
 20
391.3043733386661
 10
313.1490010938398
 20
391.2732703625671
 10
313.1459537293649
 20
391.2421772682101
 10
313.1426835768179
 20
391.2110944948251
 10
313.1391932125469
 20
391.1800224816431
 10
313.1354852128998
 20
391.148961667896
 10
313.1315621542249
 20
391.1179124928151
 10
313.1274266128689
 20
391.0868753956301
 10
313.1230811651809
 20
391.055850815573
 10
313.1185283875069
 20
391.0248391918751
 10
313.1137708561958
 20
390.993840963766
 10
313.1088111475959
 20
390.9628565704792
 10
313.1036518380529
 20
390.9318864512431
 10
313.0982955039169
 20
390.9009310452901
 10
313.0927447215339
 20
390.8699907918511
 10
313.0870020672519
 20
390.8390661301581
 10
313.0810701174199
 20
390.8081574994401
 10
313.0749514483838
 20
390.7772653389291
 10
313.0686486364928
 20
390.7463900878571
 10
313.0621642580938
 20
390.7155321854551
 10
313.0555008895348
 20
390.6846920709521
 10
313.0486611071638
 20
390.6538701835811
 10
313.0416474873278
 20
390.6230669625731
 10
313.0344626063748
 20
390.5922828471581
 10
313.0271090406539
 20
390.5615182765681
 10
313.0195893665109
 20
390.5307736900331
 10
313.0119061602938
 20
390.5000495267851
 10
313.0040619983518
 20
390.4693462260551
 10
312.9960594570319
 20
390.4386642270731
 10
312.9879011126809
 20
390.408003969072
 10
312.9795895416478
 20
390.3773658912821
 10
312.9625170249239
 20
390.3161580332581
 10
312.9448625176419
 20
390.2550441668511
 10
312.9266466305849
 20
390.1940278059081
 10
312.9078899745338
 20
390.1331124642802
 10
312.8886131602698
 20
390.0723016558131
 10
312.8688367985769
 20
390.0115988943571
 10
312.8485815002349
 20
389.9510076937601
 10
312.8278678760268
 20
389.8905315678701
 10
312.8067165367349
 20
389.8301740305361
 10
312.7851480931389
 20
389.7699385956061
 10
312.7631831560228
 20
389.7098287769291
 10
312.7408423361679
 20
389.6498480883531
 10
312.7181462443569
 20
389.5900000437281
 10
312.6951154913698
 20
389.5302881569001
 10
312.6717706879899
 20
389.4707159417191
 10
312.6481324449979
 20
389.4112869120331
 10
312.6242213731778
 20
389.3520045816901
 10
312.6000580833089
 20
389.29287246454
 10
312.5756631861749
 20
389.2338940744301
 10
312.5414623931369
 20
389.1523213804231
 10
312.5068612995709
 20
389.071047002338
 10
312.4718657969289
 20
388.9900665496901
 10
312.4364817766638
 20
388.9093756319931
 10
312.4007151302258
 20
388.8289698587612
 10
312.3645717490669
 20
388.7488448395081
 10
312.3280575246399
 20
388.668996183748
 10
312.2911783483949
 20
388.589419500996
 10
312.2539401117849
 20
388.5101104007651
 10
312.2163487062619
 20
388.4310644925681
 10
312.1784100232758
 20
388.352277385921
 10
312.1401299542809
 20
388.2737446903371
 10
312.1015143907259
 20
388.1954620153301
 10
312.0625692240658
 20
388.1174249704141
 10
312.0233003457499
 20
388.0396291651031
 10
311.9837136472299
 20
387.9620702089121
 10
311.9438150199599
 20
387.8847437113542
 10
311.9036103553888
 20
387.8076452819421
 10
311.8631055449698
 20
387.730770530192
 10
311.8223064801548
 20
387.6541150656171
 10
311.7812190523949
 20
387.5776744977321
 10
311.7398491531419
 20
387.5014444360491
 10
311.6982026738478
 20
387.4254204900842
 10
311.6562855059638
 20
387.3495982693491
 10
311.6141035409428
 20
387.2739733833601
 10
311.5716626702349
 20
387.1985414416301
 10
311.5289687852929
 20
387.1232980536741
 10
311.4860277775688
 20
387.0482388290041
 10
311.4428455385128
 20
386.9733593771361
 10
311.3994279595789
 20
386.8986553075831
 10
311.3557809322168
 20
386.8241222298601
 10
311.3119103478788
 20
386.7497557534791
 10
311.2456981895939
 20
386.6385088122391
 10
311.1790161675288
 20
386.5276120275371
 10
311.1118841653338
 20
386.4170505814831
 10
311.0443220666589
 20
386.306809656188
 10
310.9763497551539
 20
386.1968744337601
 10
310.9079871144668
 20
386.0872300963101
 10
310.8392540282488
 20
385.9778618259481
 10
310.7701703801478
 20
385.8687548047821
 10
310.7007560538148
 20
385.7598942149241
 10
310.6310309328998
 20
385.6512652384821
 10
310.5610149010508
 20
385.5428530575672
 10
310.4907278419178
 20
385.434642854288
  0
LWPOLYLINE
  5
F8E
330
A
100
AcDbEntity
  8
LAYER_1
  6
Continuous
 62
     7
100
AcDbPolyline
 90
      259
 70
     0
 43
0.0
 10
314.2193679679528
 20
397.5818390739731
 10
314.1532075793288
 20
397.5328930834902
 10
314.0882190558828
 20
397.484126333324
 10
314.0301968533608
 20
397.4399553128041
 10
313.9732206948439
 20
397.3959452677851
 10
313.9173275138498
 20
397.3521023139851
 10
313.8625542438969
 20
397.3084325671211
 10
313.8142463504309
 20
397.2692829415161
 10
313.7669024255918
 20
397.230283025619
 10
313.7205493939138
 20
397.1914372777881
 10
313.6752141799319
 20
397.1527501563831
 10
313.6652806185499
 20
397.1441750086392
 10
313.6652806185499
 20
397.1441750086392
 10
313.6652806185499
 20
397.1441750086392
 10
313.6275815679898
 20
397.1112814132272
 10
313.5906835505628
 20
397.0785232422171
 10
313.5545974429808
 20
397.0459142276751
 10
313.5193341219598
 20
397.0134681016651
 10
313.4849044642128
 20
396.9811985962521
 10
313.4513193464539
 20
396.9491194435021
 10
313.4185896453968
 20
396.91724437548
 10
313.3867262377558
 20
396.8855871242491
 10
313.3557400002448
 20
396.8541614218761
 10
313.3256418095779
 20
396.8229810004251
 10
313.2964425424678
 20
396.7920595919621
 10
313.2681530756308
 20
396.7614109285501
 10
313.2407842857789
 20
396.7310487422561
 10
313.2143470496269
 20
396.7009867651441
 10
313.1888522438889
 20
396.6712387292782
 10
313.1643107452779
 20
396.6418183667261
 10
313.1407334305089
 20
396.61273940955
 10
313.1181311762949
 20
396.5840155898161
 10
313.0965148593509
 20
396.5556606395892
 10
313.0758953563908
 20
396.5276882909341
 10
313.0758953563908
 20
396.5276882909341
 10
313.0758953563908
 20
396.5276882909341
 10
313.0581961940118
 20
396.5028690971671
 10
313.0413055455978
 20
396.4784172853661
 10
313.0252102949528
 20
396.454336473159
 10
313.0098973258818
 20
396.4306302781731
 10
312.9953535221889
 20
396.4073023180361
 10
312.9815657676799
 20
396.3843562103761
 10
312.9685209461579
 20
396.361795572822
 10
312.9562059414289
 20
396.3396240229991
 10
312.9446076372959
 20
396.3178451785381
 10
312.9337129175648
 20
396.2964626570651
 10
312.9235086660388
 20
396.2754800762081
 10
312.9139817665238
 20
396.2549010535951
 10
312.9051191028239
 20
396.2347292068541
 10
312.8969075587428
 20
396.214968153613
 10
312.8893340180869
 20
396.1956215114991
 10
312.8823853646588
 20
396.1766928981411
 10
312.8780936114789
 20
396.1643078472491
 10
312.8780936114789
 20
396.1643078472491
 10
312.8780936114789
 20
396.1643078472491
 10
312.8715184372939
 20
396.1440973878451
 10
312.8656121943238
 20
396.1243406080721
 10
312.8603510556479
 20
396.1049912665321
 10
312.8557111943468
 20
396.0860031218311
 10
312.8516687834998
 20
396.067329932571
 10
312.8481999961868
 20
396.0489254573571
 10
312.8452810054899
 20
396.030743454792
 10
312.8426956947959
 20
396.0111079357941
 10
312.8408492844109
 20
395.993241678637
 10
312.8408492844109
 20
395.993241678637
 10
312.8408492844109
 20
395.993241678637
 10
312.8393550082218
 20
395.9734478760771
 10
312.8384859581799
 20
395.954633336577
 10
312.8381563501628
 20
395.935261250417
 10
312.8383973996408
 20
395.9151079840241
 10
312.8392403220829
 20
395.8939499038241
 10
312.8407163329599
 20
395.8715633762411
 10
312.8430357719129
 20
395.8459605369402
 10
312.8430357719129
 20
395.8459605369402
 10
312.8430357719129
 20
395.8459605369402
 10
312.8457106602688
 20
395.8224079764941
 10
312.8490436447719
 20
395.7977440717621
 10
312.8530523922599
 20
395.7719867119921
 10
312.8577545695689
 20
395.7451537864272
 10
312.8631678435349
 20
395.7172631843151
 10
312.8693098809959
 20
395.6883327949001
 10
312.8761983487879
 20
395.6583805074282
 10
312.8814138337869
 20
395.637055086414
 10
312.8814138337869
 20
395.637055086414
 10
312.8814138337869
 20
395.637055086414
 10
312.8896547983729
 20
395.605303659595
 10
312.8987020414228
 20
395.5726112819761
 10
312.9085387568768
 20
395.5390001380301
 10
312.9191481386718
 20
395.50449241223
 10
312.9305133807479
 20
395.4691102890491
 10
312.9426176770439
 20
395.4328759529581
 10
312.9580947212358
 20
395.388301064348
 10
312.9745827619028
 20
395.3425692695601
 10
312.9920527581698
 20
395.2957189033611
 10
313.0104756691669
 20
395.2477883005231
 10
313.0298224540168
 20
395.1988157958131
 10
313.0500640718488
 20
395.1488397240001
 10
313.0747715185408
 20
395.0893170521791
 10
313.1006112886599
 20
395.0285414660991
 10
313.1275372663718
 20
394.9665738399501
 10
313.1555033358468
 20
394.9034750479281
 10
313.1802671240699
 20
394.8485361970601
 10
313.1802671240699
 20
394.8485361970601
 10
313.1802671240699
 20
394.8485361970601
 10
313.2186576967578
 20
394.764712030598
 10
313.2628450856429
 20
394.6696081048421
 10
313.3316600045989
 20
394.5231315418561
 10
313.4317773500669
 20
394.3105242053301
 10
313.4853445646679
 20
394.1957249265831
 10
313.5294648467068
 20
394.10007691021
 10
313.5687580931759
 20
394.013773663315
 10
313.6079995884228
 20
393.9262780239392
 10
313.6422009616948
 20
393.8487524780241
 10
313.6519379325739
 20
393.826438002749
 10
313.6519379325739
 20
393.826438002749
 10
313.6519379325739
 20
393.826438002749
 10
313.6810410464369
 20
393.7590451095611
 10
313.7099379961539
 20
393.690961994195
 10
313.7385608240679
 20
393.6221745992732
 10
313.7621547539719
 20
393.5643036371411
 10
313.7854718013499
 20
393.5059256948611
 10
313.8084726388539
 20
393.4470326373772
 10
313.8311179391379
 20
393.3876163296321
 10
313.8533683748548
 20
393.3276686365711
 10
313.8708579929629
 20
393.2793224179361
 10
313.8880495926439
 20
393.230626741114
 10
313.9049230382969
 20
393.181577440956
 10
313.9214581943199
 20
393.1321703523141
 10
313.9376349251109
 20
393.0824013100381
 10
313.9534330950679
 20
393.0322661489791
 10
313.9688325685908
 20
392.98176070399
 10
313.9838132100768
 20
392.930880809921
 10
313.9983548839238
 20
392.8796223016242
 10
314.012437454531
 20
392.82798101395
 10
314.0260407862969
 20
392.7759527817491
 10
314.0359166718079
 20
392.7366751696571
 10
314.0455031644888
 20
392.6971758012
 10
314.05479176963
 20
392.6574529192071
 10
314.0666985136608
 20
392.6041383517391
 10
314.0666985136608
 20
392.6041383517391
 10
314.0666985136608
 20
392.6041383517391
 10
314.0763857373229
 20
392.5583307132372
 10
314.0855779007039
 20
392.5123734740571
 10
314.0942751176818
 20
392.4662911721361
 10
314.1024775021328
 20
392.4201083454091
 10
314.1101851679319
 20
392.3738495318131
 10
314.1173982289559
 20
392.3275392692831
 10
314.1241167990799
 20
392.2812020957561
 10
314.1303409921799
 20
392.2348625491661
 10
314.1360709221328
 20
392.1885451674511
 10
314.1413067028138
 20
392.1422744885461
 10
314.1460484480989
 20
392.0960750503861
 10
314.1502962718639
 20
392.0499713909081
 10
314.1540502879839
 20
392.0039880480491
 10
314.1573106103369
 20
391.958149559742
 10
314.1581514684988
 20
391.9450828886171
 10
314.1581514684988
 20
391.9450828886171
 10
314.1581514684988
 20
391.9450828886171
 10
314.1607913066229
 20
391.8994212115691
 10
314.1629703541149
 20
391.8538548745201
 10
314.1649051650129
 20
391.8018991314442
 10
314.1662571181979
 20
391.7500751748151
 10
314.1670363423519
 20
391.6983868770261
 10
314.1672529661549
 20
391.6468381104662
 10
314.1669171182878
 20
391.5954327475282
 10
314.1660389274329
 20
391.5441746606021
 10
314.1646285222689
 20
391.4930677220801
 10
314.1626960314799
 20
391.4421158043531
 10
314.1602515837438
 20
391.3913227798122
 10
314.1573053077438
 20
391.3406925208491
 10
314.1547723689799
 20
391.3028289710221
 10
314.1547723689799
 20
391.3028289710221
 10
314.1547723689799
 20
391.3028289710221
 10
314.1509744258659
 20
391.2524939561741
 10
314.1467061729429
 20
391.2023322668101
 10
314.1419767551338
 20
391.152344382326
 10
314.1367953173598
 20
391.1025307821181
 10
314.1311710045458
 20
391.0528919455811
 10
314.1251129616139
 20
391.0034283521121
 10
314.1186303334869
 20
390.9541404811061
 10
314.1117322650859
 20
390.9050288119601
 10
314.1044279013368
 20
390.8560938240711
 10
314.0967263871599
 20
390.807335996832
 10
314.0886368674789
 20
390.7587558096411
 10
314.0801684872168
 20
390.7103537418941
 10
314.0713303912968
 20
390.6621302729861
 10
314.0621317246408
 20
390.6140858823141
 10
314.0501402704419
 20
390.554282953073
 10
314.0376175745879
 20
390.4947615189511
 10
314.0245814982558
 20
390.4355225162692
 10
314.0110499026228
 20
390.3765668813471
 10
313.9970406488669
 20
390.3178955505051
 10
313.9825715981659
 20
390.2595094600651
 10
313.9676606116959
 20
390.2014095463452
 10
313.9523255506349
 20
390.143596745667
 10
313.9397641707919
 20
390.0975538557211
 10
313.9397641707919
 20
390.0975538557211
 10
313.9397641707919
 20
390.0975538557211
 10
313.9220917035259
 20
390.034572708096
 10
313.9039618866079
 20
389.9719293973241
 10
313.8853930892208
 20
389.9096233702861
 10
313.8664036805448
 20
389.8476540738581
 10
313.8470120297628
 20
389.7860209549201
 10
313.8272365060548
 20
389.724723460352
 10
313.8070954786038
 20
389.6637610370331
 10
313.7866073165898
 20
389.60313313184
 10
313.7657903891948
 20
389.5428391916531
 10
313.7404019698259
 20
389.4709265184431
 10
313.7145983218758
 20
389.3994930025542
 10
313.6884111872889
 20
389.3285376881931
 10
313.6618723080118
 20
389.2580596195671
 10
313.6350134259909
 20
389.1880578408821
 10
313.6033159628059
 20
389.1069898015211
 10
313.5712765496779
 20
389.0265672269852
 10
313.5389455916409
 20
388.9467885995131
 10
313.5203592586189
 20
388.9014893473792
 10
313.5203592586189
 20
388.9014893473792
 10
313.5203592586189
 20
388.9014893473792
 10
313.4898327004478
 20
388.8278966881781
 10
313.4590249163329
 20
388.7545952056401
 10
313.4279397729098
 20
388.68158125502
 10
313.3965811368128
 20
388.6088511915741
 10
313.3649528746768
 20
388.536401370557
 10
313.3330588531358
 20
388.464228147225
 10
313.3009029388269
 20
388.3923278768341
 10
313.2684889983839
 20
388.3206969146391
 10
313.2358208984409
 20
388.2493316158961
 10
313.2029025056329
 20
388.1782283358601
 10
313.1586286538398
 20
388.0838252475781
 10
313.1139258763288
 20
387.9898728513911
 10
313.0688033384568
 20
387.8963625079071
 10
313.0232702055788
 20
387.8032855777301
 10
312.9773356430539
 20
387.7106334214681
 10
312.9310088162379
 20
387.6183973997251
 10
312.8842988904878
 20
387.526568873108
 10
312.8372150311598
 20
387.4351392022231
 10
312.7897664036108
 20
387.3440997476762
 10
312.7419621731979
 20
387.2534418700721
 10
312.6938115052779
 20
387.1631569300181
 10
312.6453235652069
 20
387.0732362881201
 10
312.5965075183419
 20
386.9836713049831
 10
312.5473725300409
 20
386.8944533412141
 10
312.4979277656589
 20
386.8055737574181
 10
312.4481823905539
 20
386.7170239142011
 10
312.3981455700819
 20
386.628795172171
 10
312.3730207320079
 20
386.5847985142892
 10
312.3730207320079
 20
386.5847985142892
 10
312.3730207320079
 20
386.5847985142892
 10
312.3122024150819
 20
386.4791123332091
 10
312.2510092708769
 20
386.37389051576
 10
312.1894574330708
 20
386.269121635247
 10
312.1275630353409
 20
386.1647942649731
 10
312.0653422113679
 20
386.060896978242
 10
311.9958447399528
 20
385.9459460694721
 10
311.9259863225439
 20
385.8314963465281
 10
311.8557890903868
 20
385.7175321349282
 10
311.7852751747299
 20
385.6040377601941
 10
311.7073705117058
 20
385.4797179020721
 10
311.6789589317809
 20
385.434642854288
  0
TEXT
  5
1359
330
A
100
AcDbEntity
  8
LAYER_1
 62
     7
100
AcDbText
 10
163.8180283106668
 20
442.2534762645971
 30
0.0
 40
13.5
  1
H-1VH-01
 41
1.033333333332999
  7
ＭＳ_ゴシック
100
AcDbText
  0
LEADER
  5
135D
330
A
100
AcDbEntity
  8
LAYER_1
  6
Continuous
 62
     7
100
AcDbLeader
  3
MARK2_DIMSTYLE
 73
     0
 74
     0
 40
8.4
 41
57.6
 76
     3
 10
299.4936472011888
 20
361.692971697019
 30
0.0
 10
311.0406525849808
 20
341.6929716970191
 30
0.0
 10
314.5554659080898
 20
341.6929716970191
 30
0.0
340
135E
  0
MTEXT
  5
135E
330
A
100
AcDbEntity
  8
LAYER_1
 62
     7
100
AcDbMText
 10
370.6044515915638
 20
342.9397443481121
 30
0.0
 40
5.4
 41
60.48
 71
     9
 72
     5
  1
\W1.034;Serial NO. Label
  7
ＭＳ_ゴシック
 73
     1
 44
1.0
  0
LEADER
  5
1363
330
A
100
AcDbEntity
  8
LAYER_1
  6
Continuous
 62
     7
100
AcDbLeader
  3
MARK2_DIMSTYLE
 73
     0
 74
     0
 40
8.4
 41
32.4
 76
     3
 10
201.6121089700549
 20
385.2153063334042
 30
0.0
 10
211.7286335892009
 20
367.6929716970221
 30
0.0
 10
219.3048321467919
 20
367.6929716970221
 30
0.0
340
1364
  0
MTEXT
  5
1364
330
A
100
AcDbEntity
  8
LAYER_1
 62
     7
100
AcDbMText
 10
246.6841715384359
 20
368.679972956423
 30
0.0
 40
5.4
 41
34.02
 71
     9
 72
     5
  1
\W1.034;Lens Unit
  7
ＭＳ_ゴシック
 73
     1
 44
1.0
  0
LINE
  5
136B
330
A
100
AcDbEntity
  8
LAYER_1
  6
Continuous
 62
     7
100
AcDbLine
 10
346.9911367593273
 20
171.8074226443611
 30
0.0
 11
346.9911367593273
 21
146.8074226443611
 31
0.0
  0
LINE
  5
136C
330
A
100
AcDbEntity
  8
LAYER_1
  6
Continuous
 62
     7
100
AcDbLine
 10
326.9911367593273
 20
171.3074226443611
 30
0.0
 11
326.9911367593273
 21
147.3074226443611
 31
0.0
  0
LINE
  5
136D
330
A
100
AcDbEntity
  8
LAYER_1
  6
Continuous
 62
     7
100
AcDbLine
 10
346.9911367593273
 20
171.8074226443611
 30
0.0
 11
332.4911367593273
 21
171.8074226443611
 31
0.0
  0
LINE
  5
136E
330
A
100
AcDbEntity
  8
LAYER_1
  6
Continuous
 62
     7
100
AcDbLine
 10
331.9911367593273
 20
171.3074226443611
 30
0.0
 11
326.9911367593273
 21
171.3074226443611
 31
0.0
  0
LINE
  5
136F
330
A
100
AcDbEntity
  8
LAYER_1
  6
Continuous
 62
     7
100
AcDbLine
 10
346.9911367593273
 20
146.8074226443611
 30
0.0
 11
332.4911367593273
 21
146.8074226443611
 31
0.0
  0
LINE
  5
1370
330
A
100
AcDbEntity
  8
LAYER_1
  6
Continuous
 62
     7
100
AcDbLine
 10
331.9911367593273
 20
147.3074226443611
 30
0.0
 11
326.9911367593273
 21
147.3074226443611
 31
0.0
  0
ARC
  5
1371
330
A
100
AcDbEntity
  8
LAYER_1
  6
Continuous
 62
     7
100
AcDbCircle
 10
336.9911367593273
 20
159.3074226443611
 30
0.0
 40
6.0
100
AcDbArc
 50
228.1394471657459
 51
0.0
  0
ARC
  5
1372
330
A
100
AcDbEntity
  8
LAYER_1
  6
Continuous
 62
     7
100
AcDbCircle
 10
336.9911367593273
 20
159.3074226443611
 30
0.0
 40
6.0
100
AcDbArc
 50
0.0
 51
131.8605528342589
  0
ARC
  5
1373
330
A
100
AcDbEntity
  8
LAYER_1
  6
Continuous
 62
     7
100
AcDbCircle
 10
336.9911367593273
 20
159.3074226443611
 30
0.0
 40
6.0
100
AcDbArc
 50
146.442690238087
 51
213.5573097619129
  0
LINE
  5
1374
330
A
100
AcDbEntity
  8
LAYER_1
  6
Continuous
 62
     7
100
AcDbLine
 10
286.9911367593273
 20
196.8074226443611
 30
0.0
 11
246.9911367593273
 21
196.8074226443611
 31
0.0
  0
LINE
  5
1375
330
A
100
AcDbEntity
  8
LAYER_1
  6
Continuous
 62
     7
100
AcDbLine
 10
286.9911367593273
 20
216.8074226443611
 30
0.0
 11
246.9911367593273
 21
216.8074226443611
 31
0.0
  0
LINE
  5
1376
330
A
100
AcDbEntity
  8
LAYER_1
  6
Continuous
 62
     7
100
AcDbLine
 10
286.9911367593273
 20
202.3074226443611
 30
0.0
 11
246.9911367593273
 21
202.3074226443611
 31
0.0
  0
LINE
  5
1377
330
A
100
AcDbEntity
  8
LAYER_1
  6
Continuous
 62
     7
100
AcDbLine
 10
286.9911367593273
 20
201.8074226443611
 30
0.0
 11
246.9911367593273
 21
201.8074226443611
 31
0.0
  0
LINE
  5
1378
330
A
100
AcDbEntity
  8
LAYER_1
  6
Continuous
 62
     7
100
AcDbLine
 10
286.9911367593273
 20
196.8074226443611
 30
0.0
 11
286.9911367593273
 21
201.8074226443611
 31
0.0
  0
LINE
  5
1379
330
A
100
AcDbEntity
  8
LAYER_1
  6
Continuous
 62
     7
100
AcDbLine
 10
286.9911367593273
 20
202.3074226443611
 30
0.0
 11
286.9911367593273
 21
216.8074226443611
 31
0.0
  0
LINE
  5
137A
330
A
100
AcDbEntity
  8
LAYER_1
  6
Continuous
 62
     7
100
AcDbLine
 10
246.9911367593273
 20
196.8074226443611
 30
0.0
 11
246.9911367593273
 21
201.8074226443611
 31
0.0
  0
LINE
  5
137B
330
A
100
AcDbEntity
  8
LAYER_1
  6
Continuous
 62
     7
100
AcDbLine
 10
246.9911367593273
 20
202.3074226443611
 30
0.0
 11
246.9911367593273
 21
216.8074226443611
 31
0.0
  0
CIRCLE
  5
137C
330
A
100
AcDbEntity
  8
LAYER_1
  6
Continuous
 62
     7
100
AcDbCircle
 10
276.9911367593273
 20
206.8074226443611
 30
0.0
 40
2.0
  0
CIRCLE
  5
137D
330
A
100
AcDbEntity
  8
LAYER_1
  6
Continuous
 62
     7
100
AcDbCircle
 10
276.9911367593273
 20
206.8074226443611
 30
0.0
 40
1.5
  0
CIRCLE
  5
137E
330
A
100
AcDbEntity
  8
LAYER_1
  6
Continuous
 62
     7
100
AcDbCircle
 10
256.9911367593273
 20
206.8074226443611
 30
0.0
 40
2.0
  0
CIRCLE
  5
137F
330
A
100
AcDbEntity
  8
LAYER_1
  6
Continuous
 62
     7
100
AcDbCircle
 10
256.9911367593273
 20
206.8074226443611
 30
0.0
 40
1.5
  0
LINE
  5
1380
330
A
100
AcDbEntity
  8
LAYER_1
  6
Continuous
 62
     7
100
AcDbLine
 10
331.9911367593273
 20
171.3074226443611
 30
0.0
 11
331.9911367593273
 21
162.6240474347161
 31
0.0
  0
LINE
  5
1381
330
A
100
AcDbEntity
  8
LAYER_1
  6
Continuous
 62
     7
100
AcDbLine
 10
331.9911367593273
 20
155.9907978540051
 30
0.0
 11
331.9911367593273
 21
147.3074226443611
 31
0.0
  0
LINE
  5
1382
330
A
100
AcDbEntity
  8
LAYER_1
  6
Continuous
 62
     7
100
AcDbLine
 10
332.4911367593273
 20
171.8074226443611
 30
0.0
 11
332.4911367593273
 21
163.7760496109581
 31
0.0
  0
LINE
  5
1383
330
A
100
AcDbEntity
  8
LAYER_1
  6
Continuous
 62
     7
100
AcDbLine
 10
332.4911367593273
 20
154.8387956777641
 30
0.0
 11
332.4911367593273
 21
146.8074226443611
 31
0.0
  0
LINE
  5
1384
330
A
100
AcDbEntity
  8
LAYER_1
  6
Continuous
 62
     7
100
AcDbLine
 10
286.9911367593273
 20
146.8074226443611
 30
0.0
 11
286.9911367593273
 21
171.8074226443611
 31
0.0
  0
LINE
  5
1385
330
A
100
AcDbEntity
  8
LAYER_1
  6
Continuous
 62
     7
100
AcDbLine
 10
246.9911367593273
 20
146.8074226443611
 30
0.0
 11
246.9911367593273
 21
171.8074226443611
 31
0.0
  0
LINE
  5
1386
330
A
100
AcDbEntity
  8
LAYER_1
  6
Continuous
 62
     7
100
AcDbLine
 10
246.9911367593273
 20
146.8074226443611
 30
0.0
 11
286.9911367593273
 21
146.8074226443611
 31
0.0
  0
LINE
  5
1387
330
A
100
AcDbEntity
  8
LAYER_1
  6
Continuous
 62
     7
100
AcDbLine
 10
246.9911367593273
 20
147.3074226443611
 30
0.0
 11
286.9911367593273
 21
147.3074226443611
 31
0.0
  0
LINE
  5
1388
330
A
100
AcDbEntity
  8
LAYER_1
  6
Continuous
 62
     7
100
AcDbLine
 10
246.9911367593273
 20
171.8074226443611
 30
0.0
 11
286.9911367593273
 21
171.8074226443611
 31
0.0
  0
LINE
  5
1389
330
A
100
AcDbEntity
  8
LAYER_1
  6
Continuous
 62
     7
100
AcDbLine
 10
246.9911367593273
 20
171.3074226443611
 30
0.0
 11
286.9911367593273
 21
171.3074226443611
 31
0.0
  0
CIRCLE
  5
138A
330
A
100
AcDbEntity
  8
LAYER_1
  6
Continuous
 62
     7
100
AcDbCircle
 10
276.9911367593273
 20
150.8074226443611
 30
0.0
 40
1.5
  0
CIRCLE
  5
138B
330
A
100
AcDbEntity
  8
LAYER_1
  6
Continuous
 62
     7
100
AcDbCircle
 10
276.9911367593273
 20
150.8074226443611
 30
0.0
 40
1.0
  0
CIRCLE
  5
138C
330
A
100
AcDbEntity
  8
LAYER_1
  6
Continuous
 62
     7
100
AcDbCircle
 10
256.9911367593273
 20
150.8074226443611
 30
0.0
 40
1.5
  0
CIRCLE
  5
138D
330
A
100
AcDbEntity
  8
LAYER_1
  6
Continuous
 62
     7
100
AcDbCircle
 10
256.9911367593273
 20
150.8074226443611
 30
0.0
 40
1.0
  0
CIRCLE
  5
138E
330
A
100
AcDbEntity
  8
LAYER_1
  6
Continuous
 62
     7
100
AcDbCircle
 10
276.9911367593273
 20
150.8074226443611
 30
0.0
 40
3.0
  0
CIRCLE
  5
138F
330
A
100
AcDbEntity
  8
LAYER_1
  6
Continuous
 62
     7
100
AcDbCircle
 10
256.9911367593273
 20
150.8074226443611
 30
0.0
 40
3.0
  0
CIRCLE
  5
1390
330
A
100
AcDbEntity
  8
LAYER_1
  6
Continuous
 62
     7
100
AcDbCircle
 10
266.9911367593273
 20
167.8074226443611
 30
0.0
 40
1.5
  0
CIRCLE
  5
1391
330
A
100
AcDbEntity
  8
LAYER_1
  6
Continuous
 62
     7
100
AcDbCircle
 10
266.9911367593273
 20
167.8074226443611
 30
0.0
 40
1.0
  0
CIRCLE
  5
1392
330
A
100
AcDbEntity
  8
LAYER_1
  6
Continuous
 62
     7
100
AcDbCircle
 10
266.9911367593273
 20
167.8074226443611
 30
0.0
 40
3.0
  0
LINE
  5
1393
330
A
100
AcDbEntity
  8
LAYER_1
  6
Continuous
 62
     7
100
AcDbLine
 10
332.9872170506663
 20
154.8387956777641
 30
0.0
 11
332.4911367593273
 21
154.8387956777641
 31
0.0
  0
LINE
  5
1394
330
A
100
AcDbEntity
  8
LAYER_1
  6
Continuous
 62
     7
100
AcDbLine
 10
332.9872170506663
 20
163.7760496109581
 30
0.0
 11
332.4911367593273
 21
163.7760496109581
 31
0.0
  0
LINE
  5
1395
330
A
100
AcDbEntity
  8
LAYER_1
  6
DASHDOT
 62
     7
100
AcDbLine
 10
336.9911367593273
 20
167.3074226443611
 30
0.0
 11
336.9911367593273
 21
151.3074226443611
 31
0.0
  0
LINE
  5
1396
330
A
100
AcDbEntity
  8
LAYER_1
  6
DASHDOT
 62
     7
100
AcDbLine
 10
328.9911367593273
 20
159.3074226443611
 30
0.0
 11
344.9911367593273
 21
159.3074226443611
 31
0.0
  0
LINE
  5
1397
330
A
100
AcDbEntity
  8
LAYER_1
  6
DASHDOT
 62
     7
100
AcDbLine
 10
276.9911367593273
 20
210.8074226443611
 30
0.0
 11
276.9911367593273
 21
202.8074226443611
 31
0.0
  0
LINE
  5
1398
330
A
100
AcDbEntity
  8
LAYER_1
  6
DASHDOT
 62
     7
100
AcDbLine
 10
272.9911367593273
 20
206.8074226443611
 30
0.0
 11
280.9911367593273
 21
206.8074226443611
 31
0.0
  0
LINE
  5
1399
330
A
100
AcDbEntity
  8
LAYER_1
  6
DASHDOT
 62
     7
100
AcDbLine
 10
256.9911367593273
 20
210.8074226443611
 30
0.0
 11
256.9911367593273
 21
202.8074226443611
 31
0.0
  0
LINE
  5
139A
330
A
100
AcDbEntity
  8
LAYER_1
  6
DASHDOT
 62
     7
100
AcDbLine
 10
252.9911367593273
 20
206.8074226443611
 30
0.0
 11
260.9911367593273
 21
206.8074226443611
 31
0.0
  0
LINE
  5
139B
330
A
100
AcDbEntity
  8
LAYER_1
  6
DASHDOT
 62
     7
100
AcDbLine
 10
261.9911367593273
 20
167.8074226443611
 30
0.0
 11
271.9911367593273
 21
167.8074226443611
 31
0.0
  0
LINE
  5
139C
330
A
100
AcDbEntity
  8
LAYER_1
  6
DASHDOT
 62
     7
100
AcDbLine
 10
276.9911367593273
 20
155.8074226443611
 30
0.0
 11
276.9911367593273
 21
145.8074226443611
 31
0.0
  0
LINE
  5
139D
330
A
100
AcDbEntity
  8
LAYER_1
  6
DASHDOT
 62
     7
100
AcDbLine
 10
271.9911367593273
 20
150.8074226443611
 30
0.0
 11
281.9911367593273
 21
150.8074226443611
 31
0.0
  0
LINE
  5
139E
330
A
100
AcDbEntity
  8
LAYER_1
  6
DASHDOT
 62
     7
100
AcDbLine
 10
256.9911367593273
 20
155.8074226443611
 30
0.0
 11
256.9911367593273
 21
145.8074226443611
 31
0.0
  0
LINE
  5
139F
330
A
100
AcDbEntity
  8
LAYER_1
  6
DASHDOT
 62
     7
100
AcDbLine
 10
251.9911367593273
 20
150.8074226443611
 30
0.0
 11
261.9911367593273
 21
150.8074226443611
 31
0.0
  0
LINE
  5
13A0
330
A
100
AcDbEntity
  8
LAYER_1
  6
DASHDOT
 62
     7
100
AcDbLine
 10
266.9911367593273
 20
193.5912569965851
 30
0.0
 11
266.9911367593273
 21
220.9393635880771
 31
0.0
  0
LINE
  5
13A1
330
A
100
AcDbEntity
  8
LAYER_1
  6
DASHDOT
 62
     7
100
AcDbLine
 10
266.9911367593273
 20
143.3042612650321
 30
0.0
 11
266.9911367593273
 21
175.9455497774581
 31
0.0
  0
LINE
  5
13A2
330
A
100
AcDbEntity
  8
LAYER_1
  6
DASHDOT
 62
     7
100
AcDbLine
 10
290.0023998566554
 20
159.3074226443611
 30
0.0
 11
243.5400252173453
 21
159.3074226443611
 31
0.0
  0
DIMENSION
  5
13A3
330
A
100
AcDbEntity
  8
LAYER_1
  6
Continuous
 62
     7
100
AcDbDimension
  2
*D70
 10
231.9911367593273
 20
167.8074226443611
 30
0.0
 11
241.2830149319161
 21
177.5074226443611
 31
0.0
 70
    32
 71
     5
 42
17.0
  3
MARK2_DIMSTYLE
100
AcDbAlignedDimension
 13
251.9911367593273
 23
150.8074226443611
 33
0.0
 14
261.9911367593273
 24
167.8074226443611
 34
0.0
 50
90.0
100
AcDbRotatedDimension
1001
ACAD
1000
DSTYLE
1002
{
1070
    41
1040
6.0
1070
   140
1040
5.4
1002
}
  0
DIMENSION
  5
13A4
330
A
100
AcDbEntity
  8
LAYER_1
  6
Continuous
 62
     7
100
AcDbDimension
  2
*D69
 10
216.9911367593273
 20
171.8074226443611
 30
0.0
 11
213.2911367593273
 21
159.3074226443611
 31
0.0
 70
    32
 71
     5
 42
25.0
  3
MARK2_DIMSTYLE
100
AcDbAlignedDimension
 13
246.9911367593273
 23
146.8074226443611
 33
0.0
 14
246.9911367593273
 24
171.8074226443611
 34
0.0
 50
90.0
100
AcDbRotatedDimension
1001
ACAD
1000
DSTYLE
1002
{
1070
    41
1040
6.0
1070
   140
1040
5.4
1002
}
  0
DIMENSION
  5
13A5
330
A
100
AcDbEntity
  8
LAYER_1
  6
Continuous
 62
     7
100
AcDbDimension
  2
*D68
 10
276.9911367593273
 20
126.8074226443611
 30
0.0
 11
266.9911367593273
 21
130.5074226443611
 31
0.0
 70
    32
 71
     5
 42
20.0
  3
MARK2_DIMSTYLE
100
AcDbAlignedDimension
 13
256.9911367593273
 23
145.8074226443611
 33
0.0
 14
276.9911367593273
 24
145.8074226443611
 34
0.0
100
AcDbRotatedDimension
1001
ACAD
1000
DSTYLE
1002
{
1070
    41
1040
6.0
1070
   140
1040
5.4
1002
}
  0
DIMENSION
  5
13A6
330
A
100
AcDbEntity
  8
LAYER_1
  6
Continuous
 62
     7
100
AcDbDimension
  2
*D66
 10
346.9911367593273
 20
196.8074226443611
 30
0.0
 11
336.9911367593273
 21
200.507422644361
 31
0.0
 70
    32
 71
     5
 42
20.0
  3
MARK2_DIMSTYLE
100
AcDbAlignedDimension
 13
326.9911367593273
 23
171.3074226443611
 33
0.0
 14
346.9911367593273
 24
171.8074226443611
 34
0.0
100
AcDbRotatedDimension
1001
ACAD
1000
DSTYLE
1002
{
1070
    41
1040
6.0
1070
   140
1040
5.4
1002
}
  0
DIMENSION
  5
13A7
330
A
100
AcDbEntity
  8
LAYER_1
  6
Continuous
 62
     7
100
AcDbDimension
  2
*D65
 10
346.9911367593273
 20
181.8074226443611
 30
0.0
 11
368.2830149319161
 21
185.507422644361
 31
0.0
 70
    32
 71
     5
 42
10.0
  3
MARK2_DIMSTYLE
100
AcDbAlignedDimension
 13
336.9911367593273
 23
167.3074226443611
 33
0.0
 14
346.9911367593273
 24
171.8074226443611
 34
0.0
100
AcDbRotatedDimension
1001
ACAD
1000
DSTYLE
1002
{
1070
    41
1040
6.0
1070
   140
1040
5.4
1002
}
  0
DIMENSION
  5
13A8
330
A
100
AcDbEntity
  8
LAYER_1
  6
Continuous
 62
     7
100
AcDbDimension
  2
*D71
 10
276.9911367593273
 20
226.8074226443611
 30
0.0
 11
266.9911367593273
 21
230.5074226443611
 31
0.0
 70
    32
 71
     5
 42
20.0
  3
MARK2_DIMSTYLE
100
AcDbAlignedDimension
 13
256.9911367593273
 23
210.8074226443611
 33
0.0
 14
276.9911367593273
 24
210.8074226443611
 34
0.0
100
AcDbRotatedDimension
1001
ACAD
1000
DSTYLE
1002
{
1070
    41
1040
6.0
1070
   140
1040
5.4
1002
}
  0
DIMENSION
  5
13A9
330
A
100
AcDbEntity
  8
LAYER_1
  6
Continuous
 62
     7
100
AcDbDimension
  2
*D72
 10
231.9911367593273
 20
216.8074226443611
 30
0.0
 11
241.2830149319161
 21
232.5074226443611
 31
0.0
 70
    32
 71
     5
 42
10.0
  3
MARK2_DIMSTYLE
100
AcDbAlignedDimension
 13
252.9911367593273
 23
206.8074226443611
 33
0.0
 14
246.9911367593273
 24
216.8074226443611
 34
0.0
 50
90.0
100
AcDbRotatedDimension
1001
ACAD
1000
DSTYLE
1002
{
1070
    41
1040
6.0
1070
   140
1040
5.4
1002
}
  0
DIMENSION
  5
13AA
330
A
100
AcDbEntity
  8
LAYER_1
  6
Continuous
 62
     7
100
AcDbDimension
  2
*D64
 10
331.7949843366201
 20
156.307422644361
 30
0.0
 11
363.8998985959746
 21
172.007422644361
 31
0.0
 70
    35
 71
     5
 42
12.0
  3
MARK2_DIMSTYLE
100
AcDbDiametricDimension
 15
342.1872891820334
 25
162.3074226443611
 35
0.0
 40
0.0
1001
ACAD
1000
DSTYLE
1002
{
1070
    41
1040
6.0
1070
   140
1040
5.4
1002
}
  0
DIMENSION
  5
13AB
330
A
100
AcDbEntity
  8
LAYER_1
  6
Continuous
 62
     7
100
AcDbDimension
  2
*D67
 10
286.9911367593273
 20
111.8074226443611
 30
0.0
 11
266.9911367593273
 21
115.5074226443611
 31
0.0
 70
    32
 71
     5
 42
40.0
  3
MARK2_DIMSTYLE
100
AcDbAlignedDimension
 13
246.9911367593273
 23
146.8074226443611
 33
0.0
 14
286.9911367593273
 24
146.8074226443611
 34
0.0
100
AcDbRotatedDimension
1001
ACAD
1000
DSTYLE
1002
{
1070
    41
1040
6.0
1070
   140
1040
5.4
1002
}
  0
TEXT
  5
13AC
330
A
100
AcDbEntity
  8
LAYER_1
 62
     7
100
AcDbText
 10
294.2949708349853
 20
118.998505732462
 30
0.0
 40
5.4
  1
*Screws are attached
 41
1.033333333332999
  7
ＭＳ_ゴシック
100
AcDbText
  0
LINE
  5
14AB
330
A
100
AcDbEntity
  8
LAYER_1
  6
Continuous
 62
     7
100
AcDbLine
 10
231.9911367593273
 20
202.3074226443611
 30
0.0
 11
231.9911367593273
 21
216.8074226443611
 31
0.0
  0
TEXT
  5
14AC
330
A
100
AcDbEntity
  8
LAYER_1
 62
     7
100
AcDbText
 10
158.7437216033753
 20
256.8455925755541
 30
0.0
 40
13.5
  1
H-1VH(-01/-02)用　For H-1VH(-01/-02)
 41
1.033333333332999
  7
ＭＳ_ゴシック
100
AcDbText
  0
LEADER
  5
14AD
330
A
100
AcDbEntity
  8
LAYER_1
  6
Continuous
 62
     7
100
AcDbLeader
  3
MARK2_DIMSTYLE
 73
     0
 74
     0
 40
8.4
 41
14.4
 76
     3
 10
279.4725778021823
 20
149.1214658386171
 30
0.0
 10
292.3555966470953
 20
126.8074226443611
 30
0.0
 10
352.8479123007313
 20
126.8074226443611
 30
0.0
340
14AE
  0
MTEXT
  5
14AE
330
A
100
AcDbEntity
  8
LAYER_1
 62
     7
100
AcDbMText
 10
308.7191265620533
 20
129.8074226443611
 30
0.0
 40
5.4
 41
15.12
 71
     9
 72
     5
  1
\W1.034;3-M3
  7
ＭＳ_ゴシック
 73
     1
 44
1.0
  0
LEADER
  5
14AF
330
A
100
AcDbEntity
  8
LAYER_1
  6
Continuous
 62
     7
100
AcDbLeader
  3
MARK2_DIMSTYLE
 73
     0
 74
     0
 40
8.4
 41
43.2
 76
     3
 10
278.3962577179594
 20
208.2306707223901
 30
0.0
 10
289.1215504407773
 20
226.8074226443611
 30
0.0
 10
293.3143316597583
 20
226.8074226443611
 30
0.0
340
14B0
  0
MTEXT
  5
14B0
330
A
100
AcDbEntity
  8
LAYER_1
 62
     7
100
AcDbMText
 10
333.6491634335444
 20
229.8074226443611
 30
0.0
 40
5.4
 41
45.36
 71
     9
 72
     5
  1
\W1.034;2-M4 Depth 6
  7
ＭＳ_ゴシック
 73
     1
 44
1.0
  0
TEXT
  5
14B5
330
A
100
AcDbEntity
  8
LAYER_1
 62
     7
100
AcDbText
 10
158.7437216033753
 20
286.8455925755541
 30
0.0
 40
13.5
  1
LEDヘッドユニット取付金具 / Fixing Block for LED Head Unit
 41
1.033333333332999
  7
ＭＳ_ゴシック
100
AcDbText
  0
ENDSEC
  0
SECTION
  2
OBJECTS
  0
DICTIONARY
  5
19
330
0
100
AcDbDictionary
281
     1
  3
ACAD_GROUP
350
1A
  3
ACAD_LAYOUT
350
14C7
  3
ACAD_MLINESTYLE
350
1B
  3
ACAD_PLOTSETTINGS
350
14C8
  3
ACAD_PLOTSTYLENAME
350
14C5
  0
DICTIONARY
  5
1A
102
{ACAD_REACTORS
330
19
102
}
330
19
100
AcDbDictionary
281
     1
  0
DICTIONARY
  5
14C7
102
{ACAD_REACTORS
330
19
102
}
330
19
100
AcDbDictionary
281
     1
  3
Model
350
14C9
  3
ﾚｲｱｳﾄ1
350
14CA
  0
DICTIONARY
  5
1B
102
{ACAD_REACTORS
330
19
102
}
330
19
100
AcDbDictionary
281
     1
  3
STANDARD
350
1C
  0
DICTIONARY
  5
14C8
102
{ACAD_REACTORS
330
19
102
}
330
19
100
AcDbDictionary
281
     1
  0
ACDBDICTIONARYWDFLT
  5
14C5
102
{ACAD_REACTORS
330
19
102
}
330
19
100
AcDbDictionary
281
     1
  3
Normal
350
14C6
100
AcDbDictionaryWithDefault
340
14C6
  0
LAYOUT
  5
14C9
102
{ACAD_REACTORS
330
14C7
102
}
330
14C7
100
AcDbPlotSettings
  1

  2
\\HCTD010A\RICOH imagio MP C4500 RPCS
  4

  6

 40
0.0
 41
0.0
 42
0.0
 43
0.0
 44
0.0
 45
0.0
 46
0.0
 47
0.0
 48
0.0
 49
0.0
140
0.0
141
0.0
142
1.0
143
1.0
 70
  1712
 72
     0
 73
     0
 74
     0
  7

 75
     0
147
1.0
148
0.0
149
0.0
100
AcDbLayout
  1
Model
 70
     1
 71
     0
 10
0.0
 20
0.0
 11
12.0
 21
9.0
 12
0.0
 22
0.0
 32
0.0
 14
0.0
 24
0.0
 34
0.0
 15
0.0
 25
0.0
 35
0.0
146
0.0
 13
0.0
 23
0.0
 33
0.0
 16
1.0
 26
0.0
 36
0.0
 17
0.0
 27
1.0
 37
0.0
 76
     0
330
A
  0
LAYOUT
  5
14CA
102
{ACAD_REACTORS
330
14C7
102
}
330
14C7
100
AcDbPlotSettings
  1

  2
\\HCTD010A\RICOH imagio MP C4500 RPCS
  4

  6

 40
0.0
 41
0.0
 42
0.0
 43
0.0
 44
0.0
 45
0.0
 46
0.0
 47
0.0
 48
0.0
 49
0.0
140
0.0
141
0.0
142
1.0
143
1.0
 70
   688
 72
     0
 73
     0
 74
     5
  7

 75
    16
147
1.0
148
0.0
149
0.0
100
AcDbLayout
  1
ﾚｲｱｳﾄ1
 70
     0
 71
     1
 10
0.0
 20
0.0
 11
12.0
 21
9.0
 12
0.0
 22
0.0
 32
0.0
 14
1.000000000000000E+20
 24
1.000000000000000E+20
 34
1.000000000000000E+20
 15
-1.000000000000000E+20
 25
-1.000000000000000E+20
 35
-1.000000000000000E+20
146
0.0
 13
0.0
 23
0.0
 33
0.0
 16
1.0
 26
0.0
 36
0.0
 17
0.0
 27
1.0
 37
0.0
 76
     0
330
B
  0
MLINESTYLE
  5
1C
102
{ACAD_REACTORS
330
1B
102
}
330
1B
100
AcDbMlineStyle
  2
STANDARD
 70
     0
  3

 62
     0
 51
90.0
 52
90.0
 71
     2
 49
0.5
 62
   256
  6
BYLAYER
 49
-0.5
 62
   256
  6
BYLAYER
  0
ACDBPLACEHOLDER
  5
14C6
102
{ACAD_REACTORS
330
14C5
102
}
330
14C5
  0
ENDSEC
  0
EOF
