  0
SECTION
  2
HEADER
  9
$ACADVER
  1
AC1015
  9
$ACADMAINTVER
 70
    10
  9
$DWGCODEPAGE
  3
ANSI_932
  9
$INSBASE
 10
0.0
 20
0.0
 30
0.0
  9
$EXTMIN
 10
43.21380718054001
 20
133.9074105153645
 30
-0.0015258207003583
  9
$EXTMAX
 10
369.9929818767041
 20
271.834580129984
 30
0.0000000349246037
  9
$LIMMIN
 10
0.0
 20
0.0
  9
$LIMMAX
 10
420.0
 20
297.0
  9
$ORTHOMODE
 70
     0
  9
$REGENMODE
 70
     1
  9
$FILLMODE
 70
     1
  9
$QTEXTMODE
 70
     0
  9
$MIRRTEXT
 70
     1
  9
$LTSCALE
 40
1.0
  9
$ATTMODE
 70
     1
  9
$TEXTSIZE
 40
0.0
  9
$TRACEWID
 40
0.05
  9
$TEXTSTYLE
  7
STANDARD
  9
$CLAYER
  8
LAYER_1
  9
$CELTYPE
  6
CONTINUOUS
  9
$CECOLOR
 62
   256
  9
$CELTSCALE
 40
1.0
  9
$DISPSILH
 70
     0
  9
$DIMSCALE
 40
1.0
  9
$DIMASZ
 40
0.18
  9
$DIMEXO
 40
0.0625
  9
$DIMDLI
 40
0.38
  9
$DIMRND
 40
0.0
  9
$DIMDLE
 40
0.0
  9
$DIMEXE
 40
0.18
  9
$DIMTP
 40
0.0
  9
$DIMTM
 40
0.0
  9
$DIMTXT
 40
0.18
  9
$DIMCEN
 40
0.09
  9
$DIMTSZ
 40
0.0
  9
$DIMTOL
 70
     0
  9
$DIMLIM
 70
     0
  9
$DIMTIH
 70
     1
  9
$DIMTOH
 70
     1
  9
$DIMSE1
 70
     0
  9
$DIMSE2
 70
     0
  9
$DIMTAD
 70
     0
  9
$DIMZIN
 70
     0
  9
$DIMBLK
  1

  9
$DIMASO
 70
     1
  9
$DIMSHO
 70
     1
  9
$DIMPOST
  1

  9
$DIMAPOST
  1

  9
$DIMALT
 70
     0
  9
$DIMALTD
 70
     2
  9
$DIMALTF
 40
25.4
  9
$DIMLFAC
 40
1.0
  9
$DIMTOFL
 70
     0
  9
$DIMTVP
 40
0.0
  9
$DIMTIX
 70
     0
  9
$DIMSOXD
 70
     0
  9
$DIMSAH
 70
     0
  9
$DIMBLK1
  1

  9
$DIMBLK2
  1

  9
$DIMSTYLE
  2
STANDARD
  9
$DIMCLRD
 70
     0
  9
$DIMCLRE
 70
     0
  9
$DIMCLRT
 70
     0
  9
$DIMTFAC
 40
1.0
  9
$DIMGAP
 40
0.09
  9
$DIMJUST
 70
     0
  9
$DIMSD1
 70
     0
  9
$DIMSD2
 70
     0
  9
$DIMTOLJ
 70
     1
  9
$DIMTZIN
 70
     0
  9
$DIMALTZ
 70
     0
  9
$DIMALTTZ
 70
     0
  9
$DIMUPT
 70
     0
  9
$DIMDEC
 70
     4
  9
$DIMTDEC
 70
     4
  9
$DIMALTU
 70
     2
  9
$DIMALTTD
 70
     2
  9
$DIMTXSTY
  7
STANDARD
  9
$DIMAUNIT
 70
     0
  9
$DIMADEC
 70
     0
  9
$DIMALTRND
 40
0.0
  9
$DIMAZIN
 70
     0
  9
$DIMDSEP
 70
    46
  9
$DIMATFIT
 70
     3
  9
$DIMFRAC
 70
     0
  9
$DIMLDRBLK
  1

  9
$DIMLUNIT
 70
     2
  9
$DIMLWD
 70
    -2
  9
$DIMLWE
 70
    -2
  9
$DIMTMOVE
 70
     0
  9
$LUNITS
 70
     2
  9
$LUPREC
 70
     4
  9
$SKETCHINC
 40
0.1
  9
$FILLETRAD
 40
0.0
  9
$AUNITS
 70
     0
  9
$AUPREC
 70
     0
  9
$MENU
  1
acad
  9
$ELEVATION
 40
0.0
  9
$PELEVATION
 40
0.0
  9
$THICKNESS
 40
0.0
  9
$LIMCHECK
 70
     0
  9
$CHAMFERA
 40
0.0
  9
$CHAMFERB
 40
0.0
  9
$CHAMFERC
 40
0.0
  9
$CHAMFERD
 40
0.0
  9
$SKPOLY
 70
     0
  9
$TDCREATE
 40
2311945.702129432
  9
$TDUCREATE
 40
2311945.327129433
  9
$TDUPDATE
 40
2456666.480695984
  9
$TDUUPDATE
 40
2456666.105695983
  9
$TDINDWG
 40
0.0020035880
  9
$TDUSRTIMER
 40
0.0020034144
  9
$USRTIMER
 70
     1
  9
$ANGBASE
 50
0.0
  9
$ANGDIR
 70
     0
  9
$PDMODE
 70
     0
  9
$PDSIZE
 40
0.0
  9
$PLINEWID
 40
0.0
  9
$SPLFRAME
 70
     0
  9
$SPLINETYPE
 70
     6
  9
$SPLINESEGS
 70
     8
  9
$HANDSEED
  5
15FE
  9
$SURFTAB1
 70
     6
  9
$SURFTAB2
 70
     6
  9
$SURFTYPE
 70
     6
  9
$SURFU
 70
     6
  9
$SURFV
 70
     6
  9
$UCSBASE
  2

  9
$UCSNAME
  2

  9
$UCSORG
 10
0.0
 20
0.0
 30
0.0
  9
$UCSXDIR
 10
1.0
 20
0.0
 30
0.0
  9
$UCSYDIR
 10
0.0
 20
1.0
 30
0.0
  9
$UCSORTHOREF
  2

  9
$UCSORTHOVIEW
 70
     0
  9
$UCSORGTOP
 10
0.0
 20
0.0
 30
0.0
  9
$UCSORGBOTTOM
 10
0.0
 20
0.0
 30
0.0
  9
$UCSORGLEFT
 10
0.0
 20
0.0
 30
0.0
  9
$UCSORGRIGHT
 10
0.0
 20
0.0
 30
0.0
  9
$UCSORGFRONT
 10
0.0
 20
0.0
 30
0.0
  9
$UCSORGBACK
 10
0.0
 20
0.0
 30
0.0
  9
$PUCSBASE
  2

  9
$PUCSNAME
  2

  9
$PUCSORG
 10
0.0
 20
0.0
 30
0.0
  9
$PUCSXDIR
 10
1.0
 20
0.0
 30
0.0
  9
$PUCSYDIR
 10
0.0
 20
1.0
 30
0.0
  9
$PUCSORTHOREF
  2

  9
$PUCSORTHOVIEW
 70
     0
  9
$PUCSORGTOP
 10
0.0
 20
0.0
 30
0.0
  9
$PUCSORGBOTTOM
 10
0.0
 20
0.0
 30
0.0
  9
$PUCSORGLEFT
 10
0.0
 20
0.0
 30
0.0
  9
$PUCSORGRIGHT
 10
0.0
 20
0.0
 30
0.0
  9
$PUCSORGFRONT
 10
0.0
 20
0.0
 30
0.0
  9
$PUCSORGBACK
 10
0.0
 20
0.0
 30
0.0
  9
$USERI1
 70
     0
  9
$USERI2
 70
     0
  9
$USERI3
 70
     0
  9
$USERI4
 70
     0
  9
$USERI5
 70
     0
  9
$USERR1
 40
0.0
  9
$USERR2
 40
0.0
  9
$USERR3
 40
0.0
  9
$USERR4
 40
0.0
  9
$USERR5
 40
0.0
  9
$WORLDVIEW
 70
     1
  9
$SHADEDGE
 70
     3
  9
$SHADEDIF
 70
    70
  9
$TILEMODE
 70
     1
  9
$MAXACTVP
 70
    16
  9
$PINSBASE
 10
0.0
 20
0.0
 30
0.0
  9
$PLIMCHECK
 70
     0
  9
$PEXTMIN
 10
1.000000000000000E+20
 20
1.000000000000000E+20
 30
1.000000000000000E+20
  9
$PEXTMAX
 10
-1.000000000000000E+20
 20
-1.000000000000000E+20
 30
-1.000000000000000E+20
  9
$PLIMMIN
 10
0.0
 20
0.0
  9
$PLIMMAX
 10
12.0
 20
9.0
  9
$UNITMODE
 70
     0
  9
$VISRETAIN
 70
     0
  9
$PLINEGEN
 70
     1
  9
$PSLTSCALE
 70
     0
  9
$TREEDEPTH
 70
  3020
  9
$CMLSTYLE
  2
STANDARD
  9
$CMLJUST
 70
     0
  9
$CMLSCALE
 40
1.0
  9
$PROXYGRAPHICS
 70
     1
  9
$MEASUREMENT
 70
     0
  9
$CELWEIGHT
370
    -1
  9
$ENDCAPS
280
     0
  9
$JOINSTYLE
280
     0
  9
$LWDISPLAY
290
     0
  9
$INSUNITS
 70
     0
  9
$HYPERLINKBASE
  1

  9
$STYLESHEET
  1

  9
$XEDIT
290
     1
  9
$CEPSNTYPE
380
     0
  9
$PSTYLEMODE
290
     1
  9
$FINGERPRINTGUID
  2
{E635E142-B457-4E44-A93B-E9EB63B0A802}
  9
$VERSIONGUID
  2
{01DC1F7F-D4E7-4DA2-A6D4-806A26F2A0EE}
  9
$EXTNAMES
290
     1
  9
$PSVPSCALE
 40
0.0
  9
$OLESTARTUP
290
     0
  0
ENDSEC
  0
SECTION
  2
CLASSES
  0
CLASS
  1
LWPOLYLINE
  2
AcDbPolyline
  3
AutoCAD 2000
 90
    32768
280
     0
281
     1
  0
CLASS
  1
IMAGE
  2
AcDbRasterImage
  3
ISM
 90
    32895
280
     0
281
     1
  0
CLASS
  1
OLE2FRAME
  2
AcDbOle2Frame
  3
AutoCAD 2000
 90
    32768
280
     0
281
     1
  0
CLASS
  1
HATCH
  2
AcDbHatch
  3
AutoCAD 2000
 90
    32768
280
     0
281
     1
  0
CLASS
  1
DICTIONARYVAR
  2
AcDbDictionaryVar
  3
AutoCAD 2000
 90
    32768
280
     0
281
     0
  0
CLASS
  1
RASTERVARIABLES
  2
AcDbRasterVariables
  3
ISM
 90
    32768
280
     0
281
     0
  0
CLASS
  1
IMAGEDEF
  2
AcDbRasterImageDef
  3
ISM
 90
    32768
280
     0
281
     0
  0
CLASS
  1
IMAGEDEF_REACTOR
  2
AcDbRasterImageDefReactor
  3
ISM
 90
    32769
280
     0
281
     0
  0
CLASS
  1
IDBUFFER
  2
AcDbIdBuffer
  3
AutoCAD 2000
 90
    32768
280
     0
281
     0
  0
CLASS
  1
SPATIAL_FILTER
  2
AcDbSpatialFilter
  3
AutoCAD 2000
 90
    32768
280
     0
281
     0
  0
CLASS
  1
XRECORD
  2
AcDbXrecord
  3
AutoCAD 2000
 90
    32768
280
     0
281
     0
  0
CLASS
  1
SORTENTSTABLE
  2
AcDbSortentsTable
  3
AutoCAD 2000
 90
    32768
280
     0
281
     0
  0
CLASS
  1
LAYER_INDEX
  2
AcDbLayerIndex
  3
AutoCAD 2000
 90
    32768
280
     0
281
     0
  0
CLASS
  1
SPATIAL_INDEX
  2
AcDbSpatialIndex
  3
AutoCAD 2000
 90
    32768
280
     0
281
     0
  0
CLASS
  1
OBJECT_PTR
  2
CAseDLPNTableRecord
  3
"ASE-LPNTableRecord"
 90
    32769
280
     0
281
     0
  0
CLASS
  1
LAYOUT
  2
AcDbLayout
  3
AutoCAD 2000
 90
        0
280
     0
281
     0
  0
CLASS
  1
PLOTSETTINGS
  2
AcDbPlotSettings
  3
AutoCAD 2000
 90
    32768
280
     0
281
     0
  0
CLASS
  1
ACDBDICTIONARYWDFLT
  2
AcDbDictionaryWithDefault
  3
AutoCAD 2000
 90
        0
280
     0
281
     0
  0
CLASS
  1
ACDBPLACEHOLDER
  2
AcDbPlaceHolder
  3
AutoCAD 2000
 90
        0
280
     0
281
     0
  0
CLASS
  1
VBA_PROJECT
  2
AcDbVbaProject
  3
"acadvba"
 90
    32768
280
     0
281
     0
  0
CLASS
  1
WIPEOUT
  2
AcDbWipeout
  3
WipeOut|AutoCAD Express Tool|expresstools@autodesk.com
 90
    32895
280
     0
281
     1
  0
CLASS
  1
WIPEOUTVARIABLES
  2
AcDbWipeoutVariables
  3
WipeOut|AutoCAD Express Tool|expresstools@autodesk.com
 90
    32768
280
     0
281
     0
  0
CLASS
  1
RTEXT
  2
RText
  3
RText|AutoCAD Express Tool|expresstools@autodesk.com
 90
    32768
280
     0
281
     1
  0
CLASS
  1
ARCALIGNEDTEXT
  2
AcDbArcAlignedText
  3
ATEXT|AutoCAD Express Tool|expresstools@autodesk.com
 90
    32768
280
     0
281
     1
  0
ENDSEC
  0
SECTION
  2
TABLES
  0
TABLE
  2
VPORT
  5
7
330
0
100
AcDbSymbolTable
 70
     4
  0
VPORT
  5
15FD
330
7
100
AcDbSymbolTableRecord
100
AcDbViewportTableRecord
  2
*Active
 70
     0
 10
0.0
 20
0.0
 11
1.0
 21
1.0
 12
210.0
 22
148.5
 13
0.0
 23
0.0
 14
1.0
 24
1.0
 15
0.0
 25
0.0
 16
0.0
 26
0.0
 36
1.0
 17
0.0
 27
0.0
 37
0.0
 40
300.1651865008881
 41
2.122775800711743
 42
50.0
 43
0.0
 44
0.0
 50
0.0
 51
0.0
 71
     0
 72
   100
 73
     1
 74
     1
 75
     0
 76
     0
 77
     0
 78
     0
281
     0
 65
     1
110
0.0
120
0.0
130
0.0
111
1.0
121
0.0
131
0.0
112
0.0
122
1.0
132
0.0
 79
     0
146
0.0
  0
ENDTAB
  0
TABLE
  2
LTYPE
  5
4
330
0
100
AcDbSymbolTable
 70
     6
  0
LTYPE
  5
11
330
4
100
AcDbSymbolTableRecord
100
AcDbLinetypeTableRecord
  2
BYBLOCK
 70
     0
  3

 72
    65
 73
     0
 40
0.0
  0
LTYPE
  5
12
330
4
100
AcDbSymbolTableRecord
100
AcDbLinetypeTableRecord
  2
BYLAYER
 70
     0
  3

 72
    65
 73
     0
 40
0.0
  0
LTYPE
  5
13
330
4
100
AcDbSymbolTableRecord
100
AcDbLinetypeTableRecord
  2
CONTINUOUS
 70
     0
  3
Solid line
 72
    65
 73
     0
 40
0.0
  0
LTYPE
  5
1D
330
4
100
AcDbSymbolTableRecord
100
AcDbLinetypeTableRecord
  2
DASHED
 70
     0
  3
__ __ __ __ __ __ __ __ __ __ __ __ __ __ __
 72
    65
 73
     2
 40
4.0
 49
3.0
 74
     0
 49
-1.0
 74
     0
  0
LTYPE
  5
1E
330
4
100
AcDbSymbolTableRecord
100
AcDbLinetypeTableRecord
  2
HIDDEN
 70
     0
  3
_ _ _ _ _ _ _ _ _ _ _ _ _ _ _ _ _ _ _ _ _ _ _
 72
    65
 73
     2
 40
2.25
 49
0.25
 74
     0
 49
-2.0
 74
     0
  0
LTYPE
  5
1F
330
4
100
AcDbSymbolTableRecord
100
AcDbLinetypeTableRecord
  2
DOT
 70
     0
  3
...............................................
 72
    65
 73
     2
 40
4.0
 49
1.0
 74
     0
 49
-3.0
 74
     0
  0
LTYPE
  5
20
330
4
100
AcDbSymbolTableRecord
100
AcDbLinetypeTableRecord
  2
DASHDOT
 70
     0
  3
__ . __ . __ . __ . __ . __ . __ . __ . __ . __
 72
    65
 73
     4
 40
7.5
 49
6.0
 74
     0
 49
-0.5
 74
     0
 49
0.5
 74
     0
 49
-0.5
 74
     0
  0
LTYPE
  5
21
330
4
100
AcDbSymbolTableRecord
100
AcDbLinetypeTableRecord
  2
DIVIDE
 70
     0
  3
__ . . __ . . __ . . __ . . __ . . __ . . __
 72
    65
 73
     6
 40
8.5
 49
6.0
 74
     0
 49
-0.5
 74
     0
 49
0.5
 74
     0
 49
-0.5
 74
     0
 49
0.5
 74
     0
 49
-0.5
 74
     0
  0
ENDTAB
  0
TABLE
  2
LAYER
  5
2
330
0
100
AcDbSymbolTable
 70
    17
  0
LAYER
  5
14
330
2
100
AcDbSymbolTableRecord
100
AcDbLayerTableRecord
  2
0
 70
     0
 62
     7
  6
CONTINUOUS
370
    -3
390
14C6
  0
LAYER
  5
22
330
2
100
AcDbSymbolTableRecord
100
AcDbLayerTableRecord
  2
LAYER_1
 70
     0
 62
     7
  6
CONTINUOUS
370
    -3
390
14C6
  0
LAYER
  5
23
330
2
100
AcDbSymbolTableRecord
100
AcDbLayerTableRecord
  2
LAYER_3
 70
     0
 62
     7
  6
CONTINUOUS
370
    -3
390
14C6
  0
LAYER
  5
24
330
2
100
AcDbSymbolTableRecord
100
AcDbLayerTableRecord
  2
LAYER_4
 70
     0
 62
     7
  6
CONTINUOUS
370
    -3
390
14C6
  0
LAYER
  5
25
330
2
100
AcDbSymbolTableRecord
100
AcDbLayerTableRecord
  2
LAYER_5
 70
     0
 62
     7
  6
CONTINUOUS
370
    -3
390
14C6
  0
LAYER
  5
26
330
2
100
AcDbSymbolTableRecord
100
AcDbLayerTableRecord
  2
LAYER_6
 70
     0
 62
     7
  6
CONTINUOUS
370
    -3
390
14C6
  0
LAYER
  5
27
330
2
100
AcDbSymbolTableRecord
100
AcDbLayerTableRecord
  2
LAYER_7
 70
     0
 62
     7
  6
CONTINUOUS
370
    -3
390
14C6
  0
LAYER
  5
28
330
2
100
AcDbSymbolTableRecord
100
AcDbLayerTableRecord
  2
LAYER_8
 70
     0
 62
     7
  6
CONTINUOUS
370
    -3
390
14C6
  0
LAYER
  5
29
330
2
100
AcDbSymbolTableRecord
100
AcDbLayerTableRecord
  2
LAYER_9
 70
     0
 62
     7
  6
CONTINUOUS
370
    -3
390
14C6
  0
LAYER
  5
2A
330
2
100
AcDbSymbolTableRecord
100
AcDbLayerTableRecord
  2
LAYER_10
 70
     0
 62
     7
  6
CONTINUOUS
370
    -3
390
14C6
  0
LAYER
  5
2B
330
2
100
AcDbSymbolTableRecord
100
AcDbLayerTableRecord
  2
LAYER_11
 70
     0
 62
     7
  6
CONTINUOUS
370
    -3
390
14C6
  0
LAYER
  5
2C
330
2
100
AcDbSymbolTableRecord
100
AcDbLayerTableRecord
  2
LAYER_12
 70
     0
 62
     7
  6
CONTINUOUS
370
    -3
390
14C6
  0
LAYER
  5
2D
330
2
100
AcDbSymbolTableRecord
100
AcDbLayerTableRecord
  2
LAYER_13
 70
     0
 62
     7
  6
CONTINUOUS
370
    -3
390
14C6
  0
LAYER
  5
2E
330
2
100
AcDbSymbolTableRecord
100
AcDbLayerTableRecord
  2
LAYER_14
 70
     0
 62
     7
  6
CONTINUOUS
370
    -3
390
14C6
  0
LAYER
  5
2F
330
2
100
AcDbSymbolTableRecord
100
AcDbLayerTableRecord
  2
LAYER_15
 70
     0
 62
     7
  6
CONTINUOUS
370
    -3
390
14C6
  0
LAYER
  5
30
330
2
100
AcDbSymbolTableRecord
100
AcDbLayerTableRecord
  2
LAYER_16
 70
     0
 62
     7
  6
CONTINUOUS
370
    -3
390
14C6
  0
LAYER
  5
14CF
330
2
100
AcDbSymbolTableRecord
100
AcDbLayerTableRecord
  2
Defpoints
 70
     0
 62
     7
  6
CONTINUOUS
290
     0
370
    -3
390
14C6
  0
ENDTAB
  0
TABLE
  2
STYLE
  5
3
330
0
100
AcDbSymbolTable
 70
     3
  0
STYLE
  5
17
330
3
100
AcDbSymbolTableRecord
100
AcDbTextStyleTableRecord
  2
STANDARD
 70
     0
 40
0.0
 41
1.0
 50
0.0
 71
     0
 42
0.0
  3
txt
  4

  0
STYLE
  5
31
330
3
100
AcDbSymbolTableRecord
100
AcDbTextStyleTableRecord
  2
BIGFONT
 70
     0
 40
1.0
 41
1.0
 50
0.0
 71
     0
 42
0.0
  3
monotxt.shx
  4
bigfont
  0
STYLE
  5
32
330
3
100
AcDbSymbolTableRecord
100
AcDbTextStyleTableRecord
  2
ＭＳ_ゴシック
 70
     0
 40
0.0
 41
1.0
 50
0.0
 71
     0
 42
0.0
  3
MS Gothic.ttf
  4

1001
ACAD
1000
MS Gothic
1071
    32817
  0
ENDTAB
  0
TABLE
  2
VIEW
  5
5
330
0
100
AcDbSymbolTable
 70
     0
  0
ENDTAB
  0
TABLE
  2
UCS
  5
6
330
0
100
AcDbSymbolTable
 70
     0
  0
ENDTAB
  0
TABLE
  2
APPID
  5
8
330
0
100
AcDbSymbolTable
 70
     1
  0
APPID
  5
16
330
8
100
AcDbSymbolTableRecord
100
AcDbRegAppTableRecord
  2
ACAD
 70
     0
  0
ENDTAB
  0
TABLE
  2
DIMSTYLE
  5
9
330
0
100
AcDbSymbolTable
 70
     2
100
AcDbDimStyleTable
 71
     0
  0
DIMSTYLE
105
18
330
9
100
AcDbSymbolTableRecord
100
AcDbDimStyleTableRecord
  2
STANDARD
 70
     0
340
17
  0
DIMSTYLE
105
33
102
{ACAD_REACTORS
330
14A0
330
14A1
330
14A2
330
14A3
330
14A7
330
14A9
330
14B3
102
}
330
9
100
AcDbSymbolTableRecord
100
AcDbDimStyleTableRecord
  2
MARK2_DIMSTYLE
 70
     0
 41
2.0
 42
1.0
 43
10.0
 44
1.0
 73
     0
 77
     1
140
6.0
146
0.5
147
1.0
271
     2
340
32
341
34
342
34
  0
ENDTAB
  0
TABLE
  2
BLOCK_RECORD
  5
1
330
0
100
AcDbSymbolTable
 70
    71
  0
BLOCK_RECORD
  5
A
330
1
100
AcDbSymbolTableRecord
100
AcDbBlockTableRecord
  2
*MODEL_SPACE
340
14C9
  0
BLOCK_RECORD
  5
B
330
1
100
AcDbSymbolTableRecord
100
AcDbBlockTableRecord
  2
*PAPER_SPACE
340
14CA
  0
BLOCK_RECORD
  5
34
330
1
100
AcDbSymbolTableRecord
100
AcDbBlockTableRecord
  2
_OPEN
340
0
102
{BLKREFS
331
42
331
45
331
4F
331
52
331
5B
331
5C
331
5D
331
5E
331
65
331
66
331
67
331
68
331
6F
331
70
331
71
331
72
331
7B
331
7E
331
87
331
88
331
89
331
8A
331
92
331
93
331
94
331
95
331
9E
331
A1
331
AA
331
AB
331
AC
331
AD
331
B4
331
B5
331
B6
331
B7
331
BE
331
BF
331
C0
331
C1
331
C9
331
CA
331
CB
331
CC
331
D5
331
D8
331
E2
331
E5
331
EE
331
EF
331
F0
331
F1
331
F8
331
F9
331
FA
331
FB
331
102
331
103
331
104
331
105
331
10E
331
111
331
11A
331
11B
331
11C
331
11D
331
124
331
125
331
126
331
127
331
12E
331
12F
331
130
331
131
331
13A
331
13D
331
147
331
14A
331
153
331
154
331
155
331
156
331
15E
331
15F
331
160
331
161
331
169
331
16A
331
16B
331
16C
331
174
331
175
331
176
331
177
331
180
331
183
331
18C
331
18D
331
18E
331
18F
331
198
331
19B
331
1A3
331
1A6
331
1AF
331
1B0
331
1B1
331
1B2
331
1BA
331
1BB
331
1BC
331
1BD
331
1C5
331
1C6
331
1C7
331
1C8
331
1D0
331
1D1
331
1D2
331
1D3
331
1DB
331
1DC
331
1DD
331
1DE
331
1E5
331
1E6
331
1E7
331
1E8
331
1F0
331
1F1
331
1F2
331
1F3
331
1FB
331
1FC
331
1FD
331
1FE
331
205
331
208
331
211
331
212
331
213
331
214
331
21B
331
21C
331
21D
331
21E
331
226
331
227
331
228
331
229
331
230
331
231
331
232
331
233
331
23B
331
23C
331
23D
331
23E
331
246
331
247
331
248
331
249
331
251
331
252
331
253
331
254
331
25C
331
25D
331
25E
331
25F
331
267
331
268
331
269
331
26A
331
272
331
273
331
274
331
275
331
27E
331
281
331
14D4
331
14D5
331
14E0
331
14E1
331
14ED
331
14EE
331
14FB
331
14FC
331
1506
331
1507
331
1510
331
1511
331
151C
331
151D
331
1528
331
1529
331
1533
331
1534
331
153C
331
153D
331
1547
331
1548
331
1550
331
1551
331
1559
331
155A
331
1562
331
1563
331
156B
331
156C
331
1574
331
1575
331
157F
331
1580
331
1588
331
1589
331
1591
331
1592
331
159A
331
159B
331
15A3
331
15A4
331
15AC
331
15AD
331
15B5
331
15B6
331
15BE
331
15BF
331
15C9
331
15CA
331
15D2
331
15D3
331
15DB
331
15DC
331
15E4
331
15E5
331
15ED
331
15EE
331
15F6
331
15F7
102
}
  0
BLOCK_RECORD
  5
3A
330
1
100
AcDbSymbolTableRecord
100
AcDbBlockTableRecord
  2
_NONE
340
0
102
{BLKREFS
331
43
331
46
331
50
331
53
331
7C
331
7F
331
9F
331
A2
331
D6
331
D9
331
E3
331
E6
331
10F
331
112
331
13B
331
13E
331
148
331
14B
331
181
331
184
331
199
331
19C
331
1A4
331
1A7
331
206
331
209
331
27F
331
282
102
}
  0
BLOCK_RECORD
  5
3D
330
1
100
AcDbSymbolTableRecord
100
AcDbBlockTableRecord
  2
*D2
340
0
  0
BLOCK_RECORD
  5
4A
330
1
100
AcDbSymbolTableRecord
100
AcDbBlockTableRecord
  2
*D3
340
0
  0
BLOCK_RECORD
  5
57
330
1
100
AcDbSymbolTableRecord
100
AcDbBlockTableRecord
  2
*D4
340
0
  0
BLOCK_RECORD
  5
62
330
1
100
AcDbSymbolTableRecord
100
AcDbBlockTableRecord
  2
*D5
340
0
  0
BLOCK_RECORD
  5
6C
330
1
100
AcDbSymbolTableRecord
100
AcDbBlockTableRecord
  2
*D6
340
0
  0
BLOCK_RECORD
  5
76
330
1
100
AcDbSymbolTableRecord
100
AcDbBlockTableRecord
  2
*D7
340
0
  0
BLOCK_RECORD
  5
83
330
1
100
AcDbSymbolTableRecord
100
AcDbBlockTableRecord
  2
*D8
340
0
  0
BLOCK_RECORD
  5
8E
330
1
100
AcDbSymbolTableRecord
100
AcDbBlockTableRecord
  2
*D9
340
0
  0
BLOCK_RECORD
  5
99
330
1
100
AcDbSymbolTableRecord
100
AcDbBlockTableRecord
  2
*D10
340
0
  0
BLOCK_RECORD
  5
A6
330
1
100
AcDbSymbolTableRecord
100
AcDbBlockTableRecord
  2
*D11
340
0
  0
BLOCK_RECORD
  5
B1
330
1
100
AcDbSymbolTableRecord
100
AcDbBlockTableRecord
  2
*D12
340
0
  0
BLOCK_RECORD
  5
BB
330
1
100
AcDbSymbolTableRecord
100
AcDbBlockTableRecord
  2
*D13
340
0
  0
BLOCK_RECORD
  5
C5
330
1
100
AcDbSymbolTableRecord
100
AcDbBlockTableRecord
  2
*D14
340
0
  0
BLOCK_RECORD
  5
D0
330
1
100
AcDbSymbolTableRecord
100
AcDbBlockTableRecord
  2
*D15
340
0
  0
BLOCK_RECORD
  5
DD
330
1
100
AcDbSymbolTableRecord
100
AcDbBlockTableRecord
  2
*D16
340
0
  0
BLOCK_RECORD
  5
EA
330
1
100
AcDbSymbolTableRecord
100
AcDbBlockTableRecord
  2
*D17
340
0
  0
BLOCK_RECORD
  5
F5
330
1
100
AcDbSymbolTableRecord
100
AcDbBlockTableRecord
  2
*D18
340
0
  0
BLOCK_RECORD
  5
FF
330
1
100
AcDbSymbolTableRecord
100
AcDbBlockTableRecord
  2
*D19
340
0
  0
BLOCK_RECORD
  5
109
330
1
100
AcDbSymbolTableRecord
100
AcDbBlockTableRecord
  2
*D20
340
0
  0
BLOCK_RECORD
  5
116
330
1
100
AcDbSymbolTableRecord
100
AcDbBlockTableRecord
  2
*D21
340
0
  0
BLOCK_RECORD
  5
121
330
1
100
AcDbSymbolTableRecord
100
AcDbBlockTableRecord
  2
*D22
340
0
  0
BLOCK_RECORD
  5
12B
330
1
100
AcDbSymbolTableRecord
100
AcDbBlockTableRecord
  2
*D23
340
0
  0
BLOCK_RECORD
  5
135
330
1
100
AcDbSymbolTableRecord
100
AcDbBlockTableRecord
  2
*D24
340
0
  0
BLOCK_RECORD
  5
142
330
1
100
AcDbSymbolTableRecord
100
AcDbBlockTableRecord
  2
*D25
340
0
  0
BLOCK_RECORD
  5
14F
330
1
100
AcDbSymbolTableRecord
100
AcDbBlockTableRecord
  2
*D26
340
0
  0
BLOCK_RECORD
  5
15A
330
1
100
AcDbSymbolTableRecord
100
AcDbBlockTableRecord
  2
*D27
340
0
  0
BLOCK_RECORD
  5
165
330
1
100
AcDbSymbolTableRecord
100
AcDbBlockTableRecord
  2
*D28
340
0
  0
BLOCK_RECORD
  5
170
330
1
100
AcDbSymbolTableRecord
100
AcDbBlockTableRecord
  2
*D29
340
0
  0
BLOCK_RECORD
  5
17B
330
1
100
AcDbSymbolTableRecord
100
AcDbBlockTableRecord
  2
*D30
340
0
  0
BLOCK_RECORD
  5
188
330
1
100
AcDbSymbolTableRecord
100
AcDbBlockTableRecord
  2
*D31
340
0
  0
BLOCK_RECORD
  5
193
330
1
100
AcDbSymbolTableRecord
100
AcDbBlockTableRecord
  2
*D32
340
0
  0
BLOCK_RECORD
  5
1A0
330
1
100
AcDbSymbolTableRecord
100
AcDbBlockTableRecord
  2
*D33
340
0
  0
BLOCK_RECORD
  5
1AB
330
1
100
AcDbSymbolTableRecord
100
AcDbBlockTableRecord
  2
*D34
340
0
  0
BLOCK_RECORD
  5
1B6
330
1
100
AcDbSymbolTableRecord
100
AcDbBlockTableRecord
  2
*D35
340
0
  0
BLOCK_RECORD
  5
1C1
330
1
100
AcDbSymbolTableRecord
100
AcDbBlockTableRecord
  2
*D36
340
0
  0
BLOCK_RECORD
  5
1CC
330
1
100
AcDbSymbolTableRecord
100
AcDbBlockTableRecord
  2
*D37
340
0
  0
BLOCK_RECORD
  5
1D7
330
1
100
AcDbSymbolTableRecord
100
AcDbBlockTableRecord
  2
*D38
340
0
  0
BLOCK_RECORD
  5
1E2
330
1
100
AcDbSymbolTableRecord
100
AcDbBlockTableRecord
  2
*D39
340
0
  0
BLOCK_RECORD
  5
1EC
330
1
100
AcDbSymbolTableRecord
100
AcDbBlockTableRecord
  2
*D40
340
0
  0
BLOCK_RECORD
  5
1F7
330
1
100
AcDbSymbolTableRecord
100
AcDbBlockTableRecord
  2
*D41
340
0
  0
BLOCK_RECORD
  5
202
330
1
100
AcDbSymbolTableRecord
100
AcDbBlockTableRecord
  2
*D42
340
0
  0
BLOCK_RECORD
  5
20D
330
1
100
AcDbSymbolTableRecord
100
AcDbBlockTableRecord
  2
*D43
340
0
  0
BLOCK_RECORD
  5
218
330
1
100
AcDbSymbolTableRecord
100
AcDbBlockTableRecord
  2
*D44
340
0
  0
BLOCK_RECORD
  5
222
330
1
100
AcDbSymbolTableRecord
100
AcDbBlockTableRecord
  2
*D45
340
0
  0
BLOCK_RECORD
  5
22D
330
1
100
AcDbSymbolTableRecord
100
AcDbBlockTableRecord
  2
*D46
340
0
  0
BLOCK_RECORD
  5
237
330
1
100
AcDbSymbolTableRecord
100
AcDbBlockTableRecord
  2
*D47
340
0
  0
BLOCK_RECORD
  5
242
330
1
100
AcDbSymbolTableRecord
100
AcDbBlockTableRecord
  2
*D48
340
0
  0
BLOCK_RECORD
  5
24D
330
1
100
AcDbSymbolTableRecord
100
AcDbBlockTableRecord
  2
*D49
340
0
  0
BLOCK_RECORD
  5
258
330
1
100
AcDbSymbolTableRecord
100
AcDbBlockTableRecord
  2
*D50
340
0
  0
BLOCK_RECORD
  5
263
330
1
100
AcDbSymbolTableRecord
100
AcDbBlockTableRecord
  2
*D51
340
0
  0
BLOCK_RECORD
  5
26E
330
1
100
AcDbSymbolTableRecord
100
AcDbBlockTableRecord
  2
*D52
340
0
  0
BLOCK_RECORD
  5
279
330
1
100
AcDbSymbolTableRecord
100
AcDbBlockTableRecord
  2
*D53
340
0
  0
BLOCK_RECORD
  5
286
330
1
100
AcDbSymbolTableRecord
100
AcDbBlockTableRecord
  2
HATCHING__PATTERN_$40$
340
0
102
{BLKREFS
331
14B6
102
}
  0
BLOCK_RECORD
  5
28F
330
1
100
AcDbSymbolTableRecord
100
AcDbBlockTableRecord
  2
HATCHING__PATTERN_$41$
340
0
102
{BLKREFS
331
14B7
102
}
  0
BLOCK_RECORD
  5
298
330
1
100
AcDbSymbolTableRecord
100
AcDbBlockTableRecord
  2
HATCHING__PATTERN_$42$
340
0
102
{BLKREFS
331
14B8
102
}
  0
BLOCK_RECORD
  5
2A1
330
1
100
AcDbSymbolTableRecord
100
AcDbBlockTableRecord
  2
HATCHING__PATTERN_$43$
340
0
102
{BLKREFS
331
14B9
102
}
  0
BLOCK_RECORD
  5
2AA
330
1
100
AcDbSymbolTableRecord
100
AcDbBlockTableRecord
  2
HATCHING__PATTERN_$44$
340
0
102
{BLKREFS
331
14BA
102
}
  0
BLOCK_RECORD
  5
2C5
330
1
100
AcDbSymbolTableRecord
100
AcDbBlockTableRecord
  2
HATCHING__PATTERN_$45$
340
0
102
{BLKREFS
331
14BB
102
}
  0
BLOCK_RECORD
  5
2CE
330
1
100
AcDbSymbolTableRecord
100
AcDbBlockTableRecord
  2
HATCHING__PATTERN_$46$
340
0
102
{BLKREFS
331
14BC
102
}
  0
BLOCK_RECORD
  5
2D7
330
1
100
AcDbSymbolTableRecord
100
AcDbBlockTableRecord
  2
HATCHING__PATTERN_$47$
340
0
102
{BLKREFS
331
14BD
102
}
  0
BLOCK_RECORD
  5
2DE
330
1
100
AcDbSymbolTableRecord
100
AcDbBlockTableRecord
  2
HATCHING__PATTERN_$48$
340
0
102
{BLKREFS
331
14BE
102
}
  0
BLOCK_RECORD
  5
2E4
330
1
100
AcDbSymbolTableRecord
100
AcDbBlockTableRecord
  2
HATCHING__PATTERN_$49$
340
0
102
{BLKREFS
331
14BF
102
}
  0
BLOCK_RECORD
  5
14D0
330
1
100
AcDbSymbolTableRecord
100
AcDbBlockTableRecord
  2
*D64
340
0
  0
BLOCK_RECORD
  5
14DC
330
1
100
AcDbSymbolTableRecord
100
AcDbBlockTableRecord
  2
*D65
340
0
  0
BLOCK_RECORD
  5
14E9
330
1
100
AcDbSymbolTableRecord
100
AcDbBlockTableRecord
  2
*D66
340
0
  0
BLOCK_RECORD
  5
14F5
330
1
100
AcDbSymbolTableRecord
100
AcDbBlockTableRecord
  2
*D67
340
0
  0
BLOCK_RECORD
  5
150C
330
1
100
AcDbSymbolTableRecord
100
AcDbBlockTableRecord
  2
*D68
340
0
  0
BLOCK_RECORD
  5
1518
330
1
100
AcDbSymbolTableRecord
100
AcDbBlockTableRecord
  2
*D69
340
0
  0
BLOCK_RECORD
  5
1524
330
1
100
AcDbSymbolTableRecord
100
AcDbBlockTableRecord
  2
*D70
340
0
  0
ENDTAB
  0
ENDSEC
  0
SECTION
  2
BLOCKS
  0
BLOCK
  5
D
330
A
100
AcDbEntity
  8
0
100
AcDbBlockBegin
  2
*MODEL_SPACE
 70
     0
 10
0.0
 20
0.0
 30
0.0
  3
*MODEL_SPACE
  1

  0
ENDBLK
  5
E
330
A
100
AcDbEntity
  8
0
100
AcDbBlockEnd
  0
BLOCK
  5
F
330
B
100
AcDbEntity
 67
     1
  8
0
100
AcDbBlockBegin
  2
*PAPER_SPACE
 70
     0
 10
0.0
 20
0.0
 30
0.0
  3
*PAPER_SPACE
  1

  0
ENDBLK
  5
10
330
B
100
AcDbEntity
 67
     1
  8
0
100
AcDbBlockEnd
  0
BLOCK
  5
35
330
34
100
AcDbEntity
  8
0
 62
     0
100
AcDbBlockBegin
  2
_OPEN
 70
     0
 10
0.0
 20
0.0
 30
0.0
  3
_OPEN
  1

  0
LINE
  5
36
330
34
100
AcDbEntity
  8
0
 62
     0
100
AcDbLine
 10
-1.0
 20
0.166666666667
 30
0.0
 11
0.0
 21
0.0
 31
0.0
  0
LINE
  5
37
330
34
100
AcDbEntity
  8
0
 62
     0
100
AcDbLine
 10
-1.0
 20
-0.166666666667
 30
0.0
 11
0.0
 21
0.0
 31
0.0
  0
LINE
  5
38
330
34
100
AcDbEntity
  8
0
 62
     0
100
AcDbLine
 10
0.0
 20
0.0
 30
0.0
 11
-1.0
 21
0.0
 31
0.0
  0
ENDBLK
  5
39
330
34
100
AcDbEntity
  8
0
100
AcDbBlockEnd
  0
BLOCK
  5
3B
330
3A
100
AcDbEntity
  8
0
 62
     0
100
AcDbBlockBegin
  2
_NONE
 70
     0
 10
0.0
 20
0.0
 30
0.0
  3
_NONE
  1

  0
ENDBLK
  5
3C
330
3A
100
AcDbEntity
  8
0
100
AcDbBlockEnd
  0
BLOCK
  5
3E
330
3D
100
AcDbEntity
  8
0
 62
     7
100
AcDbBlockBegin
  2
*D2
 70
     1
 10
0.0
 20
0.0
 30
0.0
  3
*D2
  1

  0
LINE
  5
3F
330
3D
100
AcDbEntity
  8
LAYER_1
  6
Continuous
 62
     7
100
AcDbLine
 10
161.43388638016
 20
679.4097520661161
 30
0.0
 11
137.791074380165
 21
679.4097520661161
 31
0.0
  0
LINE
  5
40
330
3D
100
AcDbEntity
  8
LAYER_1
  6
Continuous
 62
     7
100
AcDbLine
 10
161.43388638016
 20
691.4097520661161
 30
0.0
 11
137.791074380165
 21
691.4097520661161
 31
0.0
  0
LINE
  5
41
330
3D
100
AcDbEntity
  8
LAYER_1
  6
Continuous
 62
     7
100
AcDbLine
 10
139.791074380165
 20
679.4097520661161
 30
0.0
 11
139.791074380165
 21
691.4097520661161
 31
0.0
  0
INSERT
  5
42
330
3D
100
AcDbEntity
  8
LAYER_1
  6
Continuous
 62
     7
100
AcDbBlockReference
  2
_OPEN
 10
139.791074380165
 20
679.4097520661161
 30
0.0
 41
6.0
 42
6.0
 50
90.0
  0
INSERT
  5
43
330
3D
100
AcDbEntity
  8
LAYER_1
  6
Continuous
 62
     7
100
AcDbBlockReference
  2
_NONE
 10
139.791074380165
 20
658.506330401779
 30
0.0
 41
6.0
 42
6.0
 50
270.0
  0
LINE
  5
44
330
3D
100
AcDbEntity
  8
LAYER_1
  6
Continuous
 62
     7
100
AcDbLine
 10
139.791074380165
 20
679.4097520661161
 30
0.0
 11
139.791074380165
 21
658.506330401779
 31
0.0
  0
INSERT
  5
45
330
3D
100
AcDbEntity
  8
LAYER_1
  6
Continuous
 62
     7
100
AcDbBlockReference
  2
_OPEN
 10
139.791074380165
 20
691.4097520661161
 30
0.0
 41
6.0
 42
6.0
 50
270.0
  0
INSERT
  5
46
330
3D
100
AcDbEntity
  8
LAYER_1
  6
Continuous
 62
     7
100
AcDbBlockReference
  2
_NONE
 10
139.791074380165
 20
703.4097520661161
 30
0.0
 41
6.0
 42
6.0
 50
90.0
  0
LINE
  5
47
330
3D
100
AcDbEntity
  8
LAYER_1
  6
Continuous
 62
     7
100
AcDbLine
 10
139.791074380165
 20
691.4097520661161
 30
0.0
 11
139.791074380165
 21
703.4097520661161
 31
0.0
  0
TEXT
  5
48
330
3D
100
AcDbEntity
  8
LAYER_1
 62
     7
100
AcDbText
 10
136.791074380165
 20
658.506330401779
 30
0.0
 40
5.4
  1
φ12
 50
90.0
 41
1.033333333332999
  7
ＭＳ_ゴシック
100
AcDbText
  0
ENDBLK
  5
49
330
3D
100
AcDbEntity
  8
0
100
AcDbBlockEnd
  0
BLOCK
  5
4B
330
4A
100
AcDbEntity
  8
0
 62
     7
100
AcDbBlockBegin
  2
*D3
 70
     1
 10
0.0
 20
0.0
 30
0.0
  3
*D3
  1

  0
LINE
  5
4C
330
4A
100
AcDbEntity
  8
LAYER_1
  6
Continuous
 62
     7
100
AcDbLine
 10
321.47865674622
 20
678.059752066115
 30
0.0
 11
346.791074380165
 21
678.059752066115
 31
0.0
  0
LINE
  5
4D
330
4A
100
AcDbEntity
  8
LAYER_1
  6
Continuous
 62
     7
100
AcDbLine
 10
321.47865674622
 20
692.759752066115
 30
0.0
 11
346.791074380165
 21
692.759752066115
 31
0.0
  0
LINE
  5
4E
330
4A
100
AcDbEntity
  8
LAYER_1
  6
Continuous
 62
     7
100
AcDbLine
 10
344.791074380165
 20
678.059752066115
 30
0.0
 11
344.791074380165
 21
692.759752066115
 31
0.0
  0
INSERT
  5
4F
330
4A
100
AcDbEntity
  8
LAYER_1
  6
Continuous
 62
     7
100
AcDbBlockReference
  2
_OPEN
 10
344.791074380165
 20
678.059752066115
 30
0.0
 41
6.0
 42
6.0
 50
90.0
  0
INSERT
  5
50
330
4A
100
AcDbEntity
  8
LAYER_1
  6
Continuous
 62
     7
100
AcDbBlockReference
  2
_NONE
 10
344.791074380165
 20
643.022696473253
 30
0.0
 41
6.0
 42
6.0
 50
270.0
  0
LINE
  5
51
330
4A
100
AcDbEntity
  8
LAYER_1
  6
Continuous
 62
     7
100
AcDbLine
 10
344.791074380165
 20
678.059752066115
 30
0.0
 11
344.791074380165
 21
643.022696473253
 31
0.0
  0
INSERT
  5
52
330
4A
100
AcDbEntity
  8
LAYER_1
  6
Continuous
 62
     7
100
AcDbBlockReference
  2
_OPEN
 10
344.791074380165
 20
692.759752066115
 30
0.0
 41
6.0
 42
6.0
 50
270.0
  0
INSERT
  5
53
330
4A
100
AcDbEntity
  8
LAYER_1
  6
Continuous
 62
     7
100
AcDbBlockReference
  2
_NONE
 10
344.791074380165
 20
704.7597520661149
 30
0.0
 41
6.0
 42
6.0
 50
90.0
  0
LINE
  5
54
330
4A
100
AcDbEntity
  8
LAYER_1
  6
Continuous
 62
     7
100
AcDbLine
 10
344.791074380165
 20
692.759752066115
 30
0.0
 11
344.791074380165
 21
704.7597520661149
 31
0.0
  0
TEXT
  5
55
330
4A
100
AcDbEntity
  8
LAYER_1
 62
     7
100
AcDbText
 10
341.7910743801649
 20
643.022696473253
 30
0.0
 40
5.4
  1
(φ14.7)
 50
90.0
 41
1.033333333332999
  7
ＭＳ_ゴシック
100
AcDbText
  0
ENDBLK
  5
56
330
4A
100
AcDbEntity
  8
0
100
AcDbBlockEnd
  0
BLOCK
  5
58
330
57
100
AcDbEntity
  8
0
 62
     7
100
AcDbBlockBegin
  2
*D4
 70
     1
 10
0.0
 20
0.0
 30
0.0
  3
*D4
  1

  0
LINE
  5
59
330
57
100
AcDbEntity
  8
LAYER_1
  6
Continuous
 62
     7
100
AcDbLine
 10
159.791074380165
 20
692.309752066116
 30
0.0
 11
159.791074380165
 21
708.4097520661149
 31
0.0
  0
LINE
  5
5A
330
57
100
AcDbEntity
  8
LAYER_1
  6
Continuous
 62
     7
100
AcDbLine
 10
201.7910743801649
 20
693.109752066115
 30
0.0
 11
201.7910743801649
 21
708.4097520661149
 31
0.0
  0
INSERT
  5
5B
330
57
100
AcDbEntity
  8
LAYER_1
  6
Continuous
 62
     7
100
AcDbBlockReference
  2
_OPEN
 10
159.791074380165
 20
706.409752066115
 30
0.0
 41
6.0
 42
6.0
 50
180.0
  0
INSERT
  5
5C
330
57
100
AcDbEntity
  8
LAYER_1
  6
Continuous
 62
     7
100
AcDbBlockReference
  2
_OPEN
 10
201.7910743801649
 20
706.409752066115
 30
0.0
 41
6.0
 42
6.0
  0
INSERT
  5
5D
330
57
100
AcDbEntity
  8
LAYER_1
  6
Continuous
 62
     7
100
AcDbBlockReference
  2
_OPEN
 10
159.791074380165
 20
706.409752066115
 30
0.0
 41
6.0
 42
6.0
 50
180.0
  0
INSERT
  5
5E
330
57
100
AcDbEntity
  8
LAYER_1
  6
Continuous
 62
     7
100
AcDbBlockReference
  2
_OPEN
 10
201.7910743801649
 20
706.409752066115
 30
0.0
 41
6.0
 42
6.0
  0
LINE
  5
5F
330
57
100
AcDbEntity
  8
LAYER_1
  6
Continuous
 62
     7
100
AcDbLine
 10
159.791074380165
 20
706.409752066115
 30
0.0
 11
201.7910743801649
 21
706.409752066115
 31
0.0
  0
TEXT
  5
60
330
57
100
AcDbEntity
  8
LAYER_1
 62
     7
100
AcDbText
 10
173.5399068674769
 20
709.4097520661149
 30
0.0
 40
5.4
  1
(42)
 41
1.033333333332999
  7
ＭＳ_ゴシック
 72
     1
 11
180.7910743801649
 21
709.4097520661149
 31
0.0
100
AcDbText
  0
ENDBLK
  5
61
330
57
100
AcDbEntity
  8
0
100
AcDbBlockEnd
  0
BLOCK
  5
63
330
62
100
AcDbEntity
  8
0
 62
     7
100
AcDbBlockBegin
  2
*D5
 70
     1
 10
0.0
 20
0.0
 30
0.0
  3
*D5
  1

  0
LINE
  5
64
330
62
100
AcDbEntity
  8
LAYER_1
  6
Continuous
 62
     7
100
AcDbLine
 10
281.7910743801649
 20
691.070580601028
 30
0.0
 11
281.7910743801649
 21
708.4097520661149
 31
0.0
  0
INSERT
  5
65
330
62
100
AcDbEntity
  8
LAYER_1
  6
Continuous
 62
     7
100
AcDbBlockReference
  2
_OPEN
 10
201.7910743801649
 20
706.409752066115
 30
0.0
 41
6.0
 42
6.0
 50
180.0
  0
INSERT
  5
66
330
62
100
AcDbEntity
  8
LAYER_1
  6
Continuous
 62
     7
100
AcDbBlockReference
  2
_OPEN
 10
281.7910743801649
 20
706.409752066115
 30
0.0
 41
6.0
 42
6.0
  0
INSERT
  5
67
330
62
100
AcDbEntity
  8
LAYER_1
  6
Continuous
 62
     7
100
AcDbBlockReference
  2
_OPEN
 10
201.7910743801649
 20
706.409752066115
 30
0.0
 41
6.0
 42
6.0
 50
180.0
  0
INSERT
  5
68
330
62
100
AcDbEntity
  8
LAYER_1
  6
Continuous
 62
     7
100
AcDbBlockReference
  2
_OPEN
 10
281.7910743801649
 20
706.409752066115
 30
0.0
 41
6.0
 42
6.0
  0
LINE
  5
69
330
62
100
AcDbEntity
  8
LAYER_1
  6
Continuous
 62
     7
100
AcDbLine
 10
201.7910743801649
 20
706.409752066115
 30
0.0
 11
281.7910743801649
 21
706.409752066115
 31
0.0
  0
TEXT
  5
6A
330
62
100
AcDbEntity
  8
LAYER_1
 62
     7
100
AcDbText
 10
230.9143231111329
 20
709.4097520661149
 30
0.0
 40
5.4
  1
(2000)
 41
1.033333333332999
  7
ＭＳ_ゴシック
 72
     1
 11
241.791074380165
 21
709.4097520661149
 31
0.0
100
AcDbText
  0
ENDBLK
  5
6B
330
62
100
AcDbEntity
  8
0
100
AcDbBlockEnd
  0
BLOCK
  5
6D
330
6C
100
AcDbEntity
  8
0
 62
     7
100
AcDbBlockBegin
  2
*D6
 70
     1
 10
0.0
 20
0.0
 30
0.0
  3
*D6
  1

  0
LINE
  5
6E
330
6C
100
AcDbEntity
  8
LAYER_1
  6
Continuous
 62
     7
100
AcDbLine
 10
324.7910743801649
 20
692.1597520661149
 30
0.0
 11
324.7910743801649
 21
708.4097520661149
 31
0.0
  0
INSERT
  5
6F
330
6C
100
AcDbEntity
  8
LAYER_1
  6
Continuous
 62
     7
100
AcDbBlockReference
  2
_OPEN
 10
281.7910743801649
 20
706.409752066115
 30
0.0
 41
6.0
 42
6.0
 50
180.0
  0
INSERT
  5
70
330
6C
100
AcDbEntity
  8
LAYER_1
  6
Continuous
 62
     7
100
AcDbBlockReference
  2
_OPEN
 10
324.7910743801649
 20
706.409752066115
 30
0.0
 41
6.0
 42
6.0
  0
INSERT
  5
71
330
6C
100
AcDbEntity
  8
LAYER_1
  6
Continuous
 62
     7
100
AcDbBlockReference
  2
_OPEN
 10
281.7910743801649
 20
706.409752066115
 30
0.0
 41
6.0
 42
6.0
 50
180.0
  0
INSERT
  5
72
330
6C
100
AcDbEntity
  8
LAYER_1
  6
Continuous
 62
     7
100
AcDbBlockReference
  2
_OPEN
 10
324.7910743801649
 20
706.409752066115
 30
0.0
 41
6.0
 42
6.0
  0
LINE
  5
73
330
6C
100
AcDbEntity
  8
LAYER_1
  6
Continuous
 62
     7
100
AcDbLine
 10
281.7910743801649
 20
706.409752066115
 30
0.0
 11
324.7910743801649
 21
706.409752066115
 31
0.0
  0
TEXT
  5
74
330
6C
100
AcDbEntity
  8
LAYER_1
 62
     7
100
AcDbText
 10
296.0399068674769
 20
709.4097520661149
 30
0.0
 40
5.4
  1
(43)
 41
1.033333333332999
  7
ＭＳ_ゴシック
 72
     1
 11
303.2910743801649
 21
709.4097520661149
 31
0.0
100
AcDbText
  0
ENDBLK
  5
75
330
6C
100
AcDbEntity
  8
0
100
AcDbBlockEnd
  0
BLOCK
  5
77
330
76
100
AcDbEntity
  8
0
 62
     7
100
AcDbBlockBegin
  2
*D7
 70
     1
 10
0.0
 20
0.0
 30
0.0
  3
*D7
  1

  0
LINE
  5
78
330
76
100
AcDbEntity
  8
LAYER_1
  6
Continuous
 62
     7
100
AcDbLine
 10
149.991074380165
 20
539.459752066122
 30
0.0
 11
137.791074380165
 21
539.459752066122
 31
0.0
  0
LINE
  5
79
330
76
100
AcDbEntity
  8
LAYER_1
  6
Continuous
 62
     7
100
AcDbLine
 10
149.991074380165
 20
551.4597520661219
 30
0.0
 11
137.791074380165
 21
551.4597520661219
 31
0.0
  0
LINE
  5
7A
330
76
100
AcDbEntity
  8
LAYER_1
  6
Continuous
 62
     7
100
AcDbLine
 10
139.791074380165
 20
539.459752066122
 30
0.0
 11
139.791074380165
 21
551.4597520661219
 31
0.0
  0
INSERT
  5
7B
330
76
100
AcDbEntity
  8
LAYER_1
  6
Continuous
 62
     7
100
AcDbBlockReference
  2
_OPEN
 10
139.791074380165
 20
539.459752066122
 30
0.0
 41
6.0
 42
6.0
 50
90.0
  0
INSERT
  5
7C
330
76
100
AcDbEntity
  8
LAYER_1
  6
Continuous
 62
     7
100
AcDbBlockReference
  2
_NONE
 10
139.791074380165
 20
517.8522364073049
 30
0.0
 41
6.0
 42
6.0
 50
270.0
  0
LINE
  5
7D
330
76
100
AcDbEntity
  8
LAYER_1
  6
Continuous
 62
     7
100
AcDbLine
 10
139.791074380165
 20
539.459752066122
 30
0.0
 11
139.791074380165
 21
517.8522364073049
 31
0.0
  0
INSERT
  5
7E
330
76
100
AcDbEntity
  8
LAYER_1
  6
Continuous
 62
     7
100
AcDbBlockReference
  2
_OPEN
 10
139.791074380165
 20
551.4597520661219
 30
0.0
 41
6.0
 42
6.0
 50
270.0
  0
INSERT
  5
7F
330
76
100
AcDbEntity
  8
LAYER_1
  6
Continuous
 62
     7
100
AcDbBlockReference
  2
_NONE
 10
139.791074380165
 20
563.4597520661219
 30
0.0
 41
6.0
 42
6.0
 50
90.0
  0
LINE
  5
80
330
76
100
AcDbEntity
  8
LAYER_1
  6
Continuous
 62
     7
100
AcDbLine
 10
139.791074380165
 20
551.4597520661219
 30
0.0
 11
139.791074380165
 21
563.4597520661219
 31
0.0
  0
TEXT
  5
81
330
76
100
AcDbEntity
  8
LAYER_1
 62
     7
100
AcDbText
 10
136.791074380165
 20
517.8522364073049
 30
0.0
 40
5.4
  1
φ12
 50
90.0
 41
1.033333333332999
  7
ＭＳ_ゴシック
100
AcDbText
  0
ENDBLK
  5
82
330
76
100
AcDbEntity
  8
0
100
AcDbBlockEnd
  0
BLOCK
  5
84
330
83
100
AcDbEntity
  8
0
 62
     7
100
AcDbBlockBegin
  2
*D8
 70
     1
 10
0.0
 20
0.0
 30
0.0
  3
*D8
  1

  0
LINE
  5
85
330
83
100
AcDbEntity
  8
LAYER_1
  6
Continuous
 62
     7
100
AcDbLine
 10
151.791074380165
 20
553.2597520661219
 30
0.0
 11
151.791074380165
 21
568.459752066121
 31
0.0
  0
LINE
  5
86
330
83
100
AcDbEntity
  8
LAYER_1
  6
Continuous
 62
     7
100
AcDbLine
 10
201.7910743801649
 20
553.159752066122
 30
0.0
 11
201.7910743801649
 21
568.459752066121
 31
0.0
  0
INSERT
  5
87
330
83
100
AcDbEntity
  8
LAYER_1
  6
Continuous
 62
     7
100
AcDbBlockReference
  2
_OPEN
 10
151.791074380165
 20
566.459752066121
 30
0.0
 41
6.0
 42
6.0
 50
180.0
  0
INSERT
  5
88
330
83
100
AcDbEntity
  8
LAYER_1
  6
Continuous
 62
     7
100
AcDbBlockReference
  2
_OPEN
 10
201.7910743801649
 20
566.459752066121
 30
0.0
 41
6.0
 42
6.0
  0
INSERT
  5
89
330
83
100
AcDbEntity
  8
LAYER_1
  6
Continuous
 62
     7
100
AcDbBlockReference
  2
_OPEN
 10
151.791074380165
 20
566.459752066121
 30
0.0
 41
6.0
 42
6.0
 50
180.0
  0
INSERT
  5
8A
330
83
100
AcDbEntity
  8
LAYER_1
  6
Continuous
 62
     7
100
AcDbBlockReference
  2
_OPEN
 10
201.7910743801649
 20
566.459752066121
 30
0.0
 41
6.0
 42
6.0
  0
LINE
  5
8B
330
83
100
AcDbEntity
  8
LAYER_1
  6
Continuous
 62
     7
100
AcDbLine
 10
151.791074380165
 20
566.459752066121
 30
0.0
 11
201.7910743801649
 21
566.459752066121
 31
0.0
  0
TEXT
  5
8C
330
83
100
AcDbEntity
  8
LAYER_1
 62
     7
100
AcDbText
 10
169.5399068674769
 20
569.459752066121
 30
0.0
 40
5.4
  1
(50)
 41
1.033333333332999
  7
ＭＳ_ゴシック
 72
     1
 11
176.7910743801649
 21
569.459752066121
 31
0.0
100
AcDbText
  0
ENDBLK
  5
8D
330
83
100
AcDbEntity
  8
0
100
AcDbBlockEnd
  0
BLOCK
  5
8F
330
8E
100
AcDbEntity
  8
0
 62
     7
100
AcDbBlockBegin
  2
*D9
 70
     1
 10
0.0
 20
0.0
 30
0.0
  3
*D9
  1

  0
LINE
  5
90
330
8E
100
AcDbEntity
  8
LAYER_1
  6
Continuous
 62
     7
100
AcDbLine
 10
253.7910743801649
 20
555.209752066116
 30
0.0
 11
253.7910743801649
 21
568.409752066116
 31
0.0
  0
LINE
  5
91
330
8E
100
AcDbEntity
  8
LAYER_1
  6
Continuous
 62
     7
100
AcDbLine
 10
344.791074380165
 20
555.1097520661159
 30
0.0
 11
344.791074380165
 21
568.409752066116
 31
0.0
  0
INSERT
  5
92
330
8E
100
AcDbEntity
  8
LAYER_1
  6
Continuous
 62
     7
100
AcDbBlockReference
  2
_OPEN
 10
253.7910743801649
 20
566.4097520661161
 30
0.0
 41
6.0
 42
6.0
 50
180.0
  0
INSERT
  5
93
330
8E
100
AcDbEntity
  8
LAYER_1
  6
Continuous
 62
     7
100
AcDbBlockReference
  2
_OPEN
 10
344.791074380165
 20
566.4097520661161
 30
0.0
 41
6.0
 42
6.0
  0
INSERT
  5
94
330
8E
100
AcDbEntity
  8
LAYER_1
  6
Continuous
 62
     7
100
AcDbBlockReference
  2
_OPEN
 10
253.7910743801649
 20
566.4097520661161
 30
0.0
 41
6.0
 42
6.0
 50
180.0
  0
INSERT
  5
95
330
8E
100
AcDbEntity
  8
LAYER_1
  6
Continuous
 62
     7
100
AcDbBlockReference
  2
_OPEN
 10
344.791074380165
 20
566.4097520661161
 30
0.0
 41
6.0
 42
6.0
  0
LINE
  5
96
330
8E
100
AcDbEntity
  8
LAYER_1
  6
Continuous
 62
     7
100
AcDbLine
 10
253.7910743801649
 20
566.4097520661161
 30
0.0
 11
344.791074380165
 21
566.4097520661161
 31
0.0
  0
TEXT
  5
97
330
8E
100
AcDbEntity
  8
LAYER_1
 62
     7
100
AcDbText
 10
292.0399068674769
 20
569.409752066116
 30
0.0
 40
5.4
  1
(91)
 41
1.033333333332999
  7
ＭＳ_ゴシック
 72
     1
 11
299.2910743801649
 21
569.409752066116
 31
0.0
100
AcDbText
  0
ENDBLK
  5
98
330
8E
100
AcDbEntity
  8
0
100
AcDbBlockEnd
  0
BLOCK
  5
9A
330
99
100
AcDbEntity
  8
0
 62
     7
100
AcDbBlockBegin
  2
*D10
 70
     1
 10
0.0
 20
0.0
 30
0.0
  3
*D10
  1

  0
LINE
  5
9B
330
99
100
AcDbEntity
  8
LAYER_1
  6
Continuous
 62
     7
100
AcDbLine
 10
251.7910743801649
 20
539.509752066116
 30
0.0
 11
239.791074380165
 21
539.509752066116
 31
0.0
  0
LINE
  5
9C
330
99
100
AcDbEntity
  8
LAYER_1
  6
Continuous
 62
     7
100
AcDbLine
 10
251.7910743801649
 20
551.409752066116
 30
0.0
 11
239.791074380165
 21
551.409752066116
 31
0.0
  0
LINE
  5
9D
330
99
100
AcDbEntity
  8
LAYER_1
  6
Continuous
 62
     7
100
AcDbLine
 10
241.791074380165
 20
539.509752066116
 30
0.0
 11
241.791074380165
 21
551.409752066116
 31
0.0
  0
INSERT
  5
9E
330
99
100
AcDbEntity
  8
LAYER_1
  6
Continuous
 62
     7
100
AcDbBlockReference
  2
_OPEN
 10
241.791074380165
 20
539.509752066116
 30
0.0
 41
6.0
 42
6.0
 50
90.0
  0
INSERT
  5
9F
330
99
100
AcDbEntity
  8
LAYER_1
  6
Continuous
 62
     7
100
AcDbBlockReference
  2
_NONE
 10
241.791074380165
 20
516.844990476373
 30
0.0
 41
6.0
 42
6.0
 50
270.0
  0
LINE
  5
A0
330
99
100
AcDbEntity
  8
LAYER_1
  6
Continuous
 62
     7
100
AcDbLine
 10
241.791074380165
 20
539.509752066116
 30
0.0
 11
241.791074380165
 21
516.844990476373
 31
0.0
  0
INSERT
  5
A1
330
99
100
AcDbEntity
  8
LAYER_1
  6
Continuous
 62
     7
100
AcDbBlockReference
  2
_OPEN
 10
241.791074380165
 20
551.409752066116
 30
0.0
 41
6.0
 42
6.0
 50
270.0
  0
INSERT
  5
A2
330
99
100
AcDbEntity
  8
LAYER_1
  6
Continuous
 62
     7
100
AcDbBlockReference
  2
_NONE
 10
241.791074380165
 20
563.409752066116
 30
0.0
 41
6.0
 42
6.0
 50
90.0
  0
LINE
  5
A3
330
99
100
AcDbEntity
  8
LAYER_1
  6
Continuous
 62
     7
100
AcDbLine
 10
241.791074380165
 20
551.409752066116
 30
0.0
 11
241.791074380165
 21
563.409752066116
 31
0.0
  0
TEXT
  5
A4
330
99
100
AcDbEntity
  8
LAYER_1
 62
     7
100
AcDbText
 10
238.7910743801649
 20
516.844990476373
 30
0.0
 40
5.4
  1
φ12
 50
90.0
 41
1.033333333332999
  7
ＭＳ_ゴシック
100
AcDbText
  0
ENDBLK
  5
A5
330
99
100
AcDbEntity
  8
0
100
AcDbBlockEnd
  0
BLOCK
  5
A7
330
A6
100
AcDbEntity
  8
0
 62
     7
100
AcDbBlockBegin
  2
*D11
 70
     1
 10
0.0
 20
0.0
 30
0.0
  3
*D11
  1

  0
LINE
  5
A8
330
A6
100
AcDbEntity
  8
LAYER_1
  6
Continuous
 62
     7
100
AcDbLine
 10
434.791074380165
 20
693.109752066119
 30
0.0
 11
434.791074380165
 21
708.4097520661149
 31
0.0
  0
LINE
  5
A9
330
A6
100
AcDbEntity
  8
LAYER_1
  6
Continuous
 62
     7
100
AcDbLine
 10
584.791074380165
 20
693.109752066116
 30
0.0
 11
584.791074380165
 21
708.4097520661149
 31
0.0
  0
INSERT
  5
AA
330
A6
100
AcDbEntity
  8
LAYER_1
  6
Continuous
 62
     7
100
AcDbBlockReference
  2
_OPEN
 10
434.791074380165
 20
706.409752066115
 30
0.0
 41
6.0
 42
6.0
 50
180.0
  0
INSERT
  5
AB
330
A6
100
AcDbEntity
  8
LAYER_1
  6
Continuous
 62
     7
100
AcDbBlockReference
  2
_OPEN
 10
584.791074380165
 20
706.409752066115
 30
0.0
 41
6.0
 42
6.0
  0
INSERT
  5
AC
330
A6
100
AcDbEntity
  8
LAYER_1
  6
Continuous
 62
     7
100
AcDbBlockReference
  2
_OPEN
 10
434.791074380165
 20
706.409752066115
 30
0.0
 41
6.0
 42
6.0
 50
180.0
  0
INSERT
  5
AD
330
A6
100
AcDbEntity
  8
LAYER_1
  6
Continuous
 62
     7
100
AcDbBlockReference
  2
_OPEN
 10
584.791074380165
 20
706.409752066115
 30
0.0
 41
6.0
 42
6.0
  0
LINE
  5
AE
330
A6
100
AcDbEntity
  8
LAYER_1
  6
Continuous
 62
     7
100
AcDbLine
 10
434.791074380165
 20
706.409752066115
 30
0.0
 11
584.791074380165
 21
706.409752066115
 31
0.0
  0
TEXT
  5
AF
330
A6
100
AcDbEntity
  8
LAYER_1
 62
     7
100
AcDbText
 10
500.727114989305
 20
709.4097520661149
 30
0.0
 40
5.4
  1
(150)
 41
1.033333333332999
  7
ＭＳ_ゴシック
 72
     1
 11
509.791074380165
 21
709.4097520661149
 31
0.0
100
AcDbText
  0
ENDBLK
  5
B0
330
A6
100
AcDbEntity
  8
0
100
AcDbBlockEnd
  0
BLOCK
  5
B2
330
B1
100
AcDbEntity
  8
0
 62
     7
100
AcDbBlockBegin
  2
*D12
 70
     1
 10
0.0
 20
0.0
 30
0.0
  3
*D12
  1

  0
LINE
  5
B3
330
B1
100
AcDbEntity
  8
LAYER_1
  6
Continuous
 62
     7
100
AcDbLine
 10
664.791074380166
 20
684.709752066117
 30
0.0
 11
664.791074380166
 21
708.4097520661149
 31
0.0
  0
INSERT
  5
B4
330
B1
100
AcDbEntity
  8
LAYER_1
  6
Continuous
 62
     7
100
AcDbBlockReference
  2
_OPEN
 10
584.791074380165
 20
706.409752066115
 30
0.0
 41
6.0
 42
6.0
 50
180.0
  0
INSERT
  5
B5
330
B1
100
AcDbEntity
  8
LAYER_1
  6
Continuous
 62
     7
100
AcDbBlockReference
  2
_OPEN
 10
664.791074380166
 20
706.409752066115
 30
0.0
 41
6.0
 42
6.0
  0
INSERT
  5
B6
330
B1
100
AcDbEntity
  8
LAYER_1
  6
Continuous
 62
     7
100
AcDbBlockReference
  2
_OPEN
 10
584.791074380165
 20
706.409752066115
 30
0.0
 41
6.0
 42
6.0
 50
180.0
  0
INSERT
  5
B7
330
B1
100
AcDbEntity
  8
LAYER_1
  6
Continuous
 62
     7
100
AcDbBlockReference
  2
_OPEN
 10
664.791074380166
 20
706.409752066115
 30
0.0
 41
6.0
 42
6.0
  0
LINE
  5
B8
330
B1
100
AcDbEntity
  8
LAYER_1
  6
Continuous
 62
     7
100
AcDbLine
 10
584.791074380165
 20
706.409752066115
 30
0.0
 11
664.791074380166
 21
706.409752066115
 31
0.0
  0
TEXT
  5
B9
330
B1
100
AcDbEntity
  8
LAYER_1
 62
     7
100
AcDbText
 10
613.9143231111329
 20
709.4097520661149
 30
0.0
 40
5.4
  1
(2000)
 41
1.033333333332999
  7
ＭＳ_ゴシック
 72
     1
 11
624.791074380165
 21
709.4097520661149
 31
0.0
100
AcDbText
  0
ENDBLK
  5
BA
330
B1
100
AcDbEntity
  8
0
100
AcDbBlockEnd
  0
BLOCK
  5
BC
330
BB
100
AcDbEntity
  8
0
 62
     7
100
AcDbBlockBegin
  2
*D13
 70
     1
 10
0.0
 20
0.0
 30
0.0
  3
*D13
  1

  0
LINE
  5
BD
330
BB
100
AcDbEntity
  8
LAYER_1
  6
Continuous
 62
     7
100
AcDbLine
 10
707.0112175049271
 20
687.9197520661169
 30
0.0
 11
707.0112175049271
 21
708.4097520661149
 31
0.0
  0
INSERT
  5
BE
330
BB
100
AcDbEntity
  8
LAYER_1
  6
Continuous
 62
     7
100
AcDbBlockReference
  2
_OPEN
 10
664.791074380166
 20
706.409752066115
 30
0.0
 41
6.0
 42
6.0
 50
180.0
  0
INSERT
  5
BF
330
BB
100
AcDbEntity
  8
LAYER_1
  6
Continuous
 62
     7
100
AcDbBlockReference
  2
_OPEN
 10
707.0112175049271
 20
706.409752066115
 30
0.0
 41
6.0
 42
6.0
  0
INSERT
  5
C0
330
BB
100
AcDbEntity
  8
LAYER_1
  6
Continuous
 62
     7
100
AcDbBlockReference
  2
_OPEN
 10
664.791074380166
 20
706.409752066115
 30
0.0
 41
6.0
 42
6.0
 50
180.0
  0
INSERT
  5
C1
330
BB
100
AcDbEntity
  8
LAYER_1
  6
Continuous
 62
     7
100
AcDbBlockReference
  2
_OPEN
 10
707.0112175049271
 20
706.409752066115
 30
0.0
 41
6.0
 42
6.0
  0
LINE
  5
C2
330
BB
100
AcDbEntity
  8
LAYER_1
  6
Continuous
 62
     7
100
AcDbLine
 10
664.791074380166
 20
706.409752066115
 30
0.0
 11
707.0112175049271
 21
706.409752066115
 31
0.0
  0
TEXT
  5
C3
330
BB
100
AcDbEntity
  8
LAYER_1
 62
     7
100
AcDbText
 10
678.649978429858
 20
709.4097520661149
 30
0.0
 40
5.4
  1
(43)
 41
1.033333333332999
  7
ＭＳ_ゴシック
 72
     1
 11
685.901145942546
 21
709.4097520661149
 31
0.0
100
AcDbText
  0
ENDBLK
  5
C4
330
BB
100
AcDbEntity
  8
0
100
AcDbBlockEnd
  0
BLOCK
  5
C6
330
C5
100
AcDbEntity
  8
0
 62
     7
100
AcDbBlockBegin
  2
*D14
 70
     1
 10
0.0
 20
0.0
 30
0.0
  3
*D14
  1

  0
LINE
  5
C7
330
C5
100
AcDbEntity
  8
LAYER_1
  6
Continuous
 62
     7
100
AcDbLine
 10
433.091074380165
 20
667.4097520661139
 30
0.0
 11
417.791074380165
 21
667.4097520661139
 31
0.0
  0
LINE
  5
C8
330
C5
100
AcDbEntity
  8
LAYER_1
  6
Continuous
 62
     7
100
AcDbLine
 10
433.091074380165
 20
691.4097520661189
 30
0.0
 11
417.791074380165
 21
691.4097520661189
 31
0.0
  0
INSERT
  5
C9
330
C5
100
AcDbEntity
  8
LAYER_1
  6
Continuous
 62
     7
100
AcDbBlockReference
  2
_OPEN
 10
419.7910743801649
 20
667.4097520661139
 30
0.0
 41
6.0
 42
6.0
 50
270.0
  0
INSERT
  5
CA
330
C5
100
AcDbEntity
  8
LAYER_1
  6
Continuous
 62
     7
100
AcDbBlockReference
  2
_OPEN
 10
419.7910743801649
 20
691.4097520661189
 30
0.0
 41
6.0
 42
6.0
 50
90.0
  0
INSERT
  5
CB
330
C5
100
AcDbEntity
  8
LAYER_1
  6
Continuous
 62
     7
100
AcDbBlockReference
  2
_OPEN
 10
419.7910743801649
 20
667.4097520661139
 30
0.0
 41
6.0
 42
6.0
 50
270.0
  0
INSERT
  5
CC
330
C5
100
AcDbEntity
  8
LAYER_1
  6
Continuous
 62
     7
100
AcDbBlockReference
  2
_OPEN
 10
419.7910743801649
 20
691.4097520661189
 30
0.0
 41
6.0
 42
6.0
 50
90.0
  0
LINE
  5
CD
330
C5
100
AcDbEntity
  8
LAYER_1
  6
Continuous
 62
     7
100
AcDbLine
 10
419.7910743801649
 20
667.4097520661139
 30
0.0
 11
419.7910743801649
 21
691.4097520661189
 31
0.0
  0
TEXT
  5
CE
330
C5
100
AcDbEntity
  8
LAYER_1
 62
     7
100
AcDbText
 10
416.791074380165
 20
670.981314246209
 30
0.0
 40
5.4
  1
φ24
 50
90.0
 41
1.033333333332999
  7
ＭＳ_ゴシック
 72
     1
 11
416.791074380165
 21
678.232481758897
 31
0.0
100
AcDbText
  0
ENDBLK
  5
CF
330
C5
100
AcDbEntity
  8
0
100
AcDbBlockEnd
  0
BLOCK
  5
D1
330
D0
100
AcDbEntity
  8
0
 62
     7
100
AcDbBlockBegin
  2
*D15
 70
     1
 10
0.0
 20
0.0
 30
0.0
  3
*D15
  1

  0
LINE
  5
D2
330
D0
100
AcDbEntity
  8
LAYER_1
  6
Continuous
 62
     7
100
AcDbLine
 10
704.4786567462209
 20
672.058599163308
 30
0.0
 11
729.791074380166
 21
672.058599163308
 31
0.0
  0
LINE
  5
D3
330
D0
100
AcDbEntity
  8
LAYER_1
  6
Continuous
 62
     7
100
AcDbLine
 10
704.4786567462209
 20
686.758599163308
 30
0.0
 11
729.791074380166
 21
686.758599163308
 31
0.0
  0
LINE
  5
D4
330
D0
100
AcDbEntity
  8
LAYER_1
  6
Continuous
 62
     7
100
AcDbLine
 10
727.791074380166
 20
672.058599163308
 30
0.0
 11
727.791074380166
 21
686.758599163308
 31
0.0
  0
INSERT
  5
D5
330
D0
100
AcDbEntity
  8
LAYER_1
  6
Continuous
 62
     7
100
AcDbBlockReference
  2
_OPEN
 10
727.791074380166
 20
672.058599163308
 30
0.0
 41
6.0
 42
6.0
 50
90.0
  0
INSERT
  5
D6
330
D0
100
AcDbEntity
  8
LAYER_1
  6
Continuous
 62
     7
100
AcDbBlockReference
  2
_NONE
 10
727.791074380166
 20
637.021543570446
 30
0.0
 41
6.0
 42
6.0
 50
270.0
  0
LINE
  5
D7
330
D0
100
AcDbEntity
  8
LAYER_1
  6
Continuous
 62
     7
100
AcDbLine
 10
727.791074380166
 20
672.058599163308
 30
0.0
 11
727.791074380166
 21
637.021543570446
 31
0.0
  0
INSERT
  5
D8
330
D0
100
AcDbEntity
  8
LAYER_1
  6
Continuous
 62
     7
100
AcDbBlockReference
  2
_OPEN
 10
727.791074380166
 20
686.758599163308
 30
0.0
 41
6.0
 42
6.0
 50
270.0
  0
INSERT
  5
D9
330
D0
100
AcDbEntity
  8
LAYER_1
  6
Continuous
 62
     7
100
AcDbBlockReference
  2
_NONE
 10
727.791074380166
 20
698.7585991633079
 30
0.0
 41
6.0
 42
6.0
 50
90.0
  0
LINE
  5
DA
330
D0
100
AcDbEntity
  8
LAYER_1
  6
Continuous
 62
     7
100
AcDbLine
 10
727.791074380166
 20
686.758599163308
 30
0.0
 11
727.791074380166
 21
698.7585991633079
 31
0.0
  0
TEXT
  5
DB
330
D0
100
AcDbEntity
  8
LAYER_1
 62
     7
100
AcDbText
 10
724.791074380166
 20
637.021543570446
 30
0.0
 40
5.4
  1
(φ14.7)
 50
90.0
 41
1.033333333332999
  7
ＭＳ_ゴシック
100
AcDbText
  0
ENDBLK
  5
DC
330
D0
100
AcDbEntity
  8
0
100
AcDbBlockEnd
  0
BLOCK
  5
DE
330
DD
100
AcDbEntity
  8
0
 62
     7
100
AcDbBlockBegin
  2
*D16
 70
     1
 10
0.0
 20
0.0
 30
0.0
  3
*D16
  1

  0
LINE
  5
DF
330
DD
100
AcDbEntity
  8
LAYER_1
  6
Continuous
 62
     7
100
AcDbLine
 10
612.4786567462201
 20
538.059752066115
 30
0.0
 11
637.791074380165
 21
538.059752066115
 31
0.0
  0
LINE
  5
E0
330
DD
100
AcDbEntity
  8
LAYER_1
  6
Continuous
 62
     7
100
AcDbLine
 10
612.4786567462201
 20
552.759752066115
 30
0.0
 11
637.791074380165
 21
552.759752066115
 31
0.0
  0
LINE
  5
E1
330
DD
100
AcDbEntity
  8
LAYER_1
  6
Continuous
 62
     7
100
AcDbLine
 10
635.7910743801649
 20
538.059752066115
 30
0.0
 11
635.7910743801649
 21
552.759752066115
 31
0.0
  0
INSERT
  5
E2
330
DD
100
AcDbEntity
  8
LAYER_1
  6
Continuous
 62
     7
100
AcDbBlockReference
  2
_OPEN
 10
635.7910743801649
 20
538.059752066115
 30
0.0
 41
6.0
 42
6.0
 50
90.0
  0
INSERT
  5
E3
330
DD
100
AcDbEntity
  8
LAYER_1
  6
Continuous
 62
     7
100
AcDbBlockReference
  2
_NONE
 10
635.7910743801649
 20
503.022696473253
 30
0.0
 41
6.0
 42
6.0
 50
270.0
  0
LINE
  5
E4
330
DD
100
AcDbEntity
  8
LAYER_1
  6
Continuous
 62
     7
100
AcDbLine
 10
635.7910743801649
 20
538.059752066115
 30
0.0
 11
635.7910743801649
 21
503.022696473253
 31
0.0
  0
INSERT
  5
E5
330
DD
100
AcDbEntity
  8
LAYER_1
  6
Continuous
 62
     7
100
AcDbBlockReference
  2
_OPEN
 10
635.7910743801649
 20
552.759752066115
 30
0.0
 41
6.0
 42
6.0
 50
270.0
  0
INSERT
  5
E6
330
DD
100
AcDbEntity
  8
LAYER_1
  6
Continuous
 62
     7
100
AcDbBlockReference
  2
_NONE
 10
635.7910743801649
 20
564.759752066115
 30
0.0
 41
6.0
 42
6.0
 50
90.0
  0
LINE
  5
E7
330
DD
100
AcDbEntity
  8
LAYER_1
  6
Continuous
 62
     7
100
AcDbLine
 10
635.7910743801649
 20
552.759752066115
 30
0.0
 11
635.7910743801649
 21
564.759752066115
 31
0.0
  0
TEXT
  5
E8
330
DD
100
AcDbEntity
  8
LAYER_1
 62
     7
100
AcDbText
 10
632.791074380165
 20
503.022696473253
 30
0.0
 40
5.4
  1
(φ14.7)
 50
90.0
 41
1.033333333332999
  7
ＭＳ_ゴシック
100
AcDbText
  0
ENDBLK
  5
E9
330
DD
100
AcDbEntity
  8
0
100
AcDbBlockEnd
  0
BLOCK
  5
EB
330
EA
100
AcDbEntity
  8
0
 62
     7
100
AcDbBlockBegin
  2
*D17
 70
     1
 10
0.0
 20
0.0
 30
0.0
  3
*D17
  1

  0
LINE
  5
EC
330
EA
100
AcDbEntity
  8
LAYER_1
  6
Continuous
 62
     7
100
AcDbLine
 10
434.791074380165
 20
552.309752066116
 30
0.0
 11
434.791074380165
 21
568.409752066116
 31
0.0
  0
LINE
  5
ED
330
EA
100
AcDbEntity
  8
LAYER_1
  6
Continuous
 62
     7
100
AcDbLine
 10
492.791074380165
 20
553.1097520661149
 30
0.0
 11
492.791074380165
 21
568.409752066116
 31
0.0
  0
INSERT
  5
EE
330
EA
100
AcDbEntity
  8
LAYER_1
  6
Continuous
 62
     7
100
AcDbBlockReference
  2
_OPEN
 10
434.791074380165
 20
566.4097520661161
 30
0.0
 41
6.0
 42
6.0
 50
180.0
  0
INSERT
  5
EF
330
EA
100
AcDbEntity
  8
LAYER_1
  6
Continuous
 62
     7
100
AcDbBlockReference
  2
_OPEN
 10
492.791074380165
 20
566.4097520661161
 30
0.0
 41
6.0
 42
6.0
  0
INSERT
  5
F0
330
EA
100
AcDbEntity
  8
LAYER_1
  6
Continuous
 62
     7
100
AcDbBlockReference
  2
_OPEN
 10
434.791074380165
 20
566.4097520661161
 30
0.0
 41
6.0
 42
6.0
 50
180.0
  0
INSERT
  5
F1
330
EA
100
AcDbEntity
  8
LAYER_1
  6
Continuous
 62
     7
100
AcDbBlockReference
  2
_OPEN
 10
492.791074380165
 20
566.4097520661161
 30
0.0
 41
6.0
 42
6.0
  0
LINE
  5
F2
330
EA
100
AcDbEntity
  8
LAYER_1
  6
Continuous
 62
     7
100
AcDbLine
 10
434.791074380165
 20
566.4097520661161
 30
0.0
 11
492.791074380165
 21
566.4097520661161
 31
0.0
  0
TEXT
  5
F3
330
EA
100
AcDbEntity
  8
LAYER_1
 62
     7
100
AcDbText
 10
456.539906867477
 20
569.409752066116
 30
0.0
 40
5.4
  1
(58)
 41
1.033333333332999
  7
ＭＳ_ゴシック
 72
     1
 11
463.791074380165
 21
569.409752066116
 31
0.0
100
AcDbText
  0
ENDBLK
  5
F4
330
EA
100
AcDbEntity
  8
0
100
AcDbBlockEnd
  0
BLOCK
  5
F6
330
F5
100
AcDbEntity
  8
0
 62
     7
100
AcDbBlockBegin
  2
*D18
 70
     1
 10
0.0
 20
0.0
 30
0.0
  3
*D18
  1

  0
LINE
  5
F7
330
F5
100
AcDbEntity
  8
LAYER_1
  6
Continuous
 62
     7
100
AcDbLine
 10
572.791074380165
 20
551.070580601028
 30
0.0
 11
572.791074380165
 21
568.409752066116
 31
0.0
  0
INSERT
  5
F8
330
F5
100
AcDbEntity
  8
LAYER_1
  6
Continuous
 62
     7
100
AcDbBlockReference
  2
_OPEN
 10
492.791074380165
 20
566.4097520661161
 30
0.0
 41
6.0
 42
6.0
 50
180.0
  0
INSERT
  5
F9
330
F5
100
AcDbEntity
  8
LAYER_1
  6
Continuous
 62
     7
100
AcDbBlockReference
  2
_OPEN
 10
572.791074380165
 20
566.4097520661161
 30
0.0
 41
6.0
 42
6.0
  0
INSERT
  5
FA
330
F5
100
AcDbEntity
  8
LAYER_1
  6
Continuous
 62
     7
100
AcDbBlockReference
  2
_OPEN
 10
492.791074380165
 20
566.4097520661161
 30
0.0
 41
6.0
 42
6.0
 50
180.0
  0
INSERT
  5
FB
330
F5
100
AcDbEntity
  8
LAYER_1
  6
Continuous
 62
     7
100
AcDbBlockReference
  2
_OPEN
 10
572.791074380165
 20
566.4097520661161
 30
0.0
 41
6.0
 42
6.0
  0
LINE
  5
FC
330
F5
100
AcDbEntity
  8
LAYER_1
  6
Continuous
 62
     7
100
AcDbLine
 10
492.791074380165
 20
566.4097520661161
 30
0.0
 11
572.791074380165
 21
566.4097520661161
 31
0.0
  0
TEXT
  5
FD
330
F5
100
AcDbEntity
  8
LAYER_1
 62
     7
100
AcDbText
 10
521.9143231111329
 20
569.409752066116
 30
0.0
 40
5.4
  1
(2000)
 41
1.033333333332999
  7
ＭＳ_ゴシック
 72
     1
 11
532.791074380165
 21
569.409752066116
 31
0.0
100
AcDbText
  0
ENDBLK
  5
FE
330
F5
100
AcDbEntity
  8
0
100
AcDbBlockEnd
  0
BLOCK
  5
100
330
FF
100
AcDbEntity
  8
0
 62
     7
100
AcDbBlockBegin
  2
*D19
 70
     1
 10
0.0
 20
0.0
 30
0.0
  3
*D19
  1

  0
LINE
  5
101
330
FF
100
AcDbEntity
  8
LAYER_1
  6
Continuous
 62
     7
100
AcDbLine
 10
615.791074380165
 20
552.159752066115
 30
0.0
 11
615.791074380165
 21
568.409752066116
 31
0.0
  0
INSERT
  5
102
330
FF
100
AcDbEntity
  8
LAYER_1
  6
Continuous
 62
     7
100
AcDbBlockReference
  2
_OPEN
 10
572.791074380165
 20
566.4097520661161
 30
0.0
 41
6.0
 42
6.0
 50
180.0
  0
INSERT
  5
103
330
FF
100
AcDbEntity
  8
LAYER_1
  6
Continuous
 62
     7
100
AcDbBlockReference
  2
_OPEN
 10
615.791074380165
 20
566.4097520661161
 30
0.0
 41
6.0
 42
6.0
  0
INSERT
  5
104
330
FF
100
AcDbEntity
  8
LAYER_1
  6
Continuous
 62
     7
100
AcDbBlockReference
  2
_OPEN
 10
572.791074380165
 20
566.4097520661161
 30
0.0
 41
6.0
 42
6.0
 50
180.0
  0
INSERT
  5
105
330
FF
100
AcDbEntity
  8
LAYER_1
  6
Continuous
 62
     7
100
AcDbBlockReference
  2
_OPEN
 10
615.791074380165
 20
566.4097520661161
 30
0.0
 41
6.0
 42
6.0
  0
LINE
  5
106
330
FF
100
AcDbEntity
  8
LAYER_1
  6
Continuous
 62
     7
100
AcDbLine
 10
572.791074380165
 20
566.4097520661161
 30
0.0
 11
615.791074380165
 21
566.4097520661161
 31
0.0
  0
TEXT
  5
107
330
FF
100
AcDbEntity
  8
LAYER_1
 62
     7
100
AcDbText
 10
587.039906867477
 20
569.409752066116
 30
0.0
 40
5.4
  1
(43)
 41
1.033333333332999
  7
ＭＳ_ゴシック
 72
     1
 11
594.2910743801649
 21
569.409752066116
 31
0.0
100
AcDbText
  0
ENDBLK
  5
108
330
FF
100
AcDbEntity
  8
0
100
AcDbBlockEnd
  0
BLOCK
  5
10A
330
109
100
AcDbEntity
  8
0
 62
     7
100
AcDbBlockBegin
  2
*D20
 70
     1
 10
0.0
 20
0.0
 30
0.0
  3
*D20
  1

  0
LINE
  5
10B
330
109
100
AcDbEntity
  8
LAYER_1
  6
Continuous
 62
     7
100
AcDbLine
 10
878.47865674622
 20
538.059752066115
 30
0.0
 11
903.7910743801649
 21
538.059752066115
 31
0.0
  0
LINE
  5
10C
330
109
100
AcDbEntity
  8
LAYER_1
  6
Continuous
 62
     7
100
AcDbLine
 10
878.47865674622
 20
552.759752066115
 30
0.0
 11
903.7910743801649
 21
552.759752066115
 31
0.0
  0
LINE
  5
10D
330
109
100
AcDbEntity
  8
LAYER_1
  6
Continuous
 62
     7
100
AcDbLine
 10
901.7910743801648
 20
538.059752066115
 30
0.0
 11
901.7910743801648
 21
552.759752066115
 31
0.0
  0
INSERT
  5
10E
330
109
100
AcDbEntity
  8
LAYER_1
  6
Continuous
 62
     7
100
AcDbBlockReference
  2
_OPEN
 10
901.7910743801648
 20
538.059752066115
 30
0.0
 41
6.0
 42
6.0
 50
90.0
  0
INSERT
  5
10F
330
109
100
AcDbEntity
  8
LAYER_1
  6
Continuous
 62
     7
100
AcDbBlockReference
  2
_NONE
 10
901.7910743801648
 20
503.022696473253
 30
0.0
 41
6.0
 42
6.0
 50
270.0
  0
LINE
  5
110
330
109
100
AcDbEntity
  8
LAYER_1
  6
Continuous
 62
     7
100
AcDbLine
 10
901.7910743801648
 20
538.059752066115
 30
0.0
 11
901.7910743801648
 21
503.022696473253
 31
0.0
  0
INSERT
  5
111
330
109
100
AcDbEntity
  8
LAYER_1
  6
Continuous
 62
     7
100
AcDbBlockReference
  2
_OPEN
 10
901.7910743801648
 20
552.759752066115
 30
0.0
 41
6.0
 42
6.0
 50
270.0
  0
INSERT
  5
112
330
109
100
AcDbEntity
  8
LAYER_1
  6
Continuous
 62
     7
100
AcDbBlockReference
  2
_NONE
 10
901.7910743801648
 20
564.759752066115
 30
0.0
 41
6.0
 42
6.0
 50
90.0
  0
LINE
  5
113
330
109
100
AcDbEntity
  8
LAYER_1
  6
Continuous
 62
     7
100
AcDbLine
 10
901.7910743801648
 20
552.759752066115
 30
0.0
 11
901.7910743801648
 21
564.759752066115
 31
0.0
  0
TEXT
  5
114
330
109
100
AcDbEntity
  8
LAYER_1
 62
     7
100
AcDbText
 10
898.7910743801649
 20
503.022696473253
 30
0.0
 40
5.4
  1
(φ14.7)
 50
90.0
 41
1.033333333332999
  7
ＭＳ_ゴシック
100
AcDbText
  0
ENDBLK
  5
115
330
109
100
AcDbEntity
  8
0
100
AcDbBlockEnd
  0
BLOCK
  5
117
330
116
100
AcDbEntity
  8
0
 62
     7
100
AcDbBlockBegin
  2
*D21
 70
     1
 10
0.0
 20
0.0
 30
0.0
  3
*D21
  1

  0
LINE
  5
118
330
116
100
AcDbEntity
  8
LAYER_1
  6
Continuous
 62
     7
100
AcDbLine
 10
709.7910743801649
 20
552.309752066116
 30
0.0
 11
709.7910743801649
 21
568.4097520661151
 31
0.0
  0
LINE
  5
119
330
116
100
AcDbEntity
  8
LAYER_1
  6
Continuous
 62
     7
100
AcDbLine
 10
758.7910743801649
 20
553.1097520661149
 30
0.0
 11
758.7910743801649
 21
568.4097520661151
 31
0.0
  0
INSERT
  5
11A
330
116
100
AcDbEntity
  8
LAYER_1
  6
Continuous
 62
     7
100
AcDbBlockReference
  2
_OPEN
 10
709.7910743801649
 20
566.409752066115
 30
0.0
 41
6.0
 42
6.0
 50
180.0
  0
INSERT
  5
11B
330
116
100
AcDbEntity
  8
LAYER_1
  6
Continuous
 62
     7
100
AcDbBlockReference
  2
_OPEN
 10
758.7910743801649
 20
566.409752066115
 30
0.0
 41
6.0
 42
6.0
  0
INSERT
  5
11C
330
116
100
AcDbEntity
  8
LAYER_1
  6
Continuous
 62
     7
100
AcDbBlockReference
  2
_OPEN
 10
709.7910743801649
 20
566.409752066115
 30
0.0
 41
6.0
 42
6.0
 50
180.0
  0
INSERT
  5
11D
330
116
100
AcDbEntity
  8
LAYER_1
  6
Continuous
 62
     7
100
AcDbBlockReference
  2
_OPEN
 10
758.7910743801649
 20
566.409752066115
 30
0.0
 41
6.0
 42
6.0
  0
LINE
  5
11E
330
116
100
AcDbEntity
  8
LAYER_1
  6
Continuous
 62
     7
100
AcDbLine
 10
709.7910743801649
 20
566.409752066115
 30
0.0
 11
758.7910743801649
 21
566.409752066115
 31
0.0
  0
TEXT
  5
11F
330
116
100
AcDbEntity
  8
LAYER_1
 62
     7
100
AcDbText
 10
727.0399068674769
 20
569.409752066115
 30
0.0
 40
5.4
  1
(49)
 41
1.033333333332999
  7
ＭＳ_ゴシック
 72
     1
 11
734.2910743801649
 21
569.409752066115
 31
0.0
100
AcDbText
  0
ENDBLK
  5
120
330
116
100
AcDbEntity
  8
0
100
AcDbBlockEnd
  0
BLOCK
  5
122
330
121
100
AcDbEntity
  8
0
 62
     7
100
AcDbBlockBegin
  2
*D22
 70
     1
 10
0.0
 20
0.0
 30
0.0
  3
*D22
  1

  0
LINE
  5
123
330
121
100
AcDbEntity
  8
LAYER_1
  6
Continuous
 62
     7
100
AcDbLine
 10
838.7910743801649
 20
551.070580601028
 30
0.0
 11
838.7910743801649
 21
568.4097520661151
 31
0.0
  0
INSERT
  5
124
330
121
100
AcDbEntity
  8
LAYER_1
  6
Continuous
 62
     7
100
AcDbBlockReference
  2
_OPEN
 10
758.7910743801649
 20
566.409752066115
 30
0.0
 41
6.0
 42
6.0
 50
180.0
  0
INSERT
  5
125
330
121
100
AcDbEntity
  8
LAYER_1
  6
Continuous
 62
     7
100
AcDbBlockReference
  2
_OPEN
 10
838.7910743801649
 20
566.409752066115
 30
0.0
 41
6.0
 42
6.0
  0
INSERT
  5
126
330
121
100
AcDbEntity
  8
LAYER_1
  6
Continuous
 62
     7
100
AcDbBlockReference
  2
_OPEN
 10
758.7910743801649
 20
566.409752066115
 30
0.0
 41
6.0
 42
6.0
 50
180.0
  0
INSERT
  5
127
330
121
100
AcDbEntity
  8
LAYER_1
  6
Continuous
 62
     7
100
AcDbBlockReference
  2
_OPEN
 10
838.7910743801649
 20
566.409752066115
 30
0.0
 41
6.0
 42
6.0
  0
LINE
  5
128
330
121
100
AcDbEntity
  8
LAYER_1
  6
Continuous
 62
     7
100
AcDbLine
 10
758.7910743801649
 20
566.409752066115
 30
0.0
 11
838.7910743801649
 21
566.409752066115
 31
0.0
  0
TEXT
  5
129
330
121
100
AcDbEntity
  8
LAYER_1
 62
     7
100
AcDbText
 10
787.9143231111328
 20
569.409752066115
 30
0.0
 40
5.4
  1
(2000)
 41
1.033333333332999
  7
ＭＳ_ゴシック
 72
     1
 11
798.7910743801649
 21
569.409752066115
 31
0.0
100
AcDbText
  0
ENDBLK
  5
12A
330
121
100
AcDbEntity
  8
0
100
AcDbBlockEnd
  0
BLOCK
  5
12C
330
12B
100
AcDbEntity
  8
0
 62
     7
100
AcDbBlockBegin
  2
*D23
 70
     1
 10
0.0
 20
0.0
 30
0.0
  3
*D23
  1

  0
LINE
  5
12D
330
12B
100
AcDbEntity
  8
LAYER_1
  6
Continuous
 62
     7
100
AcDbLine
 10
881.7910743801649
 20
552.159752066115
 30
0.0
 11
881.7910743801649
 21
568.4097520661151
 31
0.0
  0
INSERT
  5
12E
330
12B
100
AcDbEntity
  8
LAYER_1
  6
Continuous
 62
     7
100
AcDbBlockReference
  2
_OPEN
 10
838.7910743801649
 20
566.409752066115
 30
0.0
 41
6.0
 42
6.0
 50
180.0
  0
INSERT
  5
12F
330
12B
100
AcDbEntity
  8
LAYER_1
  6
Continuous
 62
     7
100
AcDbBlockReference
  2
_OPEN
 10
881.7910743801649
 20
566.409752066115
 30
0.0
 41
6.0
 42
6.0
  0
INSERT
  5
130
330
12B
100
AcDbEntity
  8
LAYER_1
  6
Continuous
 62
     7
100
AcDbBlockReference
  2
_OPEN
 10
838.7910743801649
 20
566.409752066115
 30
0.0
 41
6.0
 42
6.0
 50
180.0
  0
INSERT
  5
131
330
12B
100
AcDbEntity
  8
LAYER_1
  6
Continuous
 62
     7
100
AcDbBlockReference
  2
_OPEN
 10
881.7910743801649
 20
566.409752066115
 30
0.0
 41
6.0
 42
6.0
  0
LINE
  5
132
330
12B
100
AcDbEntity
  8
LAYER_1
  6
Continuous
 62
     7
100
AcDbLine
 10
838.7910743801649
 20
566.409752066115
 30
0.0
 11
881.7910743801649
 21
566.409752066115
 31
0.0
  0
TEXT
  5
133
330
12B
100
AcDbEntity
  8
LAYER_1
 62
     7
100
AcDbText
 10
853.0399068674769
 20
569.409752066115
 30
0.0
 40
5.4
  1
(43)
 41
1.033333333332999
  7
ＭＳ_ゴシック
 72
     1
 11
860.2910743801649
 21
569.409752066115
 31
0.0
100
AcDbText
  0
ENDBLK
  5
134
330
12B
100
AcDbEntity
  8
0
100
AcDbBlockEnd
  0
BLOCK
  5
136
330
135
100
AcDbEntity
  8
0
 62
     7
100
AcDbBlockBegin
  2
*D24
 70
     1
 10
0.0
 20
0.0
 30
0.0
  3
*D24
  1

  0
LINE
  5
137
330
135
100
AcDbEntity
  8
LAYER_1
  6
Continuous
 62
     7
100
AcDbLine
 10
432.991074380165
 20
539.409752066116
 30
0.0
 11
417.791074380165
 21
539.409752066116
 31
0.0
  0
LINE
  5
138
330
135
100
AcDbEntity
  8
LAYER_1
  6
Continuous
 62
     7
100
AcDbLine
 10
432.991074380165
 20
551.409752066116
 30
0.0
 11
417.791074380165
 21
551.409752066116
 31
0.0
  0
LINE
  5
139
330
135
100
AcDbEntity
  8
LAYER_1
  6
Continuous
 62
     7
100
AcDbLine
 10
419.7910743801649
 20
539.409752066116
 30
0.0
 11
419.7910743801649
 21
551.409752066116
 31
0.0
  0
INSERT
  5
13A
330
135
100
AcDbEntity
  8
LAYER_1
  6
Continuous
 62
     7
100
AcDbBlockReference
  2
_OPEN
 10
419.7910743801649
 20
539.409752066116
 30
0.0
 41
6.0
 42
6.0
 50
90.0
  0
INSERT
  5
13B
330
135
100
AcDbEntity
  8
LAYER_1
  6
Continuous
 62
     7
100
AcDbBlockReference
  2
_NONE
 10
419.7910743801649
 20
517.8022364072989
 30
0.0
 41
6.0
 42
6.0
 50
270.0
  0
LINE
  5
13C
330
135
100
AcDbEntity
  8
LAYER_1
  6
Continuous
 62
     7
100
AcDbLine
 10
419.7910743801649
 20
539.409752066116
 30
0.0
 11
419.7910743801649
 21
517.8022364072989
 31
0.0
  0
INSERT
  5
13D
330
135
100
AcDbEntity
  8
LAYER_1
  6
Continuous
 62
     7
100
AcDbBlockReference
  2
_OPEN
 10
419.7910743801649
 20
551.409752066116
 30
0.0
 41
6.0
 42
6.0
 50
270.0
  0
INSERT
  5
13E
330
135
100
AcDbEntity
  8
LAYER_1
  6
Continuous
 62
     7
100
AcDbBlockReference
  2
_NONE
 10
419.7910743801649
 20
563.409752066116
 30
0.0
 41
6.0
 42
6.0
 50
90.0
  0
LINE
  5
13F
330
135
100
AcDbEntity
  8
LAYER_1
  6
Continuous
 62
     7
100
AcDbLine
 10
419.7910743801649
 20
551.409752066116
 30
0.0
 11
419.7910743801649
 21
563.409752066116
 31
0.0
  0
TEXT
  5
140
330
135
100
AcDbEntity
  8
LAYER_1
 62
     7
100
AcDbText
 10
416.791074380165
 20
517.8022364072989
 30
0.0
 40
5.4
  1
φ12
 50
90.0
 41
1.033333333332999
  7
ＭＳ_ゴシック
100
AcDbText
  0
ENDBLK
  5
141
330
135
100
AcDbEntity
  8
0
100
AcDbBlockEnd
  0
BLOCK
  5
143
330
142
100
AcDbEntity
  8
0
 62
     7
100
AcDbBlockBegin
  2
*D25
 70
     1
 10
0.0
 20
0.0
 30
0.0
  3
*D25
  1

  0
LINE
  5
144
330
142
100
AcDbEntity
  8
LAYER_1
  6
Continuous
 62
     7
100
AcDbLine
 10
707.9910743801649
 20
539.409752066116
 30
0.0
 11
692.7910743801649
 21
539.409752066116
 31
0.0
  0
LINE
  5
145
330
142
100
AcDbEntity
  8
LAYER_1
  6
Continuous
 62
     7
100
AcDbLine
 10
707.9910743801649
 20
551.409752066116
 30
0.0
 11
692.7910743801649
 21
551.409752066116
 31
0.0
  0
LINE
  5
146
330
142
100
AcDbEntity
  8
LAYER_1
  6
Continuous
 62
     7
100
AcDbLine
 10
694.7910743801648
 20
539.409752066116
 30
0.0
 11
694.7910743801648
 21
551.409752066116
 31
0.0
  0
INSERT
  5
147
330
142
100
AcDbEntity
  8
LAYER_1
  6
Continuous
 62
     7
100
AcDbBlockReference
  2
_OPEN
 10
694.7910743801648
 20
539.409752066116
 30
0.0
 41
6.0
 42
6.0
 50
90.0
  0
INSERT
  5
148
330
142
100
AcDbEntity
  8
LAYER_1
  6
Continuous
 62
     7
100
AcDbBlockReference
  2
_NONE
 10
694.7910743801648
 20
517.8022364072989
 30
0.0
 41
6.0
 42
6.0
 50
270.0
  0
LINE
  5
149
330
142
100
AcDbEntity
  8
LAYER_1
  6
Continuous
 62
     7
100
AcDbLine
 10
694.7910743801648
 20
539.409752066116
 30
0.0
 11
694.7910743801648
 21
517.8022364072989
 31
0.0
  0
INSERT
  5
14A
330
142
100
AcDbEntity
  8
LAYER_1
  6
Continuous
 62
     7
100
AcDbBlockReference
  2
_OPEN
 10
694.7910743801648
 20
551.409752066116
 30
0.0
 41
6.0
 42
6.0
 50
270.0
  0
INSERT
  5
14B
330
142
100
AcDbEntity
  8
LAYER_1
  6
Continuous
 62
     7
100
AcDbBlockReference
  2
_NONE
 10
694.7910743801648
 20
563.409752066116
 30
0.0
 41
6.0
 42
6.0
 50
90.0
  0
LINE
  5
14C
330
142
100
AcDbEntity
  8
LAYER_1
  6
Continuous
 62
     7
100
AcDbLine
 10
694.7910743801648
 20
551.409752066116
 30
0.0
 11
694.7910743801648
 21
563.409752066116
 31
0.0
  0
TEXT
  5
14D
330
142
100
AcDbEntity
  8
LAYER_1
 62
     7
100
AcDbText
 10
691.7910743801648
 20
517.8022364072989
 30
0.0
 40
5.4
  1
φ12
 50
90.0
 41
1.033333333332999
  7
ＭＳ_ゴシック
100
AcDbText
  0
ENDBLK
  5
14E
330
142
100
AcDbEntity
  8
0
100
AcDbBlockEnd
  0
BLOCK
  5
150
330
14F
100
AcDbEntity
  8
0
 62
     7
100
AcDbBlockBegin
  2
*D26
 70
     1
 10
0.0
 20
0.0
 30
0.0
  3
*D26
  1

  0
LINE
  5
151
330
14F
100
AcDbEntity
  8
LAYER_1
  6
Continuous
 62
     7
100
AcDbLine
 10
650.902268239758
 20
305.0018683770729
 30
0.0
 11
630.9022682397579
 21
305.0018683770729
 31
0.0
  0
LINE
  5
152
330
14F
100
AcDbEntity
  8
LAYER_1
  6
Continuous
 62
     7
100
AcDbLine
 10
660.9022682397579
 20
322.0018683770729
 30
0.0
 11
630.9022682397579
 21
322.0018683770729
 31
0.0
  0
INSERT
  5
153
330
14F
100
AcDbEntity
  8
LAYER_1
  6
Continuous
 62
     7
100
AcDbBlockReference
  2
_OPEN
 10
633.902268239758
 20
305.0018683770729
 30
0.0
 41
6.0
 42
6.0
 50
270.0
  0
INSERT
  5
154
330
14F
100
AcDbEntity
  8
LAYER_1
  6
Continuous
 62
     7
100
AcDbBlockReference
  2
_OPEN
 10
633.902268239758
 20
322.0018683770729
 30
0.0
 41
6.0
 42
6.0
 50
90.0
  0
INSERT
  5
155
330
14F
100
AcDbEntity
  8
LAYER_1
  6
Continuous
 62
     7
100
AcDbBlockReference
  2
_OPEN
 10
633.902268239758
 20
305.0018683770729
 30
0.0
 41
6.0
 42
6.0
 50
270.0
  0
INSERT
  5
156
330
14F
100
AcDbEntity
  8
LAYER_1
  6
Continuous
 62
     7
100
AcDbBlockReference
  2
_OPEN
 10
633.902268239758
 20
322.0018683770729
 30
0.0
 41
6.0
 42
6.0
 50
90.0
  0
LINE
  5
157
330
14F
100
AcDbEntity
  8
LAYER_1
  6
Continuous
 62
     7
100
AcDbLine
 10
633.902268239758
 20
305.0018683770729
 30
0.0
 11
633.902268239758
 21
322.0018683770729
 31
0.0
  0
TEXT
  5
158
330
14F
100
AcDbEntity
  8
LAYER_1
 62
     7
100
AcDbText
 10
630.9022682397579
 20
309.8762846207289
 30
0.0
 40
5.4
  1
17
 50
90.0
 41
1.033333333332999
  7
ＭＳ_ゴシック
 72
     1
 11
630.9022682397579
 21
313.5018683770729
 31
0.0
100
AcDbText
  0
ENDBLK
  5
159
330
14F
100
AcDbEntity
  8
0
100
AcDbBlockEnd
  0
BLOCK
  5
15B
330
15A
100
AcDbEntity
  8
0
 62
     7
100
AcDbBlockBegin
  2
*D27
 70
     1
 10
0.0
 20
0.0
 30
0.0
  3
*D27
  1

  0
LINE
  5
15C
330
15A
100
AcDbEntity
  8
LAYER_1
  6
Continuous
 62
     7
100
AcDbLine
 10
645.902268239758
 20
301.0018683770729
 30
0.0
 11
615.9022682397579
 21
301.0018683770729
 31
0.0
  0
LINE
  5
15D
330
15A
100
AcDbEntity
  8
LAYER_1
  6
Continuous
 62
     7
100
AcDbLine
 10
645.902268239758
 20
326.0018683770729
 30
0.0
 11
615.9022682397579
 21
326.0018683770729
 31
0.0
  0
INSERT
  5
15E
330
15A
100
AcDbEntity
  8
LAYER_1
  6
Continuous
 62
     7
100
AcDbBlockReference
  2
_OPEN
 10
618.9022682397579
 20
301.0018683770729
 30
0.0
 41
6.0
 42
6.0
 50
270.0
  0
INSERT
  5
15F
330
15A
100
AcDbEntity
  8
LAYER_1
  6
Continuous
 62
     7
100
AcDbBlockReference
  2
_OPEN
 10
618.9022682397579
 20
326.0018683770729
 30
0.0
 41
6.0
 42
6.0
 50
90.0
  0
INSERT
  5
160
330
15A
100
AcDbEntity
  8
LAYER_1
  6
Continuous
 62
     7
100
AcDbBlockReference
  2
_OPEN
 10
618.9022682397579
 20
301.0018683770729
 30
0.0
 41
6.0
 42
6.0
 50
270.0
  0
INSERT
  5
161
330
15A
100
AcDbEntity
  8
LAYER_1
  6
Continuous
 62
     7
100
AcDbBlockReference
  2
_OPEN
 10
618.9022682397579
 20
326.0018683770729
 30
0.0
 41
6.0
 42
6.0
 50
90.0
  0
LINE
  5
162
330
15A
100
AcDbEntity
  8
LAYER_1
  6
Continuous
 62
     7
100
AcDbLine
 10
618.9022682397579
 20
301.0018683770729
 30
0.0
 11
618.9022682397579
 21
326.0018683770729
 31
0.0
  0
TEXT
  5
163
330
15A
100
AcDbEntity
  8
LAYER_1
 62
     7
100
AcDbText
 10
615.9022682397579
 20
309.8762846207289
 30
0.0
 40
5.4
  1
25
 50
90.0
 41
1.033333333332999
  7
ＭＳ_ゴシック
 72
     1
 11
615.9022682397579
 21
313.5018683770729
 31
0.0
100
AcDbText
  0
ENDBLK
  5
164
330
15A
100
AcDbEntity
  8
0
100
AcDbBlockEnd
  0
BLOCK
  5
166
330
165
100
AcDbEntity
  8
0
 62
     7
100
AcDbBlockBegin
  2
*D28
 70
     1
 10
0.0
 20
0.0
 30
0.0
  3
*D28
  1

  0
LINE
  5
167
330
165
100
AcDbEntity
  8
LAYER_1
  6
Continuous
 62
     7
100
AcDbLine
 10
658.902268239758
 20
297.0018683770729
 30
0.0
 11
658.902268239758
 21
278.0018683770729
 31
0.0
  0
LINE
  5
168
330
165
100
AcDbEntity
  8
LAYER_1
  6
Continuous
 62
     7
100
AcDbLine
 10
678.9022682397579
 20
297.0018683770729
 30
0.0
 11
678.9022682397579
 21
278.0018683770729
 31
0.0
  0
INSERT
  5
169
330
165
100
AcDbEntity
  8
LAYER_1
  6
Continuous
 62
     7
100
AcDbBlockReference
  2
_OPEN
 10
658.902268239758
 20
281.0018683770729
 30
0.0
 41
6.0
 42
6.0
 50
180.0
  0
INSERT
  5
16A
330
165
100
AcDbEntity
  8
LAYER_1
  6
Continuous
 62
     7
100
AcDbBlockReference
  2
_OPEN
 10
678.9022682397579
 20
281.0018683770729
 30
0.0
 41
6.0
 42
6.0
  0
INSERT
  5
16B
330
165
100
AcDbEntity
  8
LAYER_1
  6
Continuous
 62
     7
100
AcDbBlockReference
  2
_OPEN
 10
658.902268239758
 20
281.0018683770729
 30
0.0
 41
6.0
 42
6.0
 50
180.0
  0
INSERT
  5
16C
330
165
100
AcDbEntity
  8
LAYER_1
  6
Continuous
 62
     7
100
AcDbBlockReference
  2
_OPEN
 10
678.9022682397579
 20
281.0018683770729
 30
0.0
 41
6.0
 42
6.0
  0
LINE
  5
16D
330
165
100
AcDbEntity
  8
LAYER_1
  6
Continuous
 62
     7
100
AcDbLine
 10
658.902268239758
 20
281.0018683770729
 30
0.0
 11
678.9022682397579
 21
281.0018683770729
 31
0.0
  0
TEXT
  5
16E
330
165
100
AcDbEntity
  8
LAYER_1
 62
     7
100
AcDbText
 10
665.276684483414
 20
284.0018683770729
 30
0.0
 40
5.4
  1
20
 41
1.033333333332999
  7
ＭＳ_ゴシック
 72
     1
 11
668.9022682397579
 21
284.0018683770729
 31
0.0
100
AcDbText
  0
ENDBLK
  5
16F
330
165
100
AcDbEntity
  8
0
100
AcDbBlockEnd
  0
BLOCK
  5
171
330
170
100
AcDbEntity
  8
0
 62
     7
100
AcDbBlockBegin
  2
*D29
 70
     1
 10
0.0
 20
0.0
 30
0.0
  3
*D29
  1

  0
LINE
  5
172
330
170
100
AcDbEntity
  8
LAYER_1
  6
Continuous
 62
     7
100
AcDbLine
 10
728.9022682397579
 20
328.5018683770729
 30
0.0
 11
728.9022682397579
 21
354.0018683770729
 31
0.0
  0
LINE
  5
173
330
170
100
AcDbEntity
  8
LAYER_1
  6
Continuous
 62
     7
100
AcDbLine
 10
748.9022682397579
 20
329.0018683770729
 30
0.0
 11
748.9022682397579
 21
354.0018683770729
 31
0.0
  0
INSERT
  5
174
330
170
100
AcDbEntity
  8
LAYER_1
  6
Continuous
 62
     7
100
AcDbBlockReference
  2
_OPEN
 10
728.9022682397579
 20
351.0018683770729
 30
0.0
 41
6.0
 42
6.0
 50
180.0
  0
INSERT
  5
175
330
170
100
AcDbEntity
  8
LAYER_1
  6
Continuous
 62
     7
100
AcDbBlockReference
  2
_OPEN
 10
748.9022682397579
 20
351.0018683770729
 30
0.0
 41
6.0
 42
6.0
  0
INSERT
  5
176
330
170
100
AcDbEntity
  8
LAYER_1
  6
Continuous
 62
     7
100
AcDbBlockReference
  2
_OPEN
 10
728.9022682397579
 20
351.0018683770729
 30
0.0
 41
6.0
 42
6.0
 50
180.0
  0
INSERT
  5
177
330
170
100
AcDbEntity
  8
LAYER_1
  6
Continuous
 62
     7
100
AcDbBlockReference
  2
_OPEN
 10
748.9022682397579
 20
351.0018683770729
 30
0.0
 41
6.0
 42
6.0
  0
LINE
  5
178
330
170
100
AcDbEntity
  8
LAYER_1
  6
Continuous
 62
     7
100
AcDbLine
 10
728.9022682397579
 20
351.0018683770729
 30
0.0
 11
748.9022682397579
 21
351.0018683770729
 31
0.0
  0
TEXT
  5
179
330
170
100
AcDbEntity
  8
LAYER_1
 62
     7
100
AcDbText
 10
731.6511007270699
 20
354.0018683770729
 30
0.0
 40
5.4
  1
(20)
 41
1.033333333332999
  7
ＭＳ_ゴシック
 72
     1
 11
738.9022682397579
 21
354.0018683770729
 31
0.0
100
AcDbText
  0
ENDBLK
  5
17A
330
170
100
AcDbEntity
  8
0
100
AcDbBlockEnd
  0
BLOCK
  5
17C
330
17B
100
AcDbEntity
  8
0
 62
     7
100
AcDbBlockBegin
  2
*D30
 70
     1
 10
0.0
 20
0.0
 30
0.0
  3
*D30
  1

  0
LINE
  5
17D
330
17B
100
AcDbEntity
  8
LAYER_1
  6
Continuous
 62
     7
100
AcDbLine
 10
738.9022682397579
 20
324.5018683770729
 30
0.0
 11
738.9022682397579
 21
339.0018683770729
 31
0.0
  0
LINE
  5
17E
330
17B
100
AcDbEntity
  8
LAYER_1
  6
Continuous
 62
     7
100
AcDbLine
 10
748.9022682397579
 20
329.0018683770729
 30
0.0
 11
748.9022682397579
 21
339.0018683770729
 31
0.0
  0
LINE
  5
17F
330
17B
100
AcDbEntity
  8
LAYER_1
  6
Continuous
 62
     7
100
AcDbLine
 10
738.9022682397579
 20
336.0018683770729
 30
0.0
 11
748.9022682397579
 21
336.0018683770729
 31
0.0
  0
INSERT
  5
180
330
17B
100
AcDbEntity
  8
LAYER_1
  6
Continuous
 62
     7
100
AcDbBlockReference
  2
_OPEN
 10
738.9022682397579
 20
336.0018683770729
 30
0.0
 41
6.0
 42
6.0
  0
INSERT
  5
181
330
17B
100
AcDbEntity
  8
LAYER_1
  6
Continuous
 62
     7
100
AcDbBlockReference
  2
_NONE
 10
723.7587678437259
 20
336.0018683770729
 30
0.0
 41
6.0
 42
6.0
 50
180.0
  0
LINE
  5
182
330
17B
100
AcDbEntity
  8
LAYER_1
  6
Continuous
 62
     7
100
AcDbLine
 10
738.9022682397579
 20
336.0018683770729
 30
0.0
 11
723.7587678437259
 21
336.0018683770729
 31
0.0
  0
INSERT
  5
183
330
17B
100
AcDbEntity
  8
LAYER_1
  6
Continuous
 62
     7
100
AcDbBlockReference
  2
_OPEN
 10
748.9022682397579
 20
336.0018683770729
 30
0.0
 41
6.0
 42
6.0
 50
180.0
  0
INSERT
  5
184
330
17B
100
AcDbEntity
  8
LAYER_1
  6
Continuous
 62
     7
100
AcDbBlockReference
  2
_NONE
 10
764.2292690389999
 20
336.0018683770729
 30
0.0
 41
6.0
 42
6.0
  0
LINE
  5
185
330
17B
100
AcDbEntity
  8
LAYER_1
  6
Continuous
 62
     7
100
AcDbLine
 10
748.9022682397579
 20
336.0018683770729
 30
0.0
 11
764.2292690389999
 21
336.0018683770729
 31
0.0
  0
TEXT
  5
186
330
17B
100
AcDbEntity
  8
LAYER_1
 62
     7
100
AcDbText
 10
739.691197713912
 20
339.0018683770729
 30
0.0
 40
5.4
  1
10
 41
1.033333333332999
  7
ＭＳ_ゴシック
 72
     2
 11
746.9423652266
 21
339.0018683770729
 31
0.0
100
AcDbText
  0
ENDBLK
  5
187
330
17B
100
AcDbEntity
  8
0
100
AcDbBlockEnd
  0
BLOCK
  5
189
330
188
100
AcDbEntity
  8
0
 62
     7
100
AcDbBlockBegin
  2
*D31
 70
     1
 10
0.0
 20
0.0
 30
0.0
  3
*D31
  1

  0
LINE
  5
18A
330
188
100
AcDbEntity
  8
LAYER_1
  6
Continuous
 62
     7
100
AcDbLine
 10
658.902268239758
 20
368.0018683770729
 30
0.0
 11
658.902268239758
 21
384.0018683770729
 31
0.0
  0
LINE
  5
18B
330
188
100
AcDbEntity
  8
LAYER_1
  6
Continuous
 62
     7
100
AcDbLine
 10
678.9022682397579
 20
368.0018683770729
 30
0.0
 11
678.9022682397579
 21
384.0018683770729
 31
0.0
  0
INSERT
  5
18C
330
188
100
AcDbEntity
  8
LAYER_1
  6
Continuous
 62
     7
100
AcDbBlockReference
  2
_OPEN
 10
658.902268239758
 20
381.0018683770729
 30
0.0
 41
6.0
 42
6.0
 50
180.0
  0
INSERT
  5
18D
330
188
100
AcDbEntity
  8
LAYER_1
  6
Continuous
 62
     7
100
AcDbBlockReference
  2
_OPEN
 10
678.9022682397579
 20
381.0018683770729
 30
0.0
 41
6.0
 42
6.0
  0
INSERT
  5
18E
330
188
100
AcDbEntity
  8
LAYER_1
  6
Continuous
 62
     7
100
AcDbBlockReference
  2
_OPEN
 10
658.902268239758
 20
381.0018683770729
 30
0.0
 41
6.0
 42
6.0
 50
180.0
  0
INSERT
  5
18F
330
188
100
AcDbEntity
  8
LAYER_1
  6
Continuous
 62
     7
100
AcDbBlockReference
  2
_OPEN
 10
678.9022682397579
 20
381.0018683770729
 30
0.0
 41
6.0
 42
6.0
  0
LINE
  5
190
330
188
100
AcDbEntity
  8
LAYER_1
  6
Continuous
 62
     7
100
AcDbLine
 10
658.902268239758
 20
381.0018683770729
 30
0.0
 11
678.9022682397579
 21
381.0018683770729
 31
0.0
  0
TEXT
  5
191
330
188
100
AcDbEntity
  8
LAYER_1
 62
     7
100
AcDbText
 10
665.276684483414
 20
384.0018683770729
 30
0.0
 40
5.4
  1
20
 41
1.033333333332999
  7
ＭＳ_ゴシック
 72
     1
 11
668.9022682397579
 21
384.0018683770729
 31
0.0
100
AcDbText
  0
ENDBLK
  5
192
330
188
100
AcDbEntity
  8
0
100
AcDbBlockEnd
  0
BLOCK
  5
194
330
193
100
AcDbEntity
  8
0
 62
     7
100
AcDbBlockBegin
  2
*D32
 70
     1
 10
0.0
 20
0.0
 30
0.0
  3
*D32
  1

  0
LINE
  5
195
330
193
100
AcDbEntity
  8
LAYER_1
  6
Continuous
 62
     7
100
AcDbLine
 10
651.9022682397579
 20
361.0018683770729
 30
0.0
 11
630.9022682397579
 21
361.0018683770729
 31
0.0
  0
LINE
  5
196
330
193
100
AcDbEntity
  8
LAYER_1
  6
Continuous
 62
     7
100
AcDbLine
 10
645.902268239758
 20
371.001868377073
 30
0.0
 11
630.9022682397579
 21
371.001868377073
 31
0.0
  0
LINE
  5
197
330
193
100
AcDbEntity
  8
LAYER_1
  6
Continuous
 62
     7
100
AcDbLine
 10
633.902268239758
 20
361.0018683770729
 30
0.0
 11
633.902268239758
 21
371.001868377073
 31
0.0
  0
INSERT
  5
198
330
193
100
AcDbEntity
  8
LAYER_1
  6
Continuous
 62
     7
100
AcDbBlockReference
  2
_OPEN
 10
633.902268239758
 20
361.0018683770729
 30
0.0
 41
6.0
 42
6.0
 50
90.0
  0
INSERT
  5
199
330
193
100
AcDbEntity
  8
LAYER_1
  6
Continuous
 62
     7
100
AcDbBlockReference
  2
_NONE
 10
633.902268239758
 20
345.0835391882559
 30
0.0
 41
6.0
 42
6.0
 50
270.0
  0
LINE
  5
19A
330
193
100
AcDbEntity
  8
LAYER_1
  6
Continuous
 62
     7
100
AcDbLine
 10
633.902268239758
 20
361.0018683770729
 30
0.0
 11
633.902268239758
 21
345.0835391882559
 31
0.0
  0
INSERT
  5
19B
330
193
100
AcDbEntity
  8
LAYER_1
  6
Continuous
 62
     7
100
AcDbBlockReference
  2
_OPEN
 10
633.902268239758
 20
371.001868377073
 30
0.0
 41
6.0
 42
6.0
 50
270.0
  0
INSERT
  5
19C
330
193
100
AcDbEntity
  8
LAYER_1
  6
Continuous
 62
     7
100
AcDbBlockReference
  2
_NONE
 10
633.902268239758
 20
381.0018683770729
 30
0.0
 41
6.0
 42
6.0
 50
90.0
  0
LINE
  5
19D
330
193
100
AcDbEntity
  8
LAYER_1
  6
Continuous
 62
     7
100
AcDbLine
 10
633.902268239758
 20
371.001868377073
 30
0.0
 11
633.902268239758
 21
381.0018683770729
 31
0.0
  0
TEXT
  5
19E
330
193
100
AcDbEntity
  8
LAYER_1
 62
     7
100
AcDbText
 10
630.9022682397579
 20
347.2078367089169
 30
0.0
 40
5.4
  1
10
 50
90.0
 41
1.033333333332999
  7
ＭＳ_ゴシック
100
AcDbText
  0
ENDBLK
  5
19F
330
193
100
AcDbEntity
  8
0
100
AcDbBlockEnd
  0
BLOCK
  5
1A1
330
1A0
100
AcDbEntity
  8
0
 62
     7
100
AcDbBlockBegin
  2
*D33
 70
     1
 10
0.0
 20
0.0
 30
0.0
  3
*D33
  1

  0
LINE
  5
1A2
330
1A0
100
AcDbEntity
  8
LAYER_1
  6
Continuous
 62
     7
100
AcDbLine
 10
733.7061158170508
 20
310.501868377073
 30
0.0
 11
744.098420662464
 21
316.5018683770729
 31
0.0
  0
INSERT
  5
1A3
330
1A0
100
AcDbEntity
  8
LAYER_1
  6
Continuous
 62
     7
100
AcDbBlockReference
  2
_OPEN
 10
744.098420662464
 20
316.5018683770729
 30
0.0
 41
6.0
 42
6.0
 50
210.0
  0
INSERT
  5
1A4
330
1A0
100
AcDbEntity
  8
LAYER_1
  6
Continuous
 62
     7
100
AcDbBlockReference
  2
_NONE
 10
756.939920359342
 20
323.9159116838639
 30
0.0
 41
6.0
 42
6.0
 50
30.0
  0
LINE
  5
1A5
330
1A0
100
AcDbEntity
  8
LAYER_1
  6
Continuous
 62
     7
100
AcDbLine
 10
744.098420662464
 20
316.5018683770729
 30
0.0
 11
756.939920359342
 21
323.9159116838639
 31
0.0
  0
INSERT
  5
1A6
330
1A0
100
AcDbEntity
  8
LAYER_1
  6
Continuous
 62
     7
100
AcDbBlockReference
  2
_OPEN
 10
733.7061158170508
 20
310.501868377073
 30
0.0
 41
6.0
 42
6.0
 50
30.0
  0
INSERT
  5
1A7
330
1A0
100
AcDbEntity
  8
LAYER_1
  6
Continuous
 62
     7
100
AcDbBlockReference
  2
_NONE
 10
713.236534638904
 20
298.683750173671
 30
0.0
 41
6.0
 42
6.0
 50
210.0
  0
LINE
  5
1A8
330
1A0
100
AcDbEntity
  8
LAYER_1
  6
Continuous
 62
     7
100
AcDbLine
 10
733.7061158170508
 20
310.501868377073
 30
0.0
 11
713.236534638904
 21
298.683750173671
 31
0.0
  0
TEXT
  5
1A9
330
1A0
100
AcDbEntity
  8
LAYER_1
 62
     7
100
AcDbText
 10
713.7660187137425
 20
302.4535495619479
 30
0.0
 40
5.4
  1
φ12
 50
30.0
 41
1.033333333332999
  7
ＭＳ_ゴシック
 72
     2
 11
726.325409259911
 21
309.704717074636
 31
0.0
100
AcDbText
  0
ENDBLK
  5
1AA
330
1A0
100
AcDbEntity
  8
0
100
AcDbBlockEnd
  0
BLOCK
  5
1AC
330
1AB
100
AcDbEntity
  8
0
 62
     7
100
AcDbBlockBegin
  2
*D34
 70
     1
 10
0.0
 20
0.0
 30
0.0
  3
*D34
  1

  0
LINE
  5
1AD
330
1AB
100
AcDbEntity
  8
LAYER_1
  6
Continuous
 62
     7
100
AcDbLine
 10
648.9022682397579
 20
298.0018683770729
 30
0.0
 11
648.9022682397579
 21
263.001868377073
 31
0.0
  0
LINE
  5
1AE
330
1AB
100
AcDbEntity
  8
LAYER_1
  6
Continuous
 62
     7
100
AcDbLine
 10
688.9022682397579
 20
298.0018683770729
 30
0.0
 11
688.9022682397579
 21
263.001868377073
 31
0.0
  0
INSERT
  5
1AF
330
1AB
100
AcDbEntity
  8
LAYER_1
  6
Continuous
 62
     7
100
AcDbBlockReference
  2
_OPEN
 10
648.9022682397579
 20
266.0018683770729
 30
0.0
 41
6.0
 42
6.0
 50
180.0
  0
INSERT
  5
1B0
330
1AB
100
AcDbEntity
  8
LAYER_1
  6
Continuous
 62
     7
100
AcDbBlockReference
  2
_OPEN
 10
688.9022682397579
 20
266.0018683770729
 30
0.0
 41
6.0
 42
6.0
  0
INSERT
  5
1B1
330
1AB
100
AcDbEntity
  8
LAYER_1
  6
Continuous
 62
     7
100
AcDbBlockReference
  2
_OPEN
 10
648.9022682397579
 20
266.0018683770729
 30
0.0
 41
6.0
 42
6.0
 50
180.0
  0
INSERT
  5
1B2
330
1AB
100
AcDbEntity
  8
LAYER_1
  6
Continuous
 62
     7
100
AcDbBlockReference
  2
_OPEN
 10
688.9022682397579
 20
266.0018683770729
 30
0.0
 41
6.0
 42
6.0
  0
LINE
  5
1B3
330
1AB
100
AcDbEntity
  8
LAYER_1
  6
Continuous
 62
     7
100
AcDbLine
 10
648.9022682397579
 20
266.0018683770729
 30
0.0
 11
688.9022682397579
 21
266.0018683770729
 31
0.0
  0
TEXT
  5
1B4
330
1AB
100
AcDbEntity
  8
LAYER_1
 62
     7
100
AcDbText
 10
665.276684483414
 20
269.001868377073
 30
0.0
 40
5.4
  1
40
 41
1.033333333332999
  7
ＭＳ_ゴシック
 72
     1
 11
668.9022682397579
 21
269.001868377073
 31
0.0
100
AcDbText
  0
ENDBLK
  5
1B5
330
1AB
100
AcDbEntity
  8
0
100
AcDbBlockEnd
  0
BLOCK
  5
1B7
330
1B6
100
AcDbEntity
  8
0
 62
     7
100
AcDbBlockBegin
  2
*D35
 70
     1
 10
0.0
 20
0.0
 30
0.0
  3
*D35
  1

  0
LINE
  5
1B8
330
1B6
100
AcDbEntity
  8
LAYER_1
  6
Continuous
 62
     7
100
AcDbLine
 10
583.9022682397589
 20
162.701868377073
 30
0.0
 11
583.9022682397589
 21
193.0018683770729
 31
0.0
  0
LINE
  5
1B9
330
1B6
100
AcDbEntity
  8
LAYER_1
  6
Continuous
 62
     7
100
AcDbLine
 10
648.9022682397569
 20
162.701868377073
 30
0.0
 11
648.9022682397569
 21
193.0018683770729
 31
0.0
  0
INSERT
  5
1BA
330
1B6
100
AcDbEntity
  8
LAYER_1
  6
Continuous
 62
     7
100
AcDbBlockReference
  2
_OPEN
 10
583.9022682397589
 20
191.0018683770729
 30
0.0
 41
6.0
 42
6.0
 50
180.0
  0
INSERT
  5
1BB
330
1B6
100
AcDbEntity
  8
LAYER_1
  6
Continuous
 62
     7
100
AcDbBlockReference
  2
_OPEN
 10
648.9022682397569
 20
191.0018683770729
 30
0.0
 41
6.0
 42
6.0
  0
INSERT
  5
1BC
330
1B6
100
AcDbEntity
  8
LAYER_1
  6
Continuous
 62
     7
100
AcDbBlockReference
  2
_OPEN
 10
583.9022682397589
 20
191.0018683770729
 30
0.0
 41
6.0
 42
6.0
 50
180.0
  0
INSERT
  5
1BD
330
1B6
100
AcDbEntity
  8
LAYER_1
  6
Continuous
 62
     7
100
AcDbBlockReference
  2
_OPEN
 10
648.9022682397569
 20
191.0018683770729
 30
0.0
 41
6.0
 42
6.0
  0
LINE
  5
1BE
330
1B6
100
AcDbEntity
  8
LAYER_1
  6
Continuous
 62
     7
100
AcDbLine
 10
583.9022682397589
 20
191.0018683770729
 30
0.0
 11
648.9022682397569
 21
191.0018683770729
 31
0.0
  0
TEXT
  5
1BF
330
1B6
100
AcDbEntity
  8
LAYER_1
 62
     7
100
AcDbText
 10
612.7766844834139
 20
194.0018683770729
 30
0.0
 40
5.4
  1
65
 41
1.033333333332999
  7
ＭＳ_ゴシック
 72
     1
 11
616.4022682397579
 21
194.0018683770729
 31
0.0
100
AcDbText
  0
ENDBLK
  5
1C0
330
1B6
100
AcDbEntity
  8
0
100
AcDbBlockEnd
  0
BLOCK
  5
1C2
330
1C1
100
AcDbEntity
  8
0
 62
     7
100
AcDbBlockBegin
  2
*D36
 70
     1
 10
0.0
 20
0.0
 30
0.0
  3
*D36
  1

  0
LINE
  5
1C3
330
1C1
100
AcDbEntity
  8
LAYER_1
  6
Continuous
 62
     7
100
AcDbLine
 10
640.902268239759
 20
129.5018683770709
 30
0.0
 11
670.9022682397569
 21
129.5018683770709
 31
0.0
  0
LINE
  5
1C4
330
1C1
100
AcDbEntity
  8
LAYER_1
  6
Continuous
 62
     7
100
AcDbLine
 10
640.902268239759
 20
156.501868377073
 30
0.0
 11
670.9022682397569
 21
156.501868377073
 31
0.0
  0
INSERT
  5
1C5
330
1C1
100
AcDbEntity
  8
LAYER_1
  6
Continuous
 62
     7
100
AcDbBlockReference
  2
_OPEN
 10
668.902268239757
 20
129.5018683770709
 30
0.0
 41
6.0
 42
6.0
 50
270.0
  0
INSERT
  5
1C6
330
1C1
100
AcDbEntity
  8
LAYER_1
  6
Continuous
 62
     7
100
AcDbBlockReference
  2
_OPEN
 10
668.902268239757
 20
156.501868377073
 30
0.0
 41
6.0
 42
6.0
 50
90.0
  0
INSERT
  5
1C7
330
1C1
100
AcDbEntity
  8
LAYER_1
  6
Continuous
 62
     7
100
AcDbBlockReference
  2
_OPEN
 10
668.902268239757
 20
129.5018683770709
 30
0.0
 41
6.0
 42
6.0
 50
270.0
  0
INSERT
  5
1C8
330
1C1
100
AcDbEntity
  8
LAYER_1
  6
Continuous
 62
     7
100
AcDbBlockReference
  2
_OPEN
 10
668.902268239757
 20
156.501868377073
 30
0.0
 41
6.0
 42
6.0
 50
90.0
  0
LINE
  5
1C9
330
1C1
100
AcDbEntity
  8
LAYER_1
  6
Continuous
 62
     7
100
AcDbLine
 10
668.902268239757
 20
129.5018683770709
 30
0.0
 11
668.902268239757
 21
156.501868377073
 31
0.0
  0
TEXT
  5
1CA
330
1C1
100
AcDbEntity
  8
LAYER_1
 62
     7
100
AcDbText
 10
665.9022682397569
 20
139.3762846207279
 30
0.0
 40
5.4
  1
27
 50
90.0
 41
1.033333333332999
  7
ＭＳ_ゴシック
 72
     1
 11
665.9022682397569
 21
143.0018683770719
 31
0.0
100
AcDbText
  0
ENDBLK
  5
1CB
330
1C1
100
AcDbEntity
  8
0
100
AcDbBlockEnd
  0
BLOCK
  5
1CD
330
1CC
100
AcDbEntity
  8
0
 62
     7
100
AcDbBlockBegin
  2
*D37
 70
     1
 10
0.0
 20
0.0
 30
0.0
  3
*D37
  1

  0
LINE
  5
1CE
330
1CC
100
AcDbEntity
  8
LAYER_1
  6
Continuous
 62
     7
100
AcDbLine
 10
650.602268239759
 20
125.001868377071
 30
0.0
 11
685.9022682397569
 21
125.001868377071
 31
0.0
  0
LINE
  5
1CF
330
1CC
100
AcDbEntity
  8
LAYER_1
  6
Continuous
 62
     7
100
AcDbLine
 10
650.602268239759
 20
161.001868377073
 30
0.0
 11
685.9022682397569
 21
161.001868377073
 31
0.0
  0
INSERT
  5
1D0
330
1CC
100
AcDbEntity
  8
LAYER_1
  6
Continuous
 62
     7
100
AcDbBlockReference
  2
_OPEN
 10
683.9022682397569
 20
125.001868377071
 30
0.0
 41
6.0
 42
6.0
 50
270.0
  0
INSERT
  5
1D1
330
1CC
100
AcDbEntity
  8
LAYER_1
  6
Continuous
 62
     7
100
AcDbBlockReference
  2
_OPEN
 10
683.9022682397569
 20
161.001868377073
 30
0.0
 41
6.0
 42
6.0
 50
90.0
  0
INSERT
  5
1D2
330
1CC
100
AcDbEntity
  8
LAYER_1
  6
Continuous
 62
     7
100
AcDbBlockReference
  2
_OPEN
 10
683.9022682397569
 20
125.001868377071
 30
0.0
 41
6.0
 42
6.0
 50
270.0
  0
INSERT
  5
1D3
330
1CC
100
AcDbEntity
  8
LAYER_1
  6
Continuous
 62
     7
100
AcDbBlockReference
  2
_OPEN
 10
683.9022682397569
 20
161.001868377073
 30
0.0
 41
6.0
 42
6.0
 50
90.0
  0
LINE
  5
1D4
330
1CC
100
AcDbEntity
  8
LAYER_1
  6
Continuous
 62
     7
100
AcDbLine
 10
683.9022682397569
 20
125.001868377071
 30
0.0
 11
683.9022682397569
 21
161.001868377073
 31
0.0
  0
TEXT
  5
1D5
330
1CC
100
AcDbEntity
  8
LAYER_1
 62
     7
100
AcDbText
 10
680.9022682397569
 20
139.3762846207279
 30
0.0
 40
5.4
  1
36
 50
90.0
 41
1.033333333332999
  7
ＭＳ_ゴシック
 72
     1
 11
680.9022682397569
 21
143.0018683770719
 31
0.0
100
AcDbText
  0
ENDBLK
  5
1D6
330
1CC
100
AcDbEntity
  8
0
100
AcDbBlockEnd
  0
BLOCK
  5
1D8
330
1D7
100
AcDbEntity
  8
0
 62
     7
100
AcDbBlockBegin
  2
*D38
 70
     1
 10
0.0
 20
0.0
 30
0.0
  3
*D38
  1

  0
LINE
  5
1D9
330
1D7
100
AcDbEntity
  8
LAYER_1
  6
Continuous
 62
     7
100
AcDbLine
 10
583.9022682397589
 20
162.701868377073
 30
0.0
 11
583.9022682397589
 21
178.0018683770729
 31
0.0
  0
LINE
  5
1DA
330
1D7
100
AcDbEntity
  8
LAYER_1
  6
Continuous
 62
     7
100
AcDbLine
 10
598.902268239759
 20
163.501868377073
 30
0.0
 11
598.902268239759
 21
178.0018683770729
 31
0.0
  0
INSERT
  5
1DB
330
1D7
100
AcDbEntity
  8
LAYER_1
  6
Continuous
 62
     7
100
AcDbBlockReference
  2
_OPEN
 10
583.9022682397589
 20
176.0018683770729
 30
0.0
 41
6.0
 42
6.0
 50
180.0
  0
INSERT
  5
1DC
330
1D7
100
AcDbEntity
  8
LAYER_1
  6
Continuous
 62
     7
100
AcDbBlockReference
  2
_OPEN
 10
598.902268239759
 20
176.0018683770729
 30
0.0
 41
6.0
 42
6.0
  0
INSERT
  5
1DD
330
1D7
100
AcDbEntity
  8
LAYER_1
  6
Continuous
 62
     7
100
AcDbBlockReference
  2
_OPEN
 10
583.9022682397589
 20
176.0018683770729
 30
0.0
 41
6.0
 42
6.0
 50
180.0
  0
INSERT
  5
1DE
330
1D7
100
AcDbEntity
  8
LAYER_1
  6
Continuous
 62
     7
100
AcDbBlockReference
  2
_OPEN
 10
598.902268239759
 20
176.0018683770729
 30
0.0
 41
6.0
 42
6.0
  0
LINE
  5
1DF
330
1D7
100
AcDbEntity
  8
LAYER_1
  6
Continuous
 62
     7
100
AcDbLine
 10
583.9022682397589
 20
176.0018683770729
 30
0.0
 11
598.902268239759
 21
176.0018683770729
 31
0.0
  0
TEXT
  5
1E0
330
1D7
100
AcDbEntity
  8
LAYER_1
 62
     7
100
AcDbText
 10
587.0270823035939
 20
179.0018683770729
 30
0.0
 40
5.4
  1
15
 41
1.033333333332999
  7
ＭＳ_ゴシック
 72
     1
 11
590.6526660599379
 21
179.0018683770729
 31
0.0
100
AcDbText
  0
ENDBLK
  5
1E1
330
1D7
100
AcDbEntity
  8
0
100
AcDbBlockEnd
  0
BLOCK
  5
1E3
330
1E2
100
AcDbEntity
  8
0
 62
     7
100
AcDbBlockBegin
  2
*D39
 70
     1
 10
0.0
 20
0.0
 30
0.0
  3
*D39
  1

  0
LINE
  5
1E4
330
1E2
100
AcDbEntity
  8
LAYER_1
  6
Continuous
 62
     7
100
AcDbLine
 10
633.9022682397589
 20
163.001868377073
 30
0.0
 11
633.9022682397589
 21
178.0018683770729
 31
0.0
  0
INSERT
  5
1E5
330
1E2
100
AcDbEntity
  8
LAYER_1
  6
Continuous
 62
     7
100
AcDbBlockReference
  2
_OPEN
 10
598.902268239759
 20
176.0018683770729
 30
0.0
 41
6.0
 42
6.0
 50
180.0
  0
INSERT
  5
1E6
330
1E2
100
AcDbEntity
  8
LAYER_1
  6
Continuous
 62
     7
100
AcDbBlockReference
  2
_OPEN
 10
633.9022682397589
 20
176.0018683770729
 30
0.0
 41
6.0
 42
6.0
 50
360.0
  0
INSERT
  5
1E7
330
1E2
100
AcDbEntity
  8
LAYER_1
  6
Continuous
 62
     7
100
AcDbBlockReference
  2
_OPEN
 10
598.902268239759
 20
176.0018683770729
 30
0.0
 41
6.0
 42
6.0
 50
180.0
  0
INSERT
  5
1E8
330
1E2
100
AcDbEntity
  8
LAYER_1
  6
Continuous
 62
     7
100
AcDbBlockReference
  2
_OPEN
 10
633.9022682397589
 20
176.0018683770729
 30
0.0
 41
6.0
 42
6.0
 50
360.0
  0
LINE
  5
1E9
330
1E2
100
AcDbEntity
  8
LAYER_1
  6
Continuous
 62
     7
100
AcDbLine
 10
598.902268239759
 20
176.0018683770729
 30
0.0
 11
633.9022682397589
 21
176.0018683770729
 31
0.0
  0
TEXT
  5
1EA
330
1E2
100
AcDbEntity
  8
LAYER_1
 62
     7
100
AcDbText
 10
612.776684483415
 20
179.0018683770729
 30
0.0
 40
5.4
  1
35
 41
1.033333333332999
  7
ＭＳ_ゴシック
 72
     1
 11
616.402268239759
 21
179.0018683770729
 31
0.0
100
AcDbText
  0
ENDBLK
  5
1EB
330
1E2
100
AcDbEntity
  8
0
100
AcDbBlockEnd
  0
BLOCK
  5
1ED
330
1EC
100
AcDbEntity
  8
0
 62
     7
100
AcDbBlockBegin
  2
*D40
 70
     1
 10
0.0
 20
0.0
 30
0.0
  3
*D40
  1

  0
LINE
  5
1EE
330
1EC
100
AcDbEntity
  8
LAYER_1
  6
Continuous
 62
     7
100
AcDbLine
 10
718.9022682397579
 20
162.701868377073
 30
0.0
 11
718.9022682397579
 21
178.0018683770729
 31
0.0
  0
LINE
  5
1EF
330
1EC
100
AcDbEntity
  8
LAYER_1
  6
Continuous
 62
     7
100
AcDbLine
 10
758.902268239758
 20
162.701868377073
 30
0.0
 11
758.902268239758
 21
178.0018683770729
 31
0.0
  0
INSERT
  5
1F0
330
1EC
100
AcDbEntity
  8
LAYER_1
  6
Continuous
 62
     7
100
AcDbBlockReference
  2
_OPEN
 10
718.9022682397579
 20
176.0018683770729
 30
0.0
 41
6.0
 42
6.0
 50
180.0
  0
INSERT
  5
1F1
330
1EC
100
AcDbEntity
  8
LAYER_1
  6
Continuous
 62
     7
100
AcDbBlockReference
  2
_OPEN
 10
758.902268239758
 20
176.0018683770729
 30
0.0
 41
6.0
 42
6.0
  0
INSERT
  5
1F2
330
1EC
100
AcDbEntity
  8
LAYER_1
  6
Continuous
 62
     7
100
AcDbBlockReference
  2
_OPEN
 10
718.9022682397579
 20
176.0018683770729
 30
0.0
 41
6.0
 42
6.0
 50
180.0
  0
INSERT
  5
1F3
330
1EC
100
AcDbEntity
  8
LAYER_1
  6
Continuous
 62
     7
100
AcDbBlockReference
  2
_OPEN
 10
758.902268239758
 20
176.0018683770729
 30
0.0
 41
6.0
 42
6.0
  0
LINE
  5
1F4
330
1EC
100
AcDbEntity
  8
LAYER_1
  6
Continuous
 62
     7
100
AcDbLine
 10
718.9022682397579
 20
176.0018683770729
 30
0.0
 11
758.902268239758
 21
176.0018683770729
 31
0.0
  0
TEXT
  5
1F5
330
1EC
100
AcDbEntity
  8
LAYER_1
 62
     7
100
AcDbText
 10
731.6511007270699
 20
179.0018683770729
 30
0.0
 40
5.4
  1
(40)
 41
1.033333333332999
  7
ＭＳ_ゴシック
 72
     1
 11
738.9022682397579
 21
179.0018683770729
 31
0.0
100
AcDbText
  0
ENDBLK
  5
1F6
330
1EC
100
AcDbEntity
  8
0
100
AcDbBlockEnd
  0
BLOCK
  5
1F8
330
1F7
100
AcDbEntity
  8
0
 62
     7
100
AcDbBlockBegin
  2
*D41
 70
     1
 10
0.0
 20
0.0
 30
0.0
  3
*D41
  1

  0
LINE
  5
1F9
330
1F7
100
AcDbEntity
  8
LAYER_1
  6
Continuous
 62
     7
100
AcDbLine
 10
735.4022682397579
 20
127.5018683770719
 30
0.0
 11
735.4022682397579
 21
108.0018683770709
 31
0.0
  0
LINE
  5
1FA
330
1F7
100
AcDbEntity
  8
LAYER_1
  6
Continuous
 62
     7
100
AcDbLine
 10
758.902268239758
 20
123.3018683770719
 30
0.0
 11
758.902268239758
 21
108.0018683770709
 31
0.0
  0
INSERT
  5
1FB
330
1F7
100
AcDbEntity
  8
LAYER_1
  6
Continuous
 62
     7
100
AcDbBlockReference
  2
_OPEN
 10
735.4022682397579
 20
110.0018683770709
 30
0.0
 41
6.0
 42
6.0
 50
180.0
  0
INSERT
  5
1FC
330
1F7
100
AcDbEntity
  8
LAYER_1
  6
Continuous
 62
     7
100
AcDbBlockReference
  2
_OPEN
 10
758.902268239758
 20
110.0018683770709
 30
0.0
 41
6.0
 42
6.0
  0
INSERT
  5
1FD
330
1F7
100
AcDbEntity
  8
LAYER_1
  6
Continuous
 62
     7
100
AcDbBlockReference
  2
_OPEN
 10
735.4022682397579
 20
110.0018683770709
 30
0.0
 41
6.0
 42
6.0
 50
180.0
  0
INSERT
  5
1FE
330
1F7
100
AcDbEntity
  8
LAYER_1
  6
Continuous
 62
     7
100
AcDbBlockReference
  2
_OPEN
 10
758.902268239758
 20
110.0018683770709
 30
0.0
 41
6.0
 42
6.0
  0
LINE
  5
1FF
330
1F7
100
AcDbEntity
  8
LAYER_1
  6
Continuous
 62
     7
100
AcDbLine
 10
735.4022682397579
 20
110.0018683770709
 30
0.0
 11
758.902268239758
 21
110.0018683770709
 31
0.0
  0
TEXT
  5
200
330
1F7
100
AcDbEntity
  8
LAYER_1
 62
     7
100
AcDbText
 10
740.473848744013
 20
113.001868377071
 30
0.0
 40
5.4
  1
23.5
 41
1.033333333332999
  7
ＭＳ_ゴシック
 72
     1
 11
747.725016256701
 21
113.001868377071
 31
0.0
100
AcDbText
  0
ENDBLK
  5
201
330
1F7
100
AcDbEntity
  8
0
100
AcDbBlockEnd
  0
BLOCK
  5
203
330
202
100
AcDbEntity
  8
0
 62
     7
100
AcDbBlockBegin
  2
*D42
 70
     1
 10
0.0
 20
0.0
 30
0.0
  3
*D42
  1

  0
LINE
  5
204
330
202
100
AcDbEntity
  8
LAYER_1
  6
Continuous
 62
     7
100
AcDbLine
 10
746.9933781552259
 20
146.107696918302
 30
0.0
 11
723.8111583242889
 21
139.896039835842
 31
0.0
  0
INSERT
  5
205
330
202
100
AcDbEntity
  8
LAYER_1
  6
Continuous
 62
     7
100
AcDbBlockReference
  2
_OPEN
 10
723.8111583242889
 20
139.896039835842
 30
0.0
 41
6.0
 42
6.0
 50
15.0
  0
INSERT
  5
206
330
202
100
AcDbEntity
  8
LAYER_1
  6
Continuous
 62
     7
100
AcDbBlockReference
  2
_NONE
 10
699.117076141105
 20
133.27928045703
 30
0.0
 41
6.0
 42
6.0
 50
195.0
  0
LINE
  5
207
330
202
100
AcDbEntity
  8
LAYER_1
  6
Continuous
 62
     7
100
AcDbLine
 10
723.8111583242889
 20
139.896039835842
 30
0.0
 11
699.117076141105
 21
133.27928045703
 31
0.0
  0
INSERT
  5
208
330
202
100
AcDbEntity
  8
LAYER_1
  6
Continuous
 62
     7
100
AcDbBlockReference
  2
_OPEN
 10
746.9933781552259
 20
146.107696918302
 30
0.0
 41
6.0
 42
6.0
 50
195.0
  0
INSERT
  5
209
330
202
100
AcDbEntity
  8
LAYER_1
  6
Continuous
 62
     7
100
AcDbBlockReference
  2
_NONE
 10
756.054760116769
 20
148.5356868972069
 30
0.0
 41
6.0
 42
6.0
 50
15.0
  0
LINE
  5
20A
330
202
100
AcDbEntity
  8
LAYER_1
  6
Continuous
 62
     7
100
AcDbLine
 10
746.9933781552259
 20
146.107696918302
 30
0.0
 11
756.054760116769
 21
148.5356868972069
 31
0.0
  0
TEXT
  5
20B
330
202
100
AcDbEntity
  8
LAYER_1
 62
     7
100
AcDbText
 10
703.7873634824158
 20
137.636508719785
 30
0.0
 40
5.4
  1
φ24
 50
15.0
 41
1.033333333332999
  7
ＭＳ_ゴシック
100
AcDbText
  0
ENDBLK
  5
20C
330
202
100
AcDbEntity
  8
0
100
AcDbBlockEnd
  0
BLOCK
  5
20E
330
20D
100
AcDbEntity
  8
0
 62
     7
100
AcDbBlockBegin
  2
*D43
 70
     1
 10
0.0
 20
0.0
 30
0.0
  3
*D43
  1

  0
LINE
  5
20F
330
20D
100
AcDbEntity
  8
LAYER_1
  6
Continuous
 62
     7
100
AcDbLine
 10
808.9022682397569
 20
162.001868377073
 30
0.0
 11
808.9022682397569
 21
178.0018683770729
 31
0.0
  0
LINE
  5
210
330
20D
100
AcDbEntity
  8
LAYER_1
  6
Continuous
 62
     7
100
AcDbLine
 10
843.9022682397569
 20
162.001868377073
 30
0.0
 11
843.9022682397569
 21
178.0018683770729
 31
0.0
  0
INSERT
  5
211
330
20D
100
AcDbEntity
  8
LAYER_1
  6
Continuous
 62
     7
100
AcDbBlockReference
  2
_OPEN
 10
808.9022682397569
 20
176.0018683770729
 30
0.0
 41
6.0
 42
6.0
 50
180.0
  0
INSERT
  5
212
330
20D
100
AcDbEntity
  8
LAYER_1
  6
Continuous
 62
     7
100
AcDbBlockReference
  2
_OPEN
 10
843.9022682397569
 20
176.0018683770729
 30
0.0
 41
6.0
 42
6.0
  0
INSERT
  5
213
330
20D
100
AcDbEntity
  8
LAYER_1
  6
Continuous
 62
     7
100
AcDbBlockReference
  2
_OPEN
 10
808.9022682397569
 20
176.0018683770729
 30
0.0
 41
6.0
 42
6.0
 50
180.0
  0
INSERT
  5
214
330
20D
100
AcDbEntity
  8
LAYER_1
  6
Continuous
 62
     7
100
AcDbBlockReference
  2
_OPEN
 10
843.9022682397569
 20
176.0018683770729
 30
0.0
 41
6.0
 42
6.0
  0
LINE
  5
215
330
20D
100
AcDbEntity
  8
LAYER_1
  6
Continuous
 62
     7
100
AcDbLine
 10
808.9022682397569
 20
176.0018683770729
 30
0.0
 11
843.9022682397569
 21
176.0018683770729
 31
0.0
  0
TEXT
  5
216
330
20D
100
AcDbEntity
  8
LAYER_1
 62
     7
100
AcDbText
 10
822.776684483413
 20
179.0018683770729
 30
0.0
 40
5.4
  1
35
 41
1.033333333332999
  7
ＭＳ_ゴシック
 72
     1
 11
826.402268239757
 21
179.0018683770729
 31
0.0
100
AcDbText
  0
ENDBLK
  5
217
330
20D
100
AcDbEntity
  8
0
100
AcDbBlockEnd
  0
BLOCK
  5
219
330
218
100
AcDbEntity
  8
0
 62
     7
100
AcDbBlockBegin
  2
*D44
 70
     1
 10
0.0
 20
0.0
 30
0.0
  3
*D44
  1

  0
LINE
  5
21A
330
218
100
AcDbEntity
  8
LAYER_1
  6
Continuous
 62
     7
100
AcDbLine
 10
858.9022682397569
 20
162.701868377073
 30
0.0
 11
858.9022682397569
 21
178.0018683770729
 31
0.0
  0
INSERT
  5
21B
330
218
100
AcDbEntity
  8
LAYER_1
  6
Continuous
 62
     7
100
AcDbBlockReference
  2
_OPEN
 10
843.9022682397569
 20
176.0018683770729
 30
0.0
 41
6.0
 42
6.0
 50
180.0
  0
INSERT
  5
21C
330
218
100
AcDbEntity
  8
LAYER_1
  6
Continuous
 62
     7
100
AcDbBlockReference
  2
_OPEN
 10
858.9022682397569
 20
176.0018683770729
 30
0.0
 41
6.0
 42
6.0
  0
INSERT
  5
21D
330
218
100
AcDbEntity
  8
LAYER_1
  6
Continuous
 62
     7
100
AcDbBlockReference
  2
_OPEN
 10
843.9022682397569
 20
176.0018683770729
 30
0.0
 41
6.0
 42
6.0
 50
180.0
  0
INSERT
  5
21E
330
218
100
AcDbEntity
  8
LAYER_1
  6
Continuous
 62
     7
100
AcDbBlockReference
  2
_OPEN
 10
858.9022682397569
 20
176.0018683770729
 30
0.0
 41
6.0
 42
6.0
  0
LINE
  5
21F
330
218
100
AcDbEntity
  8
LAYER_1
  6
Continuous
 62
     7
100
AcDbLine
 10
843.9022682397569
 20
176.0018683770729
 30
0.0
 11
858.9022682397569
 21
176.0018683770729
 31
0.0
  0
TEXT
  5
220
330
218
100
AcDbEntity
  8
LAYER_1
 62
     7
100
AcDbText
 10
847.0731001011969
 20
179.0018683770729
 30
0.0
 40
5.4
  1
15
 41
1.033333333332999
  7
ＭＳ_ゴシック
 72
     1
 11
850.6986838575411
 21
179.0018683770729
 31
0.0
100
AcDbText
  0
ENDBLK
  5
221
330
218
100
AcDbEntity
  8
0
100
AcDbBlockEnd
  0
BLOCK
  5
223
330
222
100
AcDbEntity
  8
0
 62
     7
100
AcDbBlockBegin
  2
*D45
 70
     1
 10
0.0
 20
0.0
 30
0.0
  3
*D45
  1

  0
LINE
  5
224
330
222
100
AcDbEntity
  8
LAYER_1
  6
Continuous
 62
     7
100
AcDbLine
 10
165.323635138872
 20
146.4518683770729
 30
0.0
 11
165.323635138872
 21
177.7018683770729
 31
0.0
  0
LINE
  5
225
330
222
100
AcDbEntity
  8
LAYER_1
  6
Continuous
 62
     7
100
AcDbLine
 10
265.3236351388709
 20
162.701868377073
 30
0.0
 11
265.3236351388709
 21
177.7018683770729
 31
0.0
  0
INSERT
  5
226
330
222
100
AcDbEntity
  8
LAYER_1
  6
Continuous
 62
     7
100
AcDbBlockReference
  2
_OPEN
 10
165.323635138872
 20
175.7018683770729
 30
0.0
 41
6.0
 42
6.0
 50
180.0
  0
INSERT
  5
227
330
222
100
AcDbEntity
  8
LAYER_1
  6
Continuous
 62
     7
100
AcDbBlockReference
  2
_OPEN
 10
265.3236351388709
 20
175.7018683770729
 30
0.0
 41
6.0
 42
6.0
  0
INSERT
  5
228
330
222
100
AcDbEntity
  8
LAYER_1
  6
Continuous
 62
     7
100
AcDbBlockReference
  2
_OPEN
 10
165.323635138872
 20
175.7018683770729
 30
0.0
 41
6.0
 42
6.0
 50
180.0
  0
INSERT
  5
229
330
222
100
AcDbEntity
  8
LAYER_1
  6
Continuous
 62
     7
100
AcDbBlockReference
  2
_OPEN
 10
265.3236351388709
 20
175.7018683770729
 30
0.0
 41
6.0
 42
6.0
  0
LINE
  5
22A
330
222
100
AcDbEntity
  8
LAYER_1
  6
Continuous
 62
     7
100
AcDbLine
 10
165.323635138872
 20
175.7018683770729
 30
0.0
 11
265.3236351388709
 21
175.7018683770729
 31
0.0
  0
TEXT
  5
22B
330
222
100
AcDbEntity
  8
LAYER_1
 62
     7
100
AcDbText
 10
206.2596757480109
 20
178.7018683770729
 30
0.0
 40
5.4
  1
(100)
 41
1.033333333332999
  7
ＭＳ_ゴシック
 72
     1
 11
215.3236351388709
 21
178.7018683770729
 31
0.0
100
AcDbText
  0
ENDBLK
  5
22C
330
222
100
AcDbEntity
  8
0
100
AcDbBlockEnd
  0
BLOCK
  5
22E
330
22D
100
AcDbEntity
  8
0
 62
     7
100
AcDbBlockBegin
  2
*D46
 70
     1
 10
0.0
 20
0.0
 30
0.0
  3
*D46
  1

  0
LINE
  5
22F
330
22D
100
AcDbEntity
  8
LAYER_1
  6
Continuous
 62
     7
100
AcDbLine
 10
295.323635138872
 20
161.2018683770729
 30
0.0
 11
295.323635138872
 21
177.7018683770729
 31
0.0
  0
INSERT
  5
230
330
22D
100
AcDbEntity
  8
LAYER_1
  6
Continuous
 62
     7
100
AcDbBlockReference
  2
_OPEN
 10
265.3236351388709
 20
175.7018683770729
 30
0.0
 41
6.0
 42
6.0
 50
180.0
  0
INSERT
  5
231
330
22D
100
AcDbEntity
  8
LAYER_1
  6
Continuous
 62
     7
100
AcDbBlockReference
  2
_OPEN
 10
295.323635138872
 20
175.7018683770729
 30
0.0
 41
6.0
 42
6.0
  0
INSERT
  5
232
330
22D
100
AcDbEntity
  8
LAYER_1
  6
Continuous
 62
     7
100
AcDbBlockReference
  2
_OPEN
 10
265.3236351388709
 20
175.7018683770729
 30
0.0
 41
6.0
 42
6.0
 50
180.0
  0
INSERT
  5
233
330
22D
100
AcDbEntity
  8
LAYER_1
  6
Continuous
 62
     7
100
AcDbBlockReference
  2
_OPEN
 10
295.323635138872
 20
175.7018683770729
 30
0.0
 41
6.0
 42
6.0
  0
LINE
  5
234
330
22D
100
AcDbEntity
  8
LAYER_1
  6
Continuous
 62
     7
100
AcDbLine
 10
265.3236351388709
 20
175.7018683770729
 30
0.0
 11
295.323635138872
 21
175.7018683770729
 31
0.0
  0
TEXT
  5
235
330
22D
100
AcDbEntity
  8
LAYER_1
 62
     7
100
AcDbText
 10
273.0724676261829
 20
178.7018683770729
 30
0.0
 40
5.4
  1
(30)
 41
1.033333333332999
  7
ＭＳ_ゴシック
 72
     1
 11
280.323635138871
 21
178.7018683770729
 31
0.0
100
AcDbText
  0
ENDBLK
  5
236
330
22D
100
AcDbEntity
  8
0
100
AcDbBlockEnd
  0
BLOCK
  5
238
330
237
100
AcDbEntity
  8
0
 62
     7
100
AcDbBlockBegin
  2
*D47
 70
     1
 10
0.0
 20
0.0
 30
0.0
  3
*D47
  1

  0
LINE
  5
239
330
237
100
AcDbEntity
  8
LAYER_1
  6
Continuous
 62
     7
100
AcDbLine
 10
331.8236351388709
 20
162.701868377073
 30
0.0
 11
331.8236351388709
 21
177.7018683770729
 31
0.0
  0
LINE
  5
23A
330
237
100
AcDbEntity
  8
LAYER_1
  6
Continuous
 62
     7
100
AcDbLine
 10
354.8236351388709
 20
162.701868377073
 30
0.0
 11
354.8236351388709
 21
177.7018683770729
 31
0.0
  0
INSERT
  5
23B
330
237
100
AcDbEntity
  8
LAYER_1
  6
Continuous
 62
     7
100
AcDbBlockReference
  2
_OPEN
 10
331.8236351388709
 20
175.7018683770729
 30
0.0
 41
6.0
 42
6.0
 50
180.0
  0
INSERT
  5
23C
330
237
100
AcDbEntity
  8
LAYER_1
  6
Continuous
 62
     7
100
AcDbBlockReference
  2
_OPEN
 10
354.8236351388709
 20
175.7018683770729
 30
0.0
 41
6.0
 42
6.0
  0
INSERT
  5
23D
330
237
100
AcDbEntity
  8
LAYER_1
  6
Continuous
 62
     7
100
AcDbBlockReference
  2
_OPEN
 10
331.8236351388709
 20
175.7018683770729
 30
0.0
 41
6.0
 42
6.0
 50
180.0
  0
INSERT
  5
23E
330
237
100
AcDbEntity
  8
LAYER_1
  6
Continuous
 62
     7
100
AcDbBlockReference
  2
_OPEN
 10
354.8236351388709
 20
175.7018683770729
 30
0.0
 41
6.0
 42
6.0
  0
LINE
  5
23F
330
237
100
AcDbEntity
  8
LAYER_1
  6
Continuous
 62
     7
100
AcDbLine
 10
331.8236351388709
 20
175.7018683770729
 30
0.0
 11
354.8236351388709
 21
175.7018683770729
 31
0.0
  0
TEXT
  5
240
330
237
100
AcDbEntity
  8
LAYER_1
 62
     7
100
AcDbText
 10
336.0724676261829
 20
178.7018683770729
 30
0.0
 40
5.4
  1
(23)
 41
1.033333333332999
  7
ＭＳ_ゴシック
 72
     1
 11
343.323635138871
 21
178.7018683770729
 31
0.0
100
AcDbText
  0
ENDBLK
  5
241
330
237
100
AcDbEntity
  8
0
100
AcDbBlockEnd
  0
BLOCK
  5
243
330
242
100
AcDbEntity
  8
0
 62
     7
100
AcDbBlockBegin
  2
*D48
 70
     1
 10
0.0
 20
0.0
 30
0.0
  3
*D48
  1

  0
LINE
  5
244
330
242
100
AcDbEntity
  8
LAYER_1
  6
Continuous
 62
     7
100
AcDbLine
 10
356.8236351388709
 20
118.7018683770729
 30
0.0
 11
371.823635138871
 21
118.7018683770729
 31
0.0
  0
LINE
  5
245
330
242
100
AcDbEntity
  8
LAYER_1
  6
Continuous
 62
     7
100
AcDbLine
 10
356.8236351388709
 20
160.701868377073
 30
0.0
 11
371.823635138871
 21
160.701868377073
 31
0.0
  0
INSERT
  5
246
330
242
100
AcDbEntity
  8
LAYER_1
  6
Continuous
 62
     7
100
AcDbBlockReference
  2
_OPEN
 10
369.823635138871
 20
118.7018683770729
 30
0.0
 41
6.0
 42
6.0
 50
270.0
  0
INSERT
  5
247
330
242
100
AcDbEntity
  8
LAYER_1
  6
Continuous
 62
     7
100
AcDbBlockReference
  2
_OPEN
 10
369.823635138871
 20
160.701868377073
 30
0.0
 41
6.0
 42
6.0
 50
90.0
  0
INSERT
  5
248
330
242
100
AcDbEntity
  8
LAYER_1
  6
Continuous
 62
     7
100
AcDbBlockReference
  2
_OPEN
 10
369.823635138871
 20
118.7018683770729
 30
0.0
 41
6.0
 42
6.0
 50
270.0
  0
INSERT
  5
249
330
242
100
AcDbEntity
  8
LAYER_1
  6
Continuous
 62
     7
100
AcDbBlockReference
  2
_OPEN
 10
369.823635138871
 20
160.701868377073
 30
0.0
 41
6.0
 42
6.0
 50
90.0
  0
LINE
  5
24A
330
242
100
AcDbEntity
  8
LAYER_1
  6
Continuous
 62
     7
100
AcDbLine
 10
369.823635138871
 20
118.7018683770729
 30
0.0
 11
369.823635138871
 21
160.701868377073
 31
0.0
  0
TEXT
  5
24B
330
242
100
AcDbEntity
  8
LAYER_1
 62
     7
100
AcDbText
 10
366.8236351388709
 20
132.4507008643849
 30
0.0
 40
5.4
  1
(42)
 50
90.0
 41
1.033333333332999
  7
ＭＳ_ゴシック
 72
     1
 11
366.8236351388709
 21
139.7018683770729
 31
0.0
100
AcDbText
  0
ENDBLK
  5
24C
330
242
100
AcDbEntity
  8
0
100
AcDbBlockEnd
  0
BLOCK
  5
24E
330
24D
100
AcDbEntity
  8
0
 62
     7
100
AcDbBlockBegin
  2
*D49
 70
     1
 10
0.0
 20
0.0
 30
0.0
  3
*D49
  1

  0
LINE
  5
24F
330
24D
100
AcDbEntity
  8
LAYER_1
  6
Continuous
 62
     7
100
AcDbLine
 10
433.823635138871
 20
118.7018683770729
 30
0.0
 11
448.8236351388709
 21
118.7018683770729
 31
0.0
  0
LINE
  5
250
330
24D
100
AcDbEntity
  8
LAYER_1
  6
Continuous
 62
     7
100
AcDbLine
 10
433.823635138871
 20
160.701868377073
 30
0.0
 11
448.8236351388709
 21
160.701868377073
 31
0.0
  0
INSERT
  5
251
330
24D
100
AcDbEntity
  8
LAYER_1
  6
Continuous
 62
     7
100
AcDbBlockReference
  2
_OPEN
 10
446.823635138871
 20
118.7018683770729
 30
0.0
 41
6.0
 42
6.0
 50
270.0
  0
INSERT
  5
252
330
24D
100
AcDbEntity
  8
LAYER_1
  6
Continuous
 62
     7
100
AcDbBlockReference
  2
_OPEN
 10
446.823635138871
 20
160.701868377073
 30
0.0
 41
6.0
 42
6.0
 50
90.0
  0
INSERT
  5
253
330
24D
100
AcDbEntity
  8
LAYER_1
  6
Continuous
 62
     7
100
AcDbBlockReference
  2
_OPEN
 10
446.823635138871
 20
118.7018683770729
 30
0.0
 41
6.0
 42
6.0
 50
270.0
  0
INSERT
  5
254
330
24D
100
AcDbEntity
  8
LAYER_1
  6
Continuous
 62
     7
100
AcDbBlockReference
  2
_OPEN
 10
446.823635138871
 20
160.701868377073
 30
0.0
 41
6.0
 42
6.0
 50
90.0
  0
LINE
  5
255
330
24D
100
AcDbEntity
  8
LAYER_1
  6
Continuous
 62
     7
100
AcDbLine
 10
446.823635138871
 20
118.7018683770729
 30
0.0
 11
446.823635138871
 21
160.701868377073
 31
0.0
  0
TEXT
  5
256
330
24D
100
AcDbEntity
  8
LAYER_1
 62
     7
100
AcDbText
 10
443.8236351388709
 20
132.4507008643849
 30
0.0
 40
5.4
  1
(42)
 50
90.0
 41
1.033333333332999
  7
ＭＳ_ゴシック
 72
     1
 11
443.8236351388709
 21
139.7018683770729
 31
0.0
100
AcDbText
  0
ENDBLK
  5
257
330
24D
100
AcDbEntity
  8
0
100
AcDbBlockEnd
  0
BLOCK
  5
259
330
258
100
AcDbEntity
  8
0
 62
     7
100
AcDbBlockBegin
  2
*D50
 70
     1
 10
0.0
 20
0.0
 30
0.0
  3
*D50
  1

  0
LINE
  5
25A
330
258
100
AcDbEntity
  8
LAYER_1
  6
Continuous
 62
     7
100
AcDbLine
 10
510.8236351388709
 20
118.7018683770729
 30
0.0
 11
525.823635138871
 21
118.7018683770729
 31
0.0
  0
LINE
  5
25B
330
258
100
AcDbEntity
  8
LAYER_1
  6
Continuous
 62
     7
100
AcDbLine
 10
510.8236351388709
 20
160.701868377073
 30
0.0
 11
525.823635138871
 21
160.701868377073
 31
0.0
  0
INSERT
  5
25C
330
258
100
AcDbEntity
  8
LAYER_1
  6
Continuous
 62
     7
100
AcDbBlockReference
  2
_OPEN
 10
523.823635138871
 20
118.7018683770729
 30
0.0
 41
6.0
 42
6.0
 50
270.0
  0
INSERT
  5
25D
330
258
100
AcDbEntity
  8
LAYER_1
  6
Continuous
 62
     7
100
AcDbBlockReference
  2
_OPEN
 10
523.823635138871
 20
160.701868377073
 30
0.0
 41
6.0
 42
6.0
 50
90.0
  0
INSERT
  5
25E
330
258
100
AcDbEntity
  8
LAYER_1
  6
Continuous
 62
     7
100
AcDbBlockReference
  2
_OPEN
 10
523.823635138871
 20
118.7018683770729
 30
0.0
 41
6.0
 42
6.0
 50
270.0
  0
INSERT
  5
25F
330
258
100
AcDbEntity
  8
LAYER_1
  6
Continuous
 62
     7
100
AcDbBlockReference
  2
_OPEN
 10
523.823635138871
 20
160.701868377073
 30
0.0
 41
6.0
 42
6.0
 50
90.0
  0
LINE
  5
260
330
258
100
AcDbEntity
  8
LAYER_1
  6
Continuous
 62
     7
100
AcDbLine
 10
523.823635138871
 20
118.7018683770729
 30
0.0
 11
523.823635138871
 21
160.701868377073
 31
0.0
  0
TEXT
  5
261
330
258
100
AcDbEntity
  8
LAYER_1
 62
     7
100
AcDbText
 10
520.823635138871
 20
132.4507008643849
 30
0.0
 40
5.4
  1
(42)
 50
90.0
 41
1.033333333332999
  7
ＭＳ_ゴシック
 72
     1
 11
520.823635138871
 21
139.7018683770729
 31
0.0
100
AcDbText
  0
ENDBLK
  5
262
330
258
100
AcDbEntity
  8
0
100
AcDbBlockEnd
  0
BLOCK
  5
264
330
263
100
AcDbEntity
  8
0
 62
     7
100
AcDbBlockBegin
  2
*D51
 70
     1
 10
0.0
 20
0.0
 30
0.0
  3
*D51
  1

  0
LINE
  5
265
330
263
100
AcDbEntity
  8
LAYER_1
  6
Continuous
 62
     7
100
AcDbLine
 10
389.8236351388709
 20
162.701868377073
 30
0.0
 11
389.8236351388709
 21
177.7018683770729
 31
0.0
  0
LINE
  5
266
330
263
100
AcDbEntity
  8
LAYER_1
  6
Continuous
 62
     7
100
AcDbLine
 10
431.8236351388709
 20
162.701868377073
 30
0.0
 11
431.8236351388709
 21
177.7018683770729
 31
0.0
  0
INSERT
  5
267
330
263
100
AcDbEntity
  8
LAYER_1
  6
Continuous
 62
     7
100
AcDbBlockReference
  2
_OPEN
 10
389.8236351388709
 20
175.7018683770729
 30
0.0
 41
6.0
 42
6.0
 50
180.0
  0
INSERT
  5
268
330
263
100
AcDbEntity
  8
LAYER_1
  6
Continuous
 62
     7
100
AcDbBlockReference
  2
_OPEN
 10
431.8236351388709
 20
175.7018683770729
 30
0.0
 41
6.0
 42
6.0
  0
INSERT
  5
269
330
263
100
AcDbEntity
  8
LAYER_1
  6
Continuous
 62
     7
100
AcDbBlockReference
  2
_OPEN
 10
389.8236351388709
 20
175.7018683770729
 30
0.0
 41
6.0
 42
6.0
 50
180.0
  0
INSERT
  5
26A
330
263
100
AcDbEntity
  8
LAYER_1
  6
Continuous
 62
     7
100
AcDbBlockReference
  2
_OPEN
 10
431.8236351388709
 20
175.7018683770729
 30
0.0
 41
6.0
 42
6.0
  0
LINE
  5
26B
330
263
100
AcDbEntity
  8
LAYER_1
  6
Continuous
 62
     7
100
AcDbLine
 10
389.8236351388709
 20
175.7018683770729
 30
0.0
 11
431.8236351388709
 21
175.7018683770729
 31
0.0
  0
TEXT
  5
26C
330
263
100
AcDbEntity
  8
LAYER_1
 62
     7
100
AcDbText
 10
403.5724676261829
 20
178.7018683770729
 30
0.0
 40
5.4
  1
(42)
 41
1.033333333332999
  7
ＭＳ_ゴシック
 72
     1
 11
410.8236351388709
 21
178.7018683770729
 31
0.0
100
AcDbText
  0
ENDBLK
  5
26D
330
263
100
AcDbEntity
  8
0
100
AcDbBlockEnd
  0
BLOCK
  5
26F
330
26E
100
AcDbEntity
  8
0
 62
     7
100
AcDbBlockBegin
  2
*D52
 70
     1
 10
0.0
 20
0.0
 30
0.0
  3
*D52
  1

  0
LINE
  5
270
330
26E
100
AcDbEntity
  8
LAYER_1
  6
Continuous
 62
     7
100
AcDbLine
 10
466.823635138871
 20
162.701868377073
 30
0.0
 11
466.823635138871
 21
177.7018683770729
 31
0.0
  0
LINE
  5
271
330
26E
100
AcDbEntity
  8
LAYER_1
  6
Continuous
 62
     7
100
AcDbLine
 10
508.823635138871
 20
162.701868377073
 30
0.0
 11
508.823635138871
 21
177.7018683770729
 31
0.0
  0
INSERT
  5
272
330
26E
100
AcDbEntity
  8
LAYER_1
  6
Continuous
 62
     7
100
AcDbBlockReference
  2
_OPEN
 10
466.823635138871
 20
175.7018683770729
 30
0.0
 41
6.0
 42
6.0
 50
180.0
  0
INSERT
  5
273
330
26E
100
AcDbEntity
  8
LAYER_1
  6
Continuous
 62
     7
100
AcDbBlockReference
  2
_OPEN
 10
508.823635138871
 20
175.7018683770729
 30
0.0
 41
6.0
 42
6.0
  0
INSERT
  5
274
330
26E
100
AcDbEntity
  8
LAYER_1
  6
Continuous
 62
     7
100
AcDbBlockReference
  2
_OPEN
 10
466.823635138871
 20
175.7018683770729
 30
0.0
 41
6.0
 42
6.0
 50
180.0
  0
INSERT
  5
275
330
26E
100
AcDbEntity
  8
LAYER_1
  6
Continuous
 62
     7
100
AcDbBlockReference
  2
_OPEN
 10
508.823635138871
 20
175.7018683770729
 30
0.0
 41
6.0
 42
6.0
  0
LINE
  5
276
330
26E
100
AcDbEntity
  8
LAYER_1
  6
Continuous
 62
     7
100
AcDbLine
 10
466.823635138871
 20
175.7018683770729
 30
0.0
 11
508.823635138871
 21
175.7018683770729
 31
0.0
  0
TEXT
  5
277
330
26E
100
AcDbEntity
  8
LAYER_1
 62
     7
100
AcDbText
 10
480.572467626183
 20
178.7018683770729
 30
0.0
 40
5.4
  1
(42)
 41
1.033333333332999
  7
ＭＳ_ゴシック
 72
     1
 11
487.823635138871
 21
178.7018683770729
 31
0.0
100
AcDbText
  0
ENDBLK
  5
278
330
26E
100
AcDbEntity
  8
0
100
AcDbBlockEnd
  0
BLOCK
  5
27A
330
279
100
AcDbEntity
  8
0
 62
     7
100
AcDbBlockBegin
  2
*D53
 70
     1
 10
0.0
 20
0.0
 30
0.0
  3
*D53
  1

  0
LINE
  5
27B
330
279
100
AcDbEntity
  8
LAYER_1
  6
Continuous
 62
     7
100
AcDbLine
 10
163.10349201411
 20
132.351868377073
 30
0.0
 11
137.791074380165
 21
132.351868377073
 31
0.0
  0
LINE
  5
27C
330
279
100
AcDbEntity
  8
LAYER_1
  6
Continuous
 62
     7
100
AcDbLine
 10
163.10349201411
 20
147.051868377073
 30
0.0
 11
137.791074380165
 21
147.051868377073
 31
0.0
  0
LINE
  5
27D
330
279
100
AcDbEntity
  8
LAYER_1
  6
Continuous
 62
     7
100
AcDbLine
 10
139.791074380165
 20
132.351868377073
 30
0.0
 11
139.791074380165
 21
147.051868377073
 31
0.0
  0
INSERT
  5
27E
330
279
100
AcDbEntity
  8
LAYER_1
  6
Continuous
 62
     7
100
AcDbBlockReference
  2
_OPEN
 10
139.791074380165
 20
132.351868377073
 30
0.0
 41
6.0
 42
6.0
 50
90.0
  0
INSERT
  5
27F
330
279
100
AcDbEntity
  8
LAYER_1
  6
Continuous
 62
     7
100
AcDbBlockReference
  2
_NONE
 10
139.791074380165
 20
97.314812784211
 30
0.0
 41
6.0
 42
6.0
 50
270.0
  0
LINE
  5
280
330
279
100
AcDbEntity
  8
LAYER_1
  6
Continuous
 62
     7
100
AcDbLine
 10
139.791074380165
 20
132.351868377073
 30
0.0
 11
139.791074380165
 21
97.314812784211
 31
0.0
  0
INSERT
  5
281
330
279
100
AcDbEntity
  8
LAYER_1
  6
Continuous
 62
     7
100
AcDbBlockReference
  2
_OPEN
 10
139.791074380165
 20
147.051868377073
 30
0.0
 41
6.0
 42
6.0
 50
270.0
  0
INSERT
  5
282
330
279
100
AcDbEntity
  8
LAYER_1
  6
Continuous
 62
     7
100
AcDbBlockReference
  2
_NONE
 10
139.791074380165
 20
159.0518683770729
 30
0.0
 41
6.0
 42
6.0
 50
90.0
  0
LINE
  5
283
330
279
100
AcDbEntity
  8
LAYER_1
  6
Continuous
 62
     7
100
AcDbLine
 10
139.791074380165
 20
147.051868377073
 30
0.0
 11
139.791074380165
 21
159.0518683770729
 31
0.0
  0
TEXT
  5
284
330
279
100
AcDbEntity
  8
LAYER_1
 62
     7
100
AcDbText
 10
136.791074380165
 20
97.314812784211
 30
0.0
 40
5.4
  1
(φ14.7)
 50
90.0
 41
1.033333333332999
  7
ＭＳ_ゴシック
100
AcDbText
  0
ENDBLK
  5
285
330
279
100
AcDbEntity
  8
0
100
AcDbBlockEnd
  0
BLOCK
  5
287
330
286
100
AcDbEntity
  8
0
100
AcDbBlockBegin
  2
HATCHING__PATTERN_$40$
 70
     0
 10
0.0
 20
0.0
 30
0.0
  3
HATCHING__PATTERN_$40$
  1

  0
LINE
  5
288
330
286
100
AcDbEntity
  8
LAYER_1
  6
Continuous
 62
     7
100
AcDbLine
 10
474.64321728452
 20
129.482824277329
 30
0.0
 11
476.2549294501139
 21
129.482824277329
 31
0.0
  0
LINE
  5
289
330
286
100
AcDbEntity
  8
LAYER_1
  6
Continuous
 62
     7
100
AcDbLine
 10
476.2549294501139
 20
133.3296402314929
 30
0.0
 11
476.2549294501139
 21
130.2018683770729
 31
0.0
  0
LINE
  5
28A
330
286
100
AcDbEntity
  8
LAYER_1
  6
Continuous
 62
     7
100
AcDbLine
 10
476.2549294501139
 20
130.2018683770729
 30
0.0
 11
476.2549294501139
 21
127.074096522652
 31
0.0
  0
LINE
  5
28B
330
286
100
AcDbEntity
  8
LAYER_1
  6
Continuous
 62
     7
100
AcDbLine
 10
481.0174294501139
 20
129.482824277329
 30
0.0
 11
482.004052993222
 21
129.482824277329
 31
0.0
  0
LINE
  5
28C
330
286
100
AcDbEntity
  8
LAYER_1
  6
Continuous
 62
     7
100
AcDbLine
 10
481.0174294501139
 20
132.8106942065819
 30
0.0
 11
481.0174294501139
 21
130.2018683770729
 31
0.0
  0
LINE
  5
28D
330
286
100
AcDbEntity
  8
LAYER_1
  6
Continuous
 62
     7
100
AcDbLine
 10
481.0174294501139
 20
130.2018683770729
 30
0.0
 11
481.0174294501139
 21
127.593042547564
 31
0.0
  0
ENDBLK
  5
28E
330
286
100
AcDbEntity
  8
0
100
AcDbBlockEnd
  0
BLOCK
  5
290
330
28F
100
AcDbEntity
  8
0
100
AcDbBlockBegin
  2
HATCHING__PATTERN_$41$
 70
     0
 10
0.0
 20
0.0
 30
0.0
  3
HATCHING__PATTERN_$41$
  1

  0
LINE
  5
291
330
28F
100
AcDbEntity
  8
LAYER_1
  6
Continuous
 62
     7
100
AcDbLine
 10
474.6338004552299
 20
148.532824277329
 30
0.0
 11
476.2549294501139
 21
148.532824277329
 31
0.0
  0
LINE
  5
292
330
28F
100
AcDbEntity
  8
LAYER_1
  6
Continuous
 62
     7
100
AcDbLine
 10
476.2549294501139
 20
152.329640231493
 30
0.0
 11
476.2549294501139
 21
149.201868377073
 31
0.0
  0
LINE
  5
293
330
28F
100
AcDbEntity
  8
LAYER_1
  6
Continuous
 62
     7
100
AcDbLine
 10
476.2549294501139
 20
149.201868377073
 30
0.0
 11
476.2549294501139
 21
146.0740965226519
 31
0.0
  0
LINE
  5
294
330
28F
100
AcDbEntity
  8
LAYER_1
  6
Continuous
 62
     7
100
AcDbLine
 10
481.0174294501139
 20
148.532824277329
 30
0.0
 11
482.0134698225119
 21
148.532824277329
 31
0.0
  0
LINE
  5
295
330
28F
100
AcDbEntity
  8
LAYER_1
  6
Continuous
 62
     7
100
AcDbLine
 10
481.0174294501139
 20
151.8106942065819
 30
0.0
 11
481.0174294501139
 21
149.201868377073
 31
0.0
  0
LINE
  5
296
330
28F
100
AcDbEntity
  8
LAYER_1
  6
Continuous
 62
     7
100
AcDbLine
 10
481.0174294501139
 20
149.201868377073
 30
0.0
 11
481.0174294501139
 21
146.5930425475639
 31
0.0
  0
ENDBLK
  5
297
330
28F
100
AcDbEntity
  8
0
100
AcDbBlockEnd
  0
BLOCK
  5
299
330
298
100
AcDbEntity
  8
0
100
AcDbBlockBegin
  2
HATCHING__PATTERN_$42$
 70
     0
 10
0.0
 20
0.0
 30
0.0
  3
HATCHING__PATTERN_$42$
  1

  0
LINE
  5
29A
330
298
100
AcDbEntity
  8
LAYER_1
  6
Continuous
 62
     7
100
AcDbLine
 10
493.64321728452
 20
129.482824277329
 30
0.0
 11
495.3049294501139
 21
129.482824277329
 31
0.0
  0
LINE
  5
29B
330
298
100
AcDbEntity
  8
LAYER_1
  6
Continuous
 62
     7
100
AcDbLine
 10
495.3049294501139
 20
133.3621416788909
 30
0.0
 11
495.3049294501139
 21
130.2018683770729
 31
0.0
  0
LINE
  5
29C
330
298
100
AcDbEntity
  8
LAYER_1
  6
Continuous
 62
     7
100
AcDbLine
 10
495.3049294501139
 20
130.2018683770729
 30
0.0
 11
495.3049294501139
 21
127.0415950752549
 31
0.0
  0
LINE
  5
29D
330
298
100
AcDbEntity
  8
LAYER_1
  6
Continuous
 62
     7
100
AcDbLine
 10
500.0674294501139
 20
129.482824277329
 30
0.0
 11
501.004052993221
 21
129.482824277329
 31
0.0
  0
LINE
  5
29E
330
298
100
AcDbEntity
  8
LAYER_1
  6
Continuous
 62
     7
100
AcDbLine
 10
500.0674294501139
 20
132.758055533285
 30
0.0
 11
500.0674294501139
 21
130.2018683770729
 31
0.0
  0
LINE
  5
29F
330
298
100
AcDbEntity
  8
LAYER_1
  6
Continuous
 62
     7
100
AcDbLine
 10
500.0674294501139
 20
130.2018683770729
 30
0.0
 11
500.0674294501139
 21
127.6456812208599
 31
0.0
  0
ENDBLK
  5
2A0
330
298
100
AcDbEntity
  8
0
100
AcDbBlockEnd
  0
BLOCK
  5
2A2
330
2A1
100
AcDbEntity
  8
0
100
AcDbBlockBegin
  2
HATCHING__PATTERN_$43$
 70
     0
 10
0.0
 20
0.0
 30
0.0
  3
HATCHING__PATTERN_$43$
  1

  0
LINE
  5
2A3
330
2A1
100
AcDbEntity
  8
LAYER_1
  6
Continuous
 62
     7
100
AcDbLine
 10
493.6338004552299
 20
148.532824277329
 30
0.0
 11
495.3049294501139
 21
148.532824277329
 31
0.0
  0
LINE
  5
2A4
330
2A1
100
AcDbEntity
  8
LAYER_1
  6
Continuous
 62
     7
100
AcDbLine
 10
495.3049294501139
 20
152.3621416788899
 30
0.0
 11
495.3049294501139
 21
149.201868377073
 31
0.0
  0
LINE
  5
2A5
330
2A1
100
AcDbEntity
  8
LAYER_1
  6
Continuous
 62
     7
100
AcDbLine
 10
495.3049294501139
 20
149.201868377073
 30
0.0
 11
495.3049294501139
 21
146.0415950752549
 31
0.0
  0
LINE
  5
2A6
330
2A1
100
AcDbEntity
  8
LAYER_1
  6
Continuous
 62
     7
100
AcDbLine
 10
500.0674294501139
 20
148.532824277329
 30
0.0
 11
501.013469822512
 21
148.532824277329
 31
0.0
  0
LINE
  5
2A7
330
2A1
100
AcDbEntity
  8
LAYER_1
  6
Continuous
 62
     7
100
AcDbLine
 10
500.0674294501139
 20
151.758055533286
 30
0.0
 11
500.0674294501139
 21
149.201868377073
 31
0.0
  0
LINE
  5
2A8
330
2A1
100
AcDbEntity
  8
LAYER_1
  6
Continuous
 62
     7
100
AcDbLine
 10
500.0674294501139
 20
149.201868377073
 30
0.0
 11
500.0674294501139
 21
146.64568122086
 31
0.0
  0
ENDBLK
  5
2A9
330
2A1
100
AcDbEntity
  8
0
100
AcDbBlockEnd
  0
BLOCK
  5
2AB
330
2AA
100
AcDbEntity
  8
0
100
AcDbBlockBegin
  2
HATCHING__PATTERN_$44$
 70
     0
 10
0.0
 20
0.0
 30
0.0
  3
HATCHING__PATTERN_$44$
  1

  0
LINE
  5
2AC
330
2AA
100
AcDbEntity
  8
LAYER_1
  6
Continuous
 62
     7
100
AcDbLine
 10
179.2366819662319
 20
147.051868377073
 30
0.0
 11
179.2366819662319
 21
144.571830931578
 31
0.0
  0
LINE
  5
2AD
330
2AA
100
AcDbEntity
  8
LAYER_1
  6
Continuous
 62
     7
100
AcDbLine
 10
175.045681966232
 20
147.051868377073
 30
0.0
 11
175.045681966232
 21
144.571830931578
 31
0.0
  0
LINE
  5
2AE
330
2AA
100
AcDbEntity
  8
LAYER_1
  6
Continuous
 62
     7
100
AcDbLine
 10
170.8546819662319
 20
147.051868377073
 30
0.0
 11
170.8546819662319
 21
144.571830931578
 31
0.0
  0
LINE
  5
2AF
330
2AA
100
AcDbEntity
  8
LAYER_1
  6
Continuous
 62
     7
100
AcDbLine
 10
181.0921420481479
 20
143.428830931578
 30
0.0
 11
180.379681966232
 21
143.428830931578
 31
0.0
  0
LINE
  5
2B0
330
2AA
100
AcDbEntity
  8
LAYER_1
  6
Continuous
 62
     7
100
AcDbLine
 10
179.2366819662319
 20
143.428830931578
 30
0.0
 11
179.2366819662319
 21
140.380830931578
 31
0.0
  0
LINE
  5
2B1
330
2AA
100
AcDbEntity
  8
LAYER_1
  6
Continuous
 62
     7
100
AcDbLine
 10
179.2366819662319
 20
143.428830931578
 30
0.0
 11
177.269233288082
 21
143.428830931578
 31
0.0
  0
LINE
  5
2B2
330
2AA
100
AcDbEntity
  8
LAYER_1
  6
Continuous
 62
     7
100
AcDbLine
 10
175.045681966232
 20
143.428830931578
 30
0.0
 11
175.045681966232
 21
140.380830931578
 31
0.0
  0
LINE
  5
2B3
330
2AA
100
AcDbEntity
  8
LAYER_1
  6
Continuous
 62
     7
100
AcDbLine
 10
175.045681966232
 20
143.428830931578
 30
0.0
 11
171.997681966232
 21
143.428830931578
 31
0.0
  0
LINE
  5
2B4
330
2AA
100
AcDbEntity
  8
LAYER_1
  6
Continuous
 62
     7
100
AcDbLine
 10
170.8546819662319
 20
143.428830931578
 30
0.0
 11
170.8546819662319
 21
140.380830931578
 31
0.0
  0
LINE
  5
2B5
330
2AA
100
AcDbEntity
  8
LAYER_1
  6
Continuous
 62
     7
100
AcDbLine
 10
170.8546819662319
 20
143.428830931578
 30
0.0
 11
170.636052772816
 21
143.428830931578
 31
0.0
  0
LINE
  5
2B6
330
2AA
100
AcDbEntity
  8
LAYER_1
  6
Continuous
 62
     7
100
AcDbLine
 10
181.0921420481479
 20
139.2378309315779
 30
0.0
 11
180.379681966232
 21
139.2378309315779
 31
0.0
  0
LINE
  5
2B7
330
2AA
100
AcDbEntity
  8
LAYER_1
  6
Continuous
 62
     7
100
AcDbLine
 10
179.2366819662319
 20
139.2378309315779
 30
0.0
 11
179.2366819662319
 21
136.1898309315779
 31
0.0
  0
LINE
  5
2B8
330
2AA
100
AcDbEntity
  8
LAYER_1
  6
Continuous
 62
     7
100
AcDbLine
 10
179.2366819662319
 20
139.2378309315779
 30
0.0
 11
177.269233288082
 21
139.2378309315779
 31
0.0
  0
LINE
  5
2B9
330
2AA
100
AcDbEntity
  8
LAYER_1
  6
Continuous
 62
     7
100
AcDbLine
 10
175.045681966232
 20
139.2378309315779
 30
0.0
 11
175.045681966232
 21
136.1898309315779
 31
0.0
  0
LINE
  5
2BA
330
2AA
100
AcDbEntity
  8
LAYER_1
  6
Continuous
 62
     7
100
AcDbLine
 10
175.045681966232
 20
139.2378309315779
 30
0.0
 11
171.997681966232
 21
139.2378309315779
 31
0.0
  0
LINE
  5
2BB
330
2AA
100
AcDbEntity
  8
LAYER_1
  6
Continuous
 62
     7
100
AcDbLine
 10
170.8546819662319
 20
139.2378309315779
 30
0.0
 11
170.8546819662319
 21
136.1898309315779
 31
0.0
  0
LINE
  5
2BC
330
2AA
100
AcDbEntity
  8
LAYER_1
  6
Continuous
 62
     7
100
AcDbLine
 10
170.8546819662319
 20
139.2378309315779
 30
0.0
 11
170.636052772816
 21
139.2378309315779
 31
0.0
  0
LINE
  5
2BD
330
2AA
100
AcDbEntity
  8
LAYER_1
  6
Continuous
 62
     7
100
AcDbLine
 10
181.0921420481479
 20
135.046830931578
 30
0.0
 11
180.379681966232
 21
135.046830931578
 31
0.0
  0
LINE
  5
2BE
330
2AA
100
AcDbEntity
  8
LAYER_1
  6
Continuous
 62
     7
100
AcDbLine
 10
179.2366819662319
 20
135.046830931578
 30
0.0
 11
179.2366819662319
 21
132.351868377073
 31
0.0
  0
LINE
  5
2BF
330
2AA
100
AcDbEntity
  8
LAYER_1
  6
Continuous
 62
     7
100
AcDbLine
 10
179.2366819662319
 20
135.046830931578
 30
0.0
 11
177.269233288082
 21
135.046830931578
 31
0.0
  0
LINE
  5
2C0
330
2AA
100
AcDbEntity
  8
LAYER_1
  6
Continuous
 62
     7
100
AcDbLine
 10
175.045681966232
 20
135.046830931578
 30
0.0
 11
175.045681966232
 21
132.351868377073
 31
0.0
  0
LINE
  5
2C1
330
2AA
100
AcDbEntity
  8
LAYER_1
  6
Continuous
 62
     7
100
AcDbLine
 10
175.045681966232
 20
135.046830931578
 30
0.0
 11
171.997681966232
 21
135.046830931578
 31
0.0
  0
LINE
  5
2C2
330
2AA
100
AcDbEntity
  8
LAYER_1
  6
Continuous
 62
     7
100
AcDbLine
 10
170.8546819662319
 20
135.046830931578
 30
0.0
 11
170.8546819662319
 21
132.351868377073
 31
0.0
  0
LINE
  5
2C3
330
2AA
100
AcDbEntity
  8
LAYER_1
  6
Continuous
 62
     7
100
AcDbLine
 10
170.8546819662319
 20
135.046830931578
 30
0.0
 11
170.636052772816
 21
135.046830931578
 31
0.0
  0
ENDBLK
  5
2C4
330
2AA
100
AcDbEntity
  8
0
100
AcDbBlockEnd
  0
BLOCK
  5
2C6
330
2C5
100
AcDbEntity
  8
0
100
AcDbBlockBegin
  2
HATCHING__PATTERN_$45$
 70
     0
 10
0.0
 20
0.0
 30
0.0
  3
HATCHING__PATTERN_$45$
  1

  0
LINE
  5
2C7
330
2C5
100
AcDbEntity
  8
LAYER_1
  6
Continuous
 62
     7
100
AcDbLine
 10
342.544028612154
 20
152.8699351244889
 30
0.0
 11
342.544028612154
 21
151.0488309315759
 31
0.0
  0
LINE
  5
2C8
330
2C5
100
AcDbEntity
  8
LAYER_1
  6
Continuous
 62
     7
100
AcDbLine
 10
346.5872572558239
 20
151.0488309315759
 30
0.0
 11
343.323635138871
 21
151.0488309315759
 31
0.0
  0
LINE
  5
2C9
330
2C5
100
AcDbEntity
  8
LAYER_1
  6
Continuous
 62
     7
100
AcDbLine
 10
343.323635138871
 20
151.0488309315759
 30
0.0
 11
340.060013021918
 21
151.0488309315759
 31
0.0
  0
LINE
  5
2CA
330
2C5
100
AcDbEntity
  8
LAYER_1
  6
Continuous
 62
     7
100
AcDbLine
 10
342.544028612154
 20
146.286330931576
 30
0.0
 11
342.544028612154
 21
145.533801629657
 31
0.0
  0
LINE
  5
2CB
330
2C5
100
AcDbEntity
  8
LAYER_1
  6
Continuous
 62
     7
100
AcDbLine
 10
345.68205439844
 20
146.286330931576
 30
0.0
 11
343.323635138871
 21
146.286330931576
 31
0.0
  0
LINE
  5
2CC
330
2C5
100
AcDbEntity
  8
LAYER_1
  6
Continuous
 62
     7
100
AcDbLine
 10
343.323635138871
 20
146.286330931576
 30
0.0
 11
340.9652158793019
 21
146.286330931576
 31
0.0
  0
ENDBLK
  5
2CD
330
2C5
100
AcDbEntity
  8
0
100
AcDbBlockEnd
  0
BLOCK
  5
2CF
330
2CE
100
AcDbEntity
  8
0
100
AcDbBlockBegin
  2
HATCHING__PATTERN_$46$
 70
     0
 10
0.0
 20
0.0
 30
0.0
  3
HATCHING__PATTERN_$46$
  1

  0
LINE
  5
2D0
330
2CE
100
AcDbEntity
  8
LAYER_1
  6
Continuous
 62
     7
100
AcDbLine
 10
342.544028612154
 20
133.8699351244889
 30
0.0
 11
342.544028612154
 21
131.998830931576
 31
0.0
  0
LINE
  5
2D1
330
2CE
100
AcDbEntity
  8
LAYER_1
  6
Continuous
 62
     7
100
AcDbLine
 10
346.6150520947899
 20
131.998830931576
 30
0.0
 11
343.323635138871
 21
131.998830931576
 31
0.0
  0
LINE
  5
2D2
330
2CE
100
AcDbEntity
  8
LAYER_1
  6
Continuous
 62
     7
100
AcDbLine
 10
343.323635138871
 20
131.998830931576
 30
0.0
 11
340.032218182952
 21
131.998830931576
 31
0.0
  0
LINE
  5
2D3
330
2CE
100
AcDbEntity
  8
LAYER_1
  6
Continuous
 62
     7
100
AcDbLine
 10
342.544028612154
 20
127.236330931576
 30
0.0
 11
342.544028612154
 21
126.533801629657
 31
0.0
  0
LINE
  5
2D4
330
2CE
100
AcDbEntity
  8
LAYER_1
  6
Continuous
 62
     7
100
AcDbLine
 10
345.6188666433949
 20
127.236330931576
 30
0.0
 11
343.323635138871
 21
127.236330931576
 31
0.0
  0
LINE
  5
2D5
330
2CE
100
AcDbEntity
  8
LAYER_1
  6
Continuous
 62
     7
100
AcDbLine
 10
343.323635138871
 20
127.236330931576
 30
0.0
 11
341.0284036343469
 21
127.236330931576
 31
0.0
  0
ENDBLK
  5
2D6
330
2CE
100
AcDbEntity
  8
0
100
AcDbBlockEnd
  0
BLOCK
  5
2D8
330
2D7
100
AcDbEntity
  8
0
100
AcDbBlockBegin
  2
HATCHING__PATTERN_$47$
 70
     0
 10
0.0
 20
0.0
 30
0.0
  3
HATCHING__PATTERN_$47$
  1

  0
LINE
  5
2D9
330
2D7
100
AcDbEntity
  8
LAYER_1
  6
Continuous
 62
     7
100
AcDbLine
 10
401.318400192106
 20
135.501864723115
 30
0.0
 11
401.318400192106
 21
131.751868377073
 31
0.0
  0
LINE
  5
2DA
330
2D7
100
AcDbEntity
  8
LAYER_1
  6
Continuous
 62
     7
100
AcDbLine
 10
401.318400192106
 20
131.751868377073
 30
0.0
 11
401.318400192106
 21
128.00187203103
 31
0.0
  0
LINE
  5
2DB
330
2D7
100
AcDbEntity
  8
LAYER_1
  6
Continuous
 62
     7
100
AcDbLine
 10
401.3184001921049
 20
132.5272481492939
 30
0.0
 11
401.323635138871
 21
132.5272481492939
 31
0.0
  0
LINE
  5
2DC
330
2D7
100
AcDbEntity
  8
LAYER_1
  6
Continuous
 62
     7
100
AcDbLine
 10
401.323635138871
 20
132.5272481492939
 30
0.0
 11
404.992597690987
 21
132.5272481492939
 31
0.0
  0
ENDBLK
  5
2DD
330
2D7
100
AcDbEntity
  8
0
100
AcDbBlockEnd
  0
BLOCK
  5
2DF
330
2DE
100
AcDbEntity
  8
0
100
AcDbBlockBegin
  2
HATCHING__PATTERN_$48$
 70
     0
 10
0.0
 20
0.0
 30
0.0
  3
HATCHING__PATTERN_$48$
  1

  0
LINE
  5
2E0
330
2DE
100
AcDbEntity
  8
LAYER_1
  6
Continuous
 62
     7
100
AcDbLine
 10
420.3684001921049
 20
135.501601179555
 30
0.0
 11
420.3684001921049
 21
131.751868377073
 31
0.0
  0
LINE
  5
2E1
330
2DE
100
AcDbEntity
  8
LAYER_1
  6
Continuous
 62
     7
100
AcDbLine
 10
420.3684001921049
 20
131.751868377073
 30
0.0
 11
420.3684001921049
 21
128.0021355745909
 31
0.0
  0
LINE
  5
2E2
330
2DE
100
AcDbEntity
  8
LAYER_1
  6
Continuous
 62
     7
100
AcDbLine
 10
420.3684001921049
 20
132.5272481492939
 30
0.0
 11
423.9925976909869
 21
132.5272481492939
 31
0.0
  0
ENDBLK
  5
2E3
330
2DE
100
AcDbEntity
  8
0
100
AcDbBlockEnd
  0
BLOCK
  5
2E5
330
2E4
100
AcDbEntity
  8
0
100
AcDbBlockBegin
  2
HATCHING__PATTERN_$49$
 70
     0
 10
0.0
 20
0.0
 30
0.0
  3
HATCHING__PATTERN_$49$
  1

  0
LINE
  5
2E6
330
2E4
100
AcDbEntity
  8
LAYER_1
  6
Continuous
 62
     7
100
AcDbLine
 10
410.843400192105
 20
151.956298960972
 30
0.0
 11
410.843400192105
 21
148.206351048978
 31
0.0
  0
LINE
  5
2E7
330
2E4
100
AcDbEntity
  8
LAYER_1
  6
Continuous
 62
     7
100
AcDbLine
 10
410.843400192105
 20
148.206351048978
 30
0.0
 11
410.843400192105
 21
146.8147481492939
 31
0.0
  0
LINE
  5
2E8
330
2E4
100
AcDbEntity
  8
LAYER_1
  6
Continuous
 62
     7
100
AcDbLine
 10
407.3414028994029
 20
146.8147481492939
 30
0.0
 11
410.8236351388709
 21
146.8147481492939
 31
0.0
  0
LINE
  5
2E9
330
2E4
100
AcDbEntity
  8
LAYER_1
  6
Continuous
 62
     7
100
AcDbLine
 10
410.8236351388709
 20
146.8147481492939
 30
0.0
 11
410.843400192105
 21
146.8147481492939
 31
0.0
  0
LINE
  5
2EA
330
2E4
100
AcDbEntity
  8
LAYER_1
  6
Continuous
 62
     7
100
AcDbLine
 10
410.843400192105
 20
146.8147481492939
 30
0.0
 11
410.843400192105
 21
144.456403136983
 31
0.0
  0
LINE
  5
2EB
330
2E4
100
AcDbEntity
  8
LAYER_1
  6
Continuous
 62
     7
100
AcDbLine
 10
410.843400192105
 20
151.577248149294
 30
0.0
 11
412.4666667085859
 21
151.577248149294
 31
0.0
  0
ENDBLK
  5
2EC
330
2E4
100
AcDbEntity
  8
0
100
AcDbBlockEnd
  0
BLOCK
  5
14DA
330
14D0
100
AcDbEntity
  8
0
100
AcDbBlockBegin
  2
*D64
 70
     1
 10
0.0
 20
0.0
 30
0.0
  3
*D64
  1

  0
LINE
  5
15F3
330
14D0
100
AcDbEntity
  8
LAYER_1
  6
Continuous
 62
     0
370
    -2
100
AcDbLine
 10
354.9896748509491
 20
154.4169463278959
 30
0.0
 11
369.9896748509492
 21
154.4169463278959
 31
0.0
  0
LINE
  5
15F4
330
14D0
100
AcDbEntity
  8
LAYER_1
  6
Continuous
 62
     0
370
    -2
100
AcDbLine
 10
354.9896748509491
 20
196.4169463278959
 30
0.0
 11
369.9896748509492
 21
196.4169463278959
 31
0.0
  0
LINE
  5
15F5
330
14D0
100
AcDbEntity
  8
LAYER_1
  6
Continuous
 62
     0
370
    -2
100
AcDbLine
 10
368.9896748509492
 20
160.4169463278959
 30
0.0
 11
368.9896748509492
 21
190.4169463278959
 31
0.0
  0
INSERT
  5
15F6
330
14D0
100
AcDbEntity
  8
LAYER_1
  6
Continuous
 62
     0
370
    -2
100
AcDbBlockReference
  2
_OPEN
 10
368.9896748509492
 20
154.4169463278959
 30
0.0
 41
6.0
 42
6.0
 43
6.0
 50
270.0
  0
INSERT
  5
15F7
330
14D0
100
AcDbEntity
  8
LAYER_1
  6
Continuous
 62
     0
370
    -2
100
AcDbBlockReference
  2
_OPEN
 10
368.9896748509492
 20
196.4169463278959
 30
0.0
 41
6.0
 42
6.0
 43
6.0
 50
90.0
  0
MTEXT
  5
15F8
330
14D0
100
AcDbEntity
  8
LAYER_1
  6
Continuous
 62
     0
100
AcDbMText
 10
365.2896748509491
 20
175.416946327896
 30
0.0
 40
5.4
 41
0.0
 71
     5
 72
     1
  1
\A1;42.00
  7
ＭＳ_ゴシック
 11
0.0000000000000001
 21
1.0
 31
0.0
 73
     1
 44
1.0
  0
POINT
  5
15F9
330
14D0
100
AcDbEntity
  8
Defpoints
  6
Continuous
 62
     0
100
AcDbPoint
 10
353.9896748509491
 20
154.4169463278959
 30
0.0
  0
POINT
  5
15FA
330
14D0
100
AcDbEntity
  8
Defpoints
  6
Continuous
 62
     0
100
AcDbPoint
 10
353.9896748509491
 20
196.4169463278959
 30
0.0
  0
POINT
  5
15FB
330
14D0
100
AcDbEntity
  8
Defpoints
  6
Continuous
 62
     0
100
AcDbPoint
 10
368.9896748509492
 20
196.4169463278959
 30
0.0
  0
ENDBLK
  5
14DB
330
14D0
100
AcDbEntity
  8
0
100
AcDbBlockEnd
  0
BLOCK
  5
14E6
330
14DC
100
AcDbEntity
  8
0
100
AcDbBlockBegin
  2
*D65
 70
     1
 10
0.0
 20
0.0
 30
0.0
  3
*D65
  1

  0
LINE
  5
15D8
330
14DC
100
AcDbEntity
  8
LAYER_1
  6
Continuous
 62
     0
370
    -2
100
AcDbLine
 10
311.9896748509491
 20
197.4169463278959
 30
0.0
 11
311.9896748509491
 21
212.4169463278959
 31
0.0
  0
LINE
  5
15D9
330
14DC
100
AcDbEntity
  8
LAYER_1
  6
Continuous
 62
     0
370
    -2
100
AcDbLine
 10
353.9896748509491
 20
197.4169463278959
 30
0.0
 11
353.9896748509491
 21
212.4169463278959
 31
0.0
  0
LINE
  5
15DA
330
14DC
100
AcDbEntity
  8
LAYER_1
  6
Continuous
 62
     0
370
    -2
100
AcDbLine
 10
317.9896748509491
 20
211.4169463278959
 30
0.0
 11
347.9896748509491
 21
211.4169463278959
 31
0.0
  0
INSERT
  5
15DB
330
14DC
100
AcDbEntity
  8
LAYER_1
  6
Continuous
 62
     0
370
    -2
100
AcDbBlockReference
  2
_OPEN
 10
311.9896748509491
 20
211.4169463278959
 30
0.0
 41
6.0
 42
6.0
 43
6.0
 50
180.0
  0
INSERT
  5
15DC
330
14DC
100
AcDbEntity
  8
LAYER_1
  6
Continuous
 62
     0
370
    -2
100
AcDbBlockReference
  2
_OPEN
 10
353.9896748509491
 20
211.4169463278959
 30
0.0
 41
6.0
 42
6.0
 43
6.0
  0
MTEXT
  5
15DD
330
14DC
100
AcDbEntity
  8
LAYER_1
  6
Continuous
 62
     0
100
AcDbMText
 10
332.9896748509491
 20
215.1169463278959
 30
0.0
 40
5.4
 41
0.0
 71
     5
 72
     1
  1
\A1;42.00
  7
ＭＳ_ゴシック
 73
     1
 44
1.0
  0
POINT
  5
15DE
330
14DC
100
AcDbEntity
  8
Defpoints
  6
Continuous
 62
     0
100
AcDbPoint
 10
311.9896748509491
 20
196.4169463278959
 30
0.0
  0
POINT
  5
15DF
330
14DC
100
AcDbEntity
  8
Defpoints
  6
Continuous
 62
     0
100
AcDbPoint
 10
353.9896748509491
 20
196.4169463278959
 30
0.0
  0
POINT
  5
15E0
330
14DC
100
AcDbEntity
  8
Defpoints
  6
Continuous
 62
     0
100
AcDbPoint
 10
353.9896748509491
 20
211.4169463278959
 30
0.0
  0
ENDBLK
  5
14E7
330
14DC
100
AcDbEntity
  8
0
100
AcDbBlockEnd
  0
BLOCK
  5
14F3
330
14E9
100
AcDbEntity
  8
0
100
AcDbBlockBegin
  2
*D66
 70
     1
 10
0.0
 20
0.0
 30
0.0
  3
*D66
  1

  0
LINE
  5
15BB
330
14E9
100
AcDbEntity
  8
LAYER_1
  6
Continuous
 62
     0
370
    -2
100
AcDbLine
 10
76.63025657998232
 20
181.1669463278959
 30
0.0
 11
76.63025657998232
 21
212.4169463278959
 31
0.0
  0
LINE
  5
15BC
330
14E9
100
AcDbEntity
  8
LAYER_1
  6
Continuous
 62
     0
370
    -2
100
AcDbLine
 10
176.6302565799813
 20
197.4169463278959
 30
0.0
 11
176.6302565799813
 21
212.4169463278959
 31
0.0
  0
LINE
  5
15BD
330
14E9
100
AcDbEntity
  8
LAYER_1
  6
Continuous
 62
     0
370
    -2
100
AcDbLine
 10
82.63025657998232
 20
211.4169463278959
 30
0.0
 11
170.6302565799813
 21
211.4169463278959
 31
0.0
  0
INSERT
  5
15BE
330
14E9
100
AcDbEntity
  8
LAYER_1
  6
Continuous
 62
     0
370
    -2
100
AcDbBlockReference
  2
_OPEN
 10
76.63025657998232
 20
211.4169463278959
 30
0.0
 41
6.0
 42
6.0
 43
6.0
 50
180.0
  0
INSERT
  5
15BF
330
14E9
100
AcDbEntity
  8
LAYER_1
  6
Continuous
 62
     0
370
    -2
100
AcDbBlockReference
  2
_OPEN
 10
176.6302565799813
 20
211.4169463278959
 30
0.0
 41
6.0
 42
6.0
 43
6.0
  0
MTEXT
  5
15C0
330
14E9
100
AcDbEntity
  8
LAYER_1
  6
Continuous
 62
     0
100
AcDbMText
 10
126.6302565799818
 20
215.1169463278959
 30
0.0
 40
5.4
 41
0.0
 71
     5
 72
     1
  1
\A1;100.00
  7
ＭＳ_ゴシック
 73
     1
 44
1.0
  0
POINT
  5
15C1
330
14E9
100
AcDbEntity
  8
Defpoints
  6
Continuous
 62
     0
100
AcDbPoint
 10
76.63025657998232
 20
180.1669463278959
 30
0.0
  0
POINT
  5
15C2
330
14E9
100
AcDbEntity
  8
Defpoints
  6
Continuous
 62
     0
100
AcDbPoint
 10
176.6302565799813
 20
196.4169463278959
 30
0.0
  0
POINT
  5
15C3
330
14E9
100
AcDbEntity
  8
Defpoints
  6
Continuous
 62
     0
100
AcDbPoint
 10
176.6302565799813
 20
211.4169463278959
 30
0.0
  0
ENDBLK
  5
14F4
330
14E9
100
AcDbEntity
  8
0
100
AcDbBlockEnd
  0
BLOCK
  5
1501
330
14F5
100
AcDbEntity
  8
0
100
AcDbBlockBegin
  2
*D67
 70
     1
 10
0.0
 20
0.0
 30
0.0
  3
*D67
  1

  0
LINE
  5
15C4
330
14F5
100
AcDbEntity
  8
LAYER_1
  6
Continuous
 62
     0
370
    -2
100
AcDbLine
 10
75.41011345522033
 20
168.066946327896
 30
0.0
 11
50.09769582127533
 21
168.066946327896
 31
0.0
  0
LINE
  5
15C5
330
14F5
100
AcDbEntity
  8
LAYER_1
  6
Continuous
 62
     0
370
    -2
100
AcDbLine
 10
75.41011345522033
 20
182.766946327896
 30
0.0
 11
50.09769582127534
 21
182.766946327896
 31
0.0
  0
LINE
  5
15C6
330
14F5
100
AcDbEntity
  8
LAYER_1
  6
Continuous
 62
     0
370
    -2
100
AcDbLine
 10
51.09769582127533
 20
174.066946327896
 30
0.0
 11
51.09769582127533
 21
176.766946327896
 31
0.0
  0
LINE
  5
15C7
330
14F5
100
AcDbEntity
  8
LAYER_1
  6
Continuous
 62
     0
370
    -2
100
AcDbLine
 10
51.09769582127533
 20
182.766946327896
 30
0.0
 11
51.09769582127533
 21
188.766946327896
 31
0.0
  0
LINE
  5
15C8
330
14F5
100
AcDbEntity
  8
LAYER_1
  6
Continuous
 62
     0
370
    -2
100
AcDbLine
 10
51.09769582127533
 20
188.766946327896
 30
0.0
 11
68.681452166453
 21
188.7669463278959
 31
0.0
  0
INSERT
  5
15C9
330
14F5
100
AcDbEntity
  8
LAYER_1
  6
Continuous
 62
     0
370
    -2
100
AcDbBlockReference
  2
_OPEN
 10
51.09769582127533
 20
168.066946327896
 30
0.0
 41
6.0
 42
6.0
 43
6.0
 50
270.0
  0
INSERT
  5
15CA
330
14F5
100
AcDbEntity
  8
LAYER_1
  6
Continuous
 62
     0
370
    -2
100
AcDbBlockReference
  2
_OPEN
 10
51.09769582127533
 20
182.766946327896
 30
0.0
 41
6.0
 42
6.0
 43
6.0
 50
90.0
  0
MTEXT
  5
15CB
330
14F5
100
AcDbEntity
  8
LAYER_1
  6
Continuous
 62
     0
100
AcDbMText
 10
60.38957399386414
 20
192.466946327896
 30
0.0
 40
5.4
 41
0.0
 71
     5
 72
     1
  1
\A1;14.70
  7
ＭＳ_ゴシック
 73
     1
 44
1.0
  0
POINT
  5
15CC
330
14F5
100
AcDbEntity
  8
Defpoints
  6
Continuous
 62
     0
100
AcDbPoint
 10
76.41011345522032
 20
168.066946327896
 30
0.0
  0
POINT
  5
15CD
330
14F5
100
AcDbEntity
  8
Defpoints
  6
Continuous
 62
     0
100
AcDbPoint
 10
76.41011345522032
 20
182.766946327896
 30
0.0
  0
POINT
  5
15CE
330
14F5
100
AcDbEntity
  8
Defpoints
  6
Continuous
 62
     0
100
AcDbPoint
 10
51.09769582127533
 20
182.766946327896
 30
0.0
  0
ENDBLK
  5
1502
330
14F5
100
AcDbEntity
  8
0
100
AcDbBlockEnd
  0
BLOCK
  5
1516
330
150C
100
AcDbEntity
  8
0
100
AcDbBlockBegin
  2
*D68
 70
     1
 10
0.0
 20
0.0
 30
0.0
  3
*D68
  1

  0
LINE
  5
15E1
330
150C
100
AcDbEntity
  8
LAYER_1
  6
Continuous
 62
     0
370
    -2
100
AcDbLine
 10
267.1302565799813
 20
154.4169463278959
 30
0.0
 11
282.1302565799813
 21
154.4169463278959
 31
0.0
  0
LINE
  5
15E2
330
150C
100
AcDbEntity
  8
LAYER_1
  6
Continuous
 62
     0
370
    -2
100
AcDbLine
 10
267.1302565799813
 20
196.4169463278959
 30
0.0
 11
282.1302565799813
 21
196.4169463278959
 31
0.0
  0
LINE
  5
15E3
330
150C
100
AcDbEntity
  8
LAYER_1
  6
Continuous
 62
     0
370
    -2
100
AcDbLine
 10
281.1302565799813
 20
160.4169463278959
 30
0.0
 11
281.1302565799813
 21
190.4169463278959
 31
0.0
  0
INSERT
  5
15E4
330
150C
100
AcDbEntity
  8
LAYER_1
  6
Continuous
 62
     0
370
    -2
100
AcDbBlockReference
  2
_OPEN
 10
281.1302565799813
 20
154.4169463278959
 30
0.0
 41
6.0
 42
6.0
 43
6.0
 50
270.0
  0
INSERT
  5
15E5
330
150C
100
AcDbEntity
  8
LAYER_1
  6
Continuous
 62
     0
370
    -2
100
AcDbBlockReference
  2
_OPEN
 10
281.1302565799813
 20
196.4169463278959
 30
0.0
 41
6.0
 42
6.0
 43
6.0
 50
90.0
  0
MTEXT
  5
15E6
330
150C
100
AcDbEntity
  8
LAYER_1
  6
Continuous
 62
     0
100
AcDbMText
 10
277.4302565799812
 20
175.4169463278959
 30
0.0
 40
5.4
 41
0.0
 71
     5
 72
     1
  1
\A1;42.00
  7
ＭＳ_ゴシック
 11
0.0000000000000001
 21
1.0
 31
0.0
 73
     1
 44
1.0
  0
POINT
  5
15E7
330
150C
100
AcDbEntity
  8
Defpoints
  6
Continuous
 62
     0
100
AcDbPoint
 10
266.1302565799813
 20
154.4169463278959
 30
0.0
  0
POINT
  5
15E8
330
150C
100
AcDbEntity
  8
Defpoints
  6
Continuous
 62
     0
100
AcDbPoint
 10
266.1302565799813
 20
196.4169463278959
 30
0.0
  0
POINT
  5
15E9
330
150C
100
AcDbEntity
  8
Defpoints
  6
Continuous
 62
     0
100
AcDbPoint
 10
281.1302565799813
 20
196.4169463278959
 30
0.0
  0
ENDBLK
  5
1517
330
150C
100
AcDbEntity
  8
0
100
AcDbBlockEnd
  0
BLOCK
  5
1522
330
1518
100
AcDbEntity
  8
0
100
AcDbBlockBegin
  2
*D69
 70
     1
 10
0.0
 20
0.0
 30
0.0
  3
*D69
  1

  0
LINE
  5
15EA
330
1518
100
AcDbEntity
  8
LAYER_1
  6
Continuous
 62
     0
370
    -2
100
AcDbLine
 10
243.1302565799813
 20
197.4169463278959
 30
0.0
 11
243.1302565799813
 21
212.4169463278959
 31
0.0
  0
LINE
  5
15EB
330
1518
100
AcDbEntity
  8
LAYER_1
  6
Continuous
 62
     0
370
    -2
100
AcDbLine
 10
266.1302565799813
 20
197.4169463278959
 30
0.0
 11
266.1302565799813
 21
212.4169463278959
 31
0.0
  0
LINE
  5
15EC
330
1518
100
AcDbEntity
  8
LAYER_1
  6
Continuous
 62
     0
370
    -2
100
AcDbLine
 10
249.1302565799813
 20
211.4169463278959
 30
0.0
 11
260.1302565799813
 21
211.4169463278959
 31
0.0
  0
INSERT
  5
15ED
330
1518
100
AcDbEntity
  8
LAYER_1
  6
Continuous
 62
     0
370
    -2
100
AcDbBlockReference
  2
_OPEN
 10
243.1302565799813
 20
211.4169463278959
 30
0.0
 41
6.0
 42
6.0
 43
6.0
 50
180.0
  0
INSERT
  5
15EE
330
1518
100
AcDbEntity
  8
LAYER_1
  6
Continuous
 62
     0
370
    -2
100
AcDbBlockReference
  2
_OPEN
 10
266.1302565799813
 20
211.4169463278959
 30
0.0
 41
6.0
 42
6.0
 43
6.0
  0
MTEXT
  5
15EF
330
1518
100
AcDbEntity
  8
LAYER_1
  6
Continuous
 62
     0
100
AcDbMText
 10
254.6302565799813
 20
215.1169463278959
 30
0.0
 40
5.4
 41
0.0
 71
     5
 72
     1
  1
\A1;23.00
  7
ＭＳ_ゴシック
 73
     1
 44
1.0
  0
POINT
  5
15F0
330
1518
100
AcDbEntity
  8
Defpoints
  6
Continuous
 62
     0
100
AcDbPoint
 10
243.1302565799813
 20
196.4169463278959
 30
0.0
  0
POINT
  5
15F1
330
1518
100
AcDbEntity
  8
Defpoints
  6
Continuous
 62
     0
100
AcDbPoint
 10
266.1302565799813
 20
196.4169463278959
 30
0.0
  0
POINT
  5
15F2
330
1518
100
AcDbEntity
  8
Defpoints
  6
Continuous
 62
     0
100
AcDbPoint
 10
266.1302565799813
 20
211.4169463278959
 30
0.0
  0
ENDBLK
  5
1523
330
1518
100
AcDbEntity
  8
0
100
AcDbBlockEnd
  0
BLOCK
  5
152E
330
1524
100
AcDbEntity
  8
0
100
AcDbBlockBegin
  2
*D70
 70
     1
 10
0.0
 20
0.0
 30
0.0
  3
*D70
  1

  0
LINE
  5
15CF
330
1524
100
AcDbEntity
  8
LAYER_1
  6
Continuous
 62
     0
370
    -2
100
AcDbLine
 10
176.6302565799813
 20
197.4169463278959
 30
0.0
 11
176.6302565799813
 21
212.4169463278959
 31
0.0
  0
LINE
  5
15D0
330
1524
100
AcDbEntity
  8
LAYER_1
  6
Continuous
 62
     0
370
    -2
100
AcDbLine
 10
206.6302565799823
 20
195.9169463278959
 30
0.0
 11
206.6302565799823
 21
212.4169463278959
 31
0.0
  0
LINE
  5
15D1
330
1524
100
AcDbEntity
  8
LAYER_1
  6
Continuous
 62
     0
370
    -2
100
AcDbLine
 10
182.6302565799813
 20
211.4169463278959
 30
0.0
 11
200.6302565799823
 21
211.4169463278959
 31
0.0
  0
INSERT
  5
15D2
330
1524
100
AcDbEntity
  8
LAYER_1
  6
Continuous
 62
     0
370
    -2
100
AcDbBlockReference
  2
_OPEN
 10
176.6302565799813
 20
211.4169463278959
 30
0.0
 41
6.0
 42
6.0
 43
6.0
 50
180.0
  0
INSERT
  5
15D3
330
1524
100
AcDbEntity
  8
LAYER_1
  6
Continuous
 62
     0
370
    -2
100
AcDbBlockReference
  2
_OPEN
 10
206.6302565799823
 20
211.4169463278959
 30
0.0
 41
6.0
 42
6.0
 43
6.0
  0
MTEXT
  5
15D4
330
1524
100
AcDbEntity
  8
LAYER_1
  6
Continuous
 62
     0
100
AcDbMText
 10
191.6302565799818
 20
215.1169463278959
 30
0.0
 40
5.4
 41
0.0
 71
     5
 72
     1
  1
\A1;30.00
  7
ＭＳ_ゴシック
 73
     1
 44
1.0
  0
POINT
  5
15D5
330
1524
100
AcDbEntity
  8
Defpoints
  6
Continuous
 62
     0
100
AcDbPoint
 10
176.6302565799813
 20
196.4169463278959
 30
0.0
  0
POINT
  5
15D6
330
1524
100
AcDbEntity
  8
Defpoints
  6
Continuous
 62
     0
100
AcDbPoint
 10
206.6302565799823
 20
194.9169463278959
 30
0.0
  0
POINT
  5
15D7
330
1524
100
AcDbEntity
  8
Defpoints
  6
Continuous
 62
     0
100
AcDbPoint
 10
206.6302565799823
 20
211.4169463278959
 30
0.0
  0
ENDBLK
  5
152F
330
1524
100
AcDbEntity
  8
0
100
AcDbBlockEnd
  0
ENDSEC
  0
SECTION
  2
ENTITIES
  0
LINE
  5
1424
330
A
100
AcDbEntity
  8
LAYER_1
  6
Continuous
 62
     7
100
AcDbLine
 10
353.9896748509491
 20
196.4169463278959
 30
0.0
 11
353.9896748509491
 21
154.4169463278959
 31
0.0
  0
LINE
  5
1425
330
A
100
AcDbEntity
  8
LAYER_1
  6
Continuous
 62
     7
100
AcDbLine
 10
311.9896748509491
 20
196.4169463278959
 30
0.0
 11
311.9896748509491
 21
154.4169463278959
 31
0.0
  0
LINE
  5
1426
330
A
100
AcDbEntity
  8
LAYER_1
  6
Continuous
 62
     7
100
AcDbLine
 10
353.9896748509491
 20
196.4169463278959
 30
0.0
 11
311.9896748509491
 21
196.4169463278959
 31
0.0
  0
LINE
  5
1427
330
A
100
AcDbEntity
  8
LAYER_1
  6
Continuous
 62
     7
100
AcDbLine
 10
353.9896748509491
 20
154.4169463278959
 30
0.0
 11
311.9896748509491
 21
154.4169463278959
 31
0.0
  0
CIRCLE
  5
1428
330
A
100
AcDbEntity
  8
LAYER_1
  6
Continuous
 62
     7
100
AcDbCircle
 10
323.4896748509491
 20
165.9169463278959
 30
0.0
 40
7.0
  0
CIRCLE
  5
1429
330
A
100
AcDbEntity
  8
LAYER_1
  6
Continuous
 62
     7
100
AcDbCircle
 10
323.4896748509491
 20
165.9169463278959
 30
0.0
 40
5.75
  0
CIRCLE
  5
142A
330
A
100
AcDbEntity
  8
LAYER_1
  6
Continuous
 62
     7
100
AcDbCircle
 10
323.4896748509491
 20
165.9169463278959
 30
0.0
 40
3.75
  0
CIRCLE
  5
142B
330
A
100
AcDbEntity
  8
LAYER_1
  6
Continuous
 62
     7
100
AcDbCircle
 10
323.4896748509491
 20
184.9169463278959
 30
0.0
 40
7.0
  0
CIRCLE
  5
142C
330
A
100
AcDbEntity
  8
LAYER_1
  6
Continuous
 62
     7
100
AcDbCircle
 10
323.4896748509491
 20
184.9169463278959
 30
0.0
 40
5.75
  0
CIRCLE
  5
142D
330
A
100
AcDbEntity
  8
LAYER_1
  6
Continuous
 62
     7
100
AcDbCircle
 10
323.4896748509491
 20
184.9169463278959
 30
0.0
 40
3.75
  0
CIRCLE
  5
142E
330
A
100
AcDbEntity
  8
LAYER_1
  6
Continuous
 62
     7
100
AcDbCircle
 10
342.4896748509491
 20
165.9169463278959
 30
0.0
 40
7.0
  0
CIRCLE
  5
142F
330
A
100
AcDbEntity
  8
LAYER_1
  6
Continuous
 62
     7
100
AcDbCircle
 10
342.4896748509491
 20
165.9169463278959
 30
0.0
 40
5.75
  0
CIRCLE
  5
1430
330
A
100
AcDbEntity
  8
LAYER_1
  6
Continuous
 62
     7
100
AcDbCircle
 10
342.4896748509491
 20
165.9169463278959
 30
0.0
 40
3.75
  0
CIRCLE
  5
1431
330
A
100
AcDbEntity
  8
LAYER_1
  6
Continuous
 62
     7
100
AcDbCircle
 10
342.4896748509491
 20
184.9169463278959
 30
0.0
 40
7.0
  0
CIRCLE
  5
1432
330
A
100
AcDbEntity
  8
LAYER_1
  6
Continuous
 62
     7
100
AcDbCircle
 10
342.4896748509491
 20
184.9169463278959
 30
0.0
 40
5.75
  0
CIRCLE
  5
1433
330
A
100
AcDbEntity
  8
LAYER_1
  6
Continuous
 62
     7
100
AcDbCircle
 10
342.4896748509491
 20
184.9169463278959
 30
0.0
 40
3.75
  0
LINE
  5
1434
330
A
100
AcDbEntity
  8
LAYER_1
  6
Continuous
 62
     7
100
AcDbLine
 10
206.6302565799823
 20
194.9169463278959
 30
0.0
 11
206.6302565799813
 21
155.9169463278959
 31
0.0
  0
ARC
  5
1435
330
A
100
AcDbEntity
  8
LAYER_1
  6
Continuous
 62
     7
100
AcDbCircle
 10
205.1302565799823
 20
194.9169463278959
 30
0.0
 40
1.5
100
AcDbArc
 50
0.0
 51
90.0
  0
ARC
  5
1436
330
A
100
AcDbEntity
  8
LAYER_1
  6
Continuous
 62
     7
100
AcDbCircle
 10
205.1302565799813
 20
155.9169463278959
 30
0.0
 40
1.5
100
AcDbArc
 50
270.0
 51
0.0
  0
LINE
  5
1437
330
A
100
AcDbEntity
  8
LAYER_1
  6
Continuous
 62
     7
100
AcDbLine
 10
205.1302565799823
 20
194.9169463278959
 30
0.0
 11
205.1302565799813
 21
155.9169463278959
 31
0.0
  0
LINE
  5
1438
330
A
100
AcDbEntity
  8
LAYER_1
  6
Continuous
 62
     7
100
AcDbLine
 10
204.9302565799822
 20
194.716946327896
 30
0.0
 11
204.9302565799813
 21
156.116946327896
 31
0.0
  0
LINE
  5
1439
330
A
100
AcDbEntity
  8
LAYER_1
  6
Continuous
 62
     7
100
AcDbLine
 10
176.6302565799813
 20
196.4169463278959
 30
0.0
 11
176.6302565799813
 21
154.4169463278959
 31
0.0
  0
LINE
  5
143A
330
A
100
AcDbEntity
  8
LAYER_1
  6
Continuous
 62
     7
100
AcDbLine
 10
176.6302565799813
 20
155.9169463278959
 30
0.0
 11
176.6302565799813
 21
154.4169463278959
 31
0.0
  0
LINE
  5
143B
330
A
100
AcDbEntity
  8
LAYER_1
  6
Continuous
 62
     7
100
AcDbLine
 10
205.1302565799823
 20
196.4169463278959
 30
0.0
 11
176.6302565799813
 21
196.4169463278959
 31
0.0
  0
LINE
  5
143C
330
A
100
AcDbEntity
  8
LAYER_1
  6
Continuous
 62
     7
100
AcDbLine
 10
205.1302565799823
 20
194.9169463278959
 30
0.0
 11
176.6302565799813
 21
194.916946327897
 31
0.0
  0
LINE
  5
143D
330
A
100
AcDbEntity
  8
LAYER_1
  6
Continuous
 62
     7
100
AcDbLine
 10
204.9302565799822
 20
194.716946327896
 30
0.0
 11
176.6302565799813
 21
194.716946327896
 31
0.0
  0
LINE
  5
143E
330
A
100
AcDbEntity
  8
LAYER_1
  6
Continuous
 62
     7
100
AcDbLine
 10
205.1302565799813
 20
154.4169463278959
 30
0.0
 11
176.6302565799813
 21
154.4169463278959
 31
0.0
  0
LINE
  5
143F
330
A
100
AcDbEntity
  8
LAYER_1
  6
Continuous
 62
     7
100
AcDbLine
 10
205.1302565799813
 20
155.9169463278959
 30
0.0
 11
176.6302565799813
 21
155.9169463278959
 31
0.0
  0
LINE
  5
1440
330
A
100
AcDbEntity
  8
LAYER_1
  6
Continuous
 62
     7
100
AcDbLine
 10
204.9302565799813
 20
156.116946327896
 30
0.0
 11
176.6302565799813
 21
156.116946327896
 31
0.0
  0
LINE
  5
1441
330
A
100
AcDbEntity
  8
LAYER_1
  6
Continuous
 62
     7
100
AcDbLine
 10
213.1302565799813
 20
171.9169463278959
 30
0.0
 11
207.6302565799813
 21
171.9169463278959
 31
0.0
  0
LINE
  5
1442
330
A
100
AcDbEntity
  8
LAYER_1
  6
Continuous
 62
     7
100
AcDbLine
 10
207.6302565799813
 20
172.9169463278959
 30
0.0
 11
206.6302565799813
 21
172.9169463278959
 31
0.0
  0
LINE
  5
1443
330
A
100
AcDbEntity
  8
LAYER_1
  6
Continuous
 62
     7
100
AcDbLine
 10
213.1302565799813
 20
159.9169463278959
 30
0.0
 11
207.6302565799813
 21
159.9169463278959
 31
0.0
  0
LINE
  5
1444
330
A
100
AcDbEntity
  8
LAYER_1
  6
Continuous
 62
     7
100
AcDbLine
 10
207.6302565799813
 20
158.9169463278959
 30
0.0
 11
206.6302565799813
 21
158.9169463278959
 31
0.0
  0
LINE
  5
1445
330
A
100
AcDbEntity
  8
LAYER_1
  6
Continuous
 62
     7
100
AcDbLine
 10
213.1302565799813
 20
171.9169463278959
 30
0.0
 11
213.1302565799813
 21
159.9169463278959
 31
0.0
  0
LINE
  5
1446
330
A
100
AcDbEntity
  8
LAYER_1
  6
Continuous
 62
     7
100
AcDbLine
 10
207.6302565799813
 20
172.9169463278959
 30
0.0
 11
207.6302565799813
 21
158.9169463278959
 31
0.0
  0
LINE
  5
1447
330
A
100
AcDbEntity
  8
LAYER_1
  6
Continuous
 62
     7
100
AcDbLine
 10
206.6302565799813
 20
172.9169463278959
 30
0.0
 11
206.6302565799813
 21
158.9169463278959
 31
0.0
  0
LINE
  5
1448
330
A
100
AcDbEntity
  8
LAYER_1
  6
Continuous
 62
     7
100
AcDbLine
 10
171.6302565799813
 20
171.4169463278959
 30
0.0
 11
171.6302565799813
 21
179.4169463278959
 31
0.0
  0
ARC
  5
1449
330
A
100
AcDbEntity
  8
LAYER_1
  6
Continuous
 62
     7
100
AcDbCircle
 10
174.6302565799813
 20
179.4169463278959
 30
0.0
 40
3.0
100
AcDbArc
 50
90.0
 51
180.0
  0
ARC
  5
144A
330
A
100
AcDbEntity
  8
LAYER_1
  6
Continuous
 62
     7
100
AcDbCircle
 10
174.6302565799813
 20
171.4169463278959
 30
0.0
 40
3.0
100
AcDbArc
 50
180.0
 51
270.0
  0
LINE
  5
144B
330
A
100
AcDbEntity
  8
LAYER_1
  6
Continuous
 62
     7
100
AcDbLine
 10
174.6302565799813
 20
168.4169463278959
 30
0.0
 11
176.6302565799813
 21
168.4169463278959
 31
0.0
  0
LINE
  5
144C
330
A
100
AcDbEntity
  8
LAYER_1
  6
Continuous
 62
     7
100
AcDbLine
 10
176.6302565799813
 20
182.4169463278959
 30
0.0
 11
174.6302565799813
 21
182.4169463278959
 31
0.0
  0
LINE
  5
144D
330
A
100
AcDbEntity
  8
LAYER_1
  6
Continuous
 62
     7
100
AcDbLine
 10
171.6302565799813
 20
178.4169463278959
 30
0.0
 11
145.5802565799813
 21
178.4169463278959
 31
0.0
  0
LINE
  5
144E
330
A
100
AcDbEntity
  8
LAYER_1
  6
Continuous
 62
     7
100
AcDbLine
 10
145.5802565799813
 20
178.4169463278959
 30
0.0
 11
119.6302565799813
 21
178.4169463278959
 31
0.0
  0
LINE
  5
144F
330
A
100
AcDbEntity
  8
LAYER_1
  6
Continuous
 62
     7
100
AcDbLine
 10
171.6302565799813
 20
172.4169463278959
 30
0.0
 11
144.6802565799823
 21
172.4169463278959
 31
0.0
  0
LINE
  5
1450
330
A
100
AcDbEntity
  8
LAYER_1
  6
Continuous
 62
     7
100
AcDbLine
 10
144.6802565799823
 20
172.4169463278959
 30
0.0
 11
119.6302565799813
 21
172.4169463278959
 31
0.0
  0
LINE
  5
1451
330
A
100
AcDbEntity
  8
LAYER_1
  6
Continuous
 62
     7
100
AcDbLine
 10
99.39635668847232
 20
168.6057934250869
 30
0.0
 11
97.45557858123135
 21
170.066728684697
 31
0.0
  0
LINE
  5
1452
330
A
100
AcDbEntity
  8
LAYER_1
  6
Continuous
 62
     7
100
AcDbLine
 10
99.39635668847232
 20
168.6057934250869
 30
0.0
 11
104.0789011705713
 21
168.6057934250869
 31
0.0
  0
LINE
  5
1453
330
A
100
AcDbEntity
  8
LAYER_1
  6
Continuous
 62
     7
100
AcDbLine
 10
94.26407718160531
 20
168.6057934250869
 30
0.0
 11
96.20485528884534
 21
170.066728684697
 31
0.0
  0
LINE
  5
1454
330
A
100
AcDbEntity
  8
LAYER_1
  6
Continuous
 62
     7
100
AcDbLine
 10
92.8822383886213
 20
168.6057934250869
 30
0.0
 11
92.39876348925831
 21
168.066946327896
 31
0.0
  0
LINE
  5
1455
330
A
100
AcDbEntity
  8
LAYER_1
  6
Continuous
 62
     7
100
AcDbLine
 10
92.8822383886213
 20
168.6057934250869
 30
0.0
 11
94.26407718160531
 21
168.6057934250869
 31
0.0
  0
LINE
  5
1456
330
A
100
AcDbEntity
  8
LAYER_1
  6
Continuous
 62
     7
100
AcDbLine
 10
96.20485528884534
 20
170.066728684697
 30
0.0
 11
97.45557858123135
 21
170.066728684697
 31
0.0
  0
LINE
  5
1457
330
A
100
AcDbEntity
  8
LAYER_1
  6
Continuous
 62
     7
100
AcDbLine
 10
99.39635668847232
 20
182.2280992307059
 30
0.0
 11
97.45557858123135
 21
180.767163971095
 31
0.0
  0
LINE
  5
1458
330
A
100
AcDbEntity
  8
LAYER_1
  6
Continuous
 62
     7
100
AcDbLine
 10
99.39635668847232
 20
182.2280992307059
 30
0.0
 11
104.0789011705713
 21
182.2280992307059
 31
0.0
  0
LINE
  5
1459
330
A
100
AcDbEntity
  8
LAYER_1
  6
Continuous
 62
     7
100
AcDbLine
 10
94.26407718160531
 20
182.2280992307059
 30
0.0
 11
96.20485528884534
 21
180.767163971095
 31
0.0
  0
LINE
  5
145A
330
A
100
AcDbEntity
  8
LAYER_1
  6
Continuous
 62
     7
100
AcDbLine
 10
92.8822383886213
 20
182.2280992307059
 30
0.0
 11
92.39876348925831
 21
182.766946327896
 31
0.0
  0
LINE
  5
145B
330
A
100
AcDbEntity
  8
LAYER_1
  6
Continuous
 62
     7
100
AcDbLine
 10
92.8822383886213
 20
182.2280992307059
 30
0.0
 11
94.26407718160531
 21
182.2280992307059
 31
0.0
  0
LINE
  5
145C
330
A
100
AcDbEntity
  8
LAYER_1
  6
Continuous
 62
     7
100
AcDbLine
 10
96.20485528884534
 20
180.767163971095
 30
0.0
 11
97.45557858123135
 21
180.767163971095
 31
0.0
  0
LINE
  5
145D
330
A
100
AcDbEntity
  8
LAYER_1
  6
Continuous
 62
     7
100
AcDbLine
 10
104.0789011705713
 20
168.6057934250869
 30
0.0
 11
104.0789011705713
 21
182.2280992307059
 31
0.0
  0
LINE
  5
145E
330
A
100
AcDbEntity
  8
LAYER_1
  6
Continuous
 62
     7
100
AcDbLine
 10
92.39876348925831
 20
168.066946327896
 30
0.0
 11
92.39876348925831
 21
182.766946327896
 31
0.0
  0
LINE
  5
145F
330
A
100
AcDbEntity
  8
LAYER_1
  6
Continuous
 62
     7
100
AcDbLine
 10
92.8822383886213
 20
168.6057934250869
 30
0.0
 11
92.8822383886213
 21
182.2280992307059
 31
0.0
  0
LINE
  5
1460
330
A
100
AcDbEntity
  8
LAYER_1
  6
Continuous
 62
     7
100
AcDbLine
 10
94.26407718160531
 20
168.6057934250869
 30
0.0
 11
94.26407718160531
 21
182.2280992307059
 31
0.0
  0
LINE
  5
1461
330
A
100
AcDbEntity
  8
LAYER_1
  6
Continuous
 62
     7
100
AcDbLine
 10
95.23446623522533
 20
169.336261054892
 30
0.0
 11
95.23446623522533
 21
181.4976316009009
 31
0.0
  0
LINE
  5
1462
330
A
100
AcDbEntity
  8
LAYER_1
  6
Continuous
 62
     7
100
AcDbLine
 10
96.20485528884534
 20
170.066728684697
 30
0.0
 11
96.20485528884534
 21
180.767163971095
 31
0.0
  0
LINE
  5
1463
330
A
100
AcDbEntity
  8
LAYER_1
  6
Continuous
 62
     7
100
AcDbLine
 10
97.45557858123135
 20
170.066728684697
 30
0.0
 11
97.45557858123135
 21
180.767163971095
 31
0.0
  0
LINE
  5
1464
330
A
100
AcDbEntity
  8
LAYER_1
  6
Continuous
 62
     7
100
AcDbLine
 10
99.39635668847232
 20
168.6057934250869
 30
0.0
 11
99.39635668847232
 21
182.2280992307059
 31
0.0
  0
LINE
  5
1465
330
A
100
AcDbEntity
  8
LAYER_1
  6
Continuous
 62
     7
100
AcDbLine
 10
104.0789011705713
 20
181.201470376203
 30
0.0
 11
119.6302565799813
 21
179.525935722682
 31
0.0
  0
LINE
  5
1466
330
A
100
AcDbEntity
  8
LAYER_1
  6
Continuous
 62
     7
100
AcDbLine
 10
104.0789011705713
 20
169.632422279589
 30
0.0
 11
119.6302565799813
 21
171.30795693311
 31
0.0
  0
LINE
  5
1467
330
A
100
AcDbEntity
  8
LAYER_1
  6
Continuous
 62
     7
100
AcDbLine
 10
87.20044096445631
 20
168.6057934250869
 30
0.0
 11
88.09237982983027
 21
168.6057934250869
 31
0.0
  0
LINE
  5
1468
330
A
100
AcDbEntity
  8
LAYER_1
  6
Continuous
 62
     7
100
AcDbLine
 10
87.20044096445631
 20
168.6057934250869
 30
0.0
 11
86.71696606509533
 21
168.066946327896
 31
0.0
  0
LINE
  5
1469
330
A
100
AcDbEntity
  8
LAYER_1
  6
Continuous
 62
     7
100
AcDbLine
 10
88.09237982983027
 20
168.6057934250869
 30
0.0
 11
88.57585472919231
 21
168.066946327896
 31
0.0
  0
LINE
  5
146A
330
A
100
AcDbEntity
  8
LAYER_1
  6
Continuous
 62
     7
100
AcDbLine
 10
81.45919931456431
 20
168.6057934250869
 30
0.0
 11
81.94267421392634
 21
168.066946327896
 31
0.0
  0
LINE
  5
146B
330
A
100
AcDbEntity
  8
LAYER_1
  6
Continuous
 62
     7
100
AcDbLine
 10
81.94267421392634
 20
168.066946327896
 30
0.0
 11
86.71696606509533
 21
168.066946327896
 31
0.0
  0
LINE
  5
146C
330
A
100
AcDbEntity
  8
LAYER_1
  6
Continuous
 62
     7
100
AcDbLine
 10
77.41011345522029
 20
170.6669463278959
 30
0.0
 11
76.63025657998229
 21
170.6669463278959
 31
0.0
  0
LINE
  5
146D
330
A
100
AcDbEntity
  8
LAYER_1
  6
Continuous
 62
     7
100
AcDbLine
 10
77.41011345522029
 20
168.6057934250869
 30
0.0
 11
81.45919931456431
 21
168.6057934250869
 31
0.0
  0
LINE
  5
146E
330
A
100
AcDbEntity
  8
LAYER_1
  6
Continuous
 62
     7
100
AcDbLine
 10
87.20044096445631
 20
182.2280992307059
 30
0.0
 11
88.09237982983027
 21
182.2280992307059
 31
0.0
  0
LINE
  5
146F
330
A
100
AcDbEntity
  8
LAYER_1
  6
Continuous
 62
     7
100
AcDbLine
 10
87.20044096445631
 20
182.2280992307059
 30
0.0
 11
86.71696606509533
 21
182.766946327896
 31
0.0
  0
LINE
  5
1470
330
A
100
AcDbEntity
  8
LAYER_1
  6
Continuous
 62
     7
100
AcDbLine
 10
88.09237982983027
 20
182.2280992307059
 30
0.0
 11
88.57585472919231
 21
182.766946327896
 31
0.0
  0
LINE
  5
1471
330
A
100
AcDbEntity
  8
LAYER_1
  6
Continuous
 62
     7
100
AcDbLine
 10
81.45919931456431
 20
182.2280992307059
 30
0.0
 11
81.94267421392634
 21
182.766946327896
 31
0.0
  0
LINE
  5
1472
330
A
100
AcDbEntity
  8
LAYER_1
  6
Continuous
 62
     7
100
AcDbLine
 10
81.94267421392634
 20
182.766946327896
 30
0.0
 11
86.71696606509533
 21
182.766946327896
 31
0.0
  0
LINE
  5
1473
330
A
100
AcDbEntity
  8
LAYER_1
  6
Continuous
 62
     7
100
AcDbLine
 10
77.41011345522029
 20
180.1669463278959
 30
0.0
 11
76.63025657998229
 21
180.1669463278959
 31
0.0
  0
LINE
  5
1474
330
A
100
AcDbEntity
  8
LAYER_1
  6
Continuous
 62
     7
100
AcDbLine
 10
77.41011345522029
 20
182.2280992307059
 30
0.0
 11
81.45919931456431
 21
182.2280992307059
 31
0.0
  0
LINE
  5
1475
330
A
100
AcDbEntity
  8
LAYER_1
  6
Continuous
 62
     7
100
AcDbLine
 10
76.63025657998229
 20
170.6669463278959
 30
0.0
 11
76.63025657998229
 21
180.1669463278959
 31
0.0
  0
LINE
  5
1476
330
A
100
AcDbEntity
  8
LAYER_1
  6
Continuous
 62
     7
100
AcDbLine
 10
119.6302565799813
 20
171.30795693311
 30
0.0
 11
119.6302565799813
 21
179.525935722682
 31
0.0
  0
LINE
  5
1477
330
A
100
AcDbEntity
  8
LAYER_1
  6
Continuous
 62
     7
100
AcDbLine
 10
81.45919931456431
 20
168.6057934250869
 30
0.0
 11
81.45919931456431
 21
182.2280992307059
 31
0.0
  0
LINE
  5
1478
330
A
100
AcDbEntity
  8
LAYER_1
  6
Continuous
 62
     7
100
AcDbLine
 10
81.94267421392634
 20
168.066946327896
 30
0.0
 11
81.94267421392634
 21
182.766946327896
 31
0.0
  0
LINE
  5
1479
330
A
100
AcDbEntity
  8
LAYER_1
  6
Continuous
 62
     7
100
AcDbLine
 10
86.71696606509533
 20
168.066946327896
 30
0.0
 11
86.71696606509533
 21
182.766946327896
 31
0.0
  0
LINE
  5
147A
330
A
100
AcDbEntity
  8
LAYER_1
  6
Continuous
 62
     7
100
AcDbLine
 10
87.20044096445631
 20
168.6057934250869
 30
0.0
 11
87.20044096445631
 21
182.2280992307059
 31
0.0
  0
LINE
  5
147B
330
A
100
AcDbEntity
  8
LAYER_1
  6
Continuous
 62
     7
100
AcDbLine
 10
88.09237982983027
 20
168.6057934250869
 30
0.0
 11
88.09237982983027
 21
182.2280992307059
 31
0.0
  0
LINE
  5
147C
330
A
100
AcDbEntity
  8
LAYER_1
  6
Continuous
 62
     7
100
AcDbLine
 10
88.57585472919231
 20
168.066946327896
 30
0.0
 11
88.57585472919231
 21
182.766946327896
 31
0.0
  0
LINE
  5
147D
330
A
100
AcDbEntity
  8
LAYER_1
  6
Continuous
 62
     7
100
AcDbLine
 10
77.41011345522029
 20
182.2280992307059
 30
0.0
 11
77.41011345522029
 21
168.6057934250869
 31
0.0
  0
LINE
  5
147E
330
A
100
AcDbEntity
  8
LAYER_1
  6
Continuous
 62
     7
100
AcDbLine
 10
88.57585472919231
 20
182.766946327896
 30
0.0
 11
92.39876348925831
 21
182.766946327896
 31
0.0
  0
LINE
  5
147F
330
A
100
AcDbEntity
  8
LAYER_1
  6
Continuous
 62
     7
100
AcDbLine
 10
88.57585472919231
 20
168.066946327896
 30
0.0
 11
92.39876348925831
 21
168.066946327896
 31
0.0
  0
LINE
  5
1480
330
A
100
AcDbEntity
  8
LAYER_1
  6
Continuous
 62
     7
100
AcDbLine
 10
82.06294728035031
 20
182.766946327896
 30
0.0
 11
81.94267421392634
 21
182.6466732614719
 31
0.0
  0
LINE
  5
1481
330
A
100
AcDbEntity
  8
LAYER_1
  6
Continuous
 62
     7
100
AcDbLine
 10
176.6302565799813
 20
182.4169463278959
 30
0.0
 11
176.6302565799813
 21
168.4169463278959
 31
0.0
  0
LINE
  5
1482
330
A
100
AcDbEntity
  8
LAYER_1
  6
Continuous
 62
     7
100
AcDbLine
 10
213.1302565799813
 20
190.9169463278959
 30
0.0
 11
207.6302565799813
 21
190.9169463278959
 31
0.0
  0
LINE
  5
1483
330
A
100
AcDbEntity
  8
LAYER_1
  6
Continuous
 62
     7
100
AcDbLine
 10
207.6302565799813
 20
191.9169463278959
 30
0.0
 11
206.6302565799813
 21
191.9169463278959
 31
0.0
  0
LINE
  5
1484
330
A
100
AcDbEntity
  8
LAYER_1
  6
Continuous
 62
     7
100
AcDbLine
 10
213.1302565799813
 20
178.9169463278959
 30
0.0
 11
207.6302565799813
 21
178.9169463278959
 31
0.0
  0
LINE
  5
1485
330
A
100
AcDbEntity
  8
LAYER_1
  6
Continuous
 62
     7
100
AcDbLine
 10
207.6302565799813
 20
177.9169463278959
 30
0.0
 11
206.6302565799813
 21
177.9169463278959
 31
0.0
  0
LINE
  5
1486
330
A
100
AcDbEntity
  8
LAYER_1
  6
Continuous
 62
     7
100
AcDbLine
 10
213.1302565799813
 20
190.9169463278959
 30
0.0
 11
213.1302565799813
 21
178.9169463278959
 31
0.0
  0
LINE
  5
1487
330
A
100
AcDbEntity
  8
LAYER_1
  6
Continuous
 62
     7
100
AcDbLine
 10
207.6302565799813
 20
191.9169463278959
 30
0.0
 11
207.6302565799813
 21
177.9169463278959
 31
0.0
  0
LINE
  5
1488
330
A
100
AcDbEntity
  8
LAYER_1
  6
Continuous
 62
     7
100
AcDbLine
 10
206.6302565799813
 20
191.9169463278959
 30
0.0
 11
206.6302565799813
 21
177.9169463278959
 31
0.0
  0
LINE
  5
1489
330
A
100
AcDbEntity
  8
LAYER_1
  6
Continuous
 62
     7
100
AcDbLine
 10
266.1302565799813
 20
154.4169463278959
 30
0.0
 11
243.1302565799813
 21
154.4169463278959
 31
0.0
  0
LINE
  5
148A
330
A
100
AcDbEntity
  8
LAYER_1
  6
Continuous
 62
     7
100
AcDbLine
 10
266.1302565799813
 20
196.4169463278959
 30
0.0
 11
243.1302565799813
 21
196.4169463278959
 31
0.0
  0
LINE
  5
148B
330
A
100
AcDbEntity
  8
LAYER_1
  6
Continuous
 62
     7
100
AcDbLine
 10
243.1302565799813
 20
154.4169463278959
 30
0.0
 11
243.1302565799813
 21
196.4169463278959
 31
0.0
  0
CIRCLE
  5
148C
330
A
100
AcDbEntity
  8
LAYER_1
  6
Continuous
 62
     7
100
AcDbCircle
 10
254.6302565799813
 20
184.9169463278959
 30
0.0
 40
7.0
  0
CIRCLE
  5
148D
330
A
100
AcDbEntity
  8
LAYER_1
  6
Continuous
 62
     7
100
AcDbCircle
 10
254.6302565799813
 20
184.9169463278959
 30
0.0
 40
5.75
  0
CIRCLE
  5
148E
330
A
100
AcDbEntity
  8
LAYER_1
  6
Continuous
 62
     7
100
AcDbCircle
 10
254.6302565799813
 20
184.9169463278959
 30
0.0
 40
3.75
  0
CIRCLE
  5
148F
330
A
100
AcDbEntity
  8
LAYER_1
  6
Continuous
 62
     7
100
AcDbCircle
 10
254.6302565799813
 20
165.9169463278959
 30
0.0
 40
7.0
  0
CIRCLE
  5
1490
330
A
100
AcDbEntity
  8
LAYER_1
  6
Continuous
 62
     7
100
AcDbCircle
 10
254.6302565799813
 20
165.9169463278959
 30
0.0
 40
5.75
  0
CIRCLE
  5
1491
330
A
100
AcDbEntity
  8
LAYER_1
  6
Continuous
 62
     7
100
AcDbCircle
 10
254.6302565799813
 20
165.9169463278959
 30
0.0
 40
3.75
  0
LINE
  5
1492
330
A
100
AcDbEntity
  8
LAYER_1
  6
Continuous
 62
     7
100
AcDbLine
 10
266.1302565799813
 20
196.4169463278959
 30
0.0
 11
266.1302565799813
 21
154.4169463278959
 31
0.0
  0
DIMENSION
  5
14A0
330
A
100
AcDbEntity
  8
LAYER_1
  6
Continuous
 62
     7
100
AcDbDimension
  2
*D66
 10
176.6302565799813
 20
211.4169463278959
 30
0.0
 11
126.6302565799818
 21
215.1169463278959
 31
0.0
 70
    32
 71
     5
 42
99.99999999999902
  3
MARK2_DIMSTYLE
100
AcDbAlignedDimension
 13
76.63025657998232
 23
180.1669463278959
 33
0.0
 14
176.6302565799813
 24
196.4169463278959
 34
0.0
100
AcDbRotatedDimension
1001
ACAD
1000
DSTYLE
1002
{
1070
    41
1040
6.0
1070
   140
1040
5.4
1002
}
  0
DIMENSION
  5
14A1
330
A
100
AcDbEntity
  8
LAYER_1
  6
Continuous
 62
     7
100
AcDbDimension
  2
*D70
 10
206.6302565799823
 20
211.4169463278959
 30
0.0
 11
191.6302565799818
 21
215.1169463278959
 31
0.0
 70
    32
 71
     5
 42
30.00000000000102
  3
MARK2_DIMSTYLE
100
AcDbAlignedDimension
 13
176.6302565799813
 23
196.4169463278959
 33
0.0
 14
206.6302565799823
 24
194.9169463278959
 34
0.0
100
AcDbRotatedDimension
1001
ACAD
1000
DSTYLE
1002
{
1070
    41
1040
6.0
1070
   140
1040
5.4
1002
}
  0
DIMENSION
  5
14A2
330
A
100
AcDbEntity
  8
LAYER_1
  6
Continuous
 62
     7
100
AcDbDimension
  2
*D69
 10
266.1302565799813
 20
211.4169463278959
 30
0.0
 11
254.6302565799813
 21
215.1169463278959
 31
0.0
 70
    32
 71
     5
 42
23.0
  3
MARK2_DIMSTYLE
100
AcDbAlignedDimension
 13
243.1302565799813
 23
196.4169463278959
 33
0.0
 14
266.1302565799813
 24
196.4169463278959
 34
0.0
100
AcDbRotatedDimension
1001
ACAD
1000
DSTYLE
1002
{
1070
    41
1040
6.0
1070
   140
1040
5.4
1002
}
  0
DIMENSION
  5
14A3
330
A
100
AcDbEntity
  8
LAYER_1
  6
Continuous
 62
     7
100
AcDbDimension
  2
*D68
 10
281.1302565799813
 20
196.4169463278959
 30
0.0
 11
277.4302565799812
 21
175.4169463278959
 31
0.0
 70
    32
 71
     5
 42
42.0
  3
MARK2_DIMSTYLE
100
AcDbAlignedDimension
 13
266.1302565799813
 23
154.4169463278959
 33
0.0
 14
266.1302565799813
 24
196.4169463278959
 34
0.0
 50
90.0
100
AcDbRotatedDimension
1001
ACAD
1000
DSTYLE
1002
{
1070
    41
1040
6.0
1070
   140
1040
5.4
1002
}
  0
TEXT
  5
14A4
330
A
100
AcDbEntity
  8
LAYER_1
 62
     7
100
AcDbText
 10
243.1302565799813
 20
134.9149972230969
 30
0.0
 40
5.4
  1
BB2
 41
1.033333333332999
  7
ＭＳ_ゴシック
100
AcDbText
  0
DIMENSION
  5
14A7
330
A
100
AcDbEntity
  8
LAYER_1
  6
Continuous
 62
     7
100
AcDbDimension
  2
*D64
 10
368.9896748509492
 20
196.4169463278959
 30
0.0
 11
365.2896748509491
 21
175.416946327896
 31
0.0
 70
    32
 71
     5
 42
42.0
  3
MARK2_DIMSTYLE
100
AcDbAlignedDimension
 13
353.9896748509491
 23
154.4169463278959
 33
0.0
 14
353.9896748509491
 24
196.4169463278959
 34
0.0
 50
90.0
100
AcDbRotatedDimension
1001
ACAD
1000
DSTYLE
1002
{
1070
    41
1040
6.0
1070
   140
1040
5.4
1002
}
  0
DIMENSION
  5
14A9
330
A
100
AcDbEntity
  8
LAYER_1
  6
Continuous
 62
     7
100
AcDbDimension
  2
*D65
 10
353.9896748509491
 20
211.4169463278959
 30
0.0
 11
332.9896748509491
 21
215.1169463278959
 31
0.0
 70
    32
 71
     5
 42
42.0
  3
MARK2_DIMSTYLE
100
AcDbAlignedDimension
 13
311.9896748509491
 23
196.4169463278959
 33
0.0
 14
353.9896748509491
 24
196.4169463278959
 34
0.0
100
AcDbRotatedDimension
1001
ACAD
1000
DSTYLE
1002
{
1070
    41
1040
6.0
1070
   140
1040
5.4
1002
}
  0
TEXT
  5
14AA
330
A
100
AcDbEntity
  8
LAYER_1
 62
     7
100
AcDbText
 10
311.9896748509491
 20
134.9149972230969
 30
0.0
 40
5.4
  1
BB4
 41
1.033333333332999
  7
ＭＳ_ゴシック
100
AcDbText
  0
TEXT
  5
14B2
330
A
100
AcDbEntity
  8
LAYER_1
 62
     7
100
AcDbText
 10
43.2396112642093
 20
256.7551162590889
 30
0.0
 40
13.5
  1
分岐ケーブル　Branch Cable
 41
1.033333333332999
  7
ＭＳ_ゴシック
100
AcDbText
  0
DIMENSION
  5
14B3
330
A
100
AcDbEntity
  8
LAYER_1
  6
Continuous
 62
     7
100
AcDbDimension
  2
*D67
 10
51.09769582127533
 20
182.766946327896
 30
0.0
 11
60.38957399386414
 21
192.466946327896
 31
0.0
 70
    32
 71
     5
 42
14.69999999999998
  3
MARK2_DIMSTYLE
100
AcDbAlignedDimension
 13
76.41011345522032
 23
168.066946327896
 33
0.0
 14
76.41011345522032
 24
182.766946327896
 34
0.0
 50
90.0
100
AcDbRotatedDimension
1001
ACAD
1000
DSTYLE
1002
{
1070
    41
1040
6.0
1070
   140
1040
5.4
1002
}
  0
INSERT
  5
14B6
330
A
100
AcDbEntity
  8
LAYER_1
  6
Continuous
 62
   116
100
AcDbBlockReference
  2
HATCHING__PATTERN_$40$
 10
-154.8339602879218
 20
35.715077950823
 30
0.0
  0
INSERT
  5
14B7
330
A
100
AcDbEntity
  8
LAYER_1
  6
Continuous
 62
   116
100
AcDbBlockReference
  2
HATCHING__PATTERN_$41$
 10
-154.8339602879218
 20
35.715077950823
 30
0.0
  0
INSERT
  5
14B8
330
A
100
AcDbEntity
  8
LAYER_1
  6
Continuous
 62
   116
100
AcDbBlockReference
  2
HATCHING__PATTERN_$42$
 10
-154.8339602879218
 20
35.715077950823
 30
0.0
  0
INSERT
  5
14B9
330
A
100
AcDbEntity
  8
LAYER_1
  6
Continuous
 62
   116
100
AcDbBlockReference
  2
HATCHING__PATTERN_$43$
 10
-154.8339602879218
 20
35.715077950823
 30
0.0
  0
INSERT
  5
14BA
330
A
100
AcDbEntity
  8
LAYER_1
  6
Continuous
 62
   116
100
AcDbBlockReference
  2
HATCHING__PATTERN_$44$
 10
-88.69337855888968
 20
35.715077950823
 30
0.0
  0
INSERT
  5
14BB
330
A
100
AcDbEntity
  8
LAYER_1
  6
Continuous
 62
   116
100
AcDbBlockReference
  2
HATCHING__PATTERN_$45$
 10
-88.69337855888968
 20
35.715077950823
 30
0.0
  0
INSERT
  5
14BC
330
A
100
AcDbEntity
  8
LAYER_1
  6
Continuous
 62
   116
100
AcDbBlockReference
  2
HATCHING__PATTERN_$46$
 10
-88.69337855888968
 20
35.715077950823
 30
0.0
  0
ENDSEC
  0
SECTION
  2
OBJECTS
  0
DICTIONARY
  5
19
330
0
100
AcDbDictionary
281
     1
  3
ACAD_GROUP
350
1A
  3
ACAD_LAYOUT
350
14C7
  3
ACAD_MLINESTYLE
350
1B
  3
ACAD_PLOTSETTINGS
350
14C8
  3
ACAD_PLOTSTYLENAME
350
14C5
  0
DICTIONARY
  5
1A
102
{ACAD_REACTORS
330
19
102
}
330
19
100
AcDbDictionary
281
     1
  0
DICTIONARY
  5
14C7
102
{ACAD_REACTORS
330
19
102
}
330
19
100
AcDbDictionary
281
     1
  3
Model
350
14C9
  3
ﾚｲｱｳﾄ1
350
14CA
  0
DICTIONARY
  5
1B
102
{ACAD_REACTORS
330
19
102
}
330
19
100
AcDbDictionary
281
     1
  3
STANDARD
350
1C
  0
DICTIONARY
  5
14C8
102
{ACAD_REACTORS
330
19
102
}
330
19
100
AcDbDictionary
281
     1
  0
ACDBDICTIONARYWDFLT
  5
14C5
102
{ACAD_REACTORS
330
19
102
}
330
19
100
AcDbDictionary
281
     1
  3
Normal
350
14C6
100
AcDbDictionaryWithDefault
340
14C6
  0
LAYOUT
  5
14C9
102
{ACAD_REACTORS
330
14C7
102
}
330
14C7
100
AcDbPlotSettings
  1

  2
\\HCTD010A\RICOH imagio MP C4500 RPCS
  4

  6

 40
0.0
 41
0.0
 42
0.0
 43
0.0
 44
0.0
 45
0.0
 46
0.0
 47
0.0
 48
0.0
 49
0.0
140
0.0
141
0.0
142
1.0
143
1.0
 70
  1712
 72
     0
 73
     0
 74
     0
  7

 75
     0
147
1.0
148
0.0
149
0.0
100
AcDbLayout
  1
Model
 70
     1
 71
     0
 10
0.0
 20
0.0
 11
12.0
 21
9.0
 12
0.0
 22
0.0
 32
0.0
 14
0.0
 24
0.0
 34
0.0
 15
0.0
 25
0.0
 35
0.0
146
0.0
 13
0.0
 23
0.0
 33
0.0
 16
1.0
 26
0.0
 36
0.0
 17
0.0
 27
1.0
 37
0.0
 76
     0
330
A
  0
LAYOUT
  5
14CA
102
{ACAD_REACTORS
330
14C7
102
}
330
14C7
100
AcDbPlotSettings
  1

  2
\\HCTD010A\RICOH imagio MP C4500 RPCS
  4

  6

 40
0.0
 41
0.0
 42
0.0
 43
0.0
 44
0.0
 45
0.0
 46
0.0
 47
0.0
 48
0.0
 49
0.0
140
0.0
141
0.0
142
1.0
143
1.0
 70
   688
 72
     0
 73
     0
 74
     5
  7

 75
    16
147
1.0
148
0.0
149
0.0
100
AcDbLayout
  1
ﾚｲｱｳﾄ1
 70
     0
 71
     1
 10
0.0
 20
0.0
 11
12.0
 21
9.0
 12
0.0
 22
0.0
 32
0.0
 14
1.000000000000000E+20
 24
1.000000000000000E+20
 34
1.000000000000000E+20
 15
-1.000000000000000E+20
 25
-1.000000000000000E+20
 35
-1.000000000000000E+20
146
0.0
 13
0.0
 23
0.0
 33
0.0
 16
1.0
 26
0.0
 36
0.0
 17
0.0
 27
1.0
 37
0.0
 76
     0
330
B
  0
MLINESTYLE
  5
1C
102
{ACAD_REACTORS
330
1B
102
}
330
1B
100
AcDbMlineStyle
  2
STANDARD
 70
     0
  3

 62
     0
 51
90.0
 52
90.0
 71
     2
 49
0.5
 62
   256
  6
BYLAYER
 49
-0.5
 62
   256
  6
BYLAYER
  0
ACDBPLACEHOLDER
  5
14C6
102
{ACAD_REACTORS
330
14C5
102
}
330
14C5
  0
ENDSEC
  0
EOF
