  0
SECTION
  2
HEADER
  9
$ACADVER
  1
AC1015
  9
$ACADMAINTVER
 70
    10
  9
$DWGCODEPAGE
  3
ANSI_932
  9
$INSBASE
 10
0.0
 20
0.0
 30
0.0
  9
$EXTMIN
 10
-83.11012881309762
 20
19.47090218360153
 30
-0.0015258207003583
  9
$EXTMAX
 10
4.392571414662597
 20
55.60684073522224
 30
0.0000000349246037
  9
$LIMMIN
 10
0.0
 20
0.0
  9
$LIMMAX
 10
297.0
 20
210.0
  9
$ORTHOMODE
 70
     0
  9
$REGENMODE
 70
     1
  9
$FILLMODE
 70
     1
  9
$QTEXTMODE
 70
     0
  9
$MIRRTEXT
 70
     1
  9
$LTSCALE
 40
1.0
  9
$ATTMODE
 70
     1
  9
$TEXTSIZE
 40
0.2
  9
$TRACEWID
 40
1.0
  9
$TEXTSTYLE
  7
STYLE004
  9
$CLAYER
  8
0
  9
$CELTYPE
  6
ByLayer
  9
$CECOLOR
 62
   256
  9
$CELTSCALE
 40
1.0
  9
$DISPSILH
 70
     0
  9
$DIMSCALE
 40
1.0
  9
$DIMASZ
 40
3.0
  9
$DIMEXO
 40
1.0
  9
$DIMDLI
 40
10.0
  9
$DIMRND
 40
0.0
  9
$DIMDLE
 40
5.0
  9
$DIMEXE
 40
1.5
  9
$DIMTP
 40
0.0
  9
$DIMTM
 40
0.0
  9
$DIMTXT
 40
3.0
  9
$DIMCEN
 40
2.5
  9
$DIMTSZ
 40
0.0
  9
$DIMTOL
 70
     0
  9
$DIMLIM
 70
     0
  9
$DIMTIH
 70
     0
  9
$DIMTOH
 70
     0
  9
$DIMSE1
 70
     0
  9
$DIMSE2
 70
     0
  9
$DIMTAD
 70
     1
  9
$DIMZIN
 70
     8
  9
$DIMBLK
  1

  9
$DIMASO
 70
     1
  9
$DIMSHO
 70
     1
  9
$DIMPOST
  1

  9
$DIMAPOST
  1

  9
$DIMALT
 70
     0
  9
$DIMALTD
 70
     3
  9
$DIMALTF
 40
0.03937
  9
$DIMLFAC
 40
1.0
  9
$DIMTOFL
 70
     1
  9
$DIMTVP
 40
0.0
  9
$DIMTIX
 70
     0
  9
$DIMSOXD
 70
     0
  9
$DIMSAH
 70
     1
  9
$DIMBLK1
  1
FXTIP_ARROW_S
  9
$DIMBLK2
  1
FXTIP_ARROW_E
  9
$DIMSTYLE
  2
FXDIMINFO
  9
$DIMCLRD
 70
     7
  9
$DIMCLRE
 70
     7
  9
$DIMCLRT
 70
     7
  9
$DIMTFAC
 40
1.0
  9
$DIMGAP
 40
0.5
  9
$DIMJUST
 70
     0
  9
$DIMSD1
 70
     0
  9
$DIMSD2
 70
     0
  9
$DIMTOLJ
 70
     1
  9
$DIMTZIN
 70
     8
  9
$DIMALTZ
 70
     0
  9
$DIMALTTZ
 70
     0
  9
$DIMUPT
 70
     0
  9
$DIMDEC
 70
     2
  9
$DIMTDEC
 70
     2
  9
$DIMALTU
 70
     2
  9
$DIMALTTD
 70
     3
  9
$DIMTXSTY
  7
STYLE004
  9
$DIMAUNIT
 70
     0
  9
$DIMADEC
 70
     2
  9
$DIMALTRND
 40
0.0
  9
$DIMAZIN
 70
     0
  9
$DIMDSEP
 70
    46
  9
$DIMATFIT
 70
     3
  9
$DIMFRAC
 70
     0
  9
$DIMLDRBLK
  1
FXTIP_ARROW_S
  9
$DIMLUNIT
 70
     2
  9
$DIMLWD
 70
    -2
  9
$DIMLWE
 70
    -2
  9
$DIMTMOVE
 70
     0
  9
$LUNITS
 70
     2
  9
$LUPREC
 70
     4
  9
$SKETCHINC
 40
1.0
  9
$FILLETRAD
 40
10.0
  9
$AUNITS
 70
     0
  9
$AUPREC
 70
     0
  9
$MENU
  1
.
  9
$ELEVATION
 40
0.0
  9
$PELEVATION
 40
0.0
  9
$THICKNESS
 40
0.0
  9
$LIMCHECK
 70
     0
  9
$CHAMFERA
 40
10.0
  9
$CHAMFERB
 40
10.0
  9
$CHAMFERC
 40
20.0
  9
$CHAMFERD
 40
0.0
  9
$SKPOLY
 70
     0
  9
$TDCREATE
 40
2456668.789951921
  9
$TDUCREATE
 40
2456668.414951921
  9
$TDUPDATE
 40
2456672.769536782
  9
$TDUUPDATE
 40
2456672.394536782
  9
$TDINDWG
 40
0.0071484722
  9
$TDUSRTIMER
 40
0.0071468403
  9
$USRTIMER
 70
     1
  9
$ANGBASE
 50
0.0
  9
$ANGDIR
 70
     0
  9
$PDMODE
 70
     0
  9
$PDSIZE
 40
0.0
  9
$PLINEWID
 40
0.0
  9
$SPLFRAME
 70
     0
  9
$SPLINETYPE
 70
     6
  9
$SPLINESEGS
 70
     8
  9
$HANDSEED
  5
25E
  9
$SURFTAB1
 70
     6
  9
$SURFTAB2
 70
     6
  9
$SURFTYPE
 70
     6
  9
$SURFU
 70
     6
  9
$SURFV
 70
     6
  9
$UCSBASE
  2

  9
$UCSNAME
  2

  9
$UCSORG
 10
0.0
 20
0.0
 30
0.0
  9
$UCSXDIR
 10
1.0
 20
0.0
 30
0.0
  9
$UCSYDIR
 10
0.0
 20
1.0
 30
0.0
  9
$UCSORTHOREF
  2

  9
$UCSORTHOVIEW
 70
     0
  9
$UCSORGTOP
 10
0.0
 20
0.0
 30
0.0
  9
$UCSORGBOTTOM
 10
0.0
 20
0.0
 30
0.0
  9
$UCSORGLEFT
 10
0.0
 20
0.0
 30
0.0
  9
$UCSORGRIGHT
 10
0.0
 20
0.0
 30
0.0
  9
$UCSORGFRONT
 10
0.0
 20
0.0
 30
0.0
  9
$UCSORGBACK
 10
0.0
 20
0.0
 30
0.0
  9
$PUCSBASE
  2

  9
$PUCSNAME
  2

  9
$PUCSORG
 10
0.0
 20
0.0
 30
0.0
  9
$PUCSXDIR
 10
1.0
 20
0.0
 30
0.0
  9
$PUCSYDIR
 10
0.0
 20
1.0
 30
0.0
  9
$PUCSORTHOREF
  2

  9
$PUCSORTHOVIEW
 70
     0
  9
$PUCSORGTOP
 10
0.0
 20
0.0
 30
0.0
  9
$PUCSORGBOTTOM
 10
0.0
 20
0.0
 30
0.0
  9
$PUCSORGLEFT
 10
0.0
 20
0.0
 30
0.0
  9
$PUCSORGRIGHT
 10
0.0
 20
0.0
 30
0.0
  9
$PUCSORGFRONT
 10
0.0
 20
0.0
 30
0.0
  9
$PUCSORGBACK
 10
0.0
 20
0.0
 30
0.0
  9
$USERI1
 70
     0
  9
$USERI2
 70
     0
  9
$USERI3
 70
     0
  9
$USERI4
 70
     0
  9
$USERI5
 70
     0
  9
$USERR1
 40
0.0
  9
$USERR2
 40
0.0
  9
$USERR3
 40
0.0
  9
$USERR4
 40
0.0
  9
$USERR5
 40
0.0
  9
$WORLDVIEW
 70
     1
  9
$SHADEDGE
 70
     3
  9
$SHADEDIF
 70
    70
  9
$TILEMODE
 70
     1
  9
$MAXACTVP
 70
    64
  9
$PINSBASE
 10
0.0
 20
0.0
 30
0.0
  9
$PLIMCHECK
 70
     0
  9
$PEXTMIN
 10
1.000000000000000E+20
 20
1.000000000000000E+20
 30
1.000000000000000E+20
  9
$PEXTMAX
 10
-1.000000000000000E+20
 20
-1.000000000000000E+20
 30
-1.000000000000000E+20
  9
$PLIMMIN
 10
0.0
 20
0.0
  9
$PLIMMAX
 10
420.0
 20
297.0
  9
$UNITMODE
 70
     0
  9
$VISRETAIN
 70
     1
  9
$PLINEGEN
 70
     0
  9
$PSLTSCALE
 70
     1
  9
$TREEDEPTH
 70
  3020
  9
$CMLSTYLE
  2
Standard
  9
$CMLJUST
 70
     0
  9
$CMLSCALE
 40
20.0
  9
$PROXYGRAPHICS
 70
     1
  9
$MEASUREMENT
 70
     1
  9
$CELWEIGHT
370
    -1
  9
$ENDCAPS
280
     0
  9
$JOINSTYLE
280
     0
  9
$LWDISPLAY
290
     0
  9
$INSUNITS
 70
     4
  9
$HYPERLINKBASE
  1

  9
$STYLESHEET
  1
MONOCHROME.CTB
  9
$XEDIT
290
     1
  9
$CEPSNTYPE
380
     0
  9
$PSTYLEMODE
290
     1
  9
$FINGERPRINTGUID
  2
{4D0875D3-15E2-4AE8-9386-39EEA184E781}
  9
$VERSIONGUID
  2
{5C2DD49F-5D0F-4B16-B458-3E8904B194D1}
  9
$EXTNAMES
290
     1
  9
$PSVPSCALE
 40
0.0
  9
$OLESTARTUP
290
     0
  0
ENDSEC
  0
SECTION
  2
CLASSES
  0
CLASS
  1
ACDBDICTIONARYWDFLT
  2
AcDbDictionaryWithDefault
  3
AutoCAD 2000
 90
        0
280
     0
281
     0
  0
CLASS
  1
VISUALSTYLE
  2
AcDbVisualStyle
  3
ObjectDBX Classes
 90
     4095
280
     0
281
     0
  0
CLASS
  1
DICTIONARYVAR
  2
AcDbDictionaryVar
  3
AutoCAD 2000
 90
        0
280
     0
281
     0
  0
CLASS
  1
ACDBPLACEHOLDER
  2
AcDbPlaceHolder
  3
AutoCAD 2000
 90
        0
280
     0
281
     0
  0
CLASS
  1
LAYOUT
  2
AcDbLayout
  3
AutoCAD 2000
 90
        0
280
     0
281
     0
  0
ENDSEC
  0
SECTION
  2
TABLES
  0
TABLE
  2
VPORT
  5
8
330
0
100
AcDbSymbolTable
 70
     4
  0
VPORT
  5
25D
330
8
100
AcDbSymbolTableRecord
100
AcDbViewportTableRecord
  2
*Active
 70
     0
 10
0.0
 20
0.0
 11
1.0
 21
1.0
 12
106.9449355934511
 22
105.0
 13
0.0
 23
0.0
 14
10.0
 24
10.0
 15
10.0
 25
10.0
 16
0.0
 26
0.0
 36
1.0
 17
0.0
 27
0.0
 37
0.0
 40
212.2340425531914
 41
2.119005328596802
 42
50.0
 43
0.0
 44
0.0
 50
0.0
 51
0.0
 71
     0
 72
   100
 73
     1
 74
     3
 75
     0
 76
     0
 77
     0
 78
     0
281
     0
 65
     1
110
0.0
120
0.0
130
0.0
111
1.0
121
0.0
131
0.0
112
0.0
122
1.0
132
0.0
 79
     0
146
0.0
  0
ENDTAB
  0
TABLE
  2
LTYPE
  5
5
330
0
100
AcDbSymbolTable
 70
     3
  0
LTYPE
  5
14
330
5
100
AcDbSymbolTableRecord
100
AcDbLinetypeTableRecord
  2
ByBlock
 70
     0
  3

 72
    65
 73
     0
 40
0.0
  0
LTYPE
  5
15
330
5
100
AcDbSymbolTableRecord
100
AcDbLinetypeTableRecord
  2
ByLayer
 70
     0
  3

 72
    65
 73
     0
 40
0.0
  0
LTYPE
  5
16
330
5
100
AcDbSymbolTableRecord
100
AcDbLinetypeTableRecord
  2
Continuous
 70
     0
  3
Continuous ___________________________________
 72
    65
 73
     0
 40
0.0
  0
LTYPE
  5
3B
330
5
100
AcDbSymbolTableRecord
100
AcDbLinetypeTableRecord
  2
DASHDOT
 70
     0
  3
Dash dot __ . __ . __ . __ . __ . __ . __ . __
 72
    65
 73
     4
 40
25.3
 49
12.7
 74
     0
 49
-6.299999999999998
 74
     0
 49
0.0
 74
     0
 49
-6.299999999999998
 74
     0
  0
LTYPE
  5
3E
330
5
100
AcDbSymbolTableRecord
100
AcDbLinetypeTableRecord
  2
DASHED
 70
     0
  3
Dashed __ __ __ __ __ __ __ __ __ __ __ __ __ _
 72
    65
 73
     2
 40
19.0
 49
12.7
 74
     0
 49
-6.299999999999998
 74
     0
  0
ENDTAB
  0
TABLE
  2
LAYER
  5
2
330
0
100
AcDbSymbolTable
 70
     5
  0
LAYER
  5
10
330
2
100
AcDbSymbolTableRecord
100
AcDbLayerTableRecord
  2
0
 70
     0
 62
     7
  6
Continuous
370
    -3
390
F
  0
LAYER
  5
AA
330
2
100
AcDbSymbolTableRecord
100
AcDbLayerTableRecord
  2
Defpoints
 70
     0
 62
     7
  6
Continuous
290
     0
370
    -3
390
F
  0
LAYER
  5
AF
330
2
100
AcDbSymbolTableRecord
100
AcDbLayerTableRecord
  2
LAYER004
 70
     0
 62
     7
  6
Continuous
370
    -3
390
F
  0
LAYER
  5
C9
330
2
100
AcDbSymbolTableRecord
100
AcDbLayerTableRecord
  2
LAYER005
 70
     0
 62
     7
  6
Continuous
370
    -3
390
F
  0
LAYER
  5
128
330
2
100
AcDbSymbolTableRecord
100
AcDbLayerTableRecord
  2
LAYER006
 70
     0
 62
     7
  6
Continuous
370
    -3
390
F
  0
ENDTAB
  0
TABLE
  2
STYLE
  5
3
330
0
100
AcDbSymbolTable
 70
     4
  0
STYLE
  5
11
330
3
100
AcDbSymbolTableRecord
100
AcDbTextStyleTableRecord
  2
Standard
 70
     0
 40
0.0
 41
1.0
 50
0.0
 71
     0
 42
2.5
  3
txt
  4

  0
STYLE
  5
41
330
3
100
AcDbSymbolTableRecord
100
AcDbTextStyleTableRecord
  2
FX_VECTOR
 70
     0
 40
0.0
 41
1.0
 50
0.0
 71
     0
 42
0.2
  3
MONOTXT.SHX
  4
BigFont.shx
  0
STYLE
  5
A9
330
3
100
AcDbSymbolTableRecord
100
AcDbTextStyleTableRecord
  2
STYLE004
 70
     0
 40
0.0
 41
1.0
 50
0.0
 71
     0
 42
0.2
  3

  4

1001
ACAD
1000
ＭＳ ゴシック
1071
    32817
  0
STYLE
  5
B0
330
3
100
AcDbSymbolTableRecord
100
AcDbTextStyleTableRecord
  2
STYLE005
 70
     0
 40
0.0
 41
1.0
 50
0.0
 71
     0
 42
0.2
  3

  4

1001
ACAD
1000
ＭＳ 明朝
1071
    32785
  0
ENDTAB
  0
TABLE
  2
VIEW
  5
6
330
0
100
AcDbSymbolTable
 70
     0
  0
ENDTAB
  0
TABLE
  2
UCS
  5
7
330
0
100
AcDbSymbolTable
 70
     0
  0
ENDTAB
  0
TABLE
  2
APPID
  5
9
330
0
100
AcDbSymbolTable
 70
     1
  0
APPID
  5
12
330
9
100
AcDbSymbolTableRecord
100
AcDbRegAppTableRecord
  2
ACAD
 70
     0
  0
ENDTAB
  0
TABLE
  2
DIMSTYLE
  5
A
330
0
100
AcDbSymbolTable
 70
     2
100
AcDbDimStyleTable
 71
     0
  0
DIMSTYLE
105
27
330
A
100
AcDbSymbolTableRecord
100
AcDbDimStyleTableRecord
  2
ISO-25
 70
     0
 41
2.5
 42
0.625
 43
3.75
 44
1.25
 73
     0
 74
     0
 77
     1
 78
     8
140
2.5
141
2.5
143
0.03937007874016
147
0.625
171
     3
172
     1
271
     2
272
     2
274
     3
278
    44
283
     0
284
     8
340
11
  0
DIMSTYLE
105
A8
102
{ACAD_REACTORS
330
133
330
13D
330
147
330
15E
102
}
330
A
100
AcDbSymbolTableRecord
100
AcDbDimStyleTableRecord
  2
FXDIMINFO
 70
     0
 41
3.0
 42
1.0
 43
10.0
 44
1.5
 46
5.0
 73
     0
 74
     0
 77
     1
 78
     8
140
3.0
141
2.5
143
0.03937
147
0.5
171
     3
172
     1
173
     1
176
     7
177
     7
178
     7
179
     2
271
     2
272
     2
274
     3
284
     8
340
A9
341
42
343
42
344
48
  0
ENDTAB
  0
TABLE
  2
BLOCK_RECORD
  5
1
330
0
100
AcDbSymbolTable
 70
    29
  0
BLOCK_RECORD
  5
1F
330
1
100
AcDbSymbolTableRecord
100
AcDbBlockTableRecord
  2
*Model_Space
340
22
  0
BLOCK_RECORD
  5
1B
330
1
100
AcDbSymbolTableRecord
100
AcDbBlockTableRecord
  2
*Paper_Space
340
1E
  0
BLOCK_RECORD
  5
23
330
1
100
AcDbSymbolTableRecord
100
AcDbBlockTableRecord
  2
*Paper_Space0
340
26
  0
BLOCK_RECORD
  5
42
330
1
100
AcDbSymbolTableRecord
100
AcDbBlockTableRecord
  2
FXTIP_ARROW_S
340
0
102
{BLKREFS
331
139
331
143
331
14D
331
157
331
167
331
19E
331
1A7
331
1B0
331
1B9
331
1F0
331
1F9
331
202
331
20B
331
214
331
21F
331
228
331
231
331
23A
331
243
331
24C
331
255
102
}
  0
BLOCK_RECORD
  5
48
330
1
100
AcDbSymbolTableRecord
100
AcDbBlockTableRecord
  2
FXTIP_ARROW_E
340
0
102
{BLKREFS
331
13A
331
144
331
14E
331
169
331
19F
331
1A8
331
1B1
331
1BA
331
1F1
331
1FA
331
203
331
20C
331
215
331
220
331
229
331
232
331
23B
331
244
331
24D
331
256
102
}
  0
BLOCK_RECORD
  5
4E
330
1
100
AcDbSymbolTableRecord
100
AcDbBlockTableRecord
  2
FXTIP_BLACKDOT_S
340
0
  0
BLOCK_RECORD
  5
54
330
1
100
AcDbSymbolTableRecord
100
AcDbBlockTableRecord
  2
FXTIP_BLACKDOT_E
340
0
  0
BLOCK_RECORD
  5
5A
330
1
100
AcDbSymbolTableRecord
100
AcDbBlockTableRecord
  2
FXTIP_TRIANGLE_S
340
0
  0
BLOCK_RECORD
  5
61
330
1
100
AcDbSymbolTableRecord
100
AcDbBlockTableRecord
  2
FXTIP_TRIANGLE_E
340
0
  0
BLOCK_RECORD
  5
68
330
1
100
AcDbSymbolTableRecord
100
AcDbBlockTableRecord
  2
FXTIP_ARCHITECT_S
340
0
  0
BLOCK_RECORD
  5
6E
330
1
100
AcDbSymbolTableRecord
100
AcDbBlockTableRecord
  2
FXTIP_ARCHITECT_E
340
0
  0
BLOCK_RECORD
  5
74
330
1
100
AcDbSymbolTableRecord
100
AcDbBlockTableRecord
  2
FXTIP_CIVIL_S
340
0
  0
BLOCK_RECORD
  5
7A
330
1
100
AcDbSymbolTableRecord
100
AcDbBlockTableRecord
  2
FXTIP_CIVIL_E
340
0
  0
BLOCK_RECORD
  5
80
330
1
100
AcDbSymbolTableRecord
100
AcDbBlockTableRecord
  2
FXTIP_WHITEDOT_S
340
0
  0
BLOCK_RECORD
  5
85
330
1
100
AcDbSymbolTableRecord
100
AcDbBlockTableRecord
  2
FXTIP_WHITEDOT_E
340
0
  0
BLOCK_RECORD
  5
8A
330
1
100
AcDbSymbolTableRecord
100
AcDbBlockTableRecord
  2
FXTIP_UPARROW_S
340
0
  0
BLOCK_RECORD
  5
8F
330
1
100
AcDbSymbolTableRecord
100
AcDbBlockTableRecord
  2
FXTIP_UPARROW_E
340
0
  0
BLOCK_RECORD
  5
94
330
1
100
AcDbSymbolTableRecord
100
AcDbBlockTableRecord
  2
FXTIP_DOWNARROW_S
340
0
  0
BLOCK_RECORD
  5
99
330
1
100
AcDbSymbolTableRecord
100
AcDbBlockTableRecord
  2
FXTIP_DOWNARROW_E
340
0
  0
BLOCK_RECORD
  5
9E
330
1
100
AcDbSymbolTableRecord
100
AcDbBlockTableRecord
  2
FXTIP_BLACKTRIANGLE_S
340
0
  0
BLOCK_RECORD
  5
A3
330
1
100
AcDbSymbolTableRecord
100
AcDbBlockTableRecord
  2
FXTIP_BLACKTRIANGLE_E
340
0
  0
BLOCK_RECORD
  5
AB
330
1
100
AcDbSymbolTableRecord
100
AcDbBlockTableRecord
  2
BLKF021
340
0
102
{BLKREFS
331
AE
102
}
  0
BLOCK_RECORD
  5
C5
330
1
100
AcDbSymbolTableRecord
100
AcDbBlockTableRecord
  2
BLKF022
340
0
102
{BLKREFS
331
C8
102
}
  0
BLOCK_RECORD
  5
10D
330
1
100
AcDbSymbolTableRecord
100
AcDbBlockTableRecord
  2
BLKF023
340
0
102
{BLKREFS
331
110
102
}
  0
BLOCK_RECORD
  5
118
330
1
100
AcDbSymbolTableRecord
100
AcDbBlockTableRecord
  2
BLKF024
340
0
102
{BLKREFS
331
11B
102
}
  0
BLOCK_RECORD
  5
134
330
1
100
AcDbSymbolTableRecord
100
AcDbBlockTableRecord
  2
*D23
340
0
  0
BLOCK_RECORD
  5
13E
330
1
100
AcDbSymbolTableRecord
100
AcDbBlockTableRecord
  2
*D24
340
0
  0
BLOCK_RECORD
  5
148
330
1
100
AcDbSymbolTableRecord
100
AcDbBlockTableRecord
  2
*D25
340
0
  0
BLOCK_RECORD
  5
152
330
1
100
AcDbSymbolTableRecord
100
AcDbBlockTableRecord
  2
FXDIM028
340
0
102
{BLKREFS
331
155
102
}
  0
BLOCK_RECORD
  5
15F
330
1
100
AcDbSymbolTableRecord
100
AcDbBlockTableRecord
  2
*D27
340
0
  0
BLOCK_RECORD
  5
178
330
1
100
AcDbSymbolTableRecord
100
AcDbBlockTableRecord
  2
BLKF030
340
0
102
{BLKREFS
331
17B
102
}
  0
ENDTAB
  0
ENDSEC
  0
SECTION
  2
BLOCKS
  0
BLOCK
  5
20
330
1F
100
AcDbEntity
  8
0
100
AcDbBlockBegin
  2
*Model_Space
 70
     0
 10
0.0
 20
0.0
 30
0.0
  3
*Model_Space
  1

  0
ENDBLK
  5
21
330
1F
100
AcDbEntity
  8
0
100
AcDbBlockEnd
  0
BLOCK
  5
1C
330
1B
100
AcDbEntity
 67
     1
  8
0
100
AcDbBlockBegin
  2
*Paper_Space
 70
     0
 10
0.0
 20
0.0
 30
0.0
  3
*Paper_Space
  1

  0
ENDBLK
  5
1D
330
1B
100
AcDbEntity
 67
     1
  8
0
100
AcDbBlockEnd
  0
BLOCK
  5
24
330
23
100
AcDbEntity
  8
0
100
AcDbBlockBegin
  2
*Paper_Space0
 70
     0
 10
0.0
 20
0.0
 30
0.0
  3
*Paper_Space0
  1

  0
ENDBLK
  5
25
330
23
100
AcDbEntity
  8
0
100
AcDbBlockEnd
  0
BLOCK
  5
43
330
42
100
AcDbEntity
  8
0
100
AcDbBlockBegin
  2
FXTIP_ARROW_S
 70
     0
 10
0.0
 20
0.0
 30
0.0
  3
FXTIP_ARROW_S
  1

  0
LINE
  5
45
330
42
100
AcDbEntity
  8
0
  6
Continuous
 62
     0
370
    -2
100
AcDbLine
 10
0.0
 20
0.0
 30
0.0
 11
-1.0
 21
0.0000000000000001
 31
0.0
  0
LINE
  5
46
330
42
100
AcDbEntity
  8
0
  6
Continuous
 62
     0
370
    -2
100
AcDbLine
 10
0.0
 20
0.0
 30
0.0
 11
-0.9659258262890684
 21
-0.2588190451025206
 31
0.0
  0
LINE
  5
47
330
42
100
AcDbEntity
  8
0
  6
Continuous
 62
     0
370
    -2
100
AcDbLine
 10
0.0
 20
0.0
 30
0.0
 11
-0.9659258262890684
 21
0.2588190451025209
 31
0.0
  0
ENDBLK
  5
44
330
42
100
AcDbEntity
  8
0
100
AcDbBlockEnd
  0
BLOCK
  5
49
330
48
100
AcDbEntity
  8
0
100
AcDbBlockBegin
  2
FXTIP_ARROW_E
 70
     0
 10
0.0
 20
0.0
 30
0.0
  3
FXTIP_ARROW_E
  1

  0
LINE
  5
4B
330
48
100
AcDbEntity
  8
0
  6
Continuous
 62
     0
370
    -2
100
AcDbLine
 10
0.0
 20
0.0
 30
0.0
 11
-1.0
 21
0.0
 31
0.0
  0
LINE
  5
4C
330
48
100
AcDbEntity
  8
0
  6
Continuous
 62
     0
370
    -2
100
AcDbLine
 10
0.0
 20
0.0
 30
0.0
 11
-0.9659258262890684
 21
0.2588190451025207
 31
0.0
  0
LINE
  5
4D
330
48
100
AcDbEntity
  8
0
  6
Continuous
 62
     0
370
    -2
100
AcDbLine
 10
0.0
 20
0.0
 30
0.0
 11
-0.9659258262890684
 21
-0.2588190451025207
 31
0.0
  0
ENDBLK
  5
4A
330
48
100
AcDbEntity
  8
0
100
AcDbBlockEnd
  0
BLOCK
  5
4F
330
4E
100
AcDbEntity
  8
0
100
AcDbBlockBegin
  2
FXTIP_BLACKDOT_S
 70
     0
 10
0.0
 20
0.0
 30
0.0
  3
FXTIP_BLACKDOT_S
  1

  0
LINE
  5
51
330
4E
100
AcDbEntity
  8
0
  6
Continuous
 62
     0
370
    -2
100
AcDbLine
 10
0.0
 20
0.0
 30
0.0
 11
-1.0
 21
0.0000000000000001
 31
0.0
  0
LWPOLYLINE
  5
52
330
4E
100
AcDbEntity
  8
0
  6
Continuous
 62
     0
370
    -2
100
AcDbPolyline
 90
        2
 70
     1
 43
0.5
 10
-0.25
 20
0.0
 42
1.0
 10
0.25
 20
0.0
 42
1.0
  0
CIRCLE
  5
53
330
4E
100
AcDbEntity
  8
0
  6
Continuous
 62
     0
370
    -2
100
AcDbCircle
 10
0.0
 20
0.0
 30
0.0
 40
0.5
  0
ENDBLK
  5
50
330
4E
100
AcDbEntity
  8
0
100
AcDbBlockEnd
  0
BLOCK
  5
55
330
54
100
AcDbEntity
  8
0
100
AcDbBlockBegin
  2
FXTIP_BLACKDOT_E
 70
     0
 10
0.0
 20
0.0
 30
0.0
  3
FXTIP_BLACKDOT_E
  1

  0
LINE
  5
57
330
54
100
AcDbEntity
  8
0
  6
Continuous
 62
     0
370
    -2
100
AcDbLine
 10
0.0
 20
0.0
 30
0.0
 11
-1.0
 21
0.0
 31
0.0
  0
LWPOLYLINE
  5
58
330
54
100
AcDbEntity
  8
0
  6
Continuous
 62
     0
370
    -2
100
AcDbPolyline
 90
        2
 70
     1
 43
0.5
 10
-0.25
 20
0.0
 42
1.0
 10
0.25
 20
0.0
 42
1.0
  0
CIRCLE
  5
59
330
54
100
AcDbEntity
  8
0
  6
Continuous
 62
     0
370
    -2
100
AcDbCircle
 10
0.0
 20
0.0
 30
0.0
 40
0.5
  0
ENDBLK
  5
56
330
54
100
AcDbEntity
  8
0
100
AcDbBlockEnd
  0
BLOCK
  5
5B
330
5A
100
AcDbEntity
  8
0
100
AcDbBlockBegin
  2
FXTIP_TRIANGLE_S
 70
     0
 10
0.0
 20
0.0
 30
0.0
  3
FXTIP_TRIANGLE_S
  1

  0
LINE
  5
5D
330
5A
100
AcDbEntity
  8
0
  6
Continuous
 62
     0
370
    -2
100
AcDbLine
 10
0.0
 20
0.0
 30
0.0
 11
-1.0
 21
0.0000000000000001
 31
0.0
  0
LINE
  5
5E
330
5A
100
AcDbEntity
  8
0
  6
Continuous
 62
     0
370
    -2
100
AcDbLine
 10
0.0
 20
0.0
 30
0.0
 11
-0.9659258262890684
 21
-0.2588190451025206
 31
0.0
  0
LINE
  5
5F
330
5A
100
AcDbEntity
  8
0
  6
Continuous
 62
     0
370
    -2
100
AcDbLine
 10
0.0
 20
0.0
 30
0.0
 11
-0.9659258262890684
 21
0.2588190451025209
 31
0.0
  0
LINE
  5
60
330
5A
100
AcDbEntity
  8
0
  6
Continuous
 62
     0
370
    -2
100
AcDbLine
 10
-0.9659258262890684
 20
-0.2588190451025206
 30
0.0
 11
-0.9659258262890684
 21
0.2588190451025209
 31
0.0
  0
ENDBLK
  5
5C
330
5A
100
AcDbEntity
  8
0
100
AcDbBlockEnd
  0
BLOCK
  5
62
330
61
100
AcDbEntity
  8
0
100
AcDbBlockBegin
  2
FXTIP_TRIANGLE_E
 70
     0
 10
0.0
 20
0.0
 30
0.0
  3
FXTIP_TRIANGLE_E
  1

  0
LINE
  5
64
330
61
100
AcDbEntity
  8
0
  6
Continuous
 62
     0
370
    -2
100
AcDbLine
 10
0.0
 20
0.0
 30
0.0
 11
-1.0
 21
0.0
 31
0.0
  0
LINE
  5
65
330
61
100
AcDbEntity
  8
0
  6
Continuous
 62
     0
370
    -2
100
AcDbLine
 10
0.0
 20
0.0
 30
0.0
 11
-0.9659258262890684
 21
0.2588190451025207
 31
0.0
  0
LINE
  5
66
330
61
100
AcDbEntity
  8
0
  6
Continuous
 62
     0
370
    -2
100
AcDbLine
 10
0.0
 20
0.0
 30
0.0
 11
-0.9659258262890684
 21
-0.2588190451025207
 31
0.0
  0
LINE
  5
67
330
61
100
AcDbEntity
  8
0
  6
Continuous
 62
     0
370
    -2
100
AcDbLine
 10
-0.9659258262890684
 20
0.2588190451025207
 30
0.0
 11
-0.9659258262890684
 21
-0.2588190451025207
 31
0.0
  0
ENDBLK
  5
63
330
61
100
AcDbEntity
  8
0
100
AcDbBlockEnd
  0
BLOCK
  5
69
330
68
100
AcDbEntity
  8
0
100
AcDbBlockBegin
  2
FXTIP_ARCHITECT_S
 70
     0
 10
0.0
 20
0.0
 30
0.0
  3
FXTIP_ARCHITECT_S
  1

  0
LINE
  5
6B
330
68
100
AcDbEntity
  8
0
  6
Continuous
 62
     0
370
    -2
100
AcDbLine
 10
0.0
 20
0.0
 30
0.0
 11
-1.0
 21
0.0000000000000001
 31
0.0
  0
LINE
  5
6C
330
68
100
AcDbEntity
  8
0
  6
Continuous
 62
     0
370
    -2
100
AcDbLine
 10
0.0
 20
0.0
 30
0.0
 11
-0.7071067811865476
 21
-0.7071067811865474
 31
0.0
  0
LINE
  5
6D
330
68
100
AcDbEntity
  8
0
  6
Continuous
 62
     0
370
    -2
100
AcDbLine
 10
0.0
 20
0.0
 30
0.0
 11
0.7071067811865476
 21
0.7071067811865474
 31
0.0
  0
ENDBLK
  5
6A
330
68
100
AcDbEntity
  8
0
100
AcDbBlockEnd
  0
BLOCK
  5
6F
330
6E
100
AcDbEntity
  8
0
100
AcDbBlockBegin
  2
FXTIP_ARCHITECT_E
 70
     0
 10
0.0
 20
0.0
 30
0.0
  3
FXTIP_ARCHITECT_E
  1

  0
LINE
  5
71
330
6E
100
AcDbEntity
  8
0
  6
Continuous
 62
     0
370
    -2
100
AcDbLine
 10
0.0
 20
0.0
 30
0.0
 11
-1.0
 21
0.0
 31
0.0
  0
LINE
  5
72
330
6E
100
AcDbEntity
  8
0
  6
Continuous
 62
     0
370
    -2
100
AcDbLine
 10
0.0
 20
0.0
 30
0.0
 11
0.7071067811865475
 21
0.7071067811865475
 31
0.0
  0
LINE
  5
73
330
6E
100
AcDbEntity
  8
0
  6
Continuous
 62
     0
370
    -2
100
AcDbLine
 10
0.0
 20
0.0
 30
0.0
 11
-0.7071067811865475
 21
-0.7071067811865475
 31
0.0
  0
ENDBLK
  5
70
330
6E
100
AcDbEntity
  8
0
100
AcDbBlockEnd
  0
BLOCK
  5
75
330
74
100
AcDbEntity
  8
0
100
AcDbBlockBegin
  2
FXTIP_CIVIL_S
 70
     0
 10
0.0
 20
0.0
 30
0.0
  3
FXTIP_CIVIL_S
  1

  0
LINE
  5
77
330
74
100
AcDbEntity
  8
0
  6
Continuous
 62
     0
370
    -2
100
AcDbLine
 10
0.0
 20
0.0
 30
0.0
 11
-1.0
 21
0.0000000000000001
 31
0.0
  0
LINE
  5
78
330
74
100
AcDbEntity
  8
0
  6
Continuous
 62
     0
370
    -2
100
AcDbLine
 10
0.0
 20
-0.0833333333333333
 30
0.0
 11
-1.0
 21
-0.0833333333333332
 31
0.0
  0
LINE
  5
79
330
74
100
AcDbEntity
  8
0
  6
Continuous
 62
     0
370
    -2
100
AcDbLine
 10
0.0
 20
-0.1666666666666667
 30
0.0
 11
-1.0
 21
-0.1666666666666666
 31
0.0
  0
ENDBLK
  5
76
330
74
100
AcDbEntity
  8
0
100
AcDbBlockEnd
  0
BLOCK
  5
7B
330
7A
100
AcDbEntity
  8
0
100
AcDbBlockBegin
  2
FXTIP_CIVIL_E
 70
     0
 10
0.0
 20
0.0
 30
0.0
  3
FXTIP_CIVIL_E
  1

  0
LINE
  5
7D
330
7A
100
AcDbEntity
  8
0
  6
Continuous
 62
     0
370
    -2
100
AcDbLine
 10
0.0
 20
0.0
 30
0.0
 11
-1.0
 21
0.0
 31
0.0
  0
LINE
  5
7E
330
7A
100
AcDbEntity
  8
0
  6
Continuous
 62
     0
370
    -2
100
AcDbLine
 10
0.0
 20
0.0833333333333333
 30
0.0
 11
-1.0
 21
0.0833333333333333
 31
0.0
  0
LINE
  5
7F
330
7A
100
AcDbEntity
  8
0
  6
Continuous
 62
     0
370
    -2
100
AcDbLine
 10
0.0
 20
0.1666666666666667
 30
0.0
 11
-1.0
 21
0.1666666666666667
 31
0.0
  0
ENDBLK
  5
7C
330
7A
100
AcDbEntity
  8
0
100
AcDbBlockEnd
  0
BLOCK
  5
81
330
80
100
AcDbEntity
  8
0
100
AcDbBlockBegin
  2
FXTIP_WHITEDOT_S
 70
     0
 10
0.0
 20
0.0
 30
0.0
  3
FXTIP_WHITEDOT_S
  1

  0
LINE
  5
83
330
80
100
AcDbEntity
  8
0
  6
Continuous
 62
     0
370
    -2
100
AcDbLine
 10
0.0
 20
0.0
 30
0.0
 11
-1.0
 21
0.0000000000000001
 31
0.0
  0
CIRCLE
  5
84
330
80
100
AcDbEntity
  8
0
  6
Continuous
 62
     0
370
    -2
100
AcDbCircle
 10
0.0
 20
0.0
 30
0.0
 40
0.5
  0
ENDBLK
  5
82
330
80
100
AcDbEntity
  8
0
100
AcDbBlockEnd
  0
BLOCK
  5
86
330
85
100
AcDbEntity
  8
0
100
AcDbBlockBegin
  2
FXTIP_WHITEDOT_E
 70
     0
 10
0.0
 20
0.0
 30
0.0
  3
FXTIP_WHITEDOT_E
  1

  0
LINE
  5
88
330
85
100
AcDbEntity
  8
0
  6
Continuous
 62
     0
370
    -2
100
AcDbLine
 10
0.0
 20
0.0
 30
0.0
 11
-1.0
 21
0.0
 31
0.0
  0
CIRCLE
  5
89
330
85
100
AcDbEntity
  8
0
  6
Continuous
 62
     0
370
    -2
100
AcDbCircle
 10
0.0
 20
0.0
 30
0.0
 40
0.5
  0
ENDBLK
  5
87
330
85
100
AcDbEntity
  8
0
100
AcDbBlockEnd
  0
BLOCK
  5
8B
330
8A
100
AcDbEntity
  8
0
100
AcDbBlockBegin
  2
FXTIP_UPARROW_S
 70
     0
 10
0.0
 20
0.0
 30
0.0
  3
FXTIP_UPARROW_S
  1

  0
LINE
  5
8D
330
8A
100
AcDbEntity
  8
0
  6
Continuous
 62
     0
370
    -2
100
AcDbLine
 10
0.0
 20
0.0
 30
0.0
 11
-1.0
 21
0.0000000000000001
 31
0.0
  0
LINE
  5
8E
330
8A
100
AcDbEntity
  8
0
  6
Continuous
 62
     0
370
    -2
100
AcDbLine
 10
0.0
 20
0.0
 30
0.0
 11
-0.9659258262890684
 21
-0.2588190451025206
 31
0.0
  0
ENDBLK
  5
8C
330
8A
100
AcDbEntity
  8
0
100
AcDbBlockEnd
  0
BLOCK
  5
90
330
8F
100
AcDbEntity
  8
0
100
AcDbBlockBegin
  2
FXTIP_UPARROW_E
 70
     0
 10
0.0
 20
0.0
 30
0.0
  3
FXTIP_UPARROW_E
  1

  0
LINE
  5
92
330
8F
100
AcDbEntity
  8
0
  6
Continuous
 62
     0
370
    -2
100
AcDbLine
 10
0.0
 20
0.0
 30
0.0
 11
-1.0
 21
0.0
 31
0.0
  0
LINE
  5
93
330
8F
100
AcDbEntity
  8
0
  6
Continuous
 62
     0
370
    -2
100
AcDbLine
 10
0.0
 20
0.0
 30
0.0
 11
-0.9659258262890684
 21
0.2588190451025207
 31
0.0
  0
ENDBLK
  5
91
330
8F
100
AcDbEntity
  8
0
100
AcDbBlockEnd
  0
BLOCK
  5
95
330
94
100
AcDbEntity
  8
0
100
AcDbBlockBegin
  2
FXTIP_DOWNARROW_S
 70
     0
 10
0.0
 20
0.0
 30
0.0
  3
FXTIP_DOWNARROW_S
  1

  0
LINE
  5
97
330
94
100
AcDbEntity
  8
0
  6
Continuous
 62
     0
370
    -2
100
AcDbLine
 10
0.0
 20
0.0
 30
0.0
 11
-1.0
 21
0.0000000000000001
 31
0.0
  0
LINE
  5
98
330
94
100
AcDbEntity
  8
0
  6
Continuous
 62
     0
370
    -2
100
AcDbLine
 10
0.0
 20
0.0
 30
0.0
 11
-0.9659258262890684
 21
0.2588190451025209
 31
0.0
  0
ENDBLK
  5
96
330
94
100
AcDbEntity
  8
0
100
AcDbBlockEnd
  0
BLOCK
  5
9A
330
99
100
AcDbEntity
  8
0
100
AcDbBlockBegin
  2
FXTIP_DOWNARROW_E
 70
     0
 10
0.0
 20
0.0
 30
0.0
  3
FXTIP_DOWNARROW_E
  1

  0
LINE
  5
9C
330
99
100
AcDbEntity
  8
0
  6
Continuous
 62
     0
370
    -2
100
AcDbLine
 10
0.0
 20
0.0
 30
0.0
 11
-1.0
 21
0.0
 31
0.0
  0
LINE
  5
9D
330
99
100
AcDbEntity
  8
0
  6
Continuous
 62
     0
370
    -2
100
AcDbLine
 10
0.0
 20
0.0
 30
0.0
 11
-0.9659258262890684
 21
-0.2588190451025207
 31
0.0
  0
ENDBLK
  5
9B
330
99
100
AcDbEntity
  8
0
100
AcDbBlockEnd
  0
BLOCK
  5
9F
330
9E
100
AcDbEntity
  8
0
100
AcDbBlockBegin
  2
FXTIP_BLACKTRIANGLE_S
 70
     0
 10
0.0
 20
0.0
 30
0.0
  3
FXTIP_BLACKTRIANGLE_S
  1

  0
LINE
  5
A1
330
9E
100
AcDbEntity
  8
0
  6
Continuous
 62
     0
370
    -2
100
AcDbLine
 10
0.0
 20
0.0
 30
0.0
 11
-1.0
 21
0.0000000000000001
 31
0.0
  0
SOLID
  5
A2
330
9E
100
AcDbEntity
  8
0
  6
Continuous
 62
     0
370
    -2
100
AcDbTrace
 10
0.0
 20
0.0
 30
0.0
 11
-0.9659258262890684
 21
-0.2588190451025206
 31
0.0
 12
-0.9659258262890684
 22
0.2588190451025209
 32
0.0
 13
-0.9659258262890684
 23
0.2588190451025209
 33
0.0
  0
ENDBLK
  5
A0
330
9E
100
AcDbEntity
  8
0
100
AcDbBlockEnd
  0
BLOCK
  5
A4
330
A3
100
AcDbEntity
  8
0
100
AcDbBlockBegin
  2
FXTIP_BLACKTRIANGLE_E
 70
     0
 10
0.0
 20
0.0
 30
0.0
  3
FXTIP_BLACKTRIANGLE_E
  1

  0
LINE
  5
A6
330
A3
100
AcDbEntity
  8
0
  6
Continuous
 62
     0
370
    -2
100
AcDbLine
 10
0.0
 20
0.0
 30
0.0
 11
-1.0
 21
0.0
 31
0.0
  0
SOLID
  5
A7
330
A3
100
AcDbEntity
  8
0
  6
Continuous
 62
     0
370
    -2
100
AcDbTrace
 10
0.0
 20
0.0
 30
0.0
 11
-0.9659258262890684
 21
0.2588190451025207
 31
0.0
 12
-0.9659258262890684
 22
-0.2588190451025207
 32
0.0
 13
-0.9659258262890684
 23
-0.2588190451025207
 33
0.0
  0
ENDBLK
  5
A5
330
A3
100
AcDbEntity
  8
0
100
AcDbBlockEnd
  0
BLOCK
  5
AC
330
AB
100
AcDbEntity
  8
0
100
AcDbBlockBegin
  2
BLKF021
 70
     0
 10
0.0
 20
0.0
 30
0.0
  3
BLKF021
  1

  0
TEXT
  5
B1
330
AB
100
AcDbEntity
  8
LAYER004
  6
Continuous
 62
     6
370
    20
100
AcDbText
 10
7.583326339721678
 20
200.2904663085938
 30
0.0
 40
2.0
  1
光学系、レンズ、HLL-L2
 51
15.0
  7
STYLE005
100
AcDbText
  0
TEXT
  5
B2
330
AB
100
AcDbEntity
  8
LAYER004
  6
Continuous
 62
     6
370
    20
100
AcDbText
 10
7.583326339721678
 20
194.2904663085938
 30
0.0
 40
2.0
  1
Gr,
 51
15.0
  7
STYLE005
100
AcDbText
  0
TEXT
  5
B3
330
AB
100
AcDbEntity
  8
LAYER004
  6
Continuous
 62
     6
370
    20
100
AcDbText
 10
7.583326339721678
 20
191.2904663085938
 30
0.0
 40
2.0
  1
Ly,
 51
15.0
  7
STYLE005
100
AcDbText
  0
TEXT
  5
B4
330
AB
100
AcDbEntity
  8
LAYER004
  6
Continuous
 62
     6
370
    20
100
AcDbText
 10
7.583326339721678
 20
197.2904663085938
 30
0.0
 40
2.0
  1
GD412260
 51
15.0
  7
STYLE005
100
AcDbText
  0
LINE
  5
B5
330
AB
100
AcDbEntity
  8
LAYER004
  6
Continuous
 62
     6
370
    20
100
AcDbLine
 10
206.5000007446083
 20
20.24999989954791
 30
0.0
 11
234.5000007446082
 21
28.24999989954791
 31
0.0
  0
TEXT
  5
B6
330
AB
100
AcDbEntity
  8
LAYER004
  6
Continuous
 62
     6
370
    20
100
AcDbText
 10
210.4999999999999
 20
22.96231269836426
 30
0.0
 40
3.0
  1
        
 41
0.8333333333333332
  7
STYLE005
100
AcDbText
  0
TEXT
  5
B7
330
AB
100
AcDbEntity
  8
LAYER004
  6
Continuous
 62
     6
370
    20
100
AcDbText
 10
130.0
 20
45.64999616146088
 30
0.0
 40
2.200000047683714
  1
２００５／０１／
 41
0.8181817787737893
  7
STYLE005
100
AcDbText
  0
TEXT
  5
B8
330
AB
100
AcDbEntity
  8
LAYER004
  6
Continuous
 62
     6
370
    20
100
AcDbText
 10
151.5
 20
45.24999618530271
 30
0.0
 40
3.0
  1
新規作成。
  7
STYLE005
100
AcDbText
  0
TEXT
  5
B9
330
AB
100
AcDbEntity
  8
LAYER004
  6
Continuous
 62
     6
370
    20
100
AcDbText
 10
276.5
 20
45.24999618530271
 30
0.0
 40
3.0
  1
大熊
  7
STYLE005
100
AcDbText
  0
TEXT
  5
BA
330
AB
100
AcDbEntity
  8
LAYER004
  6
Continuous
 62
     6
370
    20
100
AcDbText
 10
123.5
 20
13.75
 30
0.0
 40
4.0
  1
 HLL-L2;外観図
 41
0.7299999594688416
  7
STYLE005
100
AcDbText
  0
TEXT
  5
BB
330
AB
100
AcDbEntity
  8
LAYER004
  6
Continuous
 62
     6
370
    20
100
AcDbText
 10
126.3175048828125
 20
38.5
 30
0.0
 40
3.5
  1
 
 41
0.8571428571428571
  7
STYLE005
100
AcDbText
  0
TEXT
  5
BC
330
AB
100
AcDbEntity
  8
LAYER004
  6
Continuous
 62
     6
370
    20
100
AcDbText
 10
126.3175048828125
 20
30.5
 30
0.0
 40
3.5
  1
 
 41
0.8571428571428571
  7
STYLE005
100
AcDbText
  0
TEXT
  5
BD
330
AB
100
AcDbEntity
  8
LAYER004
  6
Continuous
 62
     6
370
    20
100
AcDbText
 10
213.0
 20
38.25
 30
0.0
 40
4.0
  1
２ : 1
 41
0.75
  7
STYLE005
100
AcDbText
  0
TEXT
  5
BE
330
AB
100
AcDbEntity
  8
LAYER004
  6
Continuous
 62
     6
370
    20
100
AcDbText
 10
246.4360656738281
 20
13.75
 30
0.0
 40
4.0
  1
GD412260
  7
STYLE005
100
AcDbText
  0
TEXT
  5
BF
330
AB
100
AcDbEntity
  8
LAYER004
  6
Continuous
 62
     6
370
    20
100
AcDbText
 10
213.0
 20
13.75
 30
0.0
 40
4.0
  1
１ ／ １
 41
0.75
  7
STYLE005
100
AcDbText
  0
TEXT
  5
C0
330
AB
100
AcDbEntity
  8
LAYER004
  6
Continuous
 62
     6
370
    20
100
AcDbText
 10
240.5
 20
45.24999618530271
 30
0.0
 40
3.0
  1
小池
  7
STYLE005
100
AcDbText
  0
TEXT
  5
C1
330
AB
100
AcDbEntity
  8
LAYER004
  6
Continuous
 62
     6
370
    20
100
AcDbText
 10
130.0
 20
50.74999618530273
 30
0.0
 40
2.0
  1
         
  7
STYLE005
100
AcDbText
  0
TEXT
  5
C2
330
AB
100
AcDbEntity
  8
LAYER004
  6
Continuous
 62
     6
370
    20
100
AcDbText
 10
151.5
 20
50.24999618530273
 30
0.0
 40
3.0
  1
 
  7
STYLE005
100
AcDbText
  0
TEXT
  5
C3
330
AB
100
AcDbEntity
  8
LAYER004
  6
Continuous
 62
     6
370
    20
100
AcDbText
 10
58.56393432617188
 20
188.75
 30
0.0
 40
4.0
  1
GD412260
 50
180.0
  7
STYLE005
100
AcDbText
  0
TEXT
  5
C4
330
AB
100
AcDbEntity
  8
LAYER004
  6
Continuous
 62
     6
370
    20
100
AcDbText
 10
258.4999999999999
 20
45.24999618530271
 30
0.0
 40
3.0
  1
大熊
  7
STYLE005
100
AcDbText
  0
ENDBLK
  5
AD
330
AB
100
AcDbEntity
  8
0
100
AcDbBlockEnd
  0
BLOCK
  5
C6
330
C5
100
AcDbEntity
  8
0
100
AcDbBlockBegin
  2
BLKF022
 70
     0
 10
0.0
 20
0.0
 30
0.0
  3
BLKF022
  1

  0
LINE
  5
CA
330
C5
100
AcDbEntity
  8
LAYER005
  6
Continuous
 62
     3
370
    20
100
AcDbLine
 10
49.49999999999999
 20
6.249999862811132
 30
0.0
 11
49.49999999999999
 21
11.24999986281113
 31
0.0
  0
LINE
  5
CB
330
C5
100
AcDbEntity
  8
LAYER005
  6
Continuous
 62
     3
370
    20
100
AcDbLine
 10
16.50000057220462
 20
52.49999999885197
 30
0.0
 11
11.5000005722046
 21
52.49999999885197
 31
0.0
  0
LINE
  5
CC
330
C5
100
AcDbEntity
  8
LAYER005
  6
Continuous
 62
     3
370
    20
100
AcDbLine
 10
16.50000057220462
 20
104.999999998852
 30
0.0
 11
0.0
 21
104.999999998852
 31
0.0
  0
LINE
  5
CD
330
C5
100
AcDbEntity
  8
LAYER005
  6
Continuous
 62
     3
370
    20
100
AcDbLine
 10
11.5000005722046
 20
157.499999998852
 30
0.0
 11
16.50000057220462
 21
157.499999998852
 31
0.0
  0
LINE
  5
CE
330
C5
100
AcDbEntity
  8
LAYER005
  6
Continuous
 62
     3
370
    20
100
AcDbLine
 10
49.50000000000002
 20
191.2500000062355
 30
0.0
 11
49.50000000000001
 21
196.2500000062355
 31
0.0
  0
LINE
  5
CF
330
C5
100
AcDbEntity
  8
LAYER005
  6
Continuous
 62
     3
370
    20
100
AcDbLine
 10
99.0
 20
196.250000004944
 30
0.0
 11
99.0
 21
191.250000004944
 31
0.0
  0
LINE
  5
D0
330
C5
100
AcDbEntity
  8
LAYER005
  6
Continuous
 62
     3
370
    20
100
AcDbLine
 10
148.5
 20
191.2500000036528
 30
0.0
 11
148.5
 21
210.0
 31
0.0
  0
LINE
  5
D1
330
C5
100
AcDbEntity
  8
LAYER005
  6
Continuous
 62
     3
370
    20
100
AcDbLine
 10
99.0
 20
11.24999989122473
 30
0.0
 11
99.0
 21
6.249999891224727
 31
0.0
  0
LINE
  5
D2
330
C5
100
AcDbEntity
  8
LAYER005
  6
Continuous
 62
     3
370
    20
100
AcDbLine
 10
198.0
 20
6.249999948051915
 30
0.0
 11
198.0
 21
11.24999994805192
 31
0.0
  0
LINE
  5
D3
330
C5
100
AcDbEntity
  8
LAYER005
  6
Continuous
 62
     3
370
    20
100
AcDbLine
 10
247.4999999999999
 20
11.24999997646549
 30
0.0
 11
247.5
 21
6.24999997646551
 31
0.0
  0
LINE
  5
D4
330
C5
100
AcDbEntity
  8
LAYER005
  6
Continuous
 62
     3
370
    20
100
AcDbLine
 10
288.5000005722046
 20
52.5
 30
0.0
 11
293.5000005722047
 21
52.5
 31
0.0
  0
LINE
  5
D5
330
C5
100
AcDbEntity
  8
LAYER005
  6
Continuous
 62
     3
370
    20
100
AcDbLine
 10
288.5000005722046
 20
105.0
 30
0.0
 11
297.0
 21
105.0
 31
0.0
  0
LINE
  5
D6
330
C5
100
AcDbEntity
  8
LAYER005
  6
Continuous
 62
     3
370
    20
100
AcDbLine
 10
293.5000005722045
 20
157.5
 30
0.0
 11
288.5000005722046
 21
157.5
 31
0.0
  0
LINE
  5
D7
330
C5
100
AcDbEntity
  8
LAYER005
  6
Continuous
 62
     3
370
    20
100
AcDbLine
 10
247.4999999999999
 20
191.2500000010696
 30
0.0
 11
247.4999999999999
 21
196.2500000010696
 31
0.0
  0
LINE
  5
D8
330
C5
100
AcDbEntity
  8
LAYER005
  6
Continuous
 62
     3
370
    20
100
AcDbLine
 10
198.0
 20
196.250000002361
 30
0.0
 11
198.0
 21
191.250000002361
 31
0.0
  0
TEXT
  5
D9
330
C5
100
AcDbEntity
  8
LAYER005
  6
Continuous
 62
     3
370
    20
100
AcDbText
 10
197.0
 20
22.70171737670898
 30
0.0
 40
3.0
  1
元図番
  7
STYLE005
100
AcDbText
  0
TEXT
  5
DA
330
C5
100
AcDbEntity
  8
LAYER005
  6
Continuous
 62
     3
370
    20
100
AcDbText
 10
237.5
 20
39.69192123413085
 30
0.0
 40
3.0
  1
承  認
  7
STYLE005
100
AcDbText
  0
TEXT
  5
DB
330
C5
100
AcDbEntity
  8
LAYER005
  6
Continuous
 62
     3
370
    20
100
AcDbText
 10
255.5
 20
39.69192123413085
 30
0.0
 40
3.0
  1
検  図
  7
STYLE005
100
AcDbText
  0
TEXT
  5
DC
330
C5
100
AcDbEntity
  8
LAYER005
  6
Continuous
 62
     3
370
    20
100
AcDbText
 10
273.4999999999999
 20
39.69192123413085
 30
0.0
 40
3.0
  1
作  成
  7
STYLE005
100
AcDbText
  0
TEXT
  5
DD
330
C5
100
AcDbEntity
  8
LAYER005
  6
Continuous
 62
     3
370
    20
100
AcDbText
 10
197.0
 20
30.61336898803711
 30
0.0
 40
3.0
  1
投影法
  7
STYLE005
100
AcDbText
  0
TEXT
  5
DE
330
C5
100
AcDbEntity
  8
LAYER005
  6
Continuous
 62
     3
370
    20
100
AcDbText
 10
211.5
 20
30.49999618530273
 30
0.0
 40
3.5
  1
第三角法
 41
1.285714285714284
  7
STYLE005
100
AcDbText
  0
TEXT
  5
DF
330
C5
100
AcDbEntity
  8
LAYER005
  6
Continuous
 62
     3
370
    20
100
AcDbText
 10
198.5
 20
38.81803512573242
 30
0.0
 40
3.0
  1
尺度
  7
STYLE005
100
AcDbText
  0
TEXT
  5
E0
330
C5
100
AcDbEntity
  8
LAYER005
  6
Continuous
 62
     3
370
    20
100
AcDbText
 10
197.0
 20
14.32122325897217
 30
0.0
 40
3.0
  1
ページ
  7
STYLE005
100
AcDbText
  0
TEXT
  5
E1
330
C5
100
AcDbEntity
  8
LAYER005
  6
Continuous
 62
     3
370
    20
100
AcDbText
 10
115.5
 20
22.70171737670898
 30
0.0
 40
3.0
  1
公差
  7
STYLE005
100
AcDbText
  0
TEXT
  5
E2
330
C5
100
AcDbEntity
  8
LAYER005
  6
Continuous
 62
     3
370
    20
100
AcDbText
 10
115.5
 20
30.61336898803711
 30
0.0
 40
3.0
  1
処理
  7
STYLE005
100
AcDbText
  0
TEXT
  5
E3
330
C5
100
AcDbEntity
  8
LAYER005
  6
Continuous
 62
     3
370
    20
100
AcDbText
 10
115.5
 20
38.81803512573242
 30
0.0
 40
3.0
  1
材質
  7
STYLE005
100
AcDbText
  0
TEXT
  5
E4
330
C5
100
AcDbEntity
  8
LAYER005
  6
Continuous
 62
     3
370
    20
100
AcDbText
 10
115.5
 20
14.32122325897217
 30
0.0
 40
3.0
  1
図名
  7
STYLE005
100
AcDbText
  0
TEXT
  5
E5
330
C5
100
AcDbEntity
  8
LAYER005
  6
Continuous
 62
     3
370
    20
100
AcDbText
 10
236.5
 20
14.32122325897217
 30
0.0
 40
3.0
  1
図番
  7
STYLE005
100
AcDbText
  0
TEXT
  5
E6
330
C5
100
AcDbEntity
  8
LAYER005
  6
Continuous
 62
     3
370
    20
100
AcDbText
 10
68.5
 20
188.1787719726561
 30
0.0
 40
3.0
  1
図番
 50
180.0
  7
STYLE005
100
AcDbText
  0
LINE
  5
E7
330
C5
100
AcDbEntity
  8
LAYER005
  6
Continuous
 62
     4
370
    20
100
AcDbLine
 10
16.50000057220459
 20
11.24999984386872
 30
0.0
 11
288.5000005722046
 21
11.25
 31
0.0
  0
LINE
  5
E8
330
C5
100
AcDbEntity
  8
LAYER005
  6
Continuous
 62
     4
370
    20
100
AcDbLine
 10
288.5000005722046
 20
11.25
 30
0.0
 11
288.5000005722046
 21
191.2500000000001
 31
0.0
  0
LINE
  5
E9
330
C5
100
AcDbEntity
  8
LAYER005
  6
Continuous
 62
     4
370
    20
100
AcDbLine
 10
288.5000005722046
 20
191.2500000000001
 30
0.0
 11
16.50000057220462
 21
191.2500000070965
 31
0.0
  0
LINE
  5
EA
330
C5
100
AcDbEntity
  8
LAYER005
  6
Continuous
 62
     4
370
    20
100
AcDbLine
 10
16.50000057220462
 20
191.2500000070965
 30
0.0
 11
16.50000057220459
 21
11.24999984386872
 31
0.0
  0
LINE
  5
EB
330
C5
100
AcDbEntity
  8
LAYER005
  6
Continuous
 62
     4
370
    20
100
AcDbLine
 10
113.5000024795528
 20
11.2499998995479
 30
0.0
 11
113.5000024795528
 21
54.24999673025934
 31
0.0
  0
LINE
  5
EC
330
C5
100
AcDbEntity
  8
LAYER005
  6
Continuous
 62
     4
370
    20
100
AcDbLine
 10
113.5000024795528
 20
54.24999673025934
 30
0.0
 11
288.5000005722046
 21
54.24999673025934
 31
0.0
  0
LINE
  5
ED
330
C5
100
AcDbEntity
  8
LAYER005
  6
Continuous
 62
     4
370
    20
100
AcDbLine
 10
288.5000005722047
 20
44.24999673025935
 30
0.0
 11
113.5000024795528
 21
44.24999673025934
 31
0.0
  0
LINE
  5
EE
330
C5
100
AcDbEntity
  8
LAYER005
  6
Continuous
 62
     4
370
    20
100
AcDbLine
 10
113.5000024795528
 20
20.24999999999999
 30
0.0
 11
288.5000005722046
 21
20.24999999999999
 31
0.0
  0
LINE
  5
EF
330
C5
100
AcDbEntity
  8
LAYER005
  6
Continuous
 62
     4
370
    20
100
AcDbLine
 10
234.5000005722043
 20
11.24999996900335
 30
0.0
 11
234.5000005722047
 21
44.24999673025935
 31
0.0
  0
LINE
  5
F0
330
C5
100
AcDbEntity
  8
LAYER005
  6
Continuous
 62
     4
370
    20
100
AcDbLine
 10
196.5000005722045
 20
44.24999673025935
 30
0.0
 11
196.5000005722045
 21
11.2499999471909
 31
0.0
  0
LINE
  5
F1
330
C5
100
AcDbEntity
  8
LAYER005
  6
Continuous
 62
     4
370
    20
100
AcDbLine
 10
70.50000057220488
 20
182.2500000070965
 30
0.0
 11
70.50000057220498
 21
191.2500000056878
 31
0.0
  0
LINE
  5
F2
330
C5
100
AcDbEntity
  8
LAYER005
  6
Continuous
 62
     4
370
    20
100
AcDbLine
 10
70.50000057220488
 20
182.2500000070965
 30
0.0
 11
16.50000057220462
 21
182.2500000070965
 31
0.0
  0
TEXT
  5
F3
330
C5
100
AcDbEntity
  8
LAYER005
  6
Continuous
 62
     7
370
    20
100
AcDbText
 10
13.0
 20
181.75
 30
0.0
 40
4.0
  1
Ａ
 41
0.75
  7
STYLE005
100
AcDbText
  0
TEXT
  5
F4
330
C5
100
AcDbEntity
  8
LAYER005
  6
Continuous
 62
     7
370
    20
100
AcDbText
 10
13.0
 20
129.2499999999999
 30
0.0
 40
4.0
  1
Ｂ
 41
0.75
  7
STYLE005
100
AcDbText
  0
TEXT
  5
F5
330
C5
100
AcDbEntity
  8
LAYER005
  6
Continuous
 62
     7
370
    20
100
AcDbText
 10
13.0
 20
76.75
 30
0.0
 40
4.0
  1
Ｃ
 41
0.75
  7
STYLE005
100
AcDbText
  0
TEXT
  5
F6
330
C5
100
AcDbEntity
  8
LAYER005
  6
Continuous
 62
     7
370
    20
100
AcDbText
 10
13.0
 20
24.25
 30
0.0
 40
4.0
  1
Ｄ
 41
0.75
  7
STYLE005
100
AcDbText
  0
TEXT
  5
F7
330
C5
100
AcDbEntity
  8
LAYER005
  6
Continuous
 62
     7
370
    20
100
AcDbText
 10
23.25
 20
191.25
 30
0.0
 40
4.0
  1
１
 41
0.75
  7
STYLE005
100
AcDbText
  0
TEXT
  5
F8
330
C5
100
AcDbEntity
  8
LAYER005
  6
Continuous
 62
     7
370
    20
100
AcDbText
 10
72.75
 20
191.25
 30
0.0
 40
4.0
  1
２
 41
0.75
  7
STYLE005
100
AcDbText
  0
TEXT
  5
F9
330
C5
100
AcDbEntity
  8
LAYER005
  6
Continuous
 62
     7
370
    20
100
AcDbText
 10
122.2499999999999
 20
191.25
 30
0.0
 40
4.0
  1
３
 41
0.75
  7
STYLE005
100
AcDbText
  0
TEXT
  5
FA
330
C5
100
AcDbEntity
  8
LAYER005
  6
Continuous
 62
     7
370
    20
100
AcDbText
 10
171.75
 20
191.25
 30
0.0
 40
4.0
  1
４
 41
0.75
  7
STYLE005
100
AcDbText
  0
TEXT
  5
FB
330
C5
100
AcDbEntity
  8
LAYER005
  6
Continuous
 62
     7
370
    20
100
AcDbText
 10
221.2499999999999
 20
191.25
 30
0.0
 40
4.0
  1
５
 41
0.75
  7
STYLE005
100
AcDbText
  0
TEXT
  5
FC
330
C5
100
AcDbEntity
  8
LAYER005
  6
Continuous
 62
     7
370
    20
100
AcDbText
 10
270.75
 20
191.25
 30
0.0
 40
4.0
  1
６
 41
0.75
  7
STYLE005
100
AcDbText
  0
LINE
  5
FD
330
C5
100
AcDbEntity
  8
LAYER005
  6
Continuous
 62
     6
370
    20
100
AcDbLine
 10
113.5000024795528
 20
28.25
 30
0.0
 11
234.5000005722045
 21
28.25
 31
0.0
  0
LINE
  5
FE
330
C5
100
AcDbEntity
  8
LAYER005
  6
Continuous
 62
     6
370
    20
100
AcDbLine
 10
234.5000005722045
 20
36.24999999999999
 30
0.0
 11
113.5000024795528
 21
36.25
 31
0.0
  0
LINE
  5
FF
330
C5
100
AcDbEntity
  8
LAYER005
  6
Continuous
 62
     6
370
    20
100
AcDbLine
 10
123.5000024795528
 20
44.24999673025934
 30
0.0
 11
123.5000024795528
 21
11.249999905288
 31
0.0
  0
LINE
  5
100
330
C5
100
AcDbEntity
  8
LAYER005
  6
Continuous
 62
     6
370
    20
100
AcDbLine
 10
128.5000043869013
 20
44.24999673025935
 30
0.0
 11
128.5000031153364
 21
54.24999673025933
 31
0.0
  0
LINE
  5
101
330
C5
100
AcDbEntity
  8
LAYER005
  6
Continuous
 62
     6
370
    20
100
AcDbLine
 10
113.5000024795528
 20
49.24999673025935
 30
0.0
 11
288.5000005722047
 21
49.24999673025935
 31
0.0
  0
LINE
  5
102
330
C5
100
AcDbEntity
  8
LAYER005
  6
Continuous
 62
     6
370
    20
100
AcDbLine
 10
288.5000005722047
 20
38.2500005449566
 30
0.0
 11
234.5000005722045
 21
38.2500005449566
 31
0.0
  0
LINE
  5
103
330
C5
100
AcDbEntity
  8
LAYER005
  6
Continuous
 62
     6
370
    20
100
AcDbLine
 10
234.5000005722047
 20
44.24999673025935
 30
0.0
 11
234.5000005722047
 21
49.24999673025935
 31
0.0
  0
LINE
  5
104
330
C5
100
AcDbEntity
  8
LAYER005
  6
Continuous
 62
     6
370
    20
100
AcDbLine
 10
252.5000005722048
 20
49.24999673025935
 30
0.0
 11
252.5000005722045
 21
20.24999999999999
 31
0.0
  0
LINE
  5
105
330
C5
100
AcDbEntity
  8
LAYER005
  6
Continuous
 62
     6
370
    20
100
AcDbLine
 10
244.5000005722044
 20
20.24999999999999
 30
0.0
 11
244.5000005722043
 21
11.24999997474347
 31
0.0
  0
LINE
  5
106
330
C5
100
AcDbEntity
  8
LAYER005
  6
Continuous
 62
     6
370
    20
100
AcDbLine
 10
270.5000005722045
 20
20.24999999999999
 30
0.0
 11
270.5000005722046
 21
49.24999673025935
 31
0.0
  0
LINE
  5
107
330
C5
100
AcDbEntity
  8
LAYER005
  6
Continuous
 62
     6
370
    20
100
AcDbLine
 10
206.500000572205
 20
44.24999673025935
 30
0.0
 11
206.5000005722043
 21
11.24999995293102
 31
0.0
  0
LINE
  5
108
330
C5
100
AcDbEntity
  8
LAYER005
  6
Continuous
 62
     6
370
    20
100
AcDbLine
 10
149.5000057740644
 20
44.24999673025935
 30
0.0
 11
149.5000078548074
 21
54.24999673025933
 31
0.0
  0
LINE
  5
109
330
C5
100
AcDbEntity
  8
LAYER005
  6
Continuous
 62
     6
370
    20
100
AcDbLine
 10
60.50000057220485
 20
182.2500000070965
 30
0.0
 11
60.50000057220497
 21
191.2500000059486
 31
0.0
  0
TEXT
  5
10A
330
C5
100
AcDbEntity
  8
LAYER005
  6
Continuous
 62
     6
370
    20
100
AcDbText
 10
261.5
 20
7.75
 30
0.0
 40
3.0
  1
様Ｄ１００１０－２
  7
STYLE005
100
AcDbText
  0
TEXT
  5
10B
330
C5
100
AcDbEntity
  8
LAYER005
  6
Continuous
 62
     6
370
    20
100
AcDbText
 10
115.5
 20
45.24999618530271
 30
0.0
 40
3.0
  1
制定
  7
STYLE005
100
AcDbText
  0
TEXT
  5
10C
330
C5
100
AcDbEntity
  8
LAYER005
  6
Continuous
 62
     6
370
    20
100
AcDbText
 10
115.5
 20
50.24999618530273
 30
0.0
 40
3.0
  1
改訂
  7
STYLE005
100
AcDbText
  0
INSERT
  5
110
330
C5
100
AcDbEntity
  8
0
100
AcDbBlockReference
  2
BLKF023
 10
0.0
 20
0.0
 30
0.0
  0
LINE
  5
115
330
C5
100
AcDbEntity
  8
LAYER005
  6
Continuous
 62
     4
370
    20
100
AcDbLine
 10
16.50000057220459
 20
191.2500000070965
 30
0.0
 11
288.5000005722046
 21
191.2500001632279
 31
0.0
  0
TEXT
  5
116
330
C5
100
AcDbEntity
  8
LAYER005
  6
Continuous
 62
     7
370
    20
100
AcDbText
 10
179.9626159667969
 20
5.601097106933592
 30
0.0
 40
4.5
  1
株式会社
 41
0.8888888888888889
  7
STYLE005
100
AcDbText
  0
TEXT
  5
117
330
C5
100
AcDbEntity
  8
LAYER005
  6
Continuous
 62
     4
370
    20
100
AcDbText
 10
101.4967951774597
 20
5.107139587402342
 30
0.0
 40
5.5
  1
HOYA CANDEO OPTRONICS
 41
0.6528703516179865
  7
STYLE005
100
AcDbText
  0
ENDBLK
  5
C7
330
C5
100
AcDbEntity
  8
0
100
AcDbBlockEnd
  0
BLOCK
  5
10E
330
10D
100
AcDbEntity
  8
0
100
AcDbBlockBegin
  2
BLKF023
 70
     0
 10
0.0
 20
0.0
 30
0.0
  3
BLKF023
  1

  0
TEXT
  5
111
330
10D
100
AcDbEntity
  8
LAYER005
  6
Continuous
 62
     6
370
    20
100
AcDbText
 10
124.7764999868622
 20
50.32660138588699
 30
0.0
 40
2.450000047683714
  1
 
 50
0.0000000099999999
 41
0.8571428015350262
  7
STYLE005
100
AcDbText
  0
LINE
  5
112
330
10D
100
AcDbEntity
  8
LAYER005
  6
Continuous
 62
     6
370
    20
100
AcDbLine
 10
125.826506437295
 20
53.38911101705225
 30
0.0
 11
123.9890064378506
 21
50.20646765782374
 31
0.0
  0
LINE
  5
113
330
10D
100
AcDbEntity
  8
LAYER005
  6
Continuous
 62
     6
370
    20
100
AcDbLine
 10
123.9890064378506
 20
50.20646765782374
 30
0.0
 11
127.6640064378504
 21
50.2064676584651
 31
0.0
  0
LINE
  5
114
330
10D
100
AcDbEntity
  8
LAYER005
  6
Continuous
 62
     6
370
    20
100
AcDbLine
 10
127.6640064378504
 20
50.2064676584651
 30
0.0
 11
125.826506437295
 21
53.38911101705225
 31
0.0
  0
ENDBLK
  5
10F
330
10D
100
AcDbEntity
  8
0
100
AcDbBlockEnd
  0
BLOCK
  5
119
330
118
100
AcDbEntity
  8
0
100
AcDbBlockBegin
  2
BLKF024
 70
     0
 10
0.0
 20
0.0
 30
0.0
  3
BLKF024
  1

  0
LINE
  5
11C
330
118
100
AcDbEntity
  8
LAYER005
  6
Continuous
 62
   133
370
    20
100
AcDbLine
 10
86.00000057220459
 20
29.74999984673883
 30
0.0
 11
86.00000057220459
 21
16.74999984673882
 31
0.0
  0
TEXT
  5
11D
330
118
100
AcDbEntity
  8
LAYER005
  6
Continuous
 62
   133
370
    20
100
AcDbText
 10
23.30215454101562
 20
17.32824516296387
 30
0.0
 40
2.5
  1
内容の全部又は一部を複写する事をご遠慮下さい。
 41
0.8
  7
STYLE004
100
AcDbText
  0
LINE
  5
11E
330
118
100
AcDbEntity
  8
LAYER005
  6
Continuous
 62
   133
370
    20
100
AcDbLine
 10
86.50000057220461
 20
16.2499998467388
 30
0.0
 11
21.50000057220462
 21
16.24999984673879
 31
0.0
  0
LINE
  5
11F
330
118
100
AcDbEntity
  8
LAYER005
  6
Continuous
 62
   133
370
    20
100
AcDbLine
 10
86.00000057220459
 20
16.74999984673882
 30
0.0
 11
22.0000005722046
 21
16.74999984673882
 31
0.0
  0
TEXT
  5
120
330
118
100
AcDbEntity
  8
LAYER005
  6
Continuous
 62
   133
370
    20
100
AcDbText
 10
23.30215454101562
 20
26.32824516296387
 30
0.0
 40
2.5
  1
御注意
 41
0.8
  7
STYLE004
100
AcDbText
  0
TEXT
  5
121
330
118
100
AcDbEntity
  8
LAYER005
  6
Continuous
 62
   133
370
    20
100
AcDbText
 10
23.30215454101562
 20
23.32824516296385
 30
0.0
 40
2.5
  1
本図面は、ＨＯＹＡ ＣＡＮＤＥＯ ＯＰＴＲＯＮＩＣＳ株式会社の
 41
0.8
  7
STYLE004
100
AcDbText
  0
TEXT
  5
122
330
118
100
AcDbEntity
  8
LAYER005
  6
Continuous
 62
   133
370
    20
100
AcDbText
 10
23.30215454101562
 20
20.32824516296387
 30
0.0
 40
2.5
  1
財産的情報を含んでおりますので、許可なく第三者に開示したり
 41
0.8
  7
STYLE004
100
AcDbText
  0
LINE
  5
123
330
118
100
AcDbEntity
  8
LAYER005
  6
Continuous
 62
   133
370
    20
100
AcDbLine
 10
86.00000057220459
 20
29.74999984673882
 30
0.0
 11
22.00000057220462
 21
29.7499998467388
 31
0.0
  0
LINE
  5
124
330
118
100
AcDbEntity
  8
LAYER005
  6
Continuous
 62
   133
370
    20
100
AcDbLine
 10
22.00000057220462
 20
29.7499998467388
 30
0.0
 11
22.00000057220462
 21
16.7499998467388
 31
0.0
  0
LINE
  5
125
330
118
100
AcDbEntity
  8
LAYER005
  6
Continuous
 62
   133
370
    20
100
AcDbLine
 10
86.50000057220463
 20
30.2499998467388
 30
0.0
 11
21.50000057220462
 21
30.24999984673879
 31
0.0
  0
LINE
  5
126
330
118
100
AcDbEntity
  8
LAYER005
  6
Continuous
 62
   133
370
    20
100
AcDbLine
 10
21.50000057220462
 20
30.24999984673879
 30
0.0
 11
21.50000057220461
 21
16.2499998467388
 31
0.0
  0
LINE
  5
127
330
118
100
AcDbEntity
  8
LAYER005
  6
Continuous
 62
   133
370
    20
100
AcDbLine
 10
86.50000057220461
 20
16.24999984673876
 30
0.0
 11
86.50000057220463
 21
30.24999984673875
 31
0.0
  0
ENDBLK
  5
11A
330
118
100
AcDbEntity
  8
0
100
AcDbBlockEnd
  0
BLOCK
  5
135
330
134
100
AcDbEntity
  8
0
100
AcDbBlockBegin
  2
*D23
 70
     1
 10
0.0
 20
0.0
 30
0.0
  3
*D23
  1

  0
LINE
  5
240
330
134
100
AcDbEntity
  8
LAYER006
 62
     7
370
    -2
100
AcDbLine
 10
-74.56061937015556
 20
41.48058126260365
 30
0.0
 11
-74.56061937015556
 21
53.12491720010365
 31
0.0
  0
LINE
  5
241
330
134
100
AcDbEntity
  8
LAYER006
 62
     7
370
    -2
100
AcDbLine
 10
-34.5606193701555
 20
41.48058126260361
 30
0.0
 11
-34.5606193701555
 21
53.12491720010365
 31
0.0
  0
LINE
  5
242
330
134
100
AcDbEntity
  8
LAYER006
 62
     7
370
    -2
100
AcDbLine
 10
-71.56061937015556
 20
51.62491720010365
 30
0.0
 11
-37.5606193701555
 21
51.62491720010365
 31
0.0
  0
INSERT
  5
243
330
134
100
AcDbEntity
  8
LAYER006
 62
     7
370
    -2
100
AcDbBlockReference
  2
FXTIP_ARROW_S
 10
-74.56061937015556
 20
51.62491720010365
 30
0.0
 41
3.0
 42
3.0
 43
3.0
 50
180.0
  0
INSERT
  5
244
330
134
100
AcDbEntity
  8
LAYER006
 62
     7
370
    -2
100
AcDbBlockReference
  2
FXTIP_ARROW_E
 10
-34.5606193701555
 20
51.62491720010365
 30
0.0
 41
3.0
 42
3.0
 43
3.0
  0
MTEXT
  5
245
330
134
100
AcDbEntity
  8
LAYER006
 62
     7
100
AcDbMText
 10
-54.56061937015554
 20
53.62491720010365
 30
0.0
 40
3.0
 41
0.0
 71
     5
 72
     1
  1
\A1;40
  7
STYLE004
 73
     1
 44
1.0
  0
POINT
  5
246
330
134
100
AcDbEntity
  8
Defpoints
 62
     0
100
AcDbPoint
 10
-74.56061937015556
 20
40.48058126260364
 30
0.0
  0
POINT
  5
247
330
134
100
AcDbEntity
  8
Defpoints
 62
     0
100
AcDbPoint
 10
-34.5606193701555
 20
40.4805812626036
 30
0.0
  0
POINT
  5
248
330
134
100
AcDbEntity
  8
Defpoints
 62
     0
100
AcDbPoint
 10
-34.5606193701555
 20
51.62491720010365
 30
0.0
  0
ENDBLK
  5
136
330
134
100
AcDbEntity
  8
0
100
AcDbBlockEnd
  0
BLOCK
  5
13F
330
13E
100
AcDbEntity
  8
0
100
AcDbBlockBegin
  2
*D24
 70
     1
 10
0.0
 20
0.0
 30
0.0
  3
*D24
  1

  0
LINE
  5
237
330
13E
100
AcDbEntity
  8
LAYER006
 62
     7
370
    -2
100
AcDbLine
 10
-74.56061937015551
 20
25.88058126260365
 30
0.0
 11
-74.56061937015551
 21
19.67081563760364
 31
0.0
  0
LINE
  5
238
330
13E
100
AcDbEntity
  8
LAYER006
 62
     7
370
    -2
100
AcDbLine
 10
-64.56061937015551
 20
28.93058126260365
 30
0.0
 11
-64.56061937015551
 21
19.67081563760364
 31
0.0
  0
LINE
  5
239
330
13E
100
AcDbEntity
  8
LAYER006
 62
     7
370
    -2
100
AcDbLine
 10
-71.5606193701555
 20
21.17081563760364
 30
0.0
 11
-67.56061937015551
 21
21.17081563760364
 31
0.0
  0
INSERT
  5
23A
330
13E
100
AcDbEntity
  8
LAYER006
 62
     7
370
    -2
100
AcDbBlockReference
  2
FXTIP_ARROW_S
 10
-74.56061937015551
 20
21.17081563760364
 30
0.0
 41
3.0
 42
3.0
 43
3.0
 50
180.0
  0
INSERT
  5
23B
330
13E
100
AcDbEntity
  8
LAYER006
 62
     7
370
    -2
100
AcDbBlockReference
  2
FXTIP_ARROW_E
 10
-64.56061937015551
 20
21.17081563760364
 30
0.0
 41
3.0
 42
3.0
 43
3.0
  0
MTEXT
  5
23C
330
13E
100
AcDbEntity
  8
LAYER006
 62
     7
100
AcDbMText
 10
-69.56061937015551
 20
23.17081563760365
 30
0.0
 40
3.0
 41
0.0
 71
     5
 72
     1
  1
\A1;10
  7
STYLE004
 73
     1
 44
1.0
  0
POINT
  5
23D
330
13E
100
AcDbEntity
  8
Defpoints
 62
     0
100
AcDbPoint
 10
-74.56061937015551
 20
26.88058126260365
 30
0.0
  0
POINT
  5
23E
330
13E
100
AcDbEntity
  8
Defpoints
 62
     0
100
AcDbPoint
 10
-64.56061937015551
 20
29.93058126260365
 30
0.0
  0
POINT
  5
23F
330
13E
100
AcDbEntity
  8
Defpoints
 62
     0
100
AcDbPoint
 10
-64.56061937015551
 20
21.17081563760364
 30
0.0
  0
ENDBLK
  5
140
330
13E
100
AcDbEntity
  8
0
100
AcDbBlockEnd
  0
BLOCK
  5
149
330
148
100
AcDbEntity
  8
0
100
AcDbBlockBegin
  2
*D25
 70
     1
 10
0.0
 20
0.0
 30
0.0
  3
*D25
  1

  0
LINE
  5
252
330
148
100
AcDbEntity
  8
LAYER006
 62
     7
370
    -2
100
AcDbLine
 10
-33.76061937015555
 20
26.68058126260365
 30
0.0
 11
-26.25886155765551
 21
26.68058126260365
 31
0.0
  0
LINE
  5
253
330
148
100
AcDbEntity
  8
LAYER006
 62
     7
370
    -2
100
AcDbLine
 10
-33.76061937015551
 20
40.68058126260365
 30
0.0
 11
-26.25886155765551
 21
40.68058126260365
 31
0.0
  0
LINE
  5
254
330
148
100
AcDbEntity
  8
LAYER006
 62
     7
370
    -2
100
AcDbLine
 10
-27.75886155765551
 20
29.68058126260365
 30
0.0
 11
-27.75886155765551
 21
37.68058126260365
 31
0.0
  0
INSERT
  5
255
330
148
100
AcDbEntity
  8
LAYER006
 62
     7
370
    -2
100
AcDbBlockReference
  2
FXTIP_ARROW_S
 10
-27.75886155765551
 20
26.68058126260365
 30
0.0
 41
3.0
 42
3.0
 43
3.0
 50
270.0
  0
INSERT
  5
256
330
148
100
AcDbEntity
  8
LAYER006
 62
     7
370
    -2
100
AcDbBlockReference
  2
FXTIP_ARROW_E
 10
-27.7588615576555
 20
40.68058126260365
 30
0.0
 41
3.0
 42
3.0
 43
3.0
 50
90.0
  0
MTEXT
  5
257
330
148
100
AcDbEntity
  8
LAYER006
 62
     7
100
AcDbMText
 10
-29.75886155765551
 20
33.68058126260364
 30
0.0
 40
3.0
 41
0.0
 71
     5
 72
     1
  1
\A1;14
  7
STYLE004
 11
0.0000000000000001
 21
1.0
 31
0.0
 73
     1
 44
1.0
  0
POINT
  5
258
330
148
100
AcDbEntity
  8
Defpoints
 62
     0
100
AcDbPoint
 10
-34.76061937015555
 20
26.68058126260365
 30
0.0
  0
POINT
  5
259
330
148
100
AcDbEntity
  8
Defpoints
 62
     0
100
AcDbPoint
 10
-34.7606193701555
 20
40.68058126260365
 30
0.0
  0
POINT
  5
25A
330
148
100
AcDbEntity
  8
Defpoints
 62
     0
100
AcDbPoint
 10
-27.7588615576555
 20
40.68058126260365
 30
0.0
  0
ENDBLK
  5
14A
330
148
100
AcDbEntity
  8
0
100
AcDbBlockEnd
  0
BLOCK
  5
153
330
152
100
AcDbEntity
  8
0
100
AcDbBlockBegin
  2
FXDIM028
 70
     0
 10
0.0
 20
0.0
 30
0.0
  3
FXDIM028
  1

  0
LINE
  5
156
330
152
100
AcDbEntity
  8
LAYER006
  6
Continuous
 62
     6
370
    20
100
AcDbLine
 10
92.68457031249992
 20
133.150390625
 30
0.0
 11
97.88395105062651
 21
143.346953961437
 31
0.0
  0
INSERT
  5
157
330
152
100
AcDbEntity
  8
LAYER006
  6
Continuous
 62
     6
370
    20
100
AcDbBlockReference
  2
FXTIP_ARROW_S
 10
92.68457031249992
 20
133.150390625
 30
0.0
 41
3.0
 42
3.0
 50
242.982282782435
  0
LINE
  5
158
330
152
100
AcDbEntity
  8
LAYER006
  6
Continuous
 62
     6
370
    20
100
AcDbLine
 10
97.88395105062651
 20
143.346953961437
 30
0.0
 11
123.9425740585033
 21
143.3469539614371
 31
0.0
  0
TEXT
  5
159
330
152
100
AcDbEntity
  8
LAYER006
  6
Continuous
 62
     6
370
    20
100
AcDbText
 10
97.88394927978515
 20
143.6802825927734
 30
0.0
 40
3.0
  1
ライトガイド固定ねじ
 50
0.0000000100002504
 41
0.8333333333333332
  7
STYLE004
100
AcDbText
  0
TEXT
  5
15A
330
152
100
AcDbEntity
  8
LAYER006
  6
Continuous
 62
     6
370
    20
100
AcDbText
 10
97.88394928048331
 20
139.6802825927734
 30
0.0
 40
3.0
  1
M3六角止めねじ
 50
0.0000000100002504
 41
0.8333333333333332
  7
STYLE004
100
AcDbText
  0
ENDBLK
  5
154
330
152
100
AcDbEntity
  8
0
100
AcDbBlockEnd
  0
BLOCK
  5
160
330
15F
100
AcDbEntity
  8
0
100
AcDbBlockBegin
  2
*D27
 70
     1
 10
0.0
 20
0.0
 30
0.0
  3
*D27
  1

  0
LINE
  5
249
330
15F
100
AcDbEntity
  8
LAYER006
 62
     7
370
    -2
100
AcDbLine
 10
-75.56061937015553
 20
30.18058126260365
 30
0.0
 11
-80.63093187015551
 21
30.18058126260365
 31
0.0
  0
LINE
  5
24A
330
15F
100
AcDbEntity
  8
LAYER006
 62
     7
370
    -2
100
AcDbLine
 10
-75.56061937015553
 20
37.18058126260365
 30
0.0
 11
-80.63093187015551
 21
37.18058126260366
 31
0.0
  0
LINE
  5
24B
330
15F
100
AcDbEntity
  8
LAYER006
 62
     7
370
    -2
100
AcDbLine
 10
-79.13093187015551
 20
33.18058126260365
 30
0.0
 11
-79.13093187015551
 21
34.18058126260365
 31
0.0
  0
INSERT
  5
24C
330
15F
100
AcDbEntity
  8
LAYER006
 62
     7
370
    -2
100
AcDbBlockReference
  2
FXTIP_ARROW_S
 10
-79.13093187015552
 20
30.18058126260365
 30
0.0
 41
3.0
 42
3.0
 43
3.0
 50
270.0
  0
INSERT
  5
24D
330
15F
100
AcDbEntity
  8
LAYER006
 62
     7
370
    -2
100
AcDbBlockReference
  2
FXTIP_ARROW_E
 10
-79.13093187015551
 20
37.18058126260365
 30
0.0
 41
3.0
 42
3.0
 43
3.0
 50
90.0
  0
MTEXT
  5
24E
330
15F
100
AcDbEntity
  8
LAYER006
 62
     7
100
AcDbMText
 10
-81.13093187015552
 20
33.68058126260364
 30
0.0
 40
3.0
 41
0.0
 71
     5
 72
     1
  1
\A1;7
  7
STYLE004
 11
0.0000000000000001
 21
1.0
 31
0.0
 73
     1
 44
1.0
  0
POINT
  5
24F
330
15F
100
AcDbEntity
  8
Defpoints
 62
     0
100
AcDbPoint
 10
-74.56061937015554
 20
30.18058126260365
 30
0.0
  0
POINT
  5
250
330
15F
100
AcDbEntity
  8
Defpoints
 62
     0
100
AcDbPoint
 10
-74.56061937015554
 20
37.18058126260365
 30
0.0
  0
POINT
  5
251
330
15F
100
AcDbEntity
  8
Defpoints
 62
     0
100
AcDbPoint
 10
-79.13093187015551
 20
37.18058126260365
 30
0.0
  0
ENDBLK
  5
161
330
15F
100
AcDbEntity
  8
0
100
AcDbBlockEnd
  0
BLOCK
  5
179
330
178
100
AcDbEntity
  8
0
100
AcDbBlockBegin
  2
BLKF030
 70
     0
 10
0.0
 20
0.0
 30
0.0
  3
BLKF030
  1

  0
LINE
  5
17C
330
178
100
AcDbEntity
  8
LAYER006
  6
Continuous
 62
     6
370
    20
100
AcDbLine
 10
211.3666487320323
 20
111.5393334022865
 30
0.0
 11
215.5251087320323
 21
115.6977934022864
 31
0.0
  0
LINE
  5
17D
330
178
100
AcDbEntity
  8
LAYER006
  6
Continuous
 62
     6
370
    20
100
AcDbLine
 10
225.8555361263681
 20
115.4216190788244
 30
0.0
 11
230.0139961263683
 21
119.5800790788245
 31
0.0
  0
LINE
  5
17E
330
178
100
AcDbEntity
  8
LAYER006
  6
Continuous
 62
     6
370
    20
100
AcDbLine
 10
218.8666487320323
 20
124.5297144590532
 30
0.0
 11
223.0251087320323
 21
128.6881744590532
 31
0.0
  0
LINE
  5
17F
330
178
100
AcDbEntity
  8
LAYER006
  6
Continuous
 62
     6
370
    20
100
AcDbLine
 10
211.6449037320323
 20
112.5246984022864
 30
0.0
 11
214.0799737320323
 21
114.9597634022865
 31
0.0
  0
LINE
  5
180
330
178
100
AcDbEntity
  8
LAYER006
  6
Continuous
 62
     6
370
    20
100
AcDbLine
 10
226.1337911263681
 20
116.4069840788245
 30
0.0
 11
228.5688611263683
 21
118.8420490788244
 31
0.0
  0
LINE
  5
181
330
178
100
AcDbEntity
  8
LAYER006
  6
Continuous
 62
     6
370
    20
100
AcDbLine
 10
219.1449037320323
 20
125.5150794590532
 30
0.0
 11
221.5799737320323
 21
127.9501444590532
 31
0.0
  0
LINE
  5
182
330
178
100
AcDbEntity
  8
LAYER006
  6
Continuous
 62
     6
370
    20
100
AcDbLine
 10
210.9554787320321
 20
112.5423784022864
 30
0.0
 11
212.9707087320323
 21
114.5576084022865
 31
0.0
  0
LINE
  5
183
330
178
100
AcDbEntity
  8
LAYER006
  6
Continuous
 62
     6
370
    20
100
AcDbLine
 10
225.4443661263683
 20
116.4246640788244
 30
0.0
 11
227.4595961263683
 21
118.4398940788244
 31
0.0
  0
LINE
  5
184
330
178
100
AcDbEntity
  8
LAYER006
  6
Continuous
 62
     6
370
    20
100
AcDbLine
 10
218.4554787320323
 20
125.5327594590532
 30
0.0
 11
220.4707087320322
 21
127.5479894590532
 31
0.0
  0
LINE
  5
185
330
178
100
AcDbEntity
  8
LAYER006
  6
Continuous
 62
     6
370
    20
100
AcDbLine
 10
212.1400437320323
 20
111.6056184022864
 30
0.0
 11
215.3748537320323
 21
114.8404334022866
 31
0.0
  0
LINE
  5
186
330
178
100
AcDbEntity
  8
LAYER006
  6
Continuous
 62
     6
370
    20
100
AcDbLine
 10
226.6289311263681
 20
115.4879040788244
 30
0.0
 11
229.8637411263682
 21
118.7227190788245
 31
0.0
  0
LINE
  5
187
330
178
100
AcDbEntity
  8
LAYER006
  6
Continuous
 62
     6
370
    20
100
AcDbLine
 10
219.6400437320323
 20
124.5959994590532
 30
0.0
 11
222.8748537320323
 21
127.8308144590532
 31
0.0
  0
LINE
  5
188
330
178
100
AcDbEntity
  8
LAYER006
  6
Continuous
 62
     6
370
    20
100
AcDbLine
 10
213.3773087320323
 20
112.1357784022865
 30
0.0
 11
215.0566637320323
 21
113.8151384022864
 31
0.0
  0
LINE
  5
189
330
178
100
AcDbEntity
  8
LAYER006
  6
Continuous
 62
     6
370
    20
100
AcDbLine
 10
227.8661961263682
 20
116.0180640788244
 30
0.0
 11
229.5455511263681
 21
117.6974240788245
 31
0.0
  0
LINE
  5
18A
330
178
100
AcDbEntity
  8
LAYER006
  6
Continuous
 62
     6
370
    20
100
AcDbLine
 10
220.8773087320323
 20
125.1261594590532
 30
0.0
 11
222.5566637320323
 21
126.8055194590532
 31
0.0
  0
ENDBLK
  5
17A
330
178
100
AcDbEntity
  8
0
100
AcDbBlockEnd
  0
ENDSEC
  0
SECTION
  2
ENTITIES
  0
LINE
  5
129
330
1F
100
AcDbEntity
  8
LAYER006
  6
DASHDOT
 62
     5
370
    20
100
AcDbLine
 10
-76.32819749515551
 20
33.68058126260365
 30
0.0
 11
-31.87788414411636
 21
33.68058126260365
 31
0.0
  0
LINE
  5
12A
330
1F
100
AcDbEntity
  8
LAYER006
  6
Continuous
 62
     7
370
    20
100
AcDbLine
 10
-74.56061937015551
 20
26.88058126260365
 30
0.0
 11
-74.56061937015554
 21
40.48058126260364
 31
0.0
  0
LINE
  5
12B
330
1F
100
AcDbEntity
  8
LAYER006
  6
Continuous
 62
     7
370
    20
100
AcDbLine
 10
-34.5606193701555
 20
40.48058126260364
 30
0.0
 11
-34.56061937015556
 21
26.88058126260365
 31
0.0
  0
LINE
  5
12C
330
1F
100
AcDbEntity
  8
LAYER006
  6
Continuous
 62
     7
370
    20
100
AcDbLine
 10
-34.76061937015555
 20
26.68058126260365
 30
0.0
 11
-74.36061937015551
 21
26.68058126260365
 31
0.0
  0
LINE
  5
12D
330
1F
100
AcDbEntity
  8
LAYER006
  6
Continuous
 62
     7
370
    20
100
AcDbLine
 10
-34.7606193701555
 20
40.68058126260365
 30
0.0
 11
-74.36061937015555
 21
40.68058126260365
 31
0.0
  0
LINE
  5
12E
330
1F
100
AcDbEntity
  8
LAYER006
  6
Continuous
 62
     7
370
    20
100
AcDbLine
 10
-74.36061937015555
 20
40.68058126260365
 30
0.0
 11
-74.56061937015554
 21
40.48058126260364
 31
0.0
  0
LINE
  5
12F
330
1F
100
AcDbEntity
  8
LAYER006
  6
Continuous
 62
     7
370
    20
100
AcDbLine
 10
-74.36061937015551
 20
26.68058126260365
 30
0.0
 11
-74.56061937015551
 21
26.88058126260365
 31
0.0
  0
LINE
  5
130
330
1F
100
AcDbEntity
  8
LAYER006
  6
Continuous
 62
     7
370
    20
100
AcDbLine
 10
-34.7606193701555
 20
40.68058126260365
 30
0.0
 11
-34.5606193701555
 21
40.48058126260364
 31
0.0
  0
LINE
  5
131
330
1F
100
AcDbEntity
  8
LAYER006
  6
Continuous
 62
     7
370
    20
100
AcDbLine
 10
-34.56061937015556
 20
26.88058126260365
 30
0.0
 11
-34.76061937015555
 21
26.68058126260365
 31
0.0
  0
LINE
  5
132
330
1F
100
AcDbEntity
  8
LAYER006
  6
DASHDOT
 62
     5
370
    20
100
AcDbLine
 10
-69.56061937015554
 20
42.02042501260365
 30
0.0
 11
-69.56061937015554
 21
35.59464376260365
 31
0.0
  0
DIMENSION
  5
133
330
1F
100
AcDbEntity
  8
LAYER006
100
AcDbDimension
  2
*D23
 10
-34.5606193701555
 20
51.62491720010365
 30
0.0
 11
-54.56061937015554
 21
53.62491720010365
 31
0.0
 70
    33
 71
     5
 42
40.00000000000006
  3
FXDIMINFO
100
AcDbAlignedDimension
 13
-74.56061937015556
 23
40.48058126260364
 33
0.0
 14
-34.5606193701555
 24
40.4805812626036
 34
0.0
1001
ACAD
1000
DSTYLE
1002
{
1070
   173
1070
     1
1070
   344
1005
48
1070
   343
1005
42
1002
}
  0
DIMENSION
  5
13D
330
1F
100
AcDbEntity
  8
LAYER006
100
AcDbDimension
  2
*D24
 10
-64.56061937015551
 20
21.17081563760364
 30
0.0
 11
-69.56061937015551
 21
23.17081563760365
 31
0.0
 70
    32
 71
     5
 42
10.0
  3
FXDIMINFO
100
AcDbAlignedDimension
 13
-74.56061937015551
 23
26.88058126260365
 33
0.0
 14
-64.56061937015551
 24
29.93058126260365
 34
0.0
 50
180.0
100
AcDbRotatedDimension
1001
ACAD
1000
DSTYLE
1002
{
1070
   173
1070
     1
1070
   344
1005
48
1070
   343
1005
42
1002
}
  0
DIMENSION
  5
147
330
1F
100
AcDbEntity
  8
LAYER006
100
AcDbDimension
  2
*D25
 10
-27.7588615576555
 20
40.68058126260365
 30
0.0
 11
-29.75886155765551
 21
33.68058126260364
 31
0.0
 70
    33
 71
     5
 42
13.99999999999999
  3
FXDIMINFO
100
AcDbAlignedDimension
 13
-34.76061937015555
 23
26.68058126260365
 33
0.0
 14
-34.7606193701555
 24
40.68058126260365
 34
0.0
1001
ACAD
1000
DSTYLE
1002
{
1070
   173
1070
     1
1070
   344
1005
48
1070
   343
1005
42
1002
}
  0
INSERT
  5
155
330
1F
100
AcDbEntity
  8
0
100
AcDbBlockReference
  2
FXDIM028
 10
-115.9029045264055
 20
-25.89461404989634
 30
0.0
 41
0.5
 42
0.5
 43
0.5
  0
LINE
  5
15B
330
1F
100
AcDbEntity
  8
LAYER006
  6
Continuous
 62
     6
370
    20
100
AcDbLine
 10
-34.7606193701555
 20
40.68058126260365
 30
0.0
 11
-34.76061937015561
 21
26.68058126260365
 31
0.0
  0
LINE
  5
15C
330
1F
100
AcDbEntity
  8
LAYER006
  6
Continuous
 62
     6
370
    20
100
AcDbLine
 10
-74.36061937015551
 20
26.68058126260365
 30
0.0
 11
-74.36061937015551
 21
40.68058126260365
 31
0.0
  0
LINE
  5
15D
330
1F
100
AcDbEntity
  8
LAYER006
  6
DASHED
 62
     7
370
    20
100
AcDbLine
 10
-64.56061937015551
 20
37.18058126260365
 30
0.0
 11
-64.56061937015551
 21
30.18058126260365
 31
0.0
  0
DIMENSION
  5
15E
330
1F
100
AcDbEntity
  8
LAYER006
100
AcDbDimension
  2
*D27
 10
-79.13093187015551
 20
37.18058126260365
 30
0.0
 11
-81.13093187015552
 21
33.68058126260364
 31
0.0
 70
    33
 71
     5
 42
7.000000000000003
  3
FXDIMINFO
100
AcDbAlignedDimension
 13
-74.56061937015554
 23
30.18058126260365
 33
0.0
 14
-74.56061937015554
 24
37.18058126260365
 34
0.0
  0
CIRCLE
  5
16B
330
1F
100
AcDbEntity
  8
LAYER006
  6
Continuous
 62
     7
370
    20
100
AcDbCircle
 10
-5.618361933706509
 20
33.68058126260365
 30
0.0
 40
7.0
  0
CIRCLE
  5
16C
330
1F
100
AcDbEntity
  8
LAYER006
  6
Continuous
 62
     7
370
    20
100
AcDbCircle
 10
-5.618361933706509
 20
33.68058126260365
 30
0.0
 40
6.099999999999995
  0
CIRCLE
  5
16D
330
1F
100
AcDbEntity
  8
LAYER006
  6
Continuous
 62
     6
370
    20
100
AcDbCircle
 10
-5.618361933706509
 20
33.68058126260365
 30
0.0
 40
6.79999999999999
  0
LINE
  5
16E
330
1F
100
AcDbEntity
  8
LAYER006
  6
DASHDOT
 62
     5
370
    20
100
AcDbLine
 10
-5.618361933706509
 20
23.82904880010436
 30
0.0
 11
-5.618361933706509
 21
42.68500527718281
 31
0.0
  0
LINE
  5
16F
330
1F
100
AcDbEntity
  8
LAYER006
  6
DASHDOT
 62
     5
370
    20
100
AcDbLine
 10
-14.41009624203755
 20
33.68058126260365
 30
0.0
 11
4.335865004844492
 21
33.68058126260365
 31
0.0
  0
LINE
  5
172
330
1F
100
AcDbEntity
  8
LAYER006
  6
Continuous
 62
     6
370
    20
100
AcDbLine
 10
-8.078553727972973
 20
39.07217904277475
 30
0.0
 11
-4.677295975743106
 21
39.70755354251025
 31
0.0
  0
ARC
  5
173
330
1F
100
AcDbEntity
  8
LAYER006
  6
Continuous
 62
     6
370
    20
100
AcDbCircle
 10
-7.527666053837364
 20
36.1231923065405
 30
0.0
 40
3.0
100
AcDbArc
 50
100.5812237000145
 51
129.1287905847769
  0
LINE
  5
174
330
1F
100
AcDbEntity
  8
LAYER006
  6
Continuous
 62
     6
370
    20
100
AcDbLine
 10
-7.792694557680562
 20
39.37990382237531
 30
0.0
 11
-5.648196960843307
 21
39.78050830078661
 31
0.0
  0
LINE
  5
175
330
1F
100
AcDbEntity
  8
LAYER006
  6
Continuous
 62
     6
370
    20
100
AcDbLine
 10
-8.078553727972973
 20
28.28898348243255
 30
0.0
 11
-4.677295975743106
 21
27.65360898269705
 31
0.0
  0
ARC
  5
176
330
1F
100
AcDbEntity
  8
LAYER006
  6
Continuous
 62
     6
370
    20
100
AcDbCircle
 10
-7.527666053837364
 20
31.2379702186668
 30
0.0
 40
3.0
100
AcDbArc
 50
230.871209415223
 51
259.4187762999853
  0
LINE
  5
177
330
1F
100
AcDbEntity
  8
LAYER006
  6
Continuous
 62
     6
370
    20
100
AcDbLine
 10
-7.792694557680562
 20
27.981258702832
 30
0.0
 11
-5.648196960843307
 21
27.58065422442065
 31
0.0
  0
INSERT
  5
17B
330
1F
100
AcDbEntity
  8
0
100
AcDbBlockReference
  2
BLKF030
 10
-115.9029045264055
 20
-25.89461404989634
 30
0.0
 41
0.5
 42
0.5
 43
0.5
  0
LINE
  5
18B
330
1F
100
AcDbEntity
  8
LAYER006
  6
DASHED
 62
     7
370
    20
100
AcDbLine
 10
-74.56061937015554
 20
37.18058126260365
 30
0.0
 11
-64.56061937015551
 21
37.18058126260365
 31
0.0
  0
LINE
  5
18C
330
1F
100
AcDbEntity
  8
LAYER006
  6
DASHED
 62
     7
370
    20
100
AcDbLine
 10
-74.56061937015554
 20
30.18058126260365
 30
0.0
 11
-64.56061937015551
 21
30.18058126260365
 31
0.0
  0
ENDSEC
  0
SECTION
  2
OBJECTS
  0
DICTIONARY
  5
C
330
0
100
AcDbDictionary
281
     1
  3
ACAD_GROUP
350
D
  3
ACAD_LAYOUT
350
1A
  3
ACAD_MLEADERSTYLE
350
18F
  3
ACAD_MLINESTYLE
350
17
  3
ACAD_PLOTSETTINGS
350
19
  3
ACAD_PLOTSTYLENAME
350
E
  3
ACAD_TABLESTYLE
350
18E
  3
ACAD_VISUALSTYLE
350
2A
  3
AcDbVariableDictionary
350
190
  0
DICTIONARY
  5
D
102
{ACAD_REACTORS
330
C
102
}
330
C
100
AcDbDictionary
281
     1
  0
DICTIONARY
  5
1A
102
{ACAD_REACTORS
330
C
102
}
330
C
100
AcDbDictionary
281
     1
  3
Layout1
350
1E
  3
Layout2
350
26
  3
Model
350
22
  0
DICTIONARY
  5
18F
102
{ACAD_REACTORS
330
C
102
}
330
C
100
AcDbDictionary
281
     1
  0
DICTIONARY
  5
17
102
{ACAD_REACTORS
330
C
102
}
330
C
100
AcDbDictionary
281
     1
  3
Standard
350
18
  0
DICTIONARY
  5
19
102
{ACAD_REACTORS
330
C
102
}
330
C
100
AcDbDictionary
281
     1
  0
ACDBDICTIONARYWDFLT
  5
E
102
{ACAD_REACTORS
330
C
102
}
330
C
100
AcDbDictionary
281
     1
  3
Normal
350
F
100
AcDbDictionaryWithDefault
340
F
  0
DICTIONARY
  5
18E
102
{ACAD_REACTORS
330
C
102
}
330
C
100
AcDbDictionary
281
     1
  0
DICTIONARY
  5
2A
102
{ACAD_REACTORS
330
C
102
}
330
C
100
AcDbDictionary
281
     1
  3
2dWireframe
350
2F
  3
3D Hidden
350
31
  3
3dWireframe
350
30
  3
Basic
350
32
  3
Brighten
350
36
  3
ColorChange
350
3A
  3
Conceptual
350
34
  3
Dim
350
35
  3
Facepattern
350
39
  3
Flat
350
2B
  3
FlatWithEdges
350
2C
  3
Gouraud
350
2D
  3
GouraudWithEdges
350
2E
  3
Linepattern
350
38
  3
Realistic
350
33
  3
Thicken
350
37
  0
DICTIONARY
  5
190
102
{ACAD_REACTORS
330
C
102
}
330
C
100
AcDbDictionary
281
     1
  3
PSOLHEIGHT
350
192
  3
PSOLWIDTH
350
191
  0
LAYOUT
  5
1E
102
{ACAD_REACTORS
330
1A
102
}
330
1A
100
AcDbPlotSettings
  1

  2
none_device
  4

  6

 40
0.0
 41
0.0
 42
0.0
 43
0.0
 44
0.0
 45
0.0
 46
0.0
 47
0.0
 48
0.0
 49
0.0
140
0.0
141
0.0
142
1.0
143
1.0
 70
   688
 72
     0
 73
     0
 74
     5
  7
monochrome.ctb
 75
    16
147
1.0
148
0.0
149
0.0
100
AcDbLayout
  1
Layout1
 70
     1
 71
     1
 10
0.0
 20
0.0
 11
420.0
 21
297.0
 12
0.0
 22
0.0
 32
0.0
 14
1.000000000000000E+20
 24
1.000000000000000E+20
 34
1.000000000000000E+20
 15
-1.000000000000000E+20
 25
-1.000000000000000E+20
 35
-1.000000000000000E+20
146
0.0
 13
0.0
 23
0.0
 33
0.0
 16
1.0
 26
0.0
 36
0.0
 17
0.0
 27
1.0
 37
0.0
 76
     0
330
1B
  0
LAYOUT
  5
26
102
{ACAD_REACTORS
330
1A
102
}
330
1A
100
AcDbPlotSettings
  1

  2
none_device
  4

  6

 40
0.0
 41
0.0
 42
0.0
 43
0.0
 44
0.0
 45
0.0
 46
0.0
 47
0.0
 48
0.0
 49
0.0
140
0.0
141
0.0
142
1.0
143
1.0
 70
   688
 72
     0
 73
     0
 74
     5
  7
monochrome.ctb
 75
    16
147
1.0
148
0.0
149
0.0
100
AcDbLayout
  1
Layout2
 70
     1
 71
     2
 10
0.0
 20
0.0
 11
0.0
 21
0.0
 12
0.0
 22
0.0
 32
0.0
 14
0.0
 24
0.0
 34
0.0
 15
0.0
 25
0.0
 35
0.0
146
0.0
 13
0.0
 23
0.0
 33
0.0
 16
1.0
 26
0.0
 36
0.0
 17
0.0
 27
1.0
 37
0.0
 76
     0
330
23
  0
LAYOUT
  5
22
102
{ACAD_REACTORS
330
1A
102
}
330
1A
100
AcDbPlotSettings
  1

  2
Adobe PDF
  4
A4
  6

 40
3.174999952316283
 41
3.174999952316283
 42
3.175003051757812
 43
3.17498779296875
 44
209.9733276367186
 45
297.0318298339843
 46
45.40999999999999
 47
0.0
 48
0.0
 49
0.0
140
0.0
141
0.0
142
1.0
143
0.5876040115755191
 70
 11956
 72
     1
 73
     1
 74
     1
  7
monochrome.ctb
 75
     0
147
1.701826366567408
148
-17.50657724997324
149
-24.10629324161715
100
AcDbLayout
  1
Model
 70
     1
 71
     0
 10
0.0
 20
0.0
 11
297.0
 21
210.0
 12
0.0
 22
0.0
 32
0.0
 14
0.0
 24
0.0
 34
0.0
 15
297.0
 25
210.0
 35
0.0
146
0.0
 13
0.0
 23
0.0
 33
0.0
 16
1.0
 26
0.0
 36
0.0
 17
0.0
 27
1.0
 37
0.0
 76
     0
330
1F
331
29
  0
MLINESTYLE
  5
18
102
{ACAD_REACTORS
330
17
102
}
330
17
100
AcDbMlineStyle
  2
STANDARD
 70
     0
  3

 62
   256
 51
90.0
 52
90.0
 71
     2
 49
0.5
 62
   256
  6
BYLAYER
 49
-0.5
 62
   256
  6
BYLAYER
  0
ACDBPLACEHOLDER
  5
F
102
{ACAD_REACTORS
330
E
102
}
330
E
  0
VISUALSTYLE
  5
2F
102
{ACAD_REACTORS
330
2A
102
}
330
2A
100
AcDbVisualStyle
  2
2dWireframe
 70
     4
 71
     0
 72
     2
 73
     0
 90
        0
 40
-0.6
 41
-30.0
 62
     5
 63
     7
 74
     1
 91
        4
 64
     7
 65
   257
 75
     1
175
     1
 42
1.0
 92
        0
 66
   257
 43
1.0
 76
     1
 77
     6
 78
     2
 67
     7
 79
     5
170
     0
171
     0
290
     0
174
     0
 93
        1
 44
0.0
173
     0
291
     0
 45
0.0
1001
ACAD
1000
AcDbSavedByObjectVersion
1070
     0
  0
VISUALSTYLE
  5
31
102
{ACAD_REACTORS
330
2A
102
}
330
2A
100
AcDbVisualStyle
  2
3D Hidden
 70
     6
 71
     1
 72
     2
 73
     2
 90
        0
 40
-0.6
 41
-30.0
 62
     5
 63
     7
 74
     2
 91
        2
 64
     7
 65
   257
 75
     2
175
     1
 42
40.0
 92
        0
 66
   257
 43
1.0
 76
     1
 77
     6
 78
     2
 67
     7
 79
     3
170
     0
171
     0
290
     0
174
     0
 93
        1
 44
0.0
173
     0
291
     0
 45
0.0
1001
ACAD
1000
AcDbSavedByObjectVersion
1070
     0
  0
VISUALSTYLE
  5
30
102
{ACAD_REACTORS
330
2A
102
}
330
2A
100
AcDbVisualStyle
  2
3dWireframe
 70
     5
 71
     0
 72
     2
 73
     0
 90
        0
 40
-0.6
 41
-30.0
 62
     5
 63
     7
 74
     1
 91
        4
 64
     7
 65
   257
 75
     1
175
     1
 42
1.0
 92
        0
 66
   257
 43
1.0
 76
     1
 77
     6
 78
     2
 67
     7
 79
     5
170
     0
171
     0
290
     0
174
     0
 93
        1
 44
0.0
173
     0
291
     0
 45
0.0
1001
ACAD
1000
AcDbSavedByObjectVersion
1070
     0
  0
VISUALSTYLE
  5
32
102
{ACAD_REACTORS
330
2A
102
}
330
2A
100
AcDbVisualStyle
  2
Basic
 70
     7
 71
     1
 72
     0
 73
     1
 90
        0
 40
-0.6
 41
-30.0
 62
     5
 63
     7
 74
     0
 91
        4
 64
     7
 65
   257
 75
     1
175
     1
 42
1.0
 92
        8
 66
     7
 43
1.0
 76
     1
 77
     6
 78
     2
 67
     7
 79
     5
170
     0
171
     0
290
     0
174
     0
 93
        1
 44
0.0
173
     0
291
     1
 45
0.0
1001
ACAD
1000
AcDbSavedByObjectVersion
1070
     0
  0
VISUALSTYLE
  5
36
102
{ACAD_REACTORS
330
2A
102
}
330
2A
100
AcDbVisualStyle
  2
Brighten
 70
    12
 71
     2
 72
     2
 73
     0
 90
        0
 40
-0.6
 41
-30.0
 62
     5
 63
     7
 74
     1
 91
        4
 64
     7
 65
   257
 75
     1
175
     1
 42
1.0
 92
        8
 66
     7
 43
1.0
 76
     1
 77
     6
 78
     2
 67
     7
 79
     5
170
     0
171
     0
290
     0
174
     0
 93
        1
 44
50.0
173
     0
291
     1
 45
0.0
1001
ACAD
1000
AcDbSavedByObjectVersion
1070
     0
  0
VISUALSTYLE
  5
3A
102
{ACAD_REACTORS
330
2A
102
}
330
2A
100
AcDbVisualStyle
  2
ColorChange
 70
    16
 71
     2
 72
     2
 73
     3
 90
        0
 40
-0.6
 41
-30.0
 62
     5
 63
     8
 74
     1
 91
        4
 64
     7
 65
   257
 75
     1
175
     1
 42
1.0
 92
        8
 66
     8
 43
1.0
 76
     1
 77
     6
 78
     2
 67
     7
 79
     5
170
     0
171
     0
290
     0
174
     0
 93
        1
 44
0.0
173
     0
291
     1
 45
0.0
1001
ACAD
1000
AcDbSavedByObjectVersion
1070
     0
  0
VISUALSTYLE
  5
34
102
{ACAD_REACTORS
330
2A
102
}
330
2A
100
AcDbVisualStyle
  2
Conceptual
 70
     9
 71
     3
 72
     2
 73
     0
 90
        0
 40
-0.6
 41
-30.0
 62
     5
 63
     7
 74
     2
 91
        2
 64
     7
 65
   257
 75
     1
175
     1
 42
40.0
 92
        8
 66
     7
 43
1.0
 76
     1
 77
     6
 78
     2
 67
     7
 79
     3
170
     0
171
     0
290
     0
174
     0
 93
        1
 44
0.0
173
     0
291
     0
 45
0.0
1001
ACAD
1000
AcDbSavedByObjectVersion
1070
     0
  0
VISUALSTYLE
  5
35
102
{ACAD_REACTORS
330
2A
102
}
330
2A
100
AcDbVisualStyle
  2
Dim
 70
    11
 71
     2
 72
     2
 73
     0
 90
        0
 40
-0.6
 41
-30.0
 62
     5
 63
     7
 74
     1
 91
        4
 64
     7
 65
   257
 75
     1
175
     1
 42
1.0
 92
        8
 66
     7
 43
1.0
 76
     1
 77
     6
 78
     2
 67
     7
 79
     5
170
     0
171
     0
290
     0
174
     0
 93
        1
 44
-50.0
173
     0
291
     1
 45
0.0
1001
ACAD
1000
AcDbSavedByObjectVersion
1070
     0
  0
VISUALSTYLE
  5
39
102
{ACAD_REACTORS
330
2A
102
}
330
2A
100
AcDbVisualStyle
  2
Facepattern
 70
    15
 71
     2
 72
     2
 73
     0
 90
        0
 40
-0.6
 41
-30.0
 62
     5
 63
     7
 74
     1
 91
        4
 64
     7
 65
   257
 75
     1
175
     1
 42
1.0
 92
        8
 66
     7
 43
1.0
 76
     1
 77
     6
 78
     2
 67
     7
 79
     5
170
     0
171
     0
290
     0
174
     0
 93
        1
 44
0.0
173
     0
291
     1
 45
0.0
1001
ACAD
1000
AcDbSavedByObjectVersion
1070
     0
  0
VISUALSTYLE
  5
2B
102
{ACAD_REACTORS
330
2A
102
}
330
2A
100
AcDbVisualStyle
  2
Flat
 70
     0
 71
     2
 72
     1
 73
     1
 90
        2
 40
-0.6
 41
30.0
 62
     5
 63
     7
 74
     0
 91
        4
 64
     7
 65
   257
 75
     1
175
     1
 42
1.0
 92
        8
 66
     7
 43
1.0
 76
     1
 77
     6
 78
     2
 67
     7
 79
     5
170
     0
171
     0
290
     0
174
     0
 93
       13
 44
0.0
173
     0
291
     1
 45
0.0
1001
ACAD
1000
AcDbSavedByObjectVersion
1070
     0
  0
VISUALSTYLE
  5
2C
102
{ACAD_REACTORS
330
2A
102
}
330
2A
100
AcDbVisualStyle
  2
FlatWithEdges
 70
     1
 71
     2
 72
     1
 73
     1
 90
        2
 40
-0.6
 41
30.0
 62
     5
 63
     7
 74
     1
 91
        4
 64
     7
 65
   257
 75
     1
175
     1
 42
1.0
 92
        0
 66
   257
 43
1.0
 76
     1
 77
     6
 78
     2
 67
     7
 79
     5
170
     0
171
     0
290
     0
174
     0
 93
       13
 44
0.0
173
     0
291
     1
 45
0.0
1001
ACAD
1000
AcDbSavedByObjectVersion
1070
     0
  0
VISUALSTYLE
  5
2D
102
{ACAD_REACTORS
330
2A
102
}
330
2A
100
AcDbVisualStyle
  2
Gouraud
 70
     2
 71
     2
 72
     2
 73
     1
 90
        2
 40
-0.6
 41
30.0
 62
     5
 63
     7
 74
     0
 91
        4
 64
     7
 65
   257
 75
     1
175
     1
 42
1.0
 92
        0
 66
     7
 43
1.0
 76
     1
 77
     6
 78
     2
 67
     7
 79
     5
170
     0
171
     0
290
     0
174
     0
 93
       13
 44
0.0
173
     0
291
     1
 45
0.0
1001
ACAD
1000
AcDbSavedByObjectVersion
1070
     0
  0
VISUALSTYLE
  5
2E
102
{ACAD_REACTORS
330
2A
102
}
330
2A
100
AcDbVisualStyle
  2
GouraudWithEdges
 70
     3
 71
     2
 72
     2
 73
     1
 90
        2
 40
-0.6
 41
30.0
 62
     5
 63
     7
 74
     1
 91
        4
 64
     7
 65
   257
 75
     1
175
     1
 42
1.0
 92
        0
 66
   257
 43
1.0
 76
     1
 77
     6
 78
     2
 67
     7
 79
     5
170
     0
171
     0
290
     0
174
     0
 93
       13
 44
0.0
173
     0
291
     1
 45
0.0
1001
ACAD
1000
AcDbSavedByObjectVersion
1070
     0
  0
VISUALSTYLE
  5
38
102
{ACAD_REACTORS
330
2A
102
}
330
2A
100
AcDbVisualStyle
  2
Linepattern
 70
    14
 71
     2
 72
     2
 73
     0
 90
        0
 40
-0.6
 41
-30.0
 62
     5
 63
     7
 74
     1
 91
        4
 64
     7
 65
   257
 75
     7
175
     7
 42
1.0
 92
        8
 66
     7
 43
1.0
 76
     1
 77
     6
 78
     2
 67
     7
 79
     5
170
     0
171
     0
290
     0
174
     0
 93
        1
 44
0.0
173
     0
291
     1
 45
0.0
1001
ACAD
1000
AcDbSavedByObjectVersion
1070
     0
  0
VISUALSTYLE
  5
33
102
{ACAD_REACTORS
330
2A
102
}
330
2A
100
AcDbVisualStyle
  2
Realistic
 70
     8
 71
     2
 72
     2
 73
     0
 90
        0
 40
-0.6
 41
-30.0
 62
     5
 63
     7
 74
     1
 91
        0
 64
     7
 65
   257
 75
     1
175
     1
 42
1.0
 92
        8
 66
     8
 43
1.0
 76
     1
 77
     6
 78
     2
 67
     7
 79
     5
170
     0
171
     0
290
     0
174
     0
 93
       13
 44
0.0
173
     0
291
     0
 45
0.0
1001
ACAD
1000
AcDbSavedByObjectVersion
1070
     0
  0
VISUALSTYLE
  5
37
102
{ACAD_REACTORS
330
2A
102
}
330
2A
100
AcDbVisualStyle
  2
Thicken
 70
    13
 71
     2
 72
     2
 73
     0
 90
        0
 40
-0.6
 41
-30.0
 62
     5
 63
     7
 74
     1
 91
        4
 64
     7
 65
   257
 75
     1
175
     1
 42
1.0
 92
       12
 66
     7
 43
1.0
 76
     1
 77
     6
 78
     2
 67
     7
 79
     5
170
     0
171
     0
290
     0
174
     0
 93
        1
 44
0.0
173
     0
291
     1
 45
0.0
1001
ACAD
1000
AcDbSavedByObjectVersion
1070
     0
  0
DICTIONARYVAR
  5
192
102
{ACAD_REACTORS
330
190
102
}
330
190
100
DictionaryVariables
280
     0
  1
80.000000
  0
DICTIONARYVAR
  5
191
102
{ACAD_REACTORS
330
190
102
}
330
190
100
DictionaryVariables
280
     0
  1
5.000000
  0
ENDSEC
  0
EOF
