  0
SECTION
  2
HEADER
  9
$ACADVER
  1
AC1015
  9
$ACADMAINTVER
 70
    10
  9
$DWGCODEPAGE
  3
ANSI_932
  9
$INSBASE
 10
0.0
 20
0.0
 30
0.0
  9
$EXTMIN
 10
97.56189045352153
 20
46.37649590426184
 30
-0.0015258207003583
  9
$EXTMAX
 10
476.5160531465848
 20
301.5225225681469
 30
0.0000000349246037
  9
$LIMMIN
 10
0.0
 20
0.0
  9
$LIMMAX
 10
297.0
 20
210.0
  9
$ORTHOMODE
 70
     0
  9
$REGENMODE
 70
     1
  9
$FILLMODE
 70
     1
  9
$QTEXTMODE
 70
     0
  9
$MIRRTEXT
 70
     1
  9
$LTSCALE
 40
1.0
  9
$ATTMODE
 70
     1
  9
$TEXTSIZE
 40
0.0
  9
$TRACEWID
 40
0.05
  9
$TEXTSTYLE
  7
STANDARD
  9
$CLAYER
  8
LAYER_1
  9
$CELTYPE
  6
CONTINUOUS
  9
$CECOLOR
 62
   256
  9
$CELTSCALE
 40
1.0
  9
$DISPSILH
 70
     0
  9
$DIMSCALE
 40
1.0
  9
$DIMASZ
 40
0.18
  9
$DIMEXO
 40
0.0625
  9
$DIMDLI
 40
0.38
  9
$DIMRND
 40
0.0
  9
$DIMDLE
 40
0.0
  9
$DIMEXE
 40
0.18
  9
$DIMTP
 40
0.0
  9
$DIMTM
 40
0.0
  9
$DIMTXT
 40
0.18
  9
$DIMCEN
 40
0.09
  9
$DIMTSZ
 40
0.0
  9
$DIMTOL
 70
     0
  9
$DIMLIM
 70
     0
  9
$DIMTIH
 70
     1
  9
$DIMTOH
 70
     1
  9
$DIMSE1
 70
     0
  9
$DIMSE2
 70
     0
  9
$DIMTAD
 70
     0
  9
$DIMZIN
 70
     0
  9
$DIMBLK
  1

  9
$DIMASO
 70
     1
  9
$DIMSHO
 70
     1
  9
$DIMPOST
  1

  9
$DIMAPOST
  1

  9
$DIMALT
 70
     0
  9
$DIMALTD
 70
     2
  9
$DIMALTF
 40
25.4
  9
$DIMLFAC
 40
1.0
  9
$DIMTOFL
 70
     0
  9
$DIMTVP
 40
0.0
  9
$DIMTIX
 70
     0
  9
$DIMSOXD
 70
     0
  9
$DIMSAH
 70
     0
  9
$DIMBLK1
  1

  9
$DIMBLK2
  1

  9
$DIMSTYLE
  2
STANDARD
  9
$DIMCLRD
 70
     0
  9
$DIMCLRE
 70
     0
  9
$DIMCLRT
 70
     0
  9
$DIMTFAC
 40
1.0
  9
$DIMGAP
 40
0.09
  9
$DIMJUST
 70
     0
  9
$DIMSD1
 70
     0
  9
$DIMSD2
 70
     0
  9
$DIMTOLJ
 70
     1
  9
$DIMTZIN
 70
     0
  9
$DIMALTZ
 70
     0
  9
$DIMALTTZ
 70
     0
  9
$DIMUPT
 70
     0
  9
$DIMDEC
 70
     4
  9
$DIMTDEC
 70
     4
  9
$DIMALTU
 70
     2
  9
$DIMALTTD
 70
     2
  9
$DIMTXSTY
  7
STANDARD
  9
$DIMAUNIT
 70
     0
  9
$DIMADEC
 70
     0
  9
$DIMALTRND
 40
0.0
  9
$DIMAZIN
 70
     0
  9
$DIMDSEP
 70
    46
  9
$DIMATFIT
 70
     3
  9
$DIMFRAC
 70
     0
  9
$DIMLDRBLK
  1

  9
$DIMLUNIT
 70
     2
  9
$DIMLWD
 70
    -2
  9
$DIMLWE
 70
    -2
  9
$DIMTMOVE
 70
     0
  9
$LUNITS
 70
     2
  9
$LUPREC
 70
     4
  9
$SKETCHINC
 40
0.1
  9
$FILLETRAD
 40
0.0
  9
$AUNITS
 70
     0
  9
$AUPREC
 70
     0
  9
$MENU
  1
acad
  9
$ELEVATION
 40
0.0
  9
$PELEVATION
 40
0.0
  9
$THICKNESS
 40
0.0
  9
$LIMCHECK
 70
     0
  9
$CHAMFERA
 40
0.0
  9
$CHAMFERB
 40
0.0
  9
$CHAMFERC
 40
0.0
  9
$CHAMFERD
 40
0.0
  9
$SKPOLY
 70
     0
  9
$TDCREATE
 40
2311945.702129432
  9
$TDUCREATE
 40
2311945.327129433
  9
$TDUPDATE
 40
2456666.470998182
  9
$TDUUPDATE
 40
2456666.095998183
  9
$TDINDWG
 40
0.0005210301
  9
$TDUSRTIMER
 40
0.0005208565
  9
$USRTIMER
 70
     1
  9
$ANGBASE
 50
0.0
  9
$ANGDIR
 70
     0
  9
$PDMODE
 70
     0
  9
$PDSIZE
 40
0.0
  9
$PLINEWID
 40
0.0
  9
$SPLFRAME
 70
     0
  9
$SPLINETYPE
 70
     6
  9
$SPLINESEGS
 70
     8
  9
$HANDSEED
  5
3E0
  9
$SURFTAB1
 70
     6
  9
$SURFTAB2
 70
     6
  9
$SURFTYPE
 70
     6
  9
$SURFU
 70
     6
  9
$SURFV
 70
     6
  9
$UCSBASE
  2

  9
$UCSNAME
  2

  9
$UCSORG
 10
0.0
 20
0.0
 30
0.0
  9
$UCSXDIR
 10
1.0
 20
0.0
 30
0.0
  9
$UCSYDIR
 10
0.0
 20
1.0
 30
0.0
  9
$UCSORTHOREF
  2

  9
$UCSORTHOVIEW
 70
     0
  9
$UCSORGTOP
 10
0.0
 20
0.0
 30
0.0
  9
$UCSORGBOTTOM
 10
0.0
 20
0.0
 30
0.0
  9
$UCSORGLEFT
 10
0.0
 20
0.0
 30
0.0
  9
$UCSORGRIGHT
 10
0.0
 20
0.0
 30
0.0
  9
$UCSORGFRONT
 10
0.0
 20
0.0
 30
0.0
  9
$UCSORGBACK
 10
0.0
 20
0.0
 30
0.0
  9
$PUCSBASE
  2

  9
$PUCSNAME
  2

  9
$PUCSORG
 10
0.0
 20
0.0
 30
0.0
  9
$PUCSXDIR
 10
1.0
 20
0.0
 30
0.0
  9
$PUCSYDIR
 10
0.0
 20
1.0
 30
0.0
  9
$PUCSORTHOREF
  2

  9
$PUCSORTHOVIEW
 70
     0
  9
$PUCSORGTOP
 10
0.0
 20
0.0
 30
0.0
  9
$PUCSORGBOTTOM
 10
0.0
 20
0.0
 30
0.0
  9
$PUCSORGLEFT
 10
0.0
 20
0.0
 30
0.0
  9
$PUCSORGRIGHT
 10
0.0
 20
0.0
 30
0.0
  9
$PUCSORGFRONT
 10
0.0
 20
0.0
 30
0.0
  9
$PUCSORGBACK
 10
0.0
 20
0.0
 30
0.0
  9
$USERI1
 70
     0
  9
$USERI2
 70
     0
  9
$USERI3
 70
     0
  9
$USERI4
 70
     0
  9
$USERI5
 70
     0
  9
$USERR1
 40
0.0
  9
$USERR2
 40
0.0
  9
$USERR3
 40
0.0
  9
$USERR4
 40
0.0
  9
$USERR5
 40
0.0
  9
$WORLDVIEW
 70
     1
  9
$SHADEDGE
 70
     3
  9
$SHADEDIF
 70
    70
  9
$TILEMODE
 70
     1
  9
$MAXACTVP
 70
    16
  9
$PINSBASE
 10
0.0
 20
0.0
 30
0.0
  9
$PLIMCHECK
 70
     0
  9
$PEXTMIN
 10
1.000000000000000E+20
 20
1.000000000000000E+20
 30
1.000000000000000E+20
  9
$PEXTMAX
 10
-1.000000000000000E+20
 20
-1.000000000000000E+20
 30
-1.000000000000000E+20
  9
$PLIMMIN
 10
0.0
 20
0.0
  9
$PLIMMAX
 10
12.0
 20
9.0
  9
$UNITMODE
 70
     0
  9
$VISRETAIN
 70
     0
  9
$PLINEGEN
 70
     1
  9
$PSLTSCALE
 70
     0
  9
$TREEDEPTH
 70
  3020
  9
$CMLSTYLE
  2
STANDARD
  9
$CMLJUST
 70
     0
  9
$CMLSCALE
 40
1.0
  9
$PROXYGRAPHICS
 70
     1
  9
$MEASUREMENT
 70
     0
  9
$CELWEIGHT
370
    -1
  9
$ENDCAPS
280
     0
  9
$JOINSTYLE
280
     0
  9
$LWDISPLAY
290
     0
  9
$INSUNITS
 70
     0
  9
$HYPERLINKBASE
  1

  9
$STYLESHEET
  1

  9
$XEDIT
290
     1
  9
$CEPSNTYPE
380
     0
  9
$PSTYLEMODE
290
     1
  9
$FINGERPRINTGUID
  2
{B8288213-EB83-4A27-896F-41F435530323}
  9
$VERSIONGUID
  2
{8CF84B16-2ECA-4952-850E-A912BAC26AD5}
  9
$EXTNAMES
290
     1
  9
$PSVPSCALE
 40
0.0
  9
$OLESTARTUP
290
     0
  0
ENDSEC
  0
SECTION
  2
CLASSES
  0
CLASS
  1
LWPOLYLINE
  2
AcDbPolyline
  3
AutoCAD 2000
 90
    32768
280
     0
281
     1
  0
CLASS
  1
IMAGE
  2
AcDbRasterImage
  3
ISM
 90
    32895
280
     0
281
     1
  0
CLASS
  1
OLE2FRAME
  2
AcDbOle2Frame
  3
AutoCAD 2000
 90
    32768
280
     0
281
     1
  0
CLASS
  1
HATCH
  2
AcDbHatch
  3
AutoCAD 2000
 90
    32768
280
     0
281
     1
  0
CLASS
  1
DICTIONARYVAR
  2
AcDbDictionaryVar
  3
AutoCAD 2000
 90
    32768
280
     0
281
     0
  0
CLASS
  1
RASTERVARIABLES
  2
AcDbRasterVariables
  3
ISM
 90
    32768
280
     0
281
     0
  0
CLASS
  1
IMAGEDEF
  2
AcDbRasterImageDef
  3
ISM
 90
    32768
280
     0
281
     0
  0
CLASS
  1
IMAGEDEF_REACTOR
  2
AcDbRasterImageDefReactor
  3
ISM
 90
    32769
280
     0
281
     0
  0
CLASS
  1
IDBUFFER
  2
AcDbIdBuffer
  3
AutoCAD 2000
 90
    32768
280
     0
281
     0
  0
CLASS
  1
SPATIAL_FILTER
  2
AcDbSpatialFilter
  3
AutoCAD 2000
 90
    32768
280
     0
281
     0
  0
CLASS
  1
XRECORD
  2
AcDbXrecord
  3
AutoCAD 2000
 90
    32768
280
     0
281
     0
  0
CLASS
  1
SORTENTSTABLE
  2
AcDbSortentsTable
  3
AutoCAD 2000
 90
    32768
280
     0
281
     0
  0
CLASS
  1
LAYER_INDEX
  2
AcDbLayerIndex
  3
AutoCAD 2000
 90
    32768
280
     0
281
     0
  0
CLASS
  1
SPATIAL_INDEX
  2
AcDbSpatialIndex
  3
AutoCAD 2000
 90
    32768
280
     0
281
     0
  0
CLASS
  1
OBJECT_PTR
  2
CAseDLPNTableRecord
  3
"ASE-LPNTableRecord"
 90
    32769
280
     0
281
     0
  0
CLASS
  1
LAYOUT
  2
AcDbLayout
  3
AutoCAD 2000
 90
        0
280
     0
281
     0
  0
CLASS
  1
PLOTSETTINGS
  2
AcDbPlotSettings
  3
AutoCAD 2000
 90
    32768
280
     0
281
     0
  0
CLASS
  1
ACDBDICTIONARYWDFLT
  2
AcDbDictionaryWithDefault
  3
AutoCAD 2000
 90
        0
280
     0
281
     0
  0
CLASS
  1
ACDBPLACEHOLDER
  2
AcDbPlaceHolder
  3
AutoCAD 2000
 90
        0
280
     0
281
     0
  0
CLASS
  1
VBA_PROJECT
  2
AcDbVbaProject
  3
"acadvba"
 90
    32768
280
     0
281
     0
  0
CLASS
  1
WIPEOUT
  2
AcDbWipeout
  3
WipeOut|AutoCAD Express Tool|expresstools@autodesk.com
 90
    32895
280
     0
281
     1
  0
CLASS
  1
WIPEOUTVARIABLES
  2
AcDbWipeoutVariables
  3
WipeOut|AutoCAD Express Tool|expresstools@autodesk.com
 90
    32768
280
     0
281
     0
  0
CLASS
  1
RTEXT
  2
RText
  3
RText|AutoCAD Express Tool|expresstools@autodesk.com
 90
    32768
280
     0
281
     1
  0
CLASS
  1
ARCALIGNEDTEXT
  2
AcDbArcAlignedText
  3
ATEXT|AutoCAD Express Tool|expresstools@autodesk.com
 90
    32768
280
     0
281
     1
  0
ENDSEC
  0
SECTION
  2
TABLES
  0
TABLE
  2
VPORT
  5
7
330
0
100
AcDbSymbolTable
 70
     3
  0
VPORT
  5
3DF
330
7
100
AcDbSymbolTableRecord
100
AcDbViewportTableRecord
  2
*Active
 70
     0
 10
0.0
 20
0.0
 11
1.0
 21
1.0
 12
238.2580265732924
 22
150.7612612840734
 13
0.0
 23
0.0
 14
1.0
 24
1.0
 15
0.0
 25
0.0
 16
0.0
 26
0.0
 36
1.0
 17
0.0
 27
0.0
 37
0.0
 40
304.7359064676297
 41
2.122775800711743
 42
50.0
 43
0.0
 44
0.0
 50
0.0
 51
0.0
 71
     0
 72
   100
 73
     1
 74
     1
 75
     0
 76
     0
 77
     0
 78
     0
281
     0
 65
     1
110
0.0
120
0.0
130
0.0
111
1.0
121
0.0
131
0.0
112
0.0
122
1.0
132
0.0
 79
     0
146
0.0
  0
ENDTAB
  0
TABLE
  2
LTYPE
  5
4
330
0
100
AcDbSymbolTable
 70
     6
  0
LTYPE
  5
11
330
4
100
AcDbSymbolTableRecord
100
AcDbLinetypeTableRecord
  2
BYBLOCK
 70
     0
  3

 72
    65
 73
     0
 40
0.0
  0
LTYPE
  5
12
330
4
100
AcDbSymbolTableRecord
100
AcDbLinetypeTableRecord
  2
BYLAYER
 70
     0
  3

 72
    65
 73
     0
 40
0.0
  0
LTYPE
  5
13
330
4
100
AcDbSymbolTableRecord
100
AcDbLinetypeTableRecord
  2
CONTINUOUS
 70
     0
  3
Solid line
 72
    65
 73
     0
 40
0.0
  0
LTYPE
  5
1D
330
4
100
AcDbSymbolTableRecord
100
AcDbLinetypeTableRecord
  2
DASHED
 70
     0
  3
__ __ __ __ __ __ __ __ __ __ __ __ __ __ __
 72
    65
 73
     2
 40
4.0
 49
3.0
 74
     0
 49
-1.0
 74
     0
  0
LTYPE
  5
1E
330
4
100
AcDbSymbolTableRecord
100
AcDbLinetypeTableRecord
  2
HIDDEN
 70
     0
  3
_ _ _ _ _ _ _ _ _ _ _ _ _ _ _ _ _ _ _ _ _ _ _
 72
    65
 73
     2
 40
2.25
 49
0.25
 74
     0
 49
-2.0
 74
     0
  0
LTYPE
  5
1F
330
4
100
AcDbSymbolTableRecord
100
AcDbLinetypeTableRecord
  2
DOT
 70
     0
  3
...............................................
 72
    65
 73
     2
 40
4.0
 49
1.0
 74
     0
 49
-3.0
 74
     0
  0
LTYPE
  5
20
330
4
100
AcDbSymbolTableRecord
100
AcDbLinetypeTableRecord
  2
DASHDOT
 70
     0
  3
__ . __ . __ . __ . __ . __ . __ . __ . __ . __
 72
    65
 73
     4
 40
7.5
 49
6.0
 74
     0
 49
-0.5
 74
     0
 49
0.5
 74
     0
 49
-0.5
 74
     0
  0
LTYPE
  5
21
330
4
100
AcDbSymbolTableRecord
100
AcDbLinetypeTableRecord
  2
DIVIDE
 70
     0
  3
__ . . __ . . __ . . __ . . __ . . __ . . __
 72
    65
 73
     6
 40
8.5
 49
6.0
 74
     0
 49
-0.5
 74
     0
 49
0.5
 74
     0
 49
-0.5
 74
     0
 49
0.5
 74
     0
 49
-0.5
 74
     0
  0
ENDTAB
  0
TABLE
  2
LAYER
  5
2
330
0
100
AcDbSymbolTable
 70
     3
  0
LAYER
  5
14
330
2
100
AcDbSymbolTableRecord
100
AcDbLayerTableRecord
  2
0
 70
     0
 62
     7
  6
CONTINUOUS
370
    -3
390
3D5
  0
LAYER
  5
22
330
2
100
AcDbSymbolTableRecord
100
AcDbLayerTableRecord
  2
LAYER_1
 70
     0
 62
     7
  6
CONTINUOUS
370
    -3
390
3D5
  0
LAYER
  5
23
330
2
100
AcDbSymbolTableRecord
100
AcDbLayerTableRecord
  2
LAYER_2
 70
     0
 62
     7
  6
CONTINUOUS
370
    -3
390
3D5
  0
ENDTAB
  0
TABLE
  2
STYLE
  5
3
330
0
100
AcDbSymbolTable
 70
     3
  0
STYLE
  5
17
330
3
100
AcDbSymbolTableRecord
100
AcDbTextStyleTableRecord
  2
STANDARD
 70
     0
 40
0.0
 41
1.0
 50
0.0
 71
     0
 42
0.0
  3
txt
  4

  0
STYLE
  5
24
330
3
100
AcDbSymbolTableRecord
100
AcDbTextStyleTableRecord
  2
BIGFONT
 70
     0
 40
1.0
 41
1.0
 50
0.0
 71
     0
 42
0.0
  3
monotxt.shx
  4
bigfont
  0
STYLE
  5
25
330
3
100
AcDbSymbolTableRecord
100
AcDbTextStyleTableRecord
  2
ＭＳ_ゴシック
 70
     0
 40
0.0
 41
1.0
 50
0.0
 71
     0
 42
0.0
  3
MS Gothic.ttf
  4

1001
ACAD
1000
MS Gothic
1071
    32817
  0
ENDTAB
  0
TABLE
  2
VIEW
  5
5
330
0
100
AcDbSymbolTable
 70
     0
  0
ENDTAB
  0
TABLE
  2
UCS
  5
6
330
0
100
AcDbSymbolTable
 70
     0
  0
ENDTAB
  0
TABLE
  2
APPID
  5
8
330
0
100
AcDbSymbolTable
 70
     1
  0
APPID
  5
16
330
8
100
AcDbSymbolTableRecord
100
AcDbRegAppTableRecord
  2
ACAD
 70
     0
  0
ENDTAB
  0
TABLE
  2
DIMSTYLE
  5
9
330
0
100
AcDbSymbolTable
 70
     2
100
AcDbDimStyleTable
 71
     0
  0
DIMSTYLE
105
18
330
9
100
AcDbSymbolTableRecord
100
AcDbDimStyleTableRecord
  2
STANDARD
 70
     0
340
17
  0
DIMSTYLE
105
26
102
{ACAD_REACTORS
330
34A
330
34B
330
352
330
353
330
354
330
355
330
356
102
}
330
9
100
AcDbSymbolTableRecord
100
AcDbDimStyleTableRecord
  2
MARK2_DIMSTYLE
 70
     0
 41
2.0
 42
1.0
 43
10.0
 44
1.0
 73
     0
 77
     1
140
6.0
146
0.5
147
1.0
271
     2
340
25
341
27
342
27
  0
ENDTAB
  0
TABLE
  2
BLOCK_RECORD
  5
1
330
0
100
AcDbSymbolTable
 70
     9
  0
BLOCK_RECORD
  5
A
330
1
100
AcDbSymbolTableRecord
100
AcDbBlockTableRecord
  2
*MODEL_SPACE
340
3D8
  0
BLOCK_RECORD
  5
B
330
1
100
AcDbSymbolTableRecord
100
AcDbBlockTableRecord
  2
*PAPER_SPACE
340
3D9
  0
BLOCK_RECORD
  5
27
330
1
100
AcDbSymbolTableRecord
100
AcDbBlockTableRecord
  2
_OPEN
340
0
102
{BLKREFS
331
34
331
35
331
36
331
37
331
3F
331
40
331
41
331
42
331
4A
331
4B
331
4C
331
4D
331
55
331
56
331
57
331
58
331
60
331
61
331
62
331
63
331
6B
331
6C
331
6D
331
6E
331
75
331
78
102
}
  0
BLOCK_RECORD
  5
2D
330
1
100
AcDbSymbolTableRecord
100
AcDbBlockTableRecord
  2
_NONE
340
0
102
{BLKREFS
331
76
331
79
102
}
  0
BLOCK_RECORD
  5
30
330
1
100
AcDbSymbolTableRecord
100
AcDbBlockTableRecord
  2
*D2
340
0
  0
BLOCK_RECORD
  5
3B
330
1
100
AcDbSymbolTableRecord
100
AcDbBlockTableRecord
  2
*D3
340
0
  0
BLOCK_RECORD
  5
46
330
1
100
AcDbSymbolTableRecord
100
AcDbBlockTableRecord
  2
*D4
340
0
  0
BLOCK_RECORD
  5
51
330
1
100
AcDbSymbolTableRecord
100
AcDbBlockTableRecord
  2
*D5
340
0
  0
BLOCK_RECORD
  5
5C
330
1
100
AcDbSymbolTableRecord
100
AcDbBlockTableRecord
  2
*D6
340
0
  0
BLOCK_RECORD
  5
67
330
1
100
AcDbSymbolTableRecord
100
AcDbBlockTableRecord
  2
*D7
340
0
  0
BLOCK_RECORD
  5
72
330
1
100
AcDbSymbolTableRecord
100
AcDbBlockTableRecord
  2
*D8
340
0
  0
ENDTAB
  0
ENDSEC
  0
SECTION
  2
BLOCKS
  0
BLOCK
  5
D
330
A
100
AcDbEntity
  8
0
100
AcDbBlockBegin
  2
*MODEL_SPACE
 70
     0
 10
0.0
 20
0.0
 30
0.0
  3
*MODEL_SPACE
  1

  0
ENDBLK
  5
E
330
A
100
AcDbEntity
  8
0
100
AcDbBlockEnd
  0
BLOCK
  5
F
330
B
100
AcDbEntity
 67
     1
  8
0
100
AcDbBlockBegin
  2
*PAPER_SPACE
 70
     0
 10
0.0
 20
0.0
 30
0.0
  3
*PAPER_SPACE
  1

  0
ENDBLK
  5
10
330
B
100
AcDbEntity
 67
     1
  8
0
100
AcDbBlockEnd
  0
BLOCK
  5
28
330
27
100
AcDbEntity
  8
0
 62
     0
100
AcDbBlockBegin
  2
_OPEN
 70
     0
 10
0.0
 20
0.0
 30
0.0
  3
_OPEN
  1

  0
LINE
  5
29
330
27
100
AcDbEntity
  8
0
 62
     0
100
AcDbLine
 10
-1.0
 20
0.166666666667
 30
0.0
 11
0.0
 21
0.0
 31
0.0
  0
LINE
  5
2A
330
27
100
AcDbEntity
  8
0
 62
     0
100
AcDbLine
 10
-1.0
 20
-0.166666666667
 30
0.0
 11
0.0
 21
0.0
 31
0.0
  0
LINE
  5
2B
330
27
100
AcDbEntity
  8
0
 62
     0
100
AcDbLine
 10
0.0
 20
0.0
 30
0.0
 11
-1.0
 21
0.0
 31
0.0
  0
ENDBLK
  5
2C
330
27
100
AcDbEntity
  8
0
100
AcDbBlockEnd
  0
BLOCK
  5
2E
330
2D
100
AcDbEntity
  8
0
 62
     0
100
AcDbBlockBegin
  2
_NONE
 70
     0
 10
0.0
 20
0.0
 30
0.0
  3
_NONE
  1

  0
ENDBLK
  5
2F
330
2D
100
AcDbEntity
  8
0
100
AcDbBlockEnd
  0
BLOCK
  5
31
330
30
100
AcDbEntity
  8
0
 62
     7
100
AcDbBlockBegin
  2
*D2
 70
     1
 10
0.0
 20
0.0
 30
0.0
  3
*D2
  1

  0
LINE
  5
32
330
30
100
AcDbEntity
  8
LAYER_1
  6
Continuous
 62
     7
100
AcDbLine
 10
329.4939107673509
 20
158.3865287515209
 30
0.0
 11
329.4939107673509
 21
173.3865287515209
 31
0.0
  0
LINE
  5
33
330
30
100
AcDbEntity
  8
LAYER_1
  6
Continuous
 62
     7
100
AcDbLine
 10
419.4939107673509
 20
158.3865287515209
 30
0.0
 11
419.4939107673509
 21
173.3865287515209
 31
0.0
  0
INSERT
  5
34
330
30
100
AcDbEntity
  8
LAYER_1
  6
Continuous
 62
     7
100
AcDbBlockReference
  2
_OPEN
 10
329.4939107673509
 20
171.3865287515209
 30
0.0
 41
4.0
 42
4.0
 50
180.0
  0
INSERT
  5
35
330
30
100
AcDbEntity
  8
LAYER_1
  6
Continuous
 62
     7
100
AcDbBlockReference
  2
_OPEN
 10
419.4939107673509
 20
171.3865287515209
 30
0.0
 41
4.0
 42
4.0
  0
INSERT
  5
36
330
30
100
AcDbEntity
  8
LAYER_1
  6
Continuous
 62
     7
100
AcDbBlockReference
  2
_OPEN
 10
329.4939107673509
 20
171.3865287515209
 30
0.0
 41
4.0
 42
4.0
 50
180.0
  0
INSERT
  5
37
330
30
100
AcDbEntity
  8
LAYER_1
  6
Continuous
 62
     7
100
AcDbBlockReference
  2
_OPEN
 10
419.4939107673509
 20
171.3865287515209
 30
0.0
 41
4.0
 42
4.0
  0
LINE
  5
38
330
30
100
AcDbEntity
  8
LAYER_1
  6
Continuous
 62
     7
100
AcDbLine
 10
329.4939107673509
 20
171.3865287515209
 30
0.0
 11
419.4939107673509
 21
171.3865287515209
 31
0.0
  0
TEXT
  5
39
330
30
100
AcDbEntity
  8
LAYER_1
 62
     7
100
AcDbText
 10
370.4654843714132
 20
173.3865287515209
 30
0.0
 40
6.0
  1
90
 41
1.033333333332999
  7
ＭＳ_ゴシック
 72
     1
 11
374.493910767351
 21
173.3865287515209
 31
0.0
100
AcDbText
  0
ENDBLK
  5
3A
330
30
100
AcDbEntity
  8
0
100
AcDbBlockEnd
  0
BLOCK
  5
3C
330
3B
100
AcDbEntity
  8
0
 62
     7
100
AcDbBlockBegin
  2
*D3
 70
     1
 10
0.0
 20
0.0
 30
0.0
  3
*D3
  1

  0
LINE
  5
3D
330
3B
100
AcDbEntity
  8
LAYER_1
  6
Continuous
 62
     7
100
AcDbLine
 10
431.4939107673509
 20
64.886528751521
 30
0.0
 11
451.493910767351
 21
64.886528751521
 31
0.0
  0
LINE
  5
3E
330
3B
100
AcDbEntity
  8
LAYER_1
  6
Continuous
 62
     7
100
AcDbLine
 10
421.493910767351
 20
156.3865287515209
 30
0.0
 11
451.493910767351
 21
156.3865287515209
 31
0.0
  0
INSERT
  5
3F
330
3B
100
AcDbEntity
  8
LAYER_1
  6
Continuous
 62
     7
100
AcDbBlockReference
  2
_OPEN
 10
449.4939107673509
 20
64.886528751521
 30
0.0
 41
4.0
 42
4.0
 50
270.0
  0
INSERT
  5
40
330
3B
100
AcDbEntity
  8
LAYER_1
  6
Continuous
 62
     7
100
AcDbBlockReference
  2
_OPEN
 10
449.4939107673509
 20
156.3865287515209
 30
0.0
 41
4.0
 42
4.0
 50
90.0
  0
INSERT
  5
41
330
3B
100
AcDbEntity
  8
LAYER_1
  6
Continuous
 62
     7
100
AcDbBlockReference
  2
_OPEN
 10
449.4939107673509
 20
64.886528751521
 30
0.0
 41
4.0
 42
4.0
 50
270.0
  0
INSERT
  5
42
330
3B
100
AcDbEntity
  8
LAYER_1
  6
Continuous
 62
     7
100
AcDbBlockReference
  2
_OPEN
 10
449.4939107673509
 20
156.3865287515209
 30
0.0
 41
4.0
 42
4.0
 50
90.0
  0
LINE
  5
43
330
3B
100
AcDbEntity
  8
LAYER_1
  6
Continuous
 62
     7
100
AcDbLine
 10
449.4939107673509
 20
64.886528751521
 30
0.0
 11
449.4939107673509
 21
156.3865287515209
 31
0.0
  0
TEXT
  5
44
330
3B
100
AcDbEntity
  8
LAYER_1
 62
     7
100
AcDbText
 10
447.493910767351
 20
102.5796759596454
 30
0.0
 40
6.0
  1
91.5
 50
90.0
 41
1.033333333332999
  7
ＭＳ_ゴシック
 72
     1
 11
447.493910767351
 21
110.6365287515209
 31
0.0
100
AcDbText
  0
ENDBLK
  5
45
330
3B
100
AcDbEntity
  8
0
100
AcDbBlockEnd
  0
BLOCK
  5
47
330
46
100
AcDbEntity
  8
0
 62
     7
100
AcDbBlockBegin
  2
*D4
 70
     1
 10
0.0
 20
0.0
 30
0.0
  3
*D4
  1

  0
LINE
  5
48
330
46
100
AcDbEntity
  8
LAYER_1
  6
Continuous
 62
     7
100
AcDbLine
 10
430.2439107673509
 20
207.8865287515209
 30
0.0
 11
451.493910767351
 21
207.8865287515209
 31
0.0
  0
LINE
  5
49
330
46
100
AcDbEntity
  8
LAYER_1
  6
Continuous
 62
     7
100
AcDbLine
 10
430.2439107673509
 20
244.8865287515209
 30
0.0
 11
451.493910767351
 21
244.8865287515209
 31
0.0
  0
INSERT
  5
4A
330
46
100
AcDbEntity
  8
LAYER_1
  6
Continuous
 62
     7
100
AcDbBlockReference
  2
_OPEN
 10
449.4939107673509
 20
207.8865287515209
 30
0.0
 41
4.0
 42
4.0
 50
270.0
  0
INSERT
  5
4B
330
46
100
AcDbEntity
  8
LAYER_1
  6
Continuous
 62
     7
100
AcDbBlockReference
  2
_OPEN
 10
449.4939107673509
 20
244.8865287515209
 30
0.0
 41
4.0
 42
4.0
 50
90.0
  0
INSERT
  5
4C
330
46
100
AcDbEntity
  8
LAYER_1
  6
Continuous
 62
     7
100
AcDbBlockReference
  2
_OPEN
 10
449.4939107673509
 20
207.8865287515209
 30
0.0
 41
4.0
 42
4.0
 50
270.0
  0
INSERT
  5
4D
330
46
100
AcDbEntity
  8
LAYER_1
  6
Continuous
 62
     7
100
AcDbBlockReference
  2
_OPEN
 10
449.4939107673509
 20
244.8865287515209
 30
0.0
 41
4.0
 42
4.0
 50
90.0
  0
LINE
  5
4E
330
46
100
AcDbEntity
  8
LAYER_1
  6
Continuous
 62
     7
100
AcDbLine
 10
449.4939107673509
 20
207.8865287515209
 30
0.0
 11
449.4939107673509
 21
244.8865287515209
 31
0.0
  0
TEXT
  5
4F
330
46
100
AcDbEntity
  8
LAYER_1
 62
     7
100
AcDbText
 10
447.493910767351
 20
222.3581023555831
 30
0.0
 40
6.0
  1
37
 50
90.0
 41
1.033333333332999
  7
ＭＳ_ゴシック
 72
     1
 11
447.493910767351
 21
226.3865287515209
 31
0.0
100
AcDbText
  0
ENDBLK
  5
50
330
46
100
AcDbEntity
  8
0
100
AcDbBlockEnd
  0
BLOCK
  5
52
330
51
100
AcDbEntity
  8
0
 62
     7
100
AcDbBlockBegin
  2
*D5
 70
     1
 10
0.0
 20
0.0
 30
0.0
  3
*D5
  1

  0
LINE
  5
53
330
51
100
AcDbEntity
  8
LAYER_1
  6
Continuous
 62
     7
100
AcDbLine
 10
421.493910767351
 20
201.3865287515209
 30
0.0
 11
466.493910767351
 21
201.3865287515209
 31
0.0
  0
LINE
  5
54
330
51
100
AcDbEntity
  8
LAYER_1
  6
Continuous
 62
     7
100
AcDbLine
 10
421.493910767351
 20
251.3865287515209
 30
0.0
 11
466.493910767351
 21
251.3865287515209
 31
0.0
  0
INSERT
  5
55
330
51
100
AcDbEntity
  8
LAYER_1
  6
Continuous
 62
     7
100
AcDbBlockReference
  2
_OPEN
 10
464.493910767351
 20
201.3865287515209
 30
0.0
 41
4.0
 42
4.0
 50
270.0
  0
INSERT
  5
56
330
51
100
AcDbEntity
  8
LAYER_1
  6
Continuous
 62
     7
100
AcDbBlockReference
  2
_OPEN
 10
464.493910767351
 20
251.3865287515209
 30
0.0
 41
4.0
 42
4.0
 50
90.0
  0
INSERT
  5
57
330
51
100
AcDbEntity
  8
LAYER_1
  6
Continuous
 62
     7
100
AcDbBlockReference
  2
_OPEN
 10
464.493910767351
 20
201.3865287515209
 30
0.0
 41
4.0
 42
4.0
 50
270.0
  0
INSERT
  5
58
330
51
100
AcDbEntity
  8
LAYER_1
  6
Continuous
 62
     7
100
AcDbBlockReference
  2
_OPEN
 10
464.493910767351
 20
251.3865287515209
 30
0.0
 41
4.0
 42
4.0
 50
90.0
  0
LINE
  5
59
330
51
100
AcDbEntity
  8
LAYER_1
  6
Continuous
 62
     7
100
AcDbLine
 10
464.493910767351
 20
201.3865287515209
 30
0.0
 11
464.493910767351
 21
251.3865287515209
 31
0.0
  0
TEXT
  5
5A
330
51
100
AcDbEntity
  8
LAYER_1
 62
     7
100
AcDbText
 10
462.493910767351
 20
222.3581023555831
 30
0.0
 40
6.0
  1
50
 50
90.0
 41
1.033333333332999
  7
ＭＳ_ゴシック
 72
     1
 11
462.493910767351
 21
226.3865287515209
 31
0.0
100
AcDbText
  0
ENDBLK
  5
5B
330
51
100
AcDbEntity
  8
0
100
AcDbBlockEnd
  0
BLOCK
  5
5D
330
5C
100
AcDbEntity
  8
0
 62
     7
100
AcDbBlockBegin
  2
*D6
 70
     1
 10
0.0
 20
0.0
 30
0.0
  3
*D6
  1

  0
LINE
  5
5E
330
5C
100
AcDbEntity
  8
LAYER_1
  6
Continuous
 62
     7
100
AcDbLine
 10
324.493910767351
 20
250.636528751521
 30
0.0
 11
324.493910767351
 21
266.8865287515209
 31
0.0
  0
LINE
  5
5F
330
5C
100
AcDbEntity
  8
LAYER_1
  6
Continuous
 62
     7
100
AcDbLine
 10
424.4939107673509
 20
250.636528751521
 30
0.0
 11
424.4939107673509
 21
266.8865287515209
 31
0.0
  0
INSERT
  5
60
330
5C
100
AcDbEntity
  8
LAYER_1
  6
Continuous
 62
     7
100
AcDbBlockReference
  2
_OPEN
 10
324.493910767351
 20
264.886528751521
 30
0.0
 41
4.0
 42
4.0
 50
180.0
  0
INSERT
  5
61
330
5C
100
AcDbEntity
  8
LAYER_1
  6
Continuous
 62
     7
100
AcDbBlockReference
  2
_OPEN
 10
424.4939107673509
 20
264.886528751521
 30
0.0
 41
4.0
 42
4.0
  0
INSERT
  5
62
330
5C
100
AcDbEntity
  8
LAYER_1
  6
Continuous
 62
     7
100
AcDbBlockReference
  2
_OPEN
 10
324.493910767351
 20
264.886528751521
 30
0.0
 41
4.0
 42
4.0
 50
180.0
  0
INSERT
  5
63
330
5C
100
AcDbEntity
  8
LAYER_1
  6
Continuous
 62
     7
100
AcDbBlockReference
  2
_OPEN
 10
424.4939107673509
 20
264.886528751521
 30
0.0
 41
4.0
 42
4.0
  0
LINE
  5
64
330
5C
100
AcDbEntity
  8
LAYER_1
  6
Continuous
 62
     7
100
AcDbLine
 10
324.493910767351
 20
264.886528751521
 30
0.0
 11
424.4939107673509
 21
264.886528751521
 31
0.0
  0
TEXT
  5
65
330
5C
100
AcDbEntity
  8
LAYER_1
 62
     7
100
AcDbText
 10
368.4512711734443
 20
266.8865287515209
 30
0.0
 40
6.0
  1
100
 41
1.033333333332999
  7
ＭＳ_ゴシック
 72
     1
 11
374.493910767351
 21
266.8865287515209
 31
0.0
100
AcDbText
  0
ENDBLK
  5
66
330
5C
100
AcDbEntity
  8
0
100
AcDbBlockEnd
  0
BLOCK
  5
68
330
67
100
AcDbEntity
  8
0
 62
     7
100
AcDbBlockBegin
  2
*D7
 70
     1
 10
0.0
 20
0.0
 30
0.0
  3
*D7
  1

  0
LINE
  5
69
330
67
100
AcDbEntity
  8
LAYER_1
  6
Continuous
 62
     7
100
AcDbLine
 10
319.4939107673509
 20
249.8865287515209
 30
0.0
 11
319.4939107673509
 21
281.886528751521
 31
0.0
  0
LINE
  5
6A
330
67
100
AcDbEntity
  8
LAYER_1
  6
Continuous
 62
     7
100
AcDbLine
 10
429.493910767351
 20
249.8865287515209
 30
0.0
 11
429.493910767351
 21
281.886528751521
 31
0.0
  0
INSERT
  5
6B
330
67
100
AcDbEntity
  8
LAYER_1
  6
Continuous
 62
     7
100
AcDbBlockReference
  2
_OPEN
 10
319.4939107673509
 20
279.886528751521
 30
0.0
 41
4.0
 42
4.0
 50
180.0
  0
INSERT
  5
6C
330
67
100
AcDbEntity
  8
LAYER_1
  6
Continuous
 62
     7
100
AcDbBlockReference
  2
_OPEN
 10
429.493910767351
 20
279.886528751521
 30
0.0
 41
4.0
 42
4.0
  0
INSERT
  5
6D
330
67
100
AcDbEntity
  8
LAYER_1
  6
Continuous
 62
     7
100
AcDbBlockReference
  2
_OPEN
 10
319.4939107673509
 20
279.886528751521
 30
0.0
 41
4.0
 42
4.0
 50
180.0
  0
INSERT
  5
6E
330
67
100
AcDbEntity
  8
LAYER_1
  6
Continuous
 62
     7
100
AcDbBlockReference
  2
_OPEN
 10
429.493910767351
 20
279.886528751521
 30
0.0
 41
4.0
 42
4.0
  0
LINE
  5
6F
330
67
100
AcDbEntity
  8
LAYER_1
  6
Continuous
 62
     7
100
AcDbLine
 10
319.4939107673509
 20
279.886528751521
 30
0.0
 11
429.493910767351
 21
279.886528751521
 31
0.0
  0
TEXT
  5
70
330
67
100
AcDbEntity
  8
LAYER_1
 62
     7
100
AcDbText
 10
368.4512711734443
 20
281.886528751521
 30
0.0
 40
6.0
  1
110
 41
1.033333333332999
  7
ＭＳ_ゴシック
 72
     1
 11
374.493910767351
 21
281.886528751521
 31
0.0
100
AcDbText
  0
ENDBLK
  5
71
330
67
100
AcDbEntity
  8
0
100
AcDbBlockEnd
  0
BLOCK
  5
73
330
72
100
AcDbEntity
  8
0
 62
     7
100
AcDbBlockBegin
  2
*D8
 70
     1
 10
0.0
 20
0.0
 30
0.0
  3
*D8
  1

  0
LINE
  5
74
330
72
100
AcDbEntity
  8
LAYER_1
  6
Continuous
 62
     7
100
AcDbLine
 10
423.2564739002749
 20
243.6490918844449
 30
0.0
 11
425.731347634428
 21
246.123965618598
 31
0.0
  0
INSERT
  5
75
330
72
100
AcDbEntity
  8
LAYER_1
  6
Continuous
 62
     7
100
AcDbBlockReference
  2
_OPEN
 10
425.731347634428
 20
246.123965618598
 30
0.0
 41
4.0
 42
4.0
 50
225.0
  0
INSERT
  5
76
330
72
100
AcDbEntity
  8
LAYER_1
  6
Continuous
 62
     7
100
AcDbBlockReference
  2
_NONE
 10
444.4939107673509
 20
264.886528751521
 30
0.0
 41
4.0
 42
4.0
 50
45.0
  0
LINE
  5
77
330
72
100
AcDbEntity
  8
LAYER_1
  6
Continuous
 62
     7
100
AcDbLine
 10
425.731347634428
 20
246.123965618598
 30
0.0
 11
444.4939107673509
 21
264.886528751521
 31
0.0
  0
INSERT
  5
78
330
72
100
AcDbEntity
  8
LAYER_1
  6
Continuous
 62
     7
100
AcDbBlockReference
  2
_OPEN
 10
423.2564739002749
 20
243.6490918844449
 30
0.0
 41
4.0
 42
4.0
 50
45.0
  0
INSERT
  5
79
330
72
100
AcDbEntity
  8
LAYER_1
  6
Continuous
 62
     7
100
AcDbBlockReference
  2
_NONE
 10
414.771192526036
 20
235.1638105102059
 30
0.0
 41
4.0
 42
4.0
 50
225.0
  0
LINE
  5
7A
330
72
100
AcDbEntity
  8
LAYER_1
  6
Continuous
 62
     7
100
AcDbLine
 10
423.2564739002749
 20
243.6490918844449
 30
0.0
 11
414.771192526036
 21
235.1638105102059
 31
0.0
  0
LINE
  5
7B
330
72
100
AcDbEntity
  8
LAYER_1
  6
Continuous
 62
     7
100
AcDbLine
 10
444.4939107673509
 20
264.886528751521
 30
0.0
 11
476.493910767351
 21
264.886528751521
 31
0.0
  0
TEXT
  5
7C
330
72
100
AcDbEntity
  8
LAYER_1
 62
     7
100
AcDbText
 10
448.2949259957865
 20
266.8865287515209
 30
0.0
 40
6.0
  1
4-φ3.5
 41
1.033333333332999
  7
ＭＳ_ゴシック
 72
     2
 11
476.493910767351
 21
266.8865287515209
 31
0.0
100
AcDbText
  0
ENDBLK
  5
7D
330
72
100
AcDbEntity
  8
0
100
AcDbBlockEnd
  0
ENDSEC
  0
SECTION
  2
ENTITIES
  0
LINE
  5
7E
330
A
100
AcDbEntity
  8
LAYER_1
  6
Continuous
 62
     7
100
AcDbLine
 10
329.4939107673509
 20
249.8865287515209
 30
0.0
 11
419.4939107673509
 21
249.8865287515209
 31
0.0
  0
LINE
  5
7F
330
A
100
AcDbEntity
  8
LAYER_1
  6
Continuous
 62
     7
100
AcDbLine
 10
419.4939107673509
 20
249.8865287515209
 30
0.0
 11
419.4939107673509
 21
202.886528751521
 31
0.0
  0
LINE
  5
80
330
A
100
AcDbEntity
  8
LAYER_1
  6
Continuous
 62
     7
100
AcDbLine
 10
329.4939107673509
 20
249.8865287515209
 30
0.0
 11
329.4939107673509
 21
202.886528751521
 31
0.0
  0
LINE
  5
81
330
A
100
AcDbEntity
  8
LAYER_1
  6
Continuous
 62
     7
100
AcDbLine
 10
329.4939107673509
 20
202.886528751521
 30
0.0
 11
419.4939107673509
 21
202.886528751521
 31
0.0
  0
LINE
  5
82
330
A
100
AcDbEntity
  8
LAYER_1
  6
Continuous
 62
     7
100
AcDbLine
 10
329.4939107673509
 20
156.3865287515209
 30
0.0
 11
329.4939107673509
 21
66.386528751521
 31
0.0
  0
LINE
  5
83
330
A
100
AcDbEntity
  8
LAYER_1
  6
Continuous
 62
     7
100
AcDbLine
 10
329.4939107673509
 20
156.3865287515209
 30
0.0
 11
419.4939107673509
 21
156.3865287515209
 31
0.0
  0
LINE
  5
84
330
A
100
AcDbEntity
  8
LAYER_1
  6
Continuous
 62
     7
100
AcDbLine
 10
419.4939107673509
 20
156.3865287515209
 30
0.0
 11
419.4939107673509
 21
66.386528751521
 31
0.0
  0
LINE
  5
85
330
A
100
AcDbEntity
  8
LAYER_1
  6
Continuous
 62
     7
100
AcDbLine
 10
329.4939107673509
 20
249.8865287515209
 30
0.0
 11
321.4939107673509
 21
249.8865287515209
 31
0.0
  0
LINE
  5
86
330
A
100
AcDbEntity
  8
LAYER_1
  6
Continuous
 62
     7
100
AcDbLine
 10
419.4939107673509
 20
249.8865287515209
 30
0.0
 11
427.4939107673509
 21
249.8865287515209
 31
0.0
  0
LINE
  5
87
330
A
100
AcDbEntity
  8
LAYER_1
  6
Continuous
 62
     7
100
AcDbLine
 10
287.996089930138
 20
64.878729809809
 30
0.0
 11
287.996089930138
 21
156.337132462756
 31
0.0
  0
LINE
  5
88
330
A
100
AcDbEntity
  8
LAYER_1
  6
Continuous
 62
     7
100
AcDbLine
 10
289.493910767351
 20
156.337132462756
 30
0.0
 11
240.996089930138
 21
156.337132462756
 31
0.0
  0
LINE
  5
89
330
A
100
AcDbEntity
  8
LAYER_1
  6
Continuous
 62
     7
100
AcDbLine
 10
240.996089930138
 20
64.878729809809
 30
0.0
 11
287.996089930138
 21
64.878729809809
 31
0.0
  0
LINE
  5
8A
330
A
100
AcDbEntity
  8
LAYER_1
  6
Continuous
 62
     7
100
AcDbLine
 10
240.996089930138
 20
66.386528751521
 30
0.0
 11
287.996089930138
 21
66.386528751521
 31
0.0
  0
LINE
  5
8B
330
A
100
AcDbEntity
  8
LAYER_1
  6
Continuous
 62
     7
100
AcDbLine
 10
240.996089930138
 20
156.337132462756
 30
0.0
 11
240.996089930138
 21
64.878729809809
 31
0.0
  0
CIRCLE
  5
8C
330
A
100
AcDbEntity
  8
LAYER_1
  6
Continuous
 62
     7
100
AcDbCircle
 10
324.493910767351
 20
244.8865287515209
 30
0.0
 40
1.75
  0
LINE
  5
8D
330
A
100
AcDbEntity
  8
LAYER_1
  6
Continuous
 62
     7
100
AcDbLine
 10
329.4939107673509
 20
66.386528751521
 30
0.0
 11
319.4939107673509
 21
66.386528751521
 31
0.0
  0
LINE
  5
8E
330
A
100
AcDbEntity
  8
LAYER_1
  6
Continuous
 62
     7
100
AcDbLine
 10
419.4939107673509
 20
66.386528751521
 30
0.0
 11
429.493910767351
 21
66.386528751521
 31
0.0
  0
LINE
  5
8F
330
A
100
AcDbEntity
  8
LAYER_1
  6
Continuous
 62
     7
100
AcDbLine
 10
429.493910767351
 20
64.886528751521
 30
0.0
 11
417.993910767351
 21
64.886528751521
 31
0.0
  0
LINE
  5
90
330
A
100
AcDbEntity
  8
LAYER_1
  6
Continuous
 62
     7
100
AcDbLine
 10
286.4960899301379
 20
66.386528751521
 30
0.0
 11
287.996089930138
 21
66.386528751521
 31
0.0
  0
LINE
  5
91
330
A
100
AcDbEntity
  8
LAYER_1
  6
Continuous
 62
     7
100
AcDbLine
 10
417.999055745196
 20
66.386528751521
 30
0.0
 11
417.999055745196
 21
64.88463286714001
 31
0.0
  0
LINE
  5
92
330
A
100
AcDbEntity
  8
LAYER_1
  6
Continuous
 62
     7
100
AcDbLine
 10
330.988523258118
 20
66.386528751521
 30
0.0
 11
330.988523258118
 21
64.886528751521
 31
0.0
  0
LINE
  5
93
330
A
100
AcDbEntity
  8
LAYER_1
  6
Continuous
 62
     7
100
AcDbLine
 10
319.4939107673509
 20
247.8865287515209
 30
0.0
 11
319.4939107673509
 21
204.886528751521
 31
0.0
  0
LINE
  5
94
330
A
100
AcDbEntity
  8
LAYER_1
  6
Continuous
 62
     7
100
AcDbLine
 10
429.493910767351
 20
247.8865287515209
 30
0.0
 11
429.493910767351
 21
204.886528751521
 31
0.0
  0
LINE
  5
95
330
A
100
AcDbEntity
  8
LAYER_1
  6
Continuous
 62
     7
100
AcDbLine
 10
319.4939107673509
 20
66.386528751521
 30
0.0
 11
319.4939107673509
 21
64.886528751521
 31
0.0
  0
LINE
  5
96
330
A
100
AcDbEntity
  8
LAYER_1
  6
Continuous
 62
     7
100
AcDbLine
 10
429.493910767351
 20
66.386528751521
 30
0.0
 11
429.493910767351
 21
64.886528751521
 31
0.0
  0
LINE
  5
97
330
A
100
AcDbEntity
  8
LAYER_1
  6
Continuous
 62
     7
100
AcDbLine
 10
319.4939107673509
 20
64.886528751521
 30
0.0
 11
330.988523258118
 21
64.886528751521
 31
0.0
  0
LINE
  5
98
330
A
100
AcDbEntity
  8
LAYER_1
  6
Continuous
 62
     7
100
AcDbLine
 10
427.4939107673509
 20
249.8865287515209
 30
0.0
 11
429.493910767351
 21
247.8865287515209
 31
0.0
  0
LINE
  5
99
330
A
100
AcDbEntity
  8
LAYER_1
  6
Continuous
 62
     7
100
AcDbLine
 10
427.4939107673509
 20
202.886528751521
 30
0.0
 11
429.493910767351
 21
204.886528751521
 31
0.0
  0
LINE
  5
9A
330
A
100
AcDbEntity
  8
LAYER_1
  6
Continuous
 62
     7
100
AcDbLine
 10
319.4939107673509
 20
204.886528751521
 30
0.0
 11
321.4939107673509
 21
202.886528751521
 31
0.0
  0
LINE
  5
9B
330
A
100
AcDbEntity
  8
LAYER_1
  6
Continuous
 62
     7
100
AcDbLine
 10
319.4939107673509
 20
247.8865287515209
 30
0.0
 11
321.4939107673509
 21
249.8865287515209
 31
0.0
  0
CIRCLE
  5
9C
330
A
100
AcDbEntity
  8
LAYER_1
  6
Continuous
 62
     7
100
AcDbCircle
 10
424.4939107673509
 20
244.8865287515209
 30
0.0
 40
1.75
  0
LINE
  5
9D
330
A
100
AcDbEntity
  8
LAYER_1
  6
Continuous
 62
     7
100
AcDbLine
 10
240.996089930138
 20
156.337132462756
 30
0.0
 11
239.496089930138
 21
156.337132462756
 31
0.0
  0
LINE
  5
9E
330
A
100
AcDbEntity
  8
LAYER_1
  6
Continuous
 62
     7
100
AcDbLine
 10
239.496089930138
 20
156.337132462756
 30
0.0
 11
239.496089930138
 21
83.135040763434
 31
0.0
  0
LINE
  5
9F
330
A
100
AcDbEntity
  8
LAYER_1
  6
Continuous
 62
     7
100
AcDbLine
 10
240.996089930138
 20
146.400686350345
 30
0.0
 11
240.996089930138
 21
149.150686350345
 31
0.0
  0
LINE
  5
A0
330
A
100
AcDbEntity
  8
LAYER_1
  6
Continuous
 62
     7
100
AcDbLine
 10
289.493910767351
 20
156.337132462756
 30
0.0
 11
289.496089930138
 21
66.386528751521
 31
0.0
  0
LINE
  5
A1
330
A
100
AcDbEntity
  8
LAYER_1
  6
Continuous
 62
     7
100
AcDbLine
 10
240.996089930138
 20
66.386528751521
 30
0.0
 11
239.496089930138
 21
66.386528751521
 31
0.0
  0
LINE
  5
A2
330
A
100
AcDbEntity
  8
LAYER_1
  6
Continuous
 62
     7
100
AcDbLine
 10
287.996089930138
 20
66.386528751521
 30
0.0
 11
289.496089930138
 21
66.386528751521
 31
0.0
  0
LINE
  5
A3
330
A
100
AcDbEntity
  8
LAYER_1
  6
Continuous
 62
     7
100
AcDbLine
 10
290.4939107673509
 20
135.837132467158
 30
0.0
 11
290.4939107673509
 21
146.8371324671579
 31
0.0
  0
LINE
  5
A4
330
A
100
AcDbEntity
  8
LAYER_1
  6
Continuous
 62
     7
100
AcDbLine
 10
290.4939107673509
 20
146.8371324671579
 30
0.0
 11
289.4941409164059
 21
146.8371324671579
 31
0.0
  0
LINE
  5
A5
330
A
100
AcDbEntity
  8
LAYER_1
  6
Continuous
 62
     7
100
AcDbLine
 10
290.4939107673509
 20
135.837132467158
 30
0.0
 11
289.494407404787
 21
135.837132467158
 31
0.0
  0
LINE
  5
A6
330
A
100
AcDbEntity
  8
LAYER_1
  6
Continuous
 62
     7
100
AcDbLine
 10
290.4939107673509
 20
120.8371324671579
 30
0.0
 11
290.4939107673509
 21
131.837132467158
 31
0.0
  0
LINE
  5
A7
330
A
100
AcDbEntity
  8
LAYER_1
  6
Continuous
 62
     7
100
AcDbLine
 10
290.4939107673509
 20
131.837132467158
 30
0.0
 11
289.4945043096519
 21
131.837132467158
 31
0.0
  0
LINE
  5
A8
330
A
100
AcDbEntity
  8
LAYER_1
  6
Continuous
 62
     7
100
AcDbLine
 10
290.4939107673509
 20
120.8371324671579
 30
0.0
 11
289.494770798031
 21
120.8371324671579
 31
0.0
  0
LINE
  5
A9
330
A
100
AcDbEntity
  8
LAYER_1
  6
Continuous
 62
     7
100
AcDbLine
 10
290.4939107673509
 20
105.837132467158
 30
0.0
 11
290.4939107673509
 21
116.837132467158
 31
0.0
  0
LINE
  5
AA
330
A
100
AcDbEntity
  8
LAYER_1
  6
Continuous
 62
     7
100
AcDbLine
 10
290.4939107673509
 20
116.837132467158
 30
0.0
 11
289.494867702897
 21
116.837132467158
 31
0.0
  0
LINE
  5
AB
330
A
100
AcDbEntity
  8
LAYER_1
  6
Continuous
 62
     7
100
AcDbLine
 10
290.4939107673509
 20
105.837132467158
 30
0.0
 11
289.495134191277
 21
105.837132467158
 31
0.0
  0
LINE
  5
AC
330
A
100
AcDbEntity
  8
LAYER_1
  6
Continuous
 62
     7
100
AcDbLine
 10
290.4939107673509
 20
90.83713246715801
 30
0.0
 11
290.4939107673509
 21
101.8371324671579
 31
0.0
  0
LINE
  5
AD
330
A
100
AcDbEntity
  8
LAYER_1
  6
Continuous
 62
     7
100
AcDbLine
 10
290.4939107673509
 20
101.8371324671579
 30
0.0
 11
289.495231096143
 21
101.8371324671579
 31
0.0
  0
LINE
  5
AE
330
A
100
AcDbEntity
  8
LAYER_1
  6
Continuous
 62
     7
100
AcDbLine
 10
290.4939107673509
 20
90.83713246715801
 30
0.0
 11
289.495497584523
 21
90.83713246715801
 31
0.0
  0
LINE
  5
AF
330
A
100
AcDbEntity
  8
LAYER_1
  6
Continuous
 62
     7
100
AcDbLine
 10
289.495727733578
 20
86.837132467158
 30
0.0
 11
290.4939107673509
 21
86.837132467158
 31
0.0
  0
LINE
  5
B0
330
A
100
AcDbEntity
  8
LAYER_1
  6
Continuous
 62
     7
100
AcDbLine
 10
290.4939107673509
 20
86.837132467158
 30
0.0
 11
290.4939107673509
 21
81.33713246715799
 31
0.0
  0
LINE
  5
B1
330
A
100
AcDbEntity
  8
LAYER_1
  6
Continuous
 62
     7
100
AcDbLine
 10
290.4939107673509
 20
81.33713246715799
 30
0.0
 11
290.4939107673509
 21
75.905254206254
 31
0.0
  0
LINE
  5
B2
330
A
100
AcDbEntity
  8
LAYER_1
  6
Continuous
 62
     7
100
AcDbLine
 10
290.4939107673509
 20
75.88244655741201
 30
0.0
 11
289.495847766871
 21
75.88244655741201
 31
0.0
  0
LINE
  5
B3
330
A
100
AcDbEntity
  8
LAYER_1
  6
Continuous
 62
     7
100
AcDbLine
 10
290.476624340417
 20
141.350734625873
 30
0.0
 11
290.476624340417
 21
145.7757346258729
 31
0.0
  0
LINE
  5
B4
330
A
100
AcDbEntity
  8
LAYER_1
  6
Continuous
 62
     7
100
AcDbLine
 10
290.476624340417
 20
145.7757346258729
 30
0.0
 11
296.7766243404169
 21
145.7757346258729
 31
0.0
  0
LINE
  5
B5
330
A
100
AcDbEntity
  8
LAYER_1
  6
Continuous
 62
     7
100
AcDbLine
 10
296.7766243404169
 20
145.7757346258729
 30
0.0
 11
296.7766243404169
 21
136.9257346258729
 31
0.0
  0
LINE
  5
B6
330
A
100
AcDbEntity
  8
LAYER_1
  6
Continuous
 62
     7
100
AcDbLine
 10
296.7766243404169
 20
136.9257346258729
 30
0.0
 11
290.476624340417
 21
136.9257346258729
 31
0.0
  0
LINE
  5
B7
330
A
100
AcDbEntity
  8
LAYER_1
  6
Continuous
 62
     7
100
AcDbLine
 10
290.476624340417
 20
130.7072657409609
 30
0.0
 11
296.7766243404169
 21
130.7072657409609
 31
0.0
  0
LINE
  5
B8
330
A
100
AcDbEntity
  8
LAYER_1
  6
Continuous
 62
     7
100
AcDbLine
 10
296.7766243404169
 20
130.7072657409609
 30
0.0
 11
296.7766243404169
 21
121.857265740961
 31
0.0
  0
LINE
  5
B9
330
A
100
AcDbEntity
  8
LAYER_1
  6
Continuous
 62
     7
100
AcDbLine
 10
296.7766243404169
 20
121.857265740961
 30
0.0
 11
290.476624340417
 21
121.857265740961
 31
0.0
  0
LINE
  5
BA
330
A
100
AcDbEntity
  8
LAYER_1
  6
Continuous
 62
     7
100
AcDbLine
 10
290.476624340417
 20
115.812998150438
 30
0.0
 11
296.7766243404169
 21
115.812998150438
 31
0.0
  0
LINE
  5
BB
330
A
100
AcDbEntity
  8
LAYER_1
  6
Continuous
 62
     7
100
AcDbLine
 10
296.7766243404169
 20
115.812998150438
 30
0.0
 11
296.7766243404169
 21
106.9629981504379
 31
0.0
  0
LINE
  5
BC
330
A
100
AcDbEntity
  8
LAYER_1
  6
Continuous
 62
     7
100
AcDbLine
 10
296.7766243404169
 20
106.9629981504379
 30
0.0
 11
290.476624340417
 21
106.9629981504379
 31
0.0
  0
LINE
  5
BD
330
A
100
AcDbEntity
  8
LAYER_1
  6
Continuous
 62
     7
100
AcDbLine
 10
290.476624340417
 20
100.744529265526
 30
0.0
 11
296.7766243404169
 21
100.744529265526
 31
0.0
  0
LINE
  5
BE
330
A
100
AcDbEntity
  8
LAYER_1
  6
Continuous
 62
     7
100
AcDbLine
 10
296.7766243404169
 20
100.744529265526
 30
0.0
 11
296.7766243404169
 21
91.89452926552601
 31
0.0
  0
LINE
  5
BF
330
A
100
AcDbEntity
  8
LAYER_1
  6
Continuous
 62
     7
100
AcDbLine
 10
296.7766243404169
 20
91.89452926552601
 30
0.0
 11
290.476624340417
 21
91.89452926552601
 31
0.0
  0
LINE
  5
C0
330
A
100
AcDbEntity
  8
LAYER_1
  6
Continuous
 62
     7
100
AcDbLine
 10
290.476624340417
 20
85.676061171173
 30
0.0
 11
296.7766243404169
 21
85.676061171173
 31
0.0
  0
LINE
  5
C1
330
A
100
AcDbEntity
  8
LAYER_1
  6
Continuous
 62
     7
100
AcDbLine
 10
296.7766243404169
 20
85.676061171173
 30
0.0
 11
296.7766243404169
 21
76.82606117117299
 31
0.0
  0
LINE
  5
C2
330
A
100
AcDbEntity
  8
LAYER_1
  6
Continuous
 62
     7
100
AcDbLine
 10
296.7766243404169
 20
76.82606117117299
 30
0.0
 11
290.476624340417
 21
76.82606117117299
 31
0.0
  0
CIRCLE
  5
C3
330
A
100
AcDbEntity
  8
LAYER_1
  6
Continuous
 62
     7
100
AcDbCircle
 10
344.4939107673509
 20
141.3371324671579
 30
0.0
 40
4.424999999999999
  0
CIRCLE
  5
C4
330
A
100
AcDbEntity
  8
LAYER_1
  6
Continuous
 62
     7
100
AcDbCircle
 10
344.4939107673509
 20
141.3371324671579
 30
0.0
 40
5.5
  0
LINE
  5
C5
330
A
100
AcDbEntity
  8
LAYER_1
  6
Continuous
 62
     7
100
AcDbLine
 10
346.4939107673509
 20
141.3371324671579
 30
0.0
 11
342.4939107673509
 21
141.3371324671579
 31
0.0
  0
LINE
  5
C6
330
A
100
AcDbEntity
  8
LAYER_1
  6
Continuous
 62
     7
100
AcDbLine
 10
344.4939107673509
 20
139.3371324671579
 30
0.0
 11
344.4939107673509
 21
143.337132467158
 31
0.0
  0
CIRCLE
  5
C7
330
A
100
AcDbEntity
  8
LAYER_1
  6
Continuous
 62
     7
100
AcDbCircle
 10
343.008044339664
 20
142.837132467158
 30
0.0
 40
0.5
  0
CIRCLE
  5
C8
330
A
100
AcDbEntity
  8
LAYER_1
  6
Continuous
 62
     7
100
AcDbCircle
 10
346.008044339664
 20
139.837132467158
 30
0.0
 40
0.5
  0
CIRCLE
  5
C9
330
A
100
AcDbEntity
  8
LAYER_1
  6
Continuous
 62
     7
100
AcDbCircle
 10
346.008044339664
 20
142.837132467158
 30
0.0
 40
0.5
  0
CIRCLE
  5
CA
330
A
100
AcDbEntity
  8
LAYER_1
  6
Continuous
 62
     7
100
AcDbCircle
 10
343.008044339664
 20
139.837132467158
 30
0.0
 40
0.5
  0
CIRCLE
  5
CB
330
A
100
AcDbEntity
  8
LAYER_1
  6
Continuous
 62
     7
100
AcDbCircle
 10
344.4939107673509
 20
126.337132467158
 30
0.0
 40
4.424999999999999
  0
CIRCLE
  5
CC
330
A
100
AcDbEntity
  8
LAYER_1
  6
Continuous
 62
     7
100
AcDbCircle
 10
344.4939107673509
 20
126.337132467158
 30
0.0
 40
5.5
  0
LINE
  5
CD
330
A
100
AcDbEntity
  8
LAYER_1
  6
Continuous
 62
     7
100
AcDbLine
 10
346.4939107673509
 20
126.337132467158
 30
0.0
 11
342.4939107673509
 21
126.337132467158
 31
0.0
  0
LINE
  5
CE
330
A
100
AcDbEntity
  8
LAYER_1
  6
Continuous
 62
     7
100
AcDbLine
 10
344.4939107673509
 20
124.337132467158
 30
0.0
 11
344.4939107673509
 21
128.337132467158
 31
0.0
  0
CIRCLE
  5
CF
330
A
100
AcDbEntity
  8
LAYER_1
  6
Continuous
 62
     7
100
AcDbCircle
 10
343.008044339664
 20
127.8371324671579
 30
0.0
 40
0.5
  0
CIRCLE
  5
D0
330
A
100
AcDbEntity
  8
LAYER_1
  6
Continuous
 62
     7
100
AcDbCircle
 10
346.008044339664
 20
124.8371324671579
 30
0.0
 40
0.5
  0
CIRCLE
  5
D1
330
A
100
AcDbEntity
  8
LAYER_1
  6
Continuous
 62
     7
100
AcDbCircle
 10
346.008044339664
 20
127.8371324671579
 30
0.0
 40
0.5
  0
CIRCLE
  5
D2
330
A
100
AcDbEntity
  8
LAYER_1
  6
Continuous
 62
     7
100
AcDbCircle
 10
343.008044339664
 20
124.8371324671579
 30
0.0
 40
0.5
  0
CIRCLE
  5
D3
330
A
100
AcDbEntity
  8
LAYER_1
  6
Continuous
 62
     7
100
AcDbCircle
 10
364.493910767351
 20
126.337132467158
 30
0.0
 40
4.424999999999999
  0
CIRCLE
  5
D4
330
A
100
AcDbEntity
  8
LAYER_1
  6
Continuous
 62
     7
100
AcDbCircle
 10
364.493910767351
 20
126.337132467158
 30
0.0
 40
5.5
  0
LINE
  5
D5
330
A
100
AcDbEntity
  8
LAYER_1
  6
Continuous
 62
     7
100
AcDbLine
 10
366.493910767351
 20
126.337132467158
 30
0.0
 11
362.493910767351
 21
126.337132467158
 31
0.0
  0
LINE
  5
D6
330
A
100
AcDbEntity
  8
LAYER_1
  6
Continuous
 62
     7
100
AcDbLine
 10
364.493910767351
 20
124.337132467158
 30
0.0
 11
364.493910767351
 21
128.337132467158
 31
0.0
  0
CIRCLE
  5
D7
330
A
100
AcDbEntity
  8
LAYER_1
  6
Continuous
 62
     7
100
AcDbCircle
 10
363.008044339664
 20
127.8371324671579
 30
0.0
 40
0.5
  0
CIRCLE
  5
D8
330
A
100
AcDbEntity
  8
LAYER_1
  6
Continuous
 62
     7
100
AcDbCircle
 10
366.008044339664
 20
124.8371324671579
 30
0.0
 40
0.5
  0
CIRCLE
  5
D9
330
A
100
AcDbEntity
  8
LAYER_1
  6
Continuous
 62
     7
100
AcDbCircle
 10
366.008044339664
 20
127.8371324671579
 30
0.0
 40
0.5
  0
CIRCLE
  5
DA
330
A
100
AcDbEntity
  8
LAYER_1
  6
Continuous
 62
     7
100
AcDbCircle
 10
363.008044339664
 20
124.8371324671579
 30
0.0
 40
0.5
  0
CIRCLE
  5
DB
330
A
100
AcDbEntity
  8
LAYER_1
  6
Continuous
 62
     7
100
AcDbCircle
 10
344.4939107673509
 20
111.3371324671579
 30
0.0
 40
4.424999999999999
  0
CIRCLE
  5
DC
330
A
100
AcDbEntity
  8
LAYER_1
  6
Continuous
 62
     7
100
AcDbCircle
 10
344.4939107673509
 20
111.3371324671579
 30
0.0
 40
5.5
  0
LINE
  5
DD
330
A
100
AcDbEntity
  8
LAYER_1
  6
Continuous
 62
     7
100
AcDbLine
 10
346.4939107673509
 20
111.3371324671579
 30
0.0
 11
342.4939107673509
 21
111.3371324671579
 31
0.0
  0
LINE
  5
DE
330
A
100
AcDbEntity
  8
LAYER_1
  6
Continuous
 62
     7
100
AcDbLine
 10
344.4939107673509
 20
109.3371324671579
 30
0.0
 11
344.4939107673509
 21
113.3371324671579
 31
0.0
  0
CIRCLE
  5
DF
330
A
100
AcDbEntity
  8
LAYER_1
  6
Continuous
 62
     7
100
AcDbCircle
 10
343.008044339664
 20
112.837132467158
 30
0.0
 40
0.5
  0
CIRCLE
  5
E0
330
A
100
AcDbEntity
  8
LAYER_1
  6
Continuous
 62
     7
100
AcDbCircle
 10
346.008044339664
 20
109.837132467158
 30
0.0
 40
0.5
  0
CIRCLE
  5
E1
330
A
100
AcDbEntity
  8
LAYER_1
  6
Continuous
 62
     7
100
AcDbCircle
 10
346.008044339664
 20
112.837132467158
 30
0.0
 40
0.5
  0
CIRCLE
  5
E2
330
A
100
AcDbEntity
  8
LAYER_1
  6
Continuous
 62
     7
100
AcDbCircle
 10
343.008044339664
 20
109.837132467158
 30
0.0
 40
0.5
  0
CIRCLE
  5
E3
330
A
100
AcDbEntity
  8
LAYER_1
  6
Continuous
 62
     7
100
AcDbCircle
 10
364.493910767351
 20
111.3371324671579
 30
0.0
 40
4.424999999999999
  0
CIRCLE
  5
E4
330
A
100
AcDbEntity
  8
LAYER_1
  6
Continuous
 62
     7
100
AcDbCircle
 10
364.493910767351
 20
111.3371324671579
 30
0.0
 40
5.5
  0
LINE
  5
E5
330
A
100
AcDbEntity
  8
LAYER_1
  6
Continuous
 62
     7
100
AcDbLine
 10
366.493910767351
 20
111.3371324671579
 30
0.0
 11
362.493910767351
 21
111.3371324671579
 31
0.0
  0
LINE
  5
E6
330
A
100
AcDbEntity
  8
LAYER_1
  6
Continuous
 62
     7
100
AcDbLine
 10
364.493910767351
 20
109.3371324671579
 30
0.0
 11
364.493910767351
 21
113.3371324671579
 31
0.0
  0
CIRCLE
  5
E7
330
A
100
AcDbEntity
  8
LAYER_1
  6
Continuous
 62
     7
100
AcDbCircle
 10
363.008044339664
 20
112.837132467158
 30
0.0
 40
0.5
  0
CIRCLE
  5
E8
330
A
100
AcDbEntity
  8
LAYER_1
  6
Continuous
 62
     7
100
AcDbCircle
 10
366.008044339664
 20
109.837132467158
 30
0.0
 40
0.5
  0
CIRCLE
  5
E9
330
A
100
AcDbEntity
  8
LAYER_1
  6
Continuous
 62
     7
100
AcDbCircle
 10
366.008044339664
 20
112.837132467158
 30
0.0
 40
0.5
  0
CIRCLE
  5
EA
330
A
100
AcDbEntity
  8
LAYER_1
  6
Continuous
 62
     7
100
AcDbCircle
 10
363.008044339664
 20
109.837132467158
 30
0.0
 40
0.5
  0
CIRCLE
  5
EB
330
A
100
AcDbEntity
  8
LAYER_1
  6
Continuous
 62
     7
100
AcDbCircle
 10
404.493910767351
 20
141.3371324671579
 30
0.0
 40
4.424999999999999
  0
CIRCLE
  5
EC
330
A
100
AcDbEntity
  8
LAYER_1
  6
Continuous
 62
     7
100
AcDbCircle
 10
404.493910767351
 20
141.3371324671579
 30
0.0
 40
5.5
  0
LINE
  5
ED
330
A
100
AcDbEntity
  8
LAYER_1
  6
Continuous
 62
     7
100
AcDbLine
 10
406.4939107673509
 20
141.3371324671579
 30
0.0
 11
402.4939107673509
 21
141.3371324671579
 31
0.0
  0
LINE
  5
EE
330
A
100
AcDbEntity
  8
LAYER_1
  6
Continuous
 62
     7
100
AcDbLine
 10
404.493910767351
 20
139.3371324671579
 30
0.0
 11
404.493910767351
 21
143.337132467158
 31
0.0
  0
CIRCLE
  5
EF
330
A
100
AcDbEntity
  8
LAYER_1
  6
Continuous
 62
     7
100
AcDbCircle
 10
403.008044339664
 20
142.837132467158
 30
0.0
 40
0.5
  0
CIRCLE
  5
F0
330
A
100
AcDbEntity
  8
LAYER_1
  6
Continuous
 62
     7
100
AcDbCircle
 10
406.008044339664
 20
139.837132467158
 30
0.0
 40
0.5
  0
CIRCLE
  5
F1
330
A
100
AcDbEntity
  8
LAYER_1
  6
Continuous
 62
     7
100
AcDbCircle
 10
406.008044339664
 20
142.837132467158
 30
0.0
 40
0.5
  0
CIRCLE
  5
F2
330
A
100
AcDbEntity
  8
LAYER_1
  6
Continuous
 62
     7
100
AcDbCircle
 10
403.008044339664
 20
139.837132467158
 30
0.0
 40
0.5
  0
CIRCLE
  5
F3
330
A
100
AcDbEntity
  8
LAYER_1
  6
Continuous
 62
     7
100
AcDbCircle
 10
384.493910767351
 20
126.337132467158
 30
0.0
 40
4.424999999999999
  0
CIRCLE
  5
F4
330
A
100
AcDbEntity
  8
LAYER_1
  6
Continuous
 62
     7
100
AcDbCircle
 10
384.493910767351
 20
126.337132467158
 30
0.0
 40
5.5
  0
LINE
  5
F5
330
A
100
AcDbEntity
  8
LAYER_1
  6
Continuous
 62
     7
100
AcDbLine
 10
386.493910767351
 20
126.337132467158
 30
0.0
 11
382.493910767351
 21
126.337132467158
 31
0.0
  0
LINE
  5
F6
330
A
100
AcDbEntity
  8
LAYER_1
  6
Continuous
 62
     7
100
AcDbLine
 10
384.493910767351
 20
124.337132467158
 30
0.0
 11
384.493910767351
 21
128.337132467158
 31
0.0
  0
CIRCLE
  5
F7
330
A
100
AcDbEntity
  8
LAYER_1
  6
Continuous
 62
     7
100
AcDbCircle
 10
383.008044339664
 20
127.8371324671579
 30
0.0
 40
0.5
  0
CIRCLE
  5
F8
330
A
100
AcDbEntity
  8
LAYER_1
  6
Continuous
 62
     7
100
AcDbCircle
 10
386.008044339664
 20
124.8371324671579
 30
0.0
 40
0.5
  0
CIRCLE
  5
F9
330
A
100
AcDbEntity
  8
LAYER_1
  6
Continuous
 62
     7
100
AcDbCircle
 10
386.008044339664
 20
127.8371324671579
 30
0.0
 40
0.5
  0
CIRCLE
  5
FA
330
A
100
AcDbEntity
  8
LAYER_1
  6
Continuous
 62
     7
100
AcDbCircle
 10
383.008044339664
 20
124.8371324671579
 30
0.0
 40
0.5
  0
CIRCLE
  5
FB
330
A
100
AcDbEntity
  8
LAYER_1
  6
Continuous
 62
     7
100
AcDbCircle
 10
404.493910767351
 20
126.337132467158
 30
0.0
 40
4.424999999999999
  0
CIRCLE
  5
FC
330
A
100
AcDbEntity
  8
LAYER_1
  6
Continuous
 62
     7
100
AcDbCircle
 10
404.493910767351
 20
126.337132467158
 30
0.0
 40
5.5
  0
LINE
  5
FD
330
A
100
AcDbEntity
  8
LAYER_1
  6
Continuous
 62
     7
100
AcDbLine
 10
406.4939107673509
 20
126.337132467158
 30
0.0
 11
402.4939107673509
 21
126.337132467158
 31
0.0
  0
LINE
  5
FE
330
A
100
AcDbEntity
  8
LAYER_1
  6
Continuous
 62
     7
100
AcDbLine
 10
404.493910767351
 20
124.337132467158
 30
0.0
 11
404.493910767351
 21
128.337132467158
 31
0.0
  0
CIRCLE
  5
FF
330
A
100
AcDbEntity
  8
LAYER_1
  6
Continuous
 62
     7
100
AcDbCircle
 10
403.008044339664
 20
127.8371324671579
 30
0.0
 40
0.5
  0
CIRCLE
  5
100
330
A
100
AcDbEntity
  8
LAYER_1
  6
Continuous
 62
     7
100
AcDbCircle
 10
406.008044339664
 20
124.8371324671579
 30
0.0
 40
0.5
  0
CIRCLE
  5
101
330
A
100
AcDbEntity
  8
LAYER_1
  6
Continuous
 62
     7
100
AcDbCircle
 10
406.008044339664
 20
127.8371324671579
 30
0.0
 40
0.5
  0
CIRCLE
  5
102
330
A
100
AcDbEntity
  8
LAYER_1
  6
Continuous
 62
     7
100
AcDbCircle
 10
403.008044339664
 20
124.8371324671579
 30
0.0
 40
0.5
  0
CIRCLE
  5
103
330
A
100
AcDbEntity
  8
LAYER_1
  6
Continuous
 62
     7
100
AcDbCircle
 10
344.4939107673509
 20
96.33713246715799
 30
0.0
 40
4.424999999999999
  0
CIRCLE
  5
104
330
A
100
AcDbEntity
  8
LAYER_1
  6
Continuous
 62
     7
100
AcDbCircle
 10
344.4939107673509
 20
96.33713246715799
 30
0.0
 40
5.5
  0
LINE
  5
105
330
A
100
AcDbEntity
  8
LAYER_1
  6
Continuous
 62
     7
100
AcDbLine
 10
346.4939107673509
 20
96.33713246715799
 30
0.0
 11
342.4939107673509
 21
96.33713246715799
 31
0.0
  0
LINE
  5
106
330
A
100
AcDbEntity
  8
LAYER_1
  6
Continuous
 62
     7
100
AcDbLine
 10
344.4939107673509
 20
94.337132467158
 30
0.0
 11
344.4939107673509
 21
98.33713246715801
 31
0.0
  0
CIRCLE
  5
107
330
A
100
AcDbEntity
  8
LAYER_1
  6
Continuous
 62
     7
100
AcDbCircle
 10
343.008044339664
 20
97.837132467158
 30
0.0
 40
0.5
  0
CIRCLE
  5
108
330
A
100
AcDbEntity
  8
LAYER_1
  6
Continuous
 62
     7
100
AcDbCircle
 10
346.008044339664
 20
94.83713246715799
 30
0.0
 40
0.5
  0
CIRCLE
  5
109
330
A
100
AcDbEntity
  8
LAYER_1
  6
Continuous
 62
     7
100
AcDbCircle
 10
346.008044339664
 20
97.837132467158
 30
0.0
 40
0.5
  0
CIRCLE
  5
10A
330
A
100
AcDbEntity
  8
LAYER_1
  6
Continuous
 62
     7
100
AcDbCircle
 10
343.008044339664
 20
94.83713246715799
 30
0.0
 40
0.5
  0
CIRCLE
  5
10B
330
A
100
AcDbEntity
  8
LAYER_1
  6
Continuous
 62
     7
100
AcDbCircle
 10
344.4939107673509
 20
81.33713246715799
 30
0.0
 40
4.424999999999999
  0
CIRCLE
  5
10C
330
A
100
AcDbEntity
  8
LAYER_1
  6
Continuous
 62
     7
100
AcDbCircle
 10
344.4939107673509
 20
81.33713246715799
 30
0.0
 40
5.5
  0
LINE
  5
10D
330
A
100
AcDbEntity
  8
LAYER_1
  6
Continuous
 62
     7
100
AcDbLine
 10
346.4939107673509
 20
81.33713246715799
 30
0.0
 11
342.4939107673509
 21
81.33713246715799
 31
0.0
  0
LINE
  5
10E
330
A
100
AcDbEntity
  8
LAYER_1
  6
Continuous
 62
     7
100
AcDbLine
 10
344.4939107673509
 20
79.337132467158
 30
0.0
 11
344.4939107673509
 21
83.33713246715801
 31
0.0
  0
CIRCLE
  5
10F
330
A
100
AcDbEntity
  8
LAYER_1
  6
Continuous
 62
     7
100
AcDbCircle
 10
343.008044339664
 20
82.837132467158
 30
0.0
 40
0.5
  0
CIRCLE
  5
110
330
A
100
AcDbEntity
  8
LAYER_1
  6
Continuous
 62
     7
100
AcDbCircle
 10
346.008044339664
 20
79.837132467158
 30
0.0
 40
0.5
  0
CIRCLE
  5
111
330
A
100
AcDbEntity
  8
LAYER_1
  6
Continuous
 62
     7
100
AcDbCircle
 10
346.008044339664
 20
82.837132467158
 30
0.0
 40
0.5
  0
CIRCLE
  5
112
330
A
100
AcDbEntity
  8
LAYER_1
  6
Continuous
 62
     7
100
AcDbCircle
 10
343.008044339664
 20
79.837132467158
 30
0.0
 40
0.5
  0
CIRCLE
  5
113
330
A
100
AcDbEntity
  8
LAYER_1
  6
Continuous
 62
     7
100
AcDbCircle
 10
364.493910767351
 20
81.33713246715799
 30
0.0
 40
4.424999999999999
  0
CIRCLE
  5
114
330
A
100
AcDbEntity
  8
LAYER_1
  6
Continuous
 62
     7
100
AcDbCircle
 10
364.493910767351
 20
81.33713246715799
 30
0.0
 40
5.5
  0
LINE
  5
115
330
A
100
AcDbEntity
  8
LAYER_1
  6
Continuous
 62
     7
100
AcDbLine
 10
366.493910767351
 20
81.33713246715799
 30
0.0
 11
362.493910767351
 21
81.33713246715799
 31
0.0
  0
LINE
  5
116
330
A
100
AcDbEntity
  8
LAYER_1
  6
Continuous
 62
     7
100
AcDbLine
 10
364.493910767351
 20
79.337132467158
 30
0.0
 11
364.493910767351
 21
83.33713246715801
 31
0.0
  0
CIRCLE
  5
117
330
A
100
AcDbEntity
  8
LAYER_1
  6
Continuous
 62
     7
100
AcDbCircle
 10
363.008044339664
 20
82.837132467158
 30
0.0
 40
0.5
  0
CIRCLE
  5
118
330
A
100
AcDbEntity
  8
LAYER_1
  6
Continuous
 62
     7
100
AcDbCircle
 10
366.008044339664
 20
79.837132467158
 30
0.0
 40
0.5
  0
CIRCLE
  5
119
330
A
100
AcDbEntity
  8
LAYER_1
  6
Continuous
 62
     7
100
AcDbCircle
 10
366.008044339664
 20
82.837132467158
 30
0.0
 40
0.5
  0
CIRCLE
  5
11A
330
A
100
AcDbEntity
  8
LAYER_1
  6
Continuous
 62
     7
100
AcDbCircle
 10
363.008044339664
 20
79.837132467158
 30
0.0
 40
0.5
  0
CIRCLE
  5
11B
330
A
100
AcDbEntity
  8
LAYER_1
  6
Continuous
 62
     7
100
AcDbCircle
 10
364.493910767351
 20
96.33713246715799
 30
0.0
 40
4.424999999999999
  0
CIRCLE
  5
11C
330
A
100
AcDbEntity
  8
LAYER_1
  6
Continuous
 62
     7
100
AcDbCircle
 10
364.493910767351
 20
96.33713246715799
 30
0.0
 40
5.5
  0
LINE
  5
11D
330
A
100
AcDbEntity
  8
LAYER_1
  6
Continuous
 62
     7
100
AcDbLine
 10
366.493910767351
 20
96.33713246715799
 30
0.0
 11
362.493910767351
 21
96.33713246715799
 31
0.0
  0
LINE
  5
11E
330
A
100
AcDbEntity
  8
LAYER_1
  6
Continuous
 62
     7
100
AcDbLine
 10
364.493910767351
 20
94.337132467158
 30
0.0
 11
364.493910767351
 21
98.33713246715801
 31
0.0
  0
CIRCLE
  5
11F
330
A
100
AcDbEntity
  8
LAYER_1
  6
Continuous
 62
     7
100
AcDbCircle
 10
363.008044339664
 20
97.837132467158
 30
0.0
 40
0.5
  0
CIRCLE
  5
120
330
A
100
AcDbEntity
  8
LAYER_1
  6
Continuous
 62
     7
100
AcDbCircle
 10
366.008044339664
 20
94.83713246715799
 30
0.0
 40
0.5
  0
CIRCLE
  5
121
330
A
100
AcDbEntity
  8
LAYER_1
  6
Continuous
 62
     7
100
AcDbCircle
 10
366.008044339664
 20
97.837132467158
 30
0.0
 40
0.5
  0
CIRCLE
  5
122
330
A
100
AcDbEntity
  8
LAYER_1
  6
Continuous
 62
     7
100
AcDbCircle
 10
363.008044339664
 20
94.83713246715799
 30
0.0
 40
0.5
  0
CIRCLE
  5
123
330
A
100
AcDbEntity
  8
LAYER_1
  6
Continuous
 62
     7
100
AcDbCircle
 10
384.493910767351
 20
81.33713246715799
 30
0.0
 40
4.424999999999999
  0
CIRCLE
  5
124
330
A
100
AcDbEntity
  8
LAYER_1
  6
Continuous
 62
     7
100
AcDbCircle
 10
384.493910767351
 20
81.33713246715799
 30
0.0
 40
5.5
  0
LINE
  5
125
330
A
100
AcDbEntity
  8
LAYER_1
  6
Continuous
 62
     7
100
AcDbLine
 10
386.493910767351
 20
81.33713246715799
 30
0.0
 11
382.493910767351
 21
81.33713246715799
 31
0.0
  0
LINE
  5
126
330
A
100
AcDbEntity
  8
LAYER_1
  6
Continuous
 62
     7
100
AcDbLine
 10
384.493910767351
 20
79.337132467158
 30
0.0
 11
384.493910767351
 21
83.33713246715801
 31
0.0
  0
CIRCLE
  5
127
330
A
100
AcDbEntity
  8
LAYER_1
  6
Continuous
 62
     7
100
AcDbCircle
 10
383.008044339664
 20
82.837132467158
 30
0.0
 40
0.5
  0
CIRCLE
  5
128
330
A
100
AcDbEntity
  8
LAYER_1
  6
Continuous
 62
     7
100
AcDbCircle
 10
386.008044339664
 20
79.837132467158
 30
0.0
 40
0.5
  0
CIRCLE
  5
129
330
A
100
AcDbEntity
  8
LAYER_1
  6
Continuous
 62
     7
100
AcDbCircle
 10
386.008044339664
 20
82.837132467158
 30
0.0
 40
0.5
  0
CIRCLE
  5
12A
330
A
100
AcDbEntity
  8
LAYER_1
  6
Continuous
 62
     7
100
AcDbCircle
 10
383.008044339664
 20
79.837132467158
 30
0.0
 40
0.5
  0
CIRCLE
  5
12B
330
A
100
AcDbEntity
  8
LAYER_1
  6
Continuous
 62
     7
100
AcDbCircle
 10
384.493910767351
 20
96.33713246715799
 30
0.0
 40
4.424999999999999
  0
CIRCLE
  5
12C
330
A
100
AcDbEntity
  8
LAYER_1
  6
Continuous
 62
     7
100
AcDbCircle
 10
384.493910767351
 20
96.33713246715799
 30
0.0
 40
5.5
  0
LINE
  5
12D
330
A
100
AcDbEntity
  8
LAYER_1
  6
Continuous
 62
     7
100
AcDbLine
 10
386.493910767351
 20
96.33713246715799
 30
0.0
 11
382.493910767351
 21
96.33713246715799
 31
0.0
  0
LINE
  5
12E
330
A
100
AcDbEntity
  8
LAYER_1
  6
Continuous
 62
     7
100
AcDbLine
 10
384.493910767351
 20
94.337132467158
 30
0.0
 11
384.493910767351
 21
98.33713246715801
 31
0.0
  0
CIRCLE
  5
12F
330
A
100
AcDbEntity
  8
LAYER_1
  6
Continuous
 62
     7
100
AcDbCircle
 10
383.008044339664
 20
97.837132467158
 30
0.0
 40
0.5
  0
CIRCLE
  5
130
330
A
100
AcDbEntity
  8
LAYER_1
  6
Continuous
 62
     7
100
AcDbCircle
 10
386.008044339664
 20
94.83713246715799
 30
0.0
 40
0.5
  0
CIRCLE
  5
131
330
A
100
AcDbEntity
  8
LAYER_1
  6
Continuous
 62
     7
100
AcDbCircle
 10
386.008044339664
 20
97.837132467158
 30
0.0
 40
0.5
  0
CIRCLE
  5
132
330
A
100
AcDbEntity
  8
LAYER_1
  6
Continuous
 62
     7
100
AcDbCircle
 10
383.008044339664
 20
94.83713246715799
 30
0.0
 40
0.5
  0
CIRCLE
  5
133
330
A
100
AcDbEntity
  8
LAYER_1
  6
Continuous
 62
     7
100
AcDbCircle
 10
384.493910767351
 20
111.3371324671579
 30
0.0
 40
4.424999999999999
  0
CIRCLE
  5
134
330
A
100
AcDbEntity
  8
LAYER_1
  6
Continuous
 62
     7
100
AcDbCircle
 10
384.493910767351
 20
111.3371324671579
 30
0.0
 40
5.5
  0
LINE
  5
135
330
A
100
AcDbEntity
  8
LAYER_1
  6
Continuous
 62
     7
100
AcDbLine
 10
386.493910767351
 20
111.3371324671579
 30
0.0
 11
382.493910767351
 21
111.3371324671579
 31
0.0
  0
LINE
  5
136
330
A
100
AcDbEntity
  8
LAYER_1
  6
Continuous
 62
     7
100
AcDbLine
 10
384.493910767351
 20
109.3371324671579
 30
0.0
 11
384.493910767351
 21
113.3371324671579
 31
0.0
  0
CIRCLE
  5
137
330
A
100
AcDbEntity
  8
LAYER_1
  6
Continuous
 62
     7
100
AcDbCircle
 10
383.008044339664
 20
112.837132467158
 30
0.0
 40
0.5
  0
CIRCLE
  5
138
330
A
100
AcDbEntity
  8
LAYER_1
  6
Continuous
 62
     7
100
AcDbCircle
 10
386.008044339664
 20
109.837132467158
 30
0.0
 40
0.5
  0
CIRCLE
  5
139
330
A
100
AcDbEntity
  8
LAYER_1
  6
Continuous
 62
     7
100
AcDbCircle
 10
386.008044339664
 20
112.837132467158
 30
0.0
 40
0.5
  0
CIRCLE
  5
13A
330
A
100
AcDbEntity
  8
LAYER_1
  6
Continuous
 62
     7
100
AcDbCircle
 10
383.008044339664
 20
109.837132467158
 30
0.0
 40
0.5
  0
CIRCLE
  5
13B
330
A
100
AcDbEntity
  8
LAYER_1
  6
Continuous
 62
     7
100
AcDbCircle
 10
404.493910767351
 20
111.3371324671579
 30
0.0
 40
4.424999999999999
  0
CIRCLE
  5
13C
330
A
100
AcDbEntity
  8
LAYER_1
  6
Continuous
 62
     7
100
AcDbCircle
 10
404.493910767351
 20
111.3371324671579
 30
0.0
 40
5.5
  0
LINE
  5
13D
330
A
100
AcDbEntity
  8
LAYER_1
  6
Continuous
 62
     7
100
AcDbLine
 10
406.4939107673509
 20
111.3371324671579
 30
0.0
 11
402.4939107673509
 21
111.3371324671579
 31
0.0
  0
LINE
  5
13E
330
A
100
AcDbEntity
  8
LAYER_1
  6
Continuous
 62
     7
100
AcDbLine
 10
404.493910767351
 20
109.3371324671579
 30
0.0
 11
404.493910767351
 21
113.3371324671579
 31
0.0
  0
CIRCLE
  5
13F
330
A
100
AcDbEntity
  8
LAYER_1
  6
Continuous
 62
     7
100
AcDbCircle
 10
403.008044339664
 20
112.837132467158
 30
0.0
 40
0.5
  0
CIRCLE
  5
140
330
A
100
AcDbEntity
  8
LAYER_1
  6
Continuous
 62
     7
100
AcDbCircle
 10
406.008044339664
 20
109.837132467158
 30
0.0
 40
0.5
  0
CIRCLE
  5
141
330
A
100
AcDbEntity
  8
LAYER_1
  6
Continuous
 62
     7
100
AcDbCircle
 10
406.008044339664
 20
112.837132467158
 30
0.0
 40
0.5
  0
CIRCLE
  5
142
330
A
100
AcDbEntity
  8
LAYER_1
  6
Continuous
 62
     7
100
AcDbCircle
 10
403.008044339664
 20
109.837132467158
 30
0.0
 40
0.5
  0
CIRCLE
  5
143
330
A
100
AcDbEntity
  8
LAYER_1
  6
Continuous
 62
     7
100
AcDbCircle
 10
404.493910767351
 20
96.33713246715799
 30
0.0
 40
4.424999999999999
  0
CIRCLE
  5
144
330
A
100
AcDbEntity
  8
LAYER_1
  6
Continuous
 62
     7
100
AcDbCircle
 10
404.493910767351
 20
96.33713246715799
 30
0.0
 40
5.5
  0
LINE
  5
145
330
A
100
AcDbEntity
  8
LAYER_1
  6
Continuous
 62
     7
100
AcDbLine
 10
406.4939107673509
 20
96.33713246715799
 30
0.0
 11
402.4939107673509
 21
96.33713246715799
 31
0.0
  0
LINE
  5
146
330
A
100
AcDbEntity
  8
LAYER_1
  6
Continuous
 62
     7
100
AcDbLine
 10
404.493910767351
 20
94.337132467158
 30
0.0
 11
404.493910767351
 21
98.33713246715801
 31
0.0
  0
CIRCLE
  5
147
330
A
100
AcDbEntity
  8
LAYER_1
  6
Continuous
 62
     7
100
AcDbCircle
 10
403.008044339664
 20
97.837132467158
 30
0.0
 40
0.5
  0
CIRCLE
  5
148
330
A
100
AcDbEntity
  8
LAYER_1
  6
Continuous
 62
     7
100
AcDbCircle
 10
406.008044339664
 20
94.83713246715799
 30
0.0
 40
0.5
  0
CIRCLE
  5
149
330
A
100
AcDbEntity
  8
LAYER_1
  6
Continuous
 62
     7
100
AcDbCircle
 10
406.008044339664
 20
97.837132467158
 30
0.0
 40
0.5
  0
CIRCLE
  5
14A
330
A
100
AcDbEntity
  8
LAYER_1
  6
Continuous
 62
     7
100
AcDbCircle
 10
403.008044339664
 20
94.83713246715799
 30
0.0
 40
0.5
  0
CIRCLE
  5
14B
330
A
100
AcDbEntity
  8
LAYER_1
  6
Continuous
 62
     7
100
AcDbCircle
 10
404.493910767351
 20
81.33713246715799
 30
0.0
 40
4.424999999999999
  0
CIRCLE
  5
14C
330
A
100
AcDbEntity
  8
LAYER_1
  6
Continuous
 62
     7
100
AcDbCircle
 10
404.493910767351
 20
81.33713246715799
 30
0.0
 40
5.5
  0
LINE
  5
14D
330
A
100
AcDbEntity
  8
LAYER_1
  6
Continuous
 62
     7
100
AcDbLine
 10
406.4939107673509
 20
81.33713246715799
 30
0.0
 11
402.4939107673509
 21
81.33713246715799
 31
0.0
  0
LINE
  5
14E
330
A
100
AcDbEntity
  8
LAYER_1
  6
Continuous
 62
     7
100
AcDbLine
 10
404.493910767351
 20
79.337132467158
 30
0.0
 11
404.493910767351
 21
83.33713246715801
 31
0.0
  0
CIRCLE
  5
14F
330
A
100
AcDbEntity
  8
LAYER_1
  6
Continuous
 62
     7
100
AcDbCircle
 10
403.008044339664
 20
82.837132467158
 30
0.0
 40
0.5
  0
CIRCLE
  5
150
330
A
100
AcDbEntity
  8
LAYER_1
  6
Continuous
 62
     7
100
AcDbCircle
 10
406.008044339664
 20
79.837132467158
 30
0.0
 40
0.5
  0
CIRCLE
  5
151
330
A
100
AcDbEntity
  8
LAYER_1
  6
Continuous
 62
     7
100
AcDbCircle
 10
406.008044339664
 20
82.837132467158
 30
0.0
 40
0.5
  0
CIRCLE
  5
152
330
A
100
AcDbEntity
  8
LAYER_1
  6
Continuous
 62
     7
100
AcDbCircle
 10
403.008044339664
 20
79.837132467158
 30
0.0
 40
0.5
  0
CIRCLE
  5
153
330
A
100
AcDbEntity
  8
LAYER_1
  6
Continuous
 62
     7
100
AcDbCircle
 10
374.493910767351
 20
141.3371324671579
 30
0.0
 40
2.5
  0
CIRCLE
  5
154
330
A
100
AcDbEntity
  8
LAYER_1
  6
Continuous
 62
     7
100
AcDbCircle
 10
389.493910767351
 20
141.3371324671579
 30
0.0
 40
2.5
  0
CIRCLE
  5
155
330
A
100
AcDbEntity
  8
LAYER_1
  6
Continuous
 62
     7
100
AcDbCircle
 10
359.493910767351
 20
141.3371324671579
 30
0.0
 40
2.5
  0
LINE
  5
156
330
A
100
AcDbEntity
  8
LAYER_1
  6
Continuous
 62
     7
100
AcDbLine
 10
349.9087389518099
 20
201.243632754243
 30
0.0
 11
349.9087389518099
 21
200.24544972047
 31
0.0
  0
LINE
  5
157
330
A
100
AcDbEntity
  8
LAYER_1
  6
Continuous
 62
     7
100
AcDbLine
 10
349.9087389518099
 20
200.24544972047
 30
0.0
 11
338.9768606909069
 21
200.24544972047
 31
0.0
  0
LINE
  5
158
330
A
100
AcDbEntity
  8
LAYER_1
  6
Continuous
 62
     7
100
AcDbLine
 10
338.954053042064
 20
200.24544972047
 30
0.0
 11
338.954053042064
 21
201.24351272095
 31
0.0
  0
LINE
  5
159
330
A
100
AcDbEntity
  8
LAYER_1
  6
Continuous
 62
     7
100
AcDbLine
 10
348.7476676558249
 20
200.2627361474039
 30
0.0
 11
348.7476676558249
 21
193.9627361474039
 31
0.0
  0
LINE
  5
15A
330
A
100
AcDbEntity
  8
LAYER_1
  6
Continuous
 62
     7
100
AcDbLine
 10
348.7476676558249
 20
193.9627361474039
 30
0.0
 11
339.897667655825
 21
193.9627361474039
 31
0.0
  0
LINE
  5
15B
330
A
100
AcDbEntity
  8
LAYER_1
  6
Continuous
 62
     7
100
AcDbLine
 10
339.897667655825
 20
193.9627361474039
 30
0.0
 11
339.897667655825
 21
200.2627361474039
 31
0.0
  0
LINE
  5
15C
330
A
100
AcDbEntity
  8
LAYER_1
  6
Continuous
 62
     7
100
AcDbLine
 10
370.028882862218
 20
200.24544972047
 30
0.0
 11
361.218307010131
 21
200.24544972047
 31
0.0
  0
LINE
  5
15D
330
A
100
AcDbEntity
  8
LAYER_1
  6
Continuous
 62
     7
100
AcDbLine
 10
368.9189107673509
 20
193.9627361474039
 30
0.0
 11
360.068910767351
 21
193.9627361474039
 31
0.0
  0
LINE
  5
15E
330
A
100
AcDbEntity
  8
LAYER_1
  6
Continuous
 62
     7
100
AcDbLine
 10
360.0333829268399
 20
193.9627361474039
 30
0.0
 11
360.0333829268399
 21
199.112875825138
 31
0.0
  0
LINE
  5
15F
330
A
100
AcDbEntity
  8
LAYER_1
  6
Continuous
 62
     7
100
AcDbLine
 10
388.918910767351
 20
193.9627361474039
 30
0.0
 11
380.068910767352
 21
193.9627361474039
 31
0.0
  0
LINE
  5
160
330
A
100
AcDbEntity
  8
LAYER_1
  6
Continuous
 62
     7
100
AcDbLine
 10
368.9189107673509
 20
193.9627361474039
 30
0.0
 11
368.9189107673509
 21
200.24544972047
 31
0.0
  0
LINE
  5
161
330
A
100
AcDbEntity
  8
LAYER_1
  6
Continuous
 62
     7
100
AcDbLine
 10
370.028882862218
 20
200.24544972047
 30
0.0
 11
370.028882862218
 21
201.3865287515209
 31
0.0
  0
LINE
  5
162
330
A
100
AcDbEntity
  8
LAYER_1
  6
Continuous
 62
     7
100
AcDbLine
 10
380.0689107673509
 20
193.9627361474039
 30
0.0
 11
380.0689107673509
 21
200.24544972047
 31
0.0
  0
LINE
  5
163
330
A
100
AcDbEntity
  8
LAYER_1
  6
Continuous
 62
     7
100
AcDbLine
 10
388.918910767351
 20
193.9627361474039
 30
0.0
 11
388.918910767351
 21
199.1294565329159
 31
0.0
  0
LINE
  5
164
330
A
100
AcDbEntity
  8
LAYER_1
  6
Continuous
 62
     7
100
AcDbLine
 10
378.993910767351
 20
201.3865287515209
 30
0.0
 11
378.993910767351
 21
200.24544972047
 31
0.0
  0
LINE
  5
165
330
A
100
AcDbEntity
  8
LAYER_1
  6
Continuous
 62
     7
100
AcDbLine
 10
387.7695145245709
 20
200.24544972047
 30
0.0
 11
378.993910767351
 21
200.24544972047
 31
0.0
  0
LINE
  5
166
330
A
100
AcDbEntity
  8
LAYER_1
  6
Continuous
 62
     7
100
AcDbLine
 10
408.918910767351
 20
193.9627361474039
 30
0.0
 11
400.0689107673509
 21
193.9627361474039
 31
0.0
  0
LINE
  5
167
330
A
100
AcDbEntity
  8
LAYER_1
  6
Continuous
 62
     7
100
AcDbLine
 10
400.0689107673509
 20
193.9627361474039
 30
0.0
 11
400.0689107673509
 21
200.24544972047
 31
0.0
  0
LINE
  5
168
330
A
100
AcDbEntity
  8
LAYER_1
  6
Continuous
 62
     7
100
AcDbLine
 10
408.918910767351
 20
193.9627361474039
 30
0.0
 11
408.918910767351
 21
200.24544972047
 31
0.0
  0
LINE
  5
169
330
A
100
AcDbEntity
  8
LAYER_1
  6
Continuous
 62
     7
100
AcDbLine
 10
409.993910767351
 20
200.24544972047
 30
0.0
 11
398.993910767351
 21
200.24544972047
 31
0.0
  0
LINE
  5
16A
330
A
100
AcDbEntity
  8
LAYER_1
  6
Continuous
 62
     7
100
AcDbLine
 10
398.993910767351
 20
200.24544972047
 30
0.0
 11
398.993910767351
 21
201.3865287515209
 31
0.0
  0
LINE
  5
16B
330
A
100
AcDbEntity
  8
LAYER_1
  6
Continuous
 62
     7
100
AcDbLine
 10
409.993910767351
 20
200.24544972047
 30
0.0
 11
409.993910767351
 21
201.3865287515209
 31
0.0
  0
LINE
  5
16C
330
A
100
AcDbEntity
  8
LAYER_1
  6
Continuous
 62
     7
100
AcDbLine
 10
329.4939107673509
 20
66.386528751521
 30
0.0
 11
419.4939107673509
 21
66.386528751521
 31
0.0
  0
LINE
  5
16D
330
A
100
AcDbEntity
  8
LAYER_1
  6
Continuous
 62
     7
100
AcDbLine
 10
329.4939107673509
 20
249.8865287515209
 30
0.0
 11
329.4939107673509
 21
251.3865287515209
 31
0.0
  0
LINE
  5
16E
330
A
100
AcDbEntity
  8
LAYER_1
  6
Continuous
 62
     7
100
AcDbLine
 10
329.4939107673509
 20
251.3865287515209
 30
0.0
 11
419.4939107673509
 21
251.3865287515209
 31
0.0
  0
LINE
  5
16F
330
A
100
AcDbEntity
  8
LAYER_1
  6
Continuous
 62
     7
100
AcDbLine
 10
419.4939107673509
 20
251.3865287515209
 30
0.0
 11
419.4939107673509
 21
249.8865287515209
 31
0.0
  0
LINE
  5
170
330
A
100
AcDbEntity
  8
LAYER_1
  6
Continuous
 62
     7
100
AcDbLine
 10
329.4939107673509
 20
202.886528751521
 30
0.0
 11
329.4939107673509
 21
201.3865287515209
 31
0.0
  0
LINE
  5
171
330
A
100
AcDbEntity
  8
LAYER_1
  6
Continuous
 62
     7
100
AcDbLine
 10
329.4939107673509
 20
201.3865287515209
 30
0.0
 11
419.4939107673509
 21
201.3865287515209
 31
0.0
  0
LINE
  5
172
330
A
100
AcDbEntity
  8
LAYER_1
  6
Continuous
 62
     7
100
AcDbLine
 10
419.4939107673509
 20
201.3865287515209
 30
0.0
 11
419.4939107673509
 21
202.886528751521
 31
0.0
  0
LINE
  5
173
330
A
100
AcDbEntity
  8
LAYER_1
  6
Continuous
 62
     7
100
AcDbLine
 10
107.562967253075
 20
156.3865287515209
 30
0.0
 11
107.562967253075
 21
66.386528751521
 31
0.0
  0
LINE
  5
174
330
A
100
AcDbEntity
  8
LAYER_1
  6
Continuous
 62
     7
100
AcDbLine
 10
107.562967253075
 20
156.3865287515209
 30
0.0
 11
197.5629672530749
 21
156.3865287515209
 31
0.0
  0
LINE
  5
175
330
A
100
AcDbEntity
  8
LAYER_1
  6
Continuous
 62
     7
100
AcDbLine
 10
197.5629672530749
 20
156.3865287515209
 30
0.0
 11
197.5629672530749
 21
66.386528751521
 31
0.0
  0
LINE
  5
176
330
A
100
AcDbEntity
  8
LAYER_1
  6
Continuous
 62
     7
100
AcDbLine
 10
107.562967253075
 20
66.386528751521
 30
0.0
 11
97.562967253075
 21
66.386528751521
 31
0.0
  0
LINE
  5
177
330
A
100
AcDbEntity
  8
LAYER_1
  6
Continuous
 62
     7
100
AcDbLine
 10
197.5629672530749
 20
66.386528751521
 30
0.0
 11
207.5629672530749
 21
66.386528751521
 31
0.0
  0
LINE
  5
178
330
A
100
AcDbEntity
  8
LAYER_1
  6
Continuous
 62
     7
100
AcDbLine
 10
207.5629672530749
 20
64.886528751521
 30
0.0
 11
196.0629672530749
 21
64.886528751521
 31
0.0
  0
LINE
  5
179
330
A
100
AcDbEntity
  8
LAYER_1
  6
Continuous
 62
     7
100
AcDbLine
 10
196.0681122309189
 20
66.386528751521
 30
0.0
 11
196.0681122309189
 21
64.88463286714001
 31
0.0
  0
LINE
  5
17A
330
A
100
AcDbEntity
  8
LAYER_1
  6
Continuous
 62
     7
100
AcDbLine
 10
109.057579743841
 20
66.386528751521
 30
0.0
 11
109.057579743841
 21
64.886528751521
 31
0.0
  0
LINE
  5
17B
330
A
100
AcDbEntity
  8
LAYER_1
  6
Continuous
 62
     7
100
AcDbLine
 10
97.562967253075
 20
66.386528751521
 30
0.0
 11
97.562967253075
 21
64.886528751521
 31
0.0
  0
LINE
  5
17C
330
A
100
AcDbEntity
  8
LAYER_1
  6
Continuous
 62
     7
100
AcDbLine
 10
207.5629672530749
 20
66.386528751521
 30
0.0
 11
207.5629672530749
 21
64.886528751521
 31
0.0
  0
LINE
  5
17D
330
A
100
AcDbEntity
  8
LAYER_1
  6
Continuous
 62
     7
100
AcDbLine
 10
97.562967253075
 20
64.886528751521
 30
0.0
 11
109.057579743841
 21
64.886528751521
 31
0.0
  0
LINE
  5
17E
330
A
100
AcDbEntity
  8
LAYER_1
  6
Continuous
 62
     7
100
AcDbLine
 10
107.562967253075
 20
66.386528751521
 30
0.0
 11
197.5629672530749
 21
66.386528751521
 31
0.0
  0
LINE
  5
17F
330
A
100
AcDbEntity
  8
LAYER_1
  6
Continuous
 62
     7
100
AcDbLine
 10
113.5629672530749
 20
144.3865287515209
 30
0.0
 11
115.5629672530749
 21
144.3865287515209
 31
0.0
  0
LINE
  5
180
330
A
100
AcDbEntity
  8
LAYER_1
  6
Continuous
 62
     7
100
AcDbLine
 10
115.5629672530749
 20
144.3865287515209
 30
0.0
 11
115.5629672530749
 21
134.3865287515209
 31
0.0
  0
LINE
  5
181
330
A
100
AcDbEntity
  8
LAYER_1
  6
Continuous
 62
     7
100
AcDbLine
 10
115.5629672530749
 20
134.3865287515209
 30
0.0
 11
113.5629672530749
 21
134.3865287515209
 31
0.0
  0
LINE
  5
182
330
A
100
AcDbEntity
  8
LAYER_1
  6
Continuous
 62
     7
100
AcDbLine
 10
113.5629672530749
 20
134.3865287515209
 30
0.0
 11
113.5629672530749
 21
144.3865287515209
 31
0.0
  0
LINE
  5
183
330
A
100
AcDbEntity
  8
LAYER_1
  6
Continuous
 62
     7
100
AcDbLine
 10
113.5629672530749
 20
129.3865287515209
 30
0.0
 11
115.5629672530749
 21
129.3865287515209
 31
0.0
  0
LINE
  5
184
330
A
100
AcDbEntity
  8
LAYER_1
  6
Continuous
 62
     7
100
AcDbLine
 10
115.5629672530749
 20
129.3865287515209
 30
0.0
 11
115.5629672530749
 21
119.386528751521
 31
0.0
  0
LINE
  5
185
330
A
100
AcDbEntity
  8
LAYER_1
  6
Continuous
 62
     7
100
AcDbLine
 10
115.5629672530749
 20
119.386528751521
 30
0.0
 11
113.5629672530749
 21
119.386528751521
 31
0.0
  0
LINE
  5
186
330
A
100
AcDbEntity
  8
LAYER_1
  6
Continuous
 62
     7
100
AcDbLine
 10
113.5629672530749
 20
119.386528751521
 30
0.0
 11
113.5629672530749
 21
129.3865287515209
 31
0.0
  0
LINE
  5
187
330
A
100
AcDbEntity
  8
LAYER_1
  6
Continuous
 62
     7
100
AcDbLine
 10
113.5629672530749
 20
114.3865287515209
 30
0.0
 11
115.5629672530749
 21
114.3865287515209
 31
0.0
  0
LINE
  5
188
330
A
100
AcDbEntity
  8
LAYER_1
  6
Continuous
 62
     7
100
AcDbLine
 10
115.5629672530749
 20
114.3865287515209
 30
0.0
 11
115.5629672530749
 21
104.3865287515209
 31
0.0
  0
LINE
  5
189
330
A
100
AcDbEntity
  8
LAYER_1
  6
Continuous
 62
     7
100
AcDbLine
 10
115.5629672530749
 20
104.3865287515209
 30
0.0
 11
113.5629672530749
 21
104.3865287515209
 31
0.0
  0
LINE
  5
18A
330
A
100
AcDbEntity
  8
LAYER_1
  6
Continuous
 62
     7
100
AcDbLine
 10
113.5629672530749
 20
104.3865287515209
 30
0.0
 11
113.5629672530749
 21
114.3865287515209
 31
0.0
  0
LINE
  5
18B
330
A
100
AcDbEntity
  8
LAYER_1
  6
Continuous
 62
     7
100
AcDbLine
 10
117.562967253075
 20
129.3865287515209
 30
0.0
 11
119.562967253075
 21
129.3865287515209
 31
0.0
  0
LINE
  5
18C
330
A
100
AcDbEntity
  8
LAYER_1
  6
Continuous
 62
     7
100
AcDbLine
 10
119.562967253075
 20
129.3865287515209
 30
0.0
 11
119.562967253075
 21
119.386528751521
 31
0.0
  0
LINE
  5
18D
330
A
100
AcDbEntity
  8
LAYER_1
  6
Continuous
 62
     7
100
AcDbLine
 10
119.562967253075
 20
119.386528751521
 30
0.0
 11
117.562967253075
 21
119.386528751521
 31
0.0
  0
LINE
  5
18E
330
A
100
AcDbEntity
  8
LAYER_1
  6
Continuous
 62
     7
100
AcDbLine
 10
117.562967253075
 20
119.386528751521
 30
0.0
 11
117.562967253075
 21
129.3865287515209
 31
0.0
  0
LINE
  5
18F
330
A
100
AcDbEntity
  8
LAYER_1
  6
Continuous
 62
     7
100
AcDbLine
 10
121.562967253075
 20
129.3865287515209
 30
0.0
 11
123.562967253075
 21
129.3865287515209
 31
0.0
  0
LINE
  5
190
330
A
100
AcDbEntity
  8
LAYER_1
  6
Continuous
 62
     7
100
AcDbLine
 10
123.562967253075
 20
129.3865287515209
 30
0.0
 11
123.562967253075
 21
119.386528751521
 31
0.0
  0
LINE
  5
191
330
A
100
AcDbEntity
  8
LAYER_1
  6
Continuous
 62
     7
100
AcDbLine
 10
123.562967253075
 20
119.386528751521
 30
0.0
 11
121.562967253075
 21
119.386528751521
 31
0.0
  0
LINE
  5
192
330
A
100
AcDbEntity
  8
LAYER_1
  6
Continuous
 62
     7
100
AcDbLine
 10
121.562967253075
 20
119.386528751521
 30
0.0
 11
121.562967253075
 21
129.3865287515209
 31
0.0
  0
LINE
  5
193
330
A
100
AcDbEntity
  8
LAYER_1
  6
Continuous
 62
     7
100
AcDbLine
 10
125.562967253075
 20
129.3865287515209
 30
0.0
 11
127.562967253075
 21
129.3865287515209
 31
0.0
  0
LINE
  5
194
330
A
100
AcDbEntity
  8
LAYER_1
  6
Continuous
 62
     7
100
AcDbLine
 10
127.562967253075
 20
129.3865287515209
 30
0.0
 11
127.562967253075
 21
119.386528751521
 31
0.0
  0
LINE
  5
195
330
A
100
AcDbEntity
  8
LAYER_1
  6
Continuous
 62
     7
100
AcDbLine
 10
127.562967253075
 20
119.386528751521
 30
0.0
 11
125.562967253075
 21
119.386528751521
 31
0.0
  0
LINE
  5
196
330
A
100
AcDbEntity
  8
LAYER_1
  6
Continuous
 62
     7
100
AcDbLine
 10
125.562967253075
 20
119.386528751521
 30
0.0
 11
125.562967253075
 21
129.3865287515209
 31
0.0
  0
LINE
  5
197
330
A
100
AcDbEntity
  8
LAYER_1
  6
Continuous
 62
     7
100
AcDbLine
 10
129.562967253075
 20
129.3865287515209
 30
0.0
 11
131.562967253075
 21
129.3865287515209
 31
0.0
  0
LINE
  5
198
330
A
100
AcDbEntity
  8
LAYER_1
  6
Continuous
 62
     7
100
AcDbLine
 10
131.562967253075
 20
129.3865287515209
 30
0.0
 11
131.562967253075
 21
119.386528751521
 31
0.0
  0
LINE
  5
199
330
A
100
AcDbEntity
  8
LAYER_1
  6
Continuous
 62
     7
100
AcDbLine
 10
131.562967253075
 20
119.386528751521
 30
0.0
 11
129.562967253075
 21
119.386528751521
 31
0.0
  0
LINE
  5
19A
330
A
100
AcDbEntity
  8
LAYER_1
  6
Continuous
 62
     7
100
AcDbLine
 10
129.562967253075
 20
119.386528751521
 30
0.0
 11
129.562967253075
 21
129.3865287515209
 31
0.0
  0
LINE
  5
19B
330
A
100
AcDbEntity
  8
LAYER_1
  6
Continuous
 62
     7
100
AcDbLine
 10
133.562967253075
 20
129.3865287515209
 30
0.0
 11
135.562967253075
 21
129.3865287515209
 31
0.0
  0
LINE
  5
19C
330
A
100
AcDbEntity
  8
LAYER_1
  6
Continuous
 62
     7
100
AcDbLine
 10
135.562967253075
 20
129.3865287515209
 30
0.0
 11
135.562967253075
 21
119.386528751521
 31
0.0
  0
LINE
  5
19D
330
A
100
AcDbEntity
  8
LAYER_1
  6
Continuous
 62
     7
100
AcDbLine
 10
135.562967253075
 20
119.386528751521
 30
0.0
 11
133.562967253075
 21
119.386528751521
 31
0.0
  0
LINE
  5
19E
330
A
100
AcDbEntity
  8
LAYER_1
  6
Continuous
 62
     7
100
AcDbLine
 10
133.562967253075
 20
119.386528751521
 30
0.0
 11
133.562967253075
 21
129.3865287515209
 31
0.0
  0
LINE
  5
19F
330
A
100
AcDbEntity
  8
LAYER_1
  6
Continuous
 62
     7
100
AcDbLine
 10
137.562967253075
 20
129.3865287515209
 30
0.0
 11
139.562967253075
 21
129.3865287515209
 31
0.0
  0
LINE
  5
1A0
330
A
100
AcDbEntity
  8
LAYER_1
  6
Continuous
 62
     7
100
AcDbLine
 10
139.562967253075
 20
129.3865287515209
 30
0.0
 11
139.562967253075
 21
119.386528751521
 31
0.0
  0
LINE
  5
1A1
330
A
100
AcDbEntity
  8
LAYER_1
  6
Continuous
 62
     7
100
AcDbLine
 10
139.562967253075
 20
119.386528751521
 30
0.0
 11
137.562967253075
 21
119.386528751521
 31
0.0
  0
LINE
  5
1A2
330
A
100
AcDbEntity
  8
LAYER_1
  6
Continuous
 62
     7
100
AcDbLine
 10
137.562967253075
 20
119.386528751521
 30
0.0
 11
137.562967253075
 21
129.3865287515209
 31
0.0
  0
LINE
  5
1A3
330
A
100
AcDbEntity
  8
LAYER_1
  6
Continuous
 62
     7
100
AcDbLine
 10
141.562967253075
 20
129.3865287515209
 30
0.0
 11
143.562967253075
 21
129.3865287515209
 31
0.0
  0
LINE
  5
1A4
330
A
100
AcDbEntity
  8
LAYER_1
  6
Continuous
 62
     7
100
AcDbLine
 10
143.562967253075
 20
129.3865287515209
 30
0.0
 11
143.562967253075
 21
119.386528751521
 31
0.0
  0
LINE
  5
1A5
330
A
100
AcDbEntity
  8
LAYER_1
  6
Continuous
 62
     7
100
AcDbLine
 10
143.562967253075
 20
119.386528751521
 30
0.0
 11
141.562967253075
 21
119.386528751521
 31
0.0
  0
LINE
  5
1A6
330
A
100
AcDbEntity
  8
LAYER_1
  6
Continuous
 62
     7
100
AcDbLine
 10
141.562967253075
 20
119.386528751521
 30
0.0
 11
141.562967253075
 21
129.3865287515209
 31
0.0
  0
LINE
  5
1A7
330
A
100
AcDbEntity
  8
LAYER_1
  6
Continuous
 62
     7
100
AcDbLine
 10
117.562967253075
 20
114.3865287515209
 30
0.0
 11
119.562967253075
 21
114.3865287515209
 31
0.0
  0
LINE
  5
1A8
330
A
100
AcDbEntity
  8
LAYER_1
  6
Continuous
 62
     7
100
AcDbLine
 10
119.562967253075
 20
114.3865287515209
 30
0.0
 11
119.562967253075
 21
104.3865287515209
 31
0.0
  0
LINE
  5
1A9
330
A
100
AcDbEntity
  8
LAYER_1
  6
Continuous
 62
     7
100
AcDbLine
 10
119.562967253075
 20
104.3865287515209
 30
0.0
 11
117.562967253075
 21
104.3865287515209
 31
0.0
  0
LINE
  5
1AA
330
A
100
AcDbEntity
  8
LAYER_1
  6
Continuous
 62
     7
100
AcDbLine
 10
117.562967253075
 20
104.3865287515209
 30
0.0
 11
117.562967253075
 21
114.3865287515209
 31
0.0
  0
LINE
  5
1AB
330
A
100
AcDbEntity
  8
LAYER_1
  6
Continuous
 62
     7
100
AcDbLine
 10
121.562967253075
 20
114.3865287515209
 30
0.0
 11
123.562967253075
 21
114.3865287515209
 31
0.0
  0
LINE
  5
1AC
330
A
100
AcDbEntity
  8
LAYER_1
  6
Continuous
 62
     7
100
AcDbLine
 10
123.562967253075
 20
114.3865287515209
 30
0.0
 11
123.562967253075
 21
104.3865287515209
 31
0.0
  0
LINE
  5
1AD
330
A
100
AcDbEntity
  8
LAYER_1
  6
Continuous
 62
     7
100
AcDbLine
 10
123.562967253075
 20
104.3865287515209
 30
0.0
 11
121.562967253075
 21
104.3865287515209
 31
0.0
  0
LINE
  5
1AE
330
A
100
AcDbEntity
  8
LAYER_1
  6
Continuous
 62
     7
100
AcDbLine
 10
121.562967253075
 20
104.3865287515209
 30
0.0
 11
121.562967253075
 21
114.3865287515209
 31
0.0
  0
LINE
  5
1AF
330
A
100
AcDbEntity
  8
LAYER_1
  6
Continuous
 62
     7
100
AcDbLine
 10
125.562967253075
 20
114.3865287515209
 30
0.0
 11
127.562967253075
 21
114.3865287515209
 31
0.0
  0
LINE
  5
1B0
330
A
100
AcDbEntity
  8
LAYER_1
  6
Continuous
 62
     7
100
AcDbLine
 10
127.562967253075
 20
114.3865287515209
 30
0.0
 11
127.562967253075
 21
104.3865287515209
 31
0.0
  0
LINE
  5
1B1
330
A
100
AcDbEntity
  8
LAYER_1
  6
Continuous
 62
     7
100
AcDbLine
 10
127.562967253075
 20
104.3865287515209
 30
0.0
 11
125.562967253075
 21
104.3865287515209
 31
0.0
  0
LINE
  5
1B2
330
A
100
AcDbEntity
  8
LAYER_1
  6
Continuous
 62
     7
100
AcDbLine
 10
125.562967253075
 20
104.3865287515209
 30
0.0
 11
125.562967253075
 21
114.3865287515209
 31
0.0
  0
LINE
  5
1B3
330
A
100
AcDbEntity
  8
LAYER_1
  6
Continuous
 62
     7
100
AcDbLine
 10
129.562967253075
 20
114.3865287515209
 30
0.0
 11
131.562967253075
 21
114.3865287515209
 31
0.0
  0
LINE
  5
1B4
330
A
100
AcDbEntity
  8
LAYER_1
  6
Continuous
 62
     7
100
AcDbLine
 10
131.562967253075
 20
114.3865287515209
 30
0.0
 11
131.562967253075
 21
104.3865287515209
 31
0.0
  0
LINE
  5
1B5
330
A
100
AcDbEntity
  8
LAYER_1
  6
Continuous
 62
     7
100
AcDbLine
 10
131.562967253075
 20
104.3865287515209
 30
0.0
 11
129.562967253075
 21
104.3865287515209
 31
0.0
  0
LINE
  5
1B6
330
A
100
AcDbEntity
  8
LAYER_1
  6
Continuous
 62
     7
100
AcDbLine
 10
129.562967253075
 20
104.3865287515209
 30
0.0
 11
129.562967253075
 21
114.3865287515209
 31
0.0
  0
LINE
  5
1B7
330
A
100
AcDbEntity
  8
LAYER_1
  6
Continuous
 62
     7
100
AcDbLine
 10
133.562967253075
 20
114.3865287515209
 30
0.0
 11
135.562967253075
 21
114.3865287515209
 31
0.0
  0
LINE
  5
1B8
330
A
100
AcDbEntity
  8
LAYER_1
  6
Continuous
 62
     7
100
AcDbLine
 10
135.562967253075
 20
114.3865287515209
 30
0.0
 11
135.562967253075
 21
104.3865287515209
 31
0.0
  0
LINE
  5
1B9
330
A
100
AcDbEntity
  8
LAYER_1
  6
Continuous
 62
     7
100
AcDbLine
 10
135.562967253075
 20
104.3865287515209
 30
0.0
 11
133.562967253075
 21
104.3865287515209
 31
0.0
  0
LINE
  5
1BA
330
A
100
AcDbEntity
  8
LAYER_1
  6
Continuous
 62
     7
100
AcDbLine
 10
133.562967253075
 20
104.3865287515209
 30
0.0
 11
133.562967253075
 21
114.3865287515209
 31
0.0
  0
LINE
  5
1BB
330
A
100
AcDbEntity
  8
LAYER_1
  6
Continuous
 62
     7
100
AcDbLine
 10
137.562967253075
 20
114.3865287515209
 30
0.0
 11
139.562967253075
 21
114.3865287515209
 31
0.0
  0
LINE
  5
1BC
330
A
100
AcDbEntity
  8
LAYER_1
  6
Continuous
 62
     7
100
AcDbLine
 10
139.562967253075
 20
114.3865287515209
 30
0.0
 11
139.562967253075
 21
104.3865287515209
 31
0.0
  0
LINE
  5
1BD
330
A
100
AcDbEntity
  8
LAYER_1
  6
Continuous
 62
     7
100
AcDbLine
 10
139.562967253075
 20
104.3865287515209
 30
0.0
 11
137.562967253075
 21
104.3865287515209
 31
0.0
  0
LINE
  5
1BE
330
A
100
AcDbEntity
  8
LAYER_1
  6
Continuous
 62
     7
100
AcDbLine
 10
137.562967253075
 20
104.3865287515209
 30
0.0
 11
137.562967253075
 21
114.3865287515209
 31
0.0
  0
LINE
  5
1BF
330
A
100
AcDbEntity
  8
LAYER_1
  6
Continuous
 62
     7
100
AcDbLine
 10
141.562967253075
 20
114.3865287515209
 30
0.0
 11
143.562967253075
 21
114.3865287515209
 31
0.0
  0
LINE
  5
1C0
330
A
100
AcDbEntity
  8
LAYER_1
  6
Continuous
 62
     7
100
AcDbLine
 10
143.562967253075
 20
114.3865287515209
 30
0.0
 11
143.562967253075
 21
104.3865287515209
 31
0.0
  0
LINE
  5
1C1
330
A
100
AcDbEntity
  8
LAYER_1
  6
Continuous
 62
     7
100
AcDbLine
 10
143.562967253075
 20
104.3865287515209
 30
0.0
 11
141.562967253075
 21
104.3865287515209
 31
0.0
  0
LINE
  5
1C2
330
A
100
AcDbEntity
  8
LAYER_1
  6
Continuous
 62
     7
100
AcDbLine
 10
141.562967253075
 20
104.3865287515209
 30
0.0
 11
141.562967253075
 21
114.3865287515209
 31
0.0
  0
LINE
  5
1C3
330
A
100
AcDbEntity
  8
LAYER_1
  6
Continuous
 62
     7
100
AcDbLine
 10
145.562967253075
 20
114.3865287515209
 30
0.0
 11
147.562967253075
 21
114.3865287515209
 31
0.0
  0
LINE
  5
1C4
330
A
100
AcDbEntity
  8
LAYER_1
  6
Continuous
 62
     7
100
AcDbLine
 10
157.562967253075
 20
114.3865287515209
 30
0.0
 11
157.562967253075
 21
104.3865287515209
 31
0.0
  0
LINE
  5
1C5
330
A
100
AcDbEntity
  8
LAYER_1
  6
Continuous
 62
     7
100
AcDbLine
 10
147.562967253075
 20
104.3865287515209
 30
0.0
 11
145.562967253075
 21
104.3865287515209
 31
0.0
  0
LINE
  5
1C6
330
A
100
AcDbEntity
  8
LAYER_1
  6
Continuous
 62
     7
100
AcDbLine
 10
145.562967253075
 20
104.3865287515209
 30
0.0
 11
145.562967253075
 21
114.3865287515209
 31
0.0
  0
LINE
  5
1C7
330
A
100
AcDbEntity
  8
LAYER_1
  6
Continuous
 62
     7
100
AcDbLine
 10
145.562967253075
 20
129.3865287515209
 30
0.0
 11
147.562967253075
 21
129.3865287515209
 31
0.0
  0
LINE
  5
1C8
330
A
100
AcDbEntity
  8
LAYER_1
  6
Continuous
 62
     7
100
AcDbLine
 10
157.562967253075
 20
129.3865287515209
 30
0.0
 11
157.562967253075
 21
119.386528751521
 31
0.0
  0
LINE
  5
1C9
330
A
100
AcDbEntity
  8
LAYER_1
  6
Continuous
 62
     7
100
AcDbLine
 10
147.562967253075
 20
119.386528751521
 30
0.0
 11
145.562967253075
 21
119.386528751521
 31
0.0
  0
LINE
  5
1CA
330
A
100
AcDbEntity
  8
LAYER_1
  6
Continuous
 62
     7
100
AcDbLine
 10
145.562967253075
 20
119.386528751521
 30
0.0
 11
145.562967253075
 21
129.3865287515209
 31
0.0
  0
LINE
  5
1CB
330
A
100
AcDbEntity
  8
LAYER_1
  6
Continuous
 62
     7
100
AcDbLine
 10
125.562967253075
 20
144.3865287515209
 30
0.0
 11
127.562967253075
 21
144.3865287515209
 31
0.0
  0
LINE
  5
1CC
330
A
100
AcDbEntity
  8
LAYER_1
  6
Continuous
 62
     7
100
AcDbLine
 10
127.562967253075
 20
144.3865287515209
 30
0.0
 11
127.562967253075
 21
134.3865287515209
 31
0.0
  0
LINE
  5
1CD
330
A
100
AcDbEntity
  8
LAYER_1
  6
Continuous
 62
     7
100
AcDbLine
 10
127.562967253075
 20
134.3865287515209
 30
0.0
 11
125.562967253075
 21
134.3865287515209
 31
0.0
  0
LINE
  5
1CE
330
A
100
AcDbEntity
  8
LAYER_1
  6
Continuous
 62
     7
100
AcDbLine
 10
125.562967253075
 20
134.3865287515209
 30
0.0
 11
125.562967253075
 21
144.3865287515209
 31
0.0
  0
LINE
  5
1CF
330
A
100
AcDbEntity
  8
LAYER_1
  6
Continuous
 62
     7
100
AcDbLine
 10
129.562967253075
 20
144.3865287515209
 30
0.0
 11
131.562967253075
 21
144.3865287515209
 31
0.0
  0
LINE
  5
1D0
330
A
100
AcDbEntity
  8
LAYER_1
  6
Continuous
 62
     7
100
AcDbLine
 10
131.562967253075
 20
144.3865287515209
 30
0.0
 11
131.562967253075
 21
134.3865287515209
 31
0.0
  0
LINE
  5
1D1
330
A
100
AcDbEntity
  8
LAYER_1
  6
Continuous
 62
     7
100
AcDbLine
 10
131.562967253075
 20
134.3865287515209
 30
0.0
 11
129.562967253075
 21
134.3865287515209
 31
0.0
  0
LINE
  5
1D2
330
A
100
AcDbEntity
  8
LAYER_1
  6
Continuous
 62
     7
100
AcDbLine
 10
129.562967253075
 20
134.3865287515209
 30
0.0
 11
129.562967253075
 21
144.3865287515209
 31
0.0
  0
LINE
  5
1D3
330
A
100
AcDbEntity
  8
LAYER_1
  6
Continuous
 62
     7
100
AcDbLine
 10
133.562967253075
 20
144.3865287515209
 30
0.0
 11
135.562967253075
 21
144.3865287515209
 31
0.0
  0
LINE
  5
1D4
330
A
100
AcDbEntity
  8
LAYER_1
  6
Continuous
 62
     7
100
AcDbLine
 10
135.562967253075
 20
144.3865287515209
 30
0.0
 11
135.562967253075
 21
134.3865287515209
 31
0.0
  0
LINE
  5
1D5
330
A
100
AcDbEntity
  8
LAYER_1
  6
Continuous
 62
     7
100
AcDbLine
 10
135.562967253075
 20
134.3865287515209
 30
0.0
 11
133.562967253075
 21
134.3865287515209
 31
0.0
  0
LINE
  5
1D6
330
A
100
AcDbEntity
  8
LAYER_1
  6
Continuous
 62
     7
100
AcDbLine
 10
133.562967253075
 20
134.3865287515209
 30
0.0
 11
133.562967253075
 21
144.3865287515209
 31
0.0
  0
LINE
  5
1D7
330
A
100
AcDbEntity
  8
LAYER_1
  6
Continuous
 62
     7
100
AcDbLine
 10
137.562967253075
 20
144.3865287515209
 30
0.0
 11
139.562967253075
 21
144.3865287515209
 31
0.0
  0
LINE
  5
1D8
330
A
100
AcDbEntity
  8
LAYER_1
  6
Continuous
 62
     7
100
AcDbLine
 10
139.562967253075
 20
144.3865287515209
 30
0.0
 11
139.562967253075
 21
134.3865287515209
 31
0.0
  0
LINE
  5
1D9
330
A
100
AcDbEntity
  8
LAYER_1
  6
Continuous
 62
     7
100
AcDbLine
 10
139.562967253075
 20
134.3865287515209
 30
0.0
 11
137.562967253075
 21
134.3865287515209
 31
0.0
  0
LINE
  5
1DA
330
A
100
AcDbEntity
  8
LAYER_1
  6
Continuous
 62
     7
100
AcDbLine
 10
137.562967253075
 20
134.3865287515209
 30
0.0
 11
137.562967253075
 21
144.3865287515209
 31
0.0
  0
LINE
  5
1DB
330
A
100
AcDbEntity
  8
LAYER_1
  6
Continuous
 62
     7
100
AcDbLine
 10
141.562967253075
 20
144.3865287515209
 30
0.0
 11
143.562967253075
 21
144.3865287515209
 31
0.0
  0
LINE
  5
1DC
330
A
100
AcDbEntity
  8
LAYER_1
  6
Continuous
 62
     7
100
AcDbLine
 10
143.562967253075
 20
144.3865287515209
 30
0.0
 11
143.562967253075
 21
134.3865287515209
 31
0.0
  0
LINE
  5
1DD
330
A
100
AcDbEntity
  8
LAYER_1
  6
Continuous
 62
     7
100
AcDbLine
 10
143.562967253075
 20
134.3865287515209
 30
0.0
 11
141.562967253075
 21
134.3865287515209
 31
0.0
  0
LINE
  5
1DE
330
A
100
AcDbEntity
  8
LAYER_1
  6
Continuous
 62
     7
100
AcDbLine
 10
141.562967253075
 20
134.3865287515209
 30
0.0
 11
141.562967253075
 21
144.3865287515209
 31
0.0
  0
LINE
  5
1DF
330
A
100
AcDbEntity
  8
LAYER_1
  6
Continuous
 62
     7
100
AcDbLine
 10
145.562967253075
 20
144.3865287515209
 30
0.0
 11
147.562967253075
 21
144.3865287515209
 31
0.0
  0
LINE
  5
1E0
330
A
100
AcDbEntity
  8
LAYER_1
  6
Continuous
 62
     7
100
AcDbLine
 10
157.562967253075
 20
144.3865287515209
 30
0.0
 11
157.562967253075
 21
134.3865287515209
 31
0.0
  0
LINE
  5
1E1
330
A
100
AcDbEntity
  8
LAYER_1
  6
Continuous
 62
     7
100
AcDbLine
 10
147.562967253075
 20
134.3865287515209
 30
0.0
 11
145.562967253075
 21
134.3865287515209
 31
0.0
  0
LINE
  5
1E2
330
A
100
AcDbEntity
  8
LAYER_1
  6
Continuous
 62
     7
100
AcDbLine
 10
145.562967253075
 20
134.3865287515209
 30
0.0
 11
145.562967253075
 21
144.3865287515209
 31
0.0
  0
LINE
  5
1E3
330
A
100
AcDbEntity
  8
LAYER_1
  6
Continuous
 62
     7
100
AcDbLine
 10
191.562967253075
 20
144.3865287515209
 30
0.0
 11
189.5629672530749
 21
144.3865287515209
 31
0.0
  0
LINE
  5
1E4
330
A
100
AcDbEntity
  8
LAYER_1
  6
Continuous
 62
     7
100
AcDbLine
 10
189.5629672530749
 20
144.3865287515209
 30
0.0
 11
189.5629672530749
 21
134.3865287515209
 31
0.0
  0
LINE
  5
1E5
330
A
100
AcDbEntity
  8
LAYER_1
  6
Continuous
 62
     7
100
AcDbLine
 10
189.5629672530749
 20
134.3865287515209
 30
0.0
 11
191.562967253075
 21
134.3865287515209
 31
0.0
  0
LINE
  5
1E6
330
A
100
AcDbEntity
  8
LAYER_1
  6
Continuous
 62
     7
100
AcDbLine
 10
191.562967253075
 20
134.3865287515209
 30
0.0
 11
191.562967253075
 21
144.3865287515209
 31
0.0
  0
LINE
  5
1E7
330
A
100
AcDbEntity
  8
LAYER_1
  6
Continuous
 62
     7
100
AcDbLine
 10
191.562967253075
 20
129.3865287515209
 30
0.0
 11
189.5629672530749
 21
129.3865287515209
 31
0.0
  0
LINE
  5
1E8
330
A
100
AcDbEntity
  8
LAYER_1
  6
Continuous
 62
     7
100
AcDbLine
 10
189.5629672530749
 20
129.3865287515209
 30
0.0
 11
189.5629672530749
 21
119.386528751521
 31
0.0
  0
LINE
  5
1E9
330
A
100
AcDbEntity
  8
LAYER_1
  6
Continuous
 62
     7
100
AcDbLine
 10
189.5629672530749
 20
119.386528751521
 30
0.0
 11
191.562967253075
 21
119.386528751521
 31
0.0
  0
LINE
  5
1EA
330
A
100
AcDbEntity
  8
LAYER_1
  6
Continuous
 62
     7
100
AcDbLine
 10
191.562967253075
 20
119.386528751521
 30
0.0
 11
191.562967253075
 21
129.3865287515209
 31
0.0
  0
LINE
  5
1EB
330
A
100
AcDbEntity
  8
LAYER_1
  6
Continuous
 62
     7
100
AcDbLine
 10
191.562967253075
 20
114.3865287515209
 30
0.0
 11
189.5629672530749
 21
114.3865287515209
 31
0.0
  0
LINE
  5
1EC
330
A
100
AcDbEntity
  8
LAYER_1
  6
Continuous
 62
     7
100
AcDbLine
 10
189.5629672530749
 20
114.3865287515209
 30
0.0
 11
189.5629672530749
 21
104.3865287515209
 31
0.0
  0
LINE
  5
1ED
330
A
100
AcDbEntity
  8
LAYER_1
  6
Continuous
 62
     7
100
AcDbLine
 10
189.5629672530749
 20
104.3865287515209
 30
0.0
 11
191.562967253075
 21
104.3865287515209
 31
0.0
  0
LINE
  5
1EE
330
A
100
AcDbEntity
  8
LAYER_1
  6
Continuous
 62
     7
100
AcDbLine
 10
191.562967253075
 20
104.3865287515209
 30
0.0
 11
191.562967253075
 21
114.3865287515209
 31
0.0
  0
LINE
  5
1EF
330
A
100
AcDbEntity
  8
LAYER_1
  6
Continuous
 62
     7
100
AcDbLine
 10
187.562967253075
 20
129.3865287515209
 30
0.0
 11
185.5629672530749
 21
129.3865287515209
 31
0.0
  0
LINE
  5
1F0
330
A
100
AcDbEntity
  8
LAYER_1
  6
Continuous
 62
     7
100
AcDbLine
 10
185.5629672530749
 20
129.3865287515209
 30
0.0
 11
185.5629672530749
 21
119.386528751521
 31
0.0
  0
LINE
  5
1F1
330
A
100
AcDbEntity
  8
LAYER_1
  6
Continuous
 62
     7
100
AcDbLine
 10
185.5629672530749
 20
119.386528751521
 30
0.0
 11
187.562967253075
 21
119.386528751521
 31
0.0
  0
LINE
  5
1F2
330
A
100
AcDbEntity
  8
LAYER_1
  6
Continuous
 62
     7
100
AcDbLine
 10
187.562967253075
 20
119.386528751521
 30
0.0
 11
187.562967253075
 21
129.3865287515209
 31
0.0
  0
LINE
  5
1F3
330
A
100
AcDbEntity
  8
LAYER_1
  6
Continuous
 62
     7
100
AcDbLine
 10
183.5629672530749
 20
129.3865287515209
 30
0.0
 11
181.5629672530749
 21
129.3865287515209
 31
0.0
  0
LINE
  5
1F4
330
A
100
AcDbEntity
  8
LAYER_1
  6
Continuous
 62
     7
100
AcDbLine
 10
181.5629672530749
 20
129.3865287515209
 30
0.0
 11
181.5629672530749
 21
119.386528751521
 31
0.0
  0
LINE
  5
1F5
330
A
100
AcDbEntity
  8
LAYER_1
  6
Continuous
 62
     7
100
AcDbLine
 10
181.5629672530749
 20
119.386528751521
 30
0.0
 11
183.5629672530749
 21
119.386528751521
 31
0.0
  0
LINE
  5
1F6
330
A
100
AcDbEntity
  8
LAYER_1
  6
Continuous
 62
     7
100
AcDbLine
 10
183.5629672530749
 20
119.386528751521
 30
0.0
 11
183.5629672530749
 21
129.3865287515209
 31
0.0
  0
LINE
  5
1F7
330
A
100
AcDbEntity
  8
LAYER_1
  6
Continuous
 62
     7
100
AcDbLine
 10
179.5629672530749
 20
129.3865287515209
 30
0.0
 11
177.5629672530749
 21
129.3865287515209
 31
0.0
  0
LINE
  5
1F8
330
A
100
AcDbEntity
  8
LAYER_1
  6
Continuous
 62
     7
100
AcDbLine
 10
177.5629672530749
 20
129.3865287515209
 30
0.0
 11
177.5629672530749
 21
119.386528751521
 31
0.0
  0
LINE
  5
1F9
330
A
100
AcDbEntity
  8
LAYER_1
  6
Continuous
 62
     7
100
AcDbLine
 10
177.5629672530749
 20
119.386528751521
 30
0.0
 11
179.5629672530749
 21
119.386528751521
 31
0.0
  0
LINE
  5
1FA
330
A
100
AcDbEntity
  8
LAYER_1
  6
Continuous
 62
     7
100
AcDbLine
 10
179.5629672530749
 20
119.386528751521
 30
0.0
 11
179.5629672530749
 21
129.3865287515209
 31
0.0
  0
LINE
  5
1FB
330
A
100
AcDbEntity
  8
LAYER_1
  6
Continuous
 62
     7
100
AcDbLine
 10
175.5629672530749
 20
129.3865287515209
 30
0.0
 11
173.5629672530749
 21
129.3865287515209
 31
0.0
  0
LINE
  5
1FC
330
A
100
AcDbEntity
  8
LAYER_1
  6
Continuous
 62
     7
100
AcDbLine
 10
173.5629672530749
 20
129.3865287515209
 30
0.0
 11
173.5629672530749
 21
119.386528751521
 31
0.0
  0
LINE
  5
1FD
330
A
100
AcDbEntity
  8
LAYER_1
  6
Continuous
 62
     7
100
AcDbLine
 10
173.5629672530749
 20
119.386528751521
 30
0.0
 11
175.5629672530749
 21
119.386528751521
 31
0.0
  0
LINE
  5
1FE
330
A
100
AcDbEntity
  8
LAYER_1
  6
Continuous
 62
     7
100
AcDbLine
 10
175.5629672530749
 20
119.386528751521
 30
0.0
 11
175.5629672530749
 21
129.3865287515209
 31
0.0
  0
LINE
  5
1FF
330
A
100
AcDbEntity
  8
LAYER_1
  6
Continuous
 62
     7
100
AcDbLine
 10
171.562967253075
 20
129.3865287515209
 30
0.0
 11
169.562967253075
 21
129.3865287515209
 31
0.0
  0
LINE
  5
200
330
A
100
AcDbEntity
  8
LAYER_1
  6
Continuous
 62
     7
100
AcDbLine
 10
169.562967253075
 20
129.3865287515209
 30
0.0
 11
169.562967253075
 21
119.386528751521
 31
0.0
  0
LINE
  5
201
330
A
100
AcDbEntity
  8
LAYER_1
  6
Continuous
 62
     7
100
AcDbLine
 10
169.562967253075
 20
119.386528751521
 30
0.0
 11
171.562967253075
 21
119.386528751521
 31
0.0
  0
LINE
  5
202
330
A
100
AcDbEntity
  8
LAYER_1
  6
Continuous
 62
     7
100
AcDbLine
 10
171.562967253075
 20
119.386528751521
 30
0.0
 11
171.562967253075
 21
129.3865287515209
 31
0.0
  0
LINE
  5
203
330
A
100
AcDbEntity
  8
LAYER_1
  6
Continuous
 62
     7
100
AcDbLine
 10
167.562967253075
 20
129.3865287515209
 30
0.0
 11
165.562967253075
 21
129.3865287515209
 31
0.0
  0
LINE
  5
204
330
A
100
AcDbEntity
  8
LAYER_1
  6
Continuous
 62
     7
100
AcDbLine
 10
165.562967253075
 20
129.3865287515209
 30
0.0
 11
165.562967253075
 21
119.386528751521
 31
0.0
  0
LINE
  5
205
330
A
100
AcDbEntity
  8
LAYER_1
  6
Continuous
 62
     7
100
AcDbLine
 10
165.562967253075
 20
119.386528751521
 30
0.0
 11
167.562967253075
 21
119.386528751521
 31
0.0
  0
LINE
  5
206
330
A
100
AcDbEntity
  8
LAYER_1
  6
Continuous
 62
     7
100
AcDbLine
 10
167.562967253075
 20
119.386528751521
 30
0.0
 11
167.562967253075
 21
129.3865287515209
 31
0.0
  0
LINE
  5
207
330
A
100
AcDbEntity
  8
LAYER_1
  6
Continuous
 62
     7
100
AcDbLine
 10
163.562967253075
 20
129.3865287515209
 30
0.0
 11
161.562967253075
 21
129.3865287515209
 31
0.0
  0
LINE
  5
208
330
A
100
AcDbEntity
  8
LAYER_1
  6
Continuous
 62
     7
100
AcDbLine
 10
161.562967253075
 20
129.3865287515209
 30
0.0
 11
161.562967253075
 21
119.386528751521
 31
0.0
  0
LINE
  5
209
330
A
100
AcDbEntity
  8
LAYER_1
  6
Continuous
 62
     7
100
AcDbLine
 10
161.562967253075
 20
119.386528751521
 30
0.0
 11
163.562967253075
 21
119.386528751521
 31
0.0
  0
LINE
  5
20A
330
A
100
AcDbEntity
  8
LAYER_1
  6
Continuous
 62
     7
100
AcDbLine
 10
163.562967253075
 20
119.386528751521
 30
0.0
 11
163.562967253075
 21
129.3865287515209
 31
0.0
  0
LINE
  5
20B
330
A
100
AcDbEntity
  8
LAYER_1
  6
Continuous
 62
     7
100
AcDbLine
 10
187.562967253075
 20
114.3865287515209
 30
0.0
 11
185.5629672530749
 21
114.3865287515209
 31
0.0
  0
LINE
  5
20C
330
A
100
AcDbEntity
  8
LAYER_1
  6
Continuous
 62
     7
100
AcDbLine
 10
185.5629672530749
 20
114.3865287515209
 30
0.0
 11
185.5629672530749
 21
104.3865287515209
 31
0.0
  0
LINE
  5
20D
330
A
100
AcDbEntity
  8
LAYER_1
  6
Continuous
 62
     7
100
AcDbLine
 10
185.5629672530749
 20
104.3865287515209
 30
0.0
 11
187.562967253075
 21
104.3865287515209
 31
0.0
  0
LINE
  5
20E
330
A
100
AcDbEntity
  8
LAYER_1
  6
Continuous
 62
     7
100
AcDbLine
 10
187.562967253075
 20
104.3865287515209
 30
0.0
 11
187.562967253075
 21
114.3865287515209
 31
0.0
  0
LINE
  5
20F
330
A
100
AcDbEntity
  8
LAYER_1
  6
Continuous
 62
     7
100
AcDbLine
 10
183.5629672530749
 20
114.3865287515209
 30
0.0
 11
181.5629672530749
 21
114.3865287515209
 31
0.0
  0
LINE
  5
210
330
A
100
AcDbEntity
  8
LAYER_1
  6
Continuous
 62
     7
100
AcDbLine
 10
181.5629672530749
 20
114.3865287515209
 30
0.0
 11
181.5629672530749
 21
104.3865287515209
 31
0.0
  0
LINE
  5
211
330
A
100
AcDbEntity
  8
LAYER_1
  6
Continuous
 62
     7
100
AcDbLine
 10
181.5629672530749
 20
104.3865287515209
 30
0.0
 11
183.5629672530749
 21
104.3865287515209
 31
0.0
  0
LINE
  5
212
330
A
100
AcDbEntity
  8
LAYER_1
  6
Continuous
 62
     7
100
AcDbLine
 10
183.5629672530749
 20
104.3865287515209
 30
0.0
 11
183.5629672530749
 21
114.3865287515209
 31
0.0
  0
LINE
  5
213
330
A
100
AcDbEntity
  8
LAYER_1
  6
Continuous
 62
     7
100
AcDbLine
 10
179.5629672530749
 20
114.3865287515209
 30
0.0
 11
177.5629672530749
 21
114.3865287515209
 31
0.0
  0
LINE
  5
214
330
A
100
AcDbEntity
  8
LAYER_1
  6
Continuous
 62
     7
100
AcDbLine
 10
177.5629672530749
 20
114.3865287515209
 30
0.0
 11
177.5629672530749
 21
104.3865287515209
 31
0.0
  0
LINE
  5
215
330
A
100
AcDbEntity
  8
LAYER_1
  6
Continuous
 62
     7
100
AcDbLine
 10
177.5629672530749
 20
104.3865287515209
 30
0.0
 11
179.5629672530749
 21
104.3865287515209
 31
0.0
  0
LINE
  5
216
330
A
100
AcDbEntity
  8
LAYER_1
  6
Continuous
 62
     7
100
AcDbLine
 10
179.5629672530749
 20
104.3865287515209
 30
0.0
 11
179.5629672530749
 21
114.3865287515209
 31
0.0
  0
LINE
  5
217
330
A
100
AcDbEntity
  8
LAYER_1
  6
Continuous
 62
     7
100
AcDbLine
 10
175.5629672530749
 20
114.3865287515209
 30
0.0
 11
173.5629672530749
 21
114.3865287515209
 31
0.0
  0
LINE
  5
218
330
A
100
AcDbEntity
  8
LAYER_1
  6
Continuous
 62
     7
100
AcDbLine
 10
173.5629672530749
 20
114.3865287515209
 30
0.0
 11
173.5629672530749
 21
104.3865287515209
 31
0.0
  0
LINE
  5
219
330
A
100
AcDbEntity
  8
LAYER_1
  6
Continuous
 62
     7
100
AcDbLine
 10
173.5629672530749
 20
104.3865287515209
 30
0.0
 11
175.5629672530749
 21
104.3865287515209
 31
0.0
  0
LINE
  5
21A
330
A
100
AcDbEntity
  8
LAYER_1
  6
Continuous
 62
     7
100
AcDbLine
 10
175.5629672530749
 20
104.3865287515209
 30
0.0
 11
175.5629672530749
 21
114.3865287515209
 31
0.0
  0
LINE
  5
21B
330
A
100
AcDbEntity
  8
LAYER_1
  6
Continuous
 62
     7
100
AcDbLine
 10
171.562967253075
 20
114.3865287515209
 30
0.0
 11
169.562967253075
 21
114.3865287515209
 31
0.0
  0
LINE
  5
21C
330
A
100
AcDbEntity
  8
LAYER_1
  6
Continuous
 62
     7
100
AcDbLine
 10
169.562967253075
 20
114.3865287515209
 30
0.0
 11
169.562967253075
 21
104.3865287515209
 31
0.0
  0
LINE
  5
21D
330
A
100
AcDbEntity
  8
LAYER_1
  6
Continuous
 62
     7
100
AcDbLine
 10
169.562967253075
 20
104.3865287515209
 30
0.0
 11
171.562967253075
 21
104.3865287515209
 31
0.0
  0
LINE
  5
21E
330
A
100
AcDbEntity
  8
LAYER_1
  6
Continuous
 62
     7
100
AcDbLine
 10
171.562967253075
 20
104.3865287515209
 30
0.0
 11
171.562967253075
 21
114.3865287515209
 31
0.0
  0
LINE
  5
21F
330
A
100
AcDbEntity
  8
LAYER_1
  6
Continuous
 62
     7
100
AcDbLine
 10
167.562967253075
 20
114.3865287515209
 30
0.0
 11
165.562967253075
 21
114.3865287515209
 31
0.0
  0
LINE
  5
220
330
A
100
AcDbEntity
  8
LAYER_1
  6
Continuous
 62
     7
100
AcDbLine
 10
165.562967253075
 20
114.3865287515209
 30
0.0
 11
165.562967253075
 21
104.3865287515209
 31
0.0
  0
LINE
  5
221
330
A
100
AcDbEntity
  8
LAYER_1
  6
Continuous
 62
     7
100
AcDbLine
 10
165.562967253075
 20
104.3865287515209
 30
0.0
 11
167.562967253075
 21
104.3865287515209
 31
0.0
  0
LINE
  5
222
330
A
100
AcDbEntity
  8
LAYER_1
  6
Continuous
 62
     7
100
AcDbLine
 10
167.562967253075
 20
104.3865287515209
 30
0.0
 11
167.562967253075
 21
114.3865287515209
 31
0.0
  0
LINE
  5
223
330
A
100
AcDbEntity
  8
LAYER_1
  6
Continuous
 62
     7
100
AcDbLine
 10
163.562967253075
 20
114.3865287515209
 30
0.0
 11
161.562967253075
 21
114.3865287515209
 31
0.0
  0
LINE
  5
224
330
A
100
AcDbEntity
  8
LAYER_1
  6
Continuous
 62
     7
100
AcDbLine
 10
161.562967253075
 20
114.3865287515209
 30
0.0
 11
161.562967253075
 21
104.3865287515209
 31
0.0
  0
LINE
  5
225
330
A
100
AcDbEntity
  8
LAYER_1
  6
Continuous
 62
     7
100
AcDbLine
 10
161.562967253075
 20
104.3865287515209
 30
0.0
 11
163.562967253075
 21
104.3865287515209
 31
0.0
  0
LINE
  5
226
330
A
100
AcDbEntity
  8
LAYER_1
  6
Continuous
 62
     7
100
AcDbLine
 10
163.562967253075
 20
104.3865287515209
 30
0.0
 11
163.562967253075
 21
114.3865287515209
 31
0.0
  0
LINE
  5
227
330
A
100
AcDbEntity
  8
LAYER_1
  6
Continuous
 62
     7
100
AcDbLine
 10
159.562967253075
 20
114.3865287515209
 30
0.0
 11
157.562967253075
 21
114.3865287515209
 31
0.0
  0
LINE
  5
228
330
A
100
AcDbEntity
  8
LAYER_1
  6
Continuous
 62
     7
100
AcDbLine
 10
157.562967253075
 20
104.3865287515209
 30
0.0
 11
159.562967253075
 21
104.3865287515209
 31
0.0
  0
LINE
  5
229
330
A
100
AcDbEntity
  8
LAYER_1
  6
Continuous
 62
     7
100
AcDbLine
 10
159.562967253075
 20
104.3865287515209
 30
0.0
 11
159.562967253075
 21
114.3865287515209
 31
0.0
  0
LINE
  5
22A
330
A
100
AcDbEntity
  8
LAYER_1
  6
Continuous
 62
     7
100
AcDbLine
 10
159.562967253075
 20
129.3865287515209
 30
0.0
 11
157.562967253075
 21
129.3865287515209
 31
0.0
  0
LINE
  5
22B
330
A
100
AcDbEntity
  8
LAYER_1
  6
Continuous
 62
     7
100
AcDbLine
 10
157.562967253075
 20
119.386528751521
 30
0.0
 11
159.562967253075
 21
119.386528751521
 31
0.0
  0
LINE
  5
22C
330
A
100
AcDbEntity
  8
LAYER_1
  6
Continuous
 62
     7
100
AcDbLine
 10
159.562967253075
 20
119.386528751521
 30
0.0
 11
159.562967253075
 21
129.3865287515209
 31
0.0
  0
LINE
  5
22D
330
A
100
AcDbEntity
  8
LAYER_1
  6
Continuous
 62
     7
100
AcDbLine
 10
179.5629672530749
 20
144.3865287515209
 30
0.0
 11
177.5629672530749
 21
144.3865287515209
 31
0.0
  0
LINE
  5
22E
330
A
100
AcDbEntity
  8
LAYER_1
  6
Continuous
 62
     7
100
AcDbLine
 10
177.5629672530749
 20
144.3865287515209
 30
0.0
 11
177.5629672530749
 21
134.3865287515209
 31
0.0
  0
LINE
  5
22F
330
A
100
AcDbEntity
  8
LAYER_1
  6
Continuous
 62
     7
100
AcDbLine
 10
177.5629672530749
 20
134.3865287515209
 30
0.0
 11
179.5629672530749
 21
134.3865287515209
 31
0.0
  0
LINE
  5
230
330
A
100
AcDbEntity
  8
LAYER_1
  6
Continuous
 62
     7
100
AcDbLine
 10
179.5629672530749
 20
134.3865287515209
 30
0.0
 11
179.5629672530749
 21
144.3865287515209
 31
0.0
  0
LINE
  5
231
330
A
100
AcDbEntity
  8
LAYER_1
  6
Continuous
 62
     7
100
AcDbLine
 10
175.5629672530749
 20
144.3865287515209
 30
0.0
 11
173.5629672530749
 21
144.3865287515209
 31
0.0
  0
LINE
  5
232
330
A
100
AcDbEntity
  8
LAYER_1
  6
Continuous
 62
     7
100
AcDbLine
 10
173.5629672530749
 20
144.3865287515209
 30
0.0
 11
173.5629672530749
 21
134.3865287515209
 31
0.0
  0
LINE
  5
233
330
A
100
AcDbEntity
  8
LAYER_1
  6
Continuous
 62
     7
100
AcDbLine
 10
173.5629672530749
 20
134.3865287515209
 30
0.0
 11
175.5629672530749
 21
134.3865287515209
 31
0.0
  0
LINE
  5
234
330
A
100
AcDbEntity
  8
LAYER_1
  6
Continuous
 62
     7
100
AcDbLine
 10
175.5629672530749
 20
134.3865287515209
 30
0.0
 11
175.5629672530749
 21
144.3865287515209
 31
0.0
  0
LINE
  5
235
330
A
100
AcDbEntity
  8
LAYER_1
  6
Continuous
 62
     7
100
AcDbLine
 10
171.562967253075
 20
144.3865287515209
 30
0.0
 11
169.562967253075
 21
144.3865287515209
 31
0.0
  0
LINE
  5
236
330
A
100
AcDbEntity
  8
LAYER_1
  6
Continuous
 62
     7
100
AcDbLine
 10
169.562967253075
 20
144.3865287515209
 30
0.0
 11
169.562967253075
 21
134.3865287515209
 31
0.0
  0
LINE
  5
237
330
A
100
AcDbEntity
  8
LAYER_1
  6
Continuous
 62
     7
100
AcDbLine
 10
169.562967253075
 20
134.3865287515209
 30
0.0
 11
171.562967253075
 21
134.3865287515209
 31
0.0
  0
LINE
  5
238
330
A
100
AcDbEntity
  8
LAYER_1
  6
Continuous
 62
     7
100
AcDbLine
 10
171.562967253075
 20
134.3865287515209
 30
0.0
 11
171.562967253075
 21
144.3865287515209
 31
0.0
  0
LINE
  5
239
330
A
100
AcDbEntity
  8
LAYER_1
  6
Continuous
 62
     7
100
AcDbLine
 10
167.562967253075
 20
144.3865287515209
 30
0.0
 11
165.562967253075
 21
144.3865287515209
 31
0.0
  0
LINE
  5
23A
330
A
100
AcDbEntity
  8
LAYER_1
  6
Continuous
 62
     7
100
AcDbLine
 10
165.562967253075
 20
144.3865287515209
 30
0.0
 11
165.562967253075
 21
134.3865287515209
 31
0.0
  0
LINE
  5
23B
330
A
100
AcDbEntity
  8
LAYER_1
  6
Continuous
 62
     7
100
AcDbLine
 10
165.562967253075
 20
134.3865287515209
 30
0.0
 11
167.562967253075
 21
134.3865287515209
 31
0.0
  0
LINE
  5
23C
330
A
100
AcDbEntity
  8
LAYER_1
  6
Continuous
 62
     7
100
AcDbLine
 10
167.562967253075
 20
134.3865287515209
 30
0.0
 11
167.562967253075
 21
144.3865287515209
 31
0.0
  0
LINE
  5
23D
330
A
100
AcDbEntity
  8
LAYER_1
  6
Continuous
 62
     7
100
AcDbLine
 10
163.562967253075
 20
144.3865287515209
 30
0.0
 11
161.562967253075
 21
144.3865287515209
 31
0.0
  0
LINE
  5
23E
330
A
100
AcDbEntity
  8
LAYER_1
  6
Continuous
 62
     7
100
AcDbLine
 10
161.562967253075
 20
144.3865287515209
 30
0.0
 11
161.562967253075
 21
134.3865287515209
 31
0.0
  0
LINE
  5
23F
330
A
100
AcDbEntity
  8
LAYER_1
  6
Continuous
 62
     7
100
AcDbLine
 10
161.562967253075
 20
134.3865287515209
 30
0.0
 11
163.562967253075
 21
134.3865287515209
 31
0.0
  0
LINE
  5
240
330
A
100
AcDbEntity
  8
LAYER_1
  6
Continuous
 62
     7
100
AcDbLine
 10
163.562967253075
 20
134.3865287515209
 30
0.0
 11
163.562967253075
 21
144.3865287515209
 31
0.0
  0
LINE
  5
241
330
A
100
AcDbEntity
  8
LAYER_1
  6
Continuous
 62
     7
100
AcDbLine
 10
159.562967253075
 20
144.3865287515209
 30
0.0
 11
157.562967253075
 21
144.3865287515209
 31
0.0
  0
LINE
  5
242
330
A
100
AcDbEntity
  8
LAYER_1
  6
Continuous
 62
     7
100
AcDbLine
 10
157.562967253075
 20
134.3865287515209
 30
0.0
 11
159.562967253075
 21
134.3865287515209
 31
0.0
  0
LINE
  5
243
330
A
100
AcDbEntity
  8
LAYER_1
  6
Continuous
 62
     7
100
AcDbLine
 10
159.562967253075
 20
134.3865287515209
 30
0.0
 11
159.562967253075
 21
144.3865287515209
 31
0.0
  0
LINE
  5
244
330
A
100
AcDbEntity
  8
LAYER_1
  6
Continuous
 62
     7
100
AcDbLine
 10
147.562967253075
 20
144.3865287515209
 30
0.0
 11
147.562967253075
 21
134.3865287515209
 31
0.0
  0
LINE
  5
245
330
A
100
AcDbEntity
  8
LAYER_1
  6
Continuous
 62
     7
100
AcDbLine
 10
147.562967253075
 20
129.3865287515209
 30
0.0
 11
147.562967253075
 21
119.386528751521
 31
0.0
  0
LINE
  5
246
330
A
100
AcDbEntity
  8
LAYER_1
  6
Continuous
 62
     7
100
AcDbLine
 10
147.562967253075
 20
114.3865287515209
 30
0.0
 11
147.562967253075
 21
104.3865287515209
 31
0.0
  0
LINE
  5
247
330
A
100
AcDbEntity
  8
LAYER_1
  6
Continuous
 62
     7
100
AcDbLine
 10
337.493910767351
 20
154.8865287515209
 30
0.0
 11
351.493910767351
 21
154.8865287515209
 31
0.0
  0
LINE
  5
248
330
A
100
AcDbEntity
  8
LAYER_1
  6
Continuous
 62
     7
100
AcDbLine
 10
351.493910767351
 20
154.8865287515209
 30
0.0
 11
351.493910767351
 21
86.386528751521
 31
0.0
  0
LINE
  5
249
330
A
100
AcDbEntity
  8
LAYER_1
  6
Continuous
 62
     7
100
AcDbLine
 10
351.493910767351
 20
86.386528751521
 30
0.0
 11
357.493910767351
 21
86.386528751521
 31
0.0
  0
LINE
  5
24A
330
A
100
AcDbEntity
  8
LAYER_1
  6
Continuous
 62
     7
100
AcDbLine
 10
357.493910767351
 20
86.386528751521
 30
0.0
 11
357.493910767351
 21
136.3865287515209
 31
0.0
  0
LINE
  5
24B
330
A
100
AcDbEntity
  8
LAYER_1
  6
Continuous
 62
     7
100
AcDbLine
 10
357.493910767351
 20
136.3865287515209
 30
0.0
 11
371.4939107673509
 21
136.3865287515209
 31
0.0
  0
LINE
  5
24C
330
A
100
AcDbEntity
  8
LAYER_1
  6
Continuous
 62
     7
100
AcDbLine
 10
371.4939107673509
 20
136.3865287515209
 30
0.0
 11
371.4939107673509
 21
70.386528751521
 31
0.0
  0
LINE
  5
24D
330
A
100
AcDbEntity
  8
LAYER_1
  6
Continuous
 62
     7
100
AcDbLine
 10
337.493910767351
 20
154.8865287515209
 30
0.0
 11
337.493910767351
 21
70.386528751521
 31
0.0
  0
LINE
  5
24E
330
A
100
AcDbEntity
  8
LAYER_1
  6
Continuous
 62
     7
100
AcDbLine
 10
337.493910767351
 20
70.386528751521
 30
0.0
 11
371.4939107673509
 21
70.386528751521
 31
0.0
  0
LINE
  5
24F
330
A
100
AcDbEntity
  8
LAYER_1
  6
Continuous
 62
     7
100
AcDbLine
 10
377.4939107673509
 20
136.3865287515209
 30
0.0
 11
391.4939107673509
 21
136.3865287515209
 31
0.0
  0
LINE
  5
250
330
A
100
AcDbEntity
  8
LAYER_1
  6
Continuous
 62
     7
100
AcDbLine
 10
391.4939107673509
 20
136.3865287515209
 30
0.0
 11
391.4939107673509
 21
86.386528751521
 31
0.0
  0
LINE
  5
251
330
A
100
AcDbEntity
  8
LAYER_1
  6
Continuous
 62
     7
100
AcDbLine
 10
391.4939107673509
 20
86.386528751521
 30
0.0
 11
397.493910767351
 21
86.386528751521
 31
0.0
  0
LINE
  5
252
330
A
100
AcDbEntity
  8
LAYER_1
  6
Continuous
 62
     7
100
AcDbLine
 10
397.493910767351
 20
86.386528751521
 30
0.0
 11
397.493910767351
 21
154.8865287515209
 31
0.0
  0
LINE
  5
253
330
A
100
AcDbEntity
  8
LAYER_1
  6
Continuous
 62
     7
100
AcDbLine
 10
397.493910767351
 20
154.8865287515209
 30
0.0
 11
411.4939107673509
 21
154.8865287515209
 31
0.0
  0
LINE
  5
254
330
A
100
AcDbEntity
  8
LAYER_1
  6
Continuous
 62
     7
100
AcDbLine
 10
411.4939107673509
 20
154.8865287515209
 30
0.0
 11
411.4939107673509
 21
70.386528751521
 31
0.0
  0
LINE
  5
255
330
A
100
AcDbEntity
  8
LAYER_1
  6
Continuous
 62
     7
100
AcDbLine
 10
411.4939107673509
 20
70.386528751521
 30
0.0
 11
377.4939107673509
 21
70.386528751521
 31
0.0
  0
LINE
  5
256
330
A
100
AcDbEntity
  8
LAYER_1
  6
Continuous
 62
     7
100
AcDbLine
 10
377.4939107673509
 20
70.386528751521
 30
0.0
 11
377.4939107673509
 21
136.3865287515209
 31
0.0
  0
LINE
  5
257
330
A
100
AcDbEntity
  8
LAYER_1
  6
Continuous
 62
     7
100
AcDbLine
 10
419.4939107673509
 20
156.3865287515209
 30
0.0
 11
417.493910767351
 21
156.3865287515209
 31
0.0
  0
LINE
  5
258
330
A
100
AcDbEntity
  8
LAYER_1
  6
Continuous
 62
     7
100
AcDbLine
 10
419.4939107673509
 20
156.3865287515209
 30
0.0
 11
419.4939107673509
 21
154.3865287515209
 31
0.0
  0
LINE
  5
259
330
A
100
AcDbEntity
  8
LAYER_1
  6
Continuous
 62
     7
100
AcDbLine
 10
417.493910767351
 20
156.3865287515209
 30
0.0
 11
419.4939107673509
 21
154.3865287515209
 31
0.0
  0
LINE
  5
25A
330
A
100
AcDbEntity
  8
LAYER_1
  6
Continuous
 62
     7
100
AcDbLine
 10
329.4939107673509
 20
156.3865287515209
 30
0.0
 11
329.4939107673509
 21
154.3865287515209
 31
0.0
  0
LINE
  5
25B
330
A
100
AcDbEntity
  8
LAYER_1
  6
Continuous
 62
     7
100
AcDbLine
 10
329.4939107673509
 20
156.3865287515209
 30
0.0
 11
331.4939107673509
 21
156.3865287515209
 31
0.0
  0
LINE
  5
25C
330
A
100
AcDbEntity
  8
LAYER_1
  6
Continuous
 62
     7
100
AcDbLine
 10
331.4939107673509
 20
156.3865287515209
 30
0.0
 11
329.4939107673509
 21
154.3865287515209
 31
0.0
  0
LINE
  5
25D
330
A
100
AcDbEntity
  8
LAYER_1
  6
Continuous
 62
     7
100
AcDbLine
 10
197.5629672530749
 20
156.3865287515209
 30
0.0
 11
197.5629672530749
 21
154.3865287515209
 31
0.0
  0
LINE
  5
25E
330
A
100
AcDbEntity
  8
LAYER_1
  6
Continuous
 62
     7
100
AcDbLine
 10
197.5629672530749
 20
156.3865287515209
 30
0.0
 11
195.5629672530749
 21
156.3865287515209
 31
0.0
  0
LINE
  5
25F
330
A
100
AcDbEntity
  8
LAYER_1
  6
Continuous
 62
     7
100
AcDbLine
 10
195.5629672530749
 20
156.3865287515209
 30
0.0
 11
197.5629672530749
 21
154.3865287515209
 31
0.0
  0
LINE
  5
260
330
A
100
AcDbEntity
  8
LAYER_1
  6
Continuous
 62
     7
100
AcDbLine
 10
107.562967253075
 20
156.3865287515209
 30
0.0
 11
109.5629672530749
 21
156.3865287515209
 31
0.0
  0
LINE
  5
261
330
A
100
AcDbEntity
  8
LAYER_1
  6
Continuous
 62
     7
100
AcDbLine
 10
107.562967253075
 20
156.3865287515209
 30
0.0
 11
107.562967253075
 21
154.3865287515209
 31
0.0
  0
LINE
  5
262
330
A
100
AcDbEntity
  8
LAYER_1
  6
Continuous
 62
     7
100
AcDbLine
 10
107.562967253075
 20
154.3865287515209
 30
0.0
 11
109.5629672530749
 21
156.3865287515209
 31
0.0
  0
LINE
  5
263
330
A
100
AcDbEntity
  8
LAYER_1
  6
Continuous
 62
     7
100
AcDbLine
 10
406.9939107673509
 20
249.8865287515209
 30
0.0
 11
409.7439107673509
 21
249.8865287515209
 31
0.0
  0
LINE
  5
264
330
A
100
AcDbEntity
  8
LAYER_1
  6
Continuous
 62
     7
100
AcDbLine
 10
341.9939107673509
 20
249.8865287515209
 30
0.0
 11
344.743910767351
 21
249.8865287515209
 31
0.0
  0
LINE
  5
265
330
A
100
AcDbEntity
  8
LAYER_1
  6
Continuous
 62
     7
100
AcDbLine
 10
419.4939107673509
 20
66.386528751521
 30
0.0
 11
417.493910767351
 21
66.386528751521
 31
0.0
  0
LINE
  5
266
330
A
100
AcDbEntity
  8
LAYER_1
  6
Continuous
 62
     7
100
AcDbLine
 10
419.4939107673509
 20
66.386528751521
 30
0.0
 11
419.4939107673509
 21
68.38652875152099
 31
0.0
  0
LINE
  5
267
330
A
100
AcDbEntity
  8
LAYER_1
  6
Continuous
 62
     7
100
AcDbLine
 10
419.4939107673509
 20
68.38652875152099
 30
0.0
 11
417.999055745196
 21
66.386528751521
 31
0.0
  0
LINE
  5
268
330
A
100
AcDbEntity
  8
LAYER_1
  6
Continuous
 62
     7
100
AcDbLine
 10
329.4939107673509
 20
66.386528751521
 30
0.0
 11
331.4939107673509
 21
66.386528751521
 31
0.0
  0
LINE
  5
269
330
A
100
AcDbEntity
  8
LAYER_1
  6
Continuous
 62
     7
100
AcDbLine
 10
329.4939107673509
 20
66.386528751521
 30
0.0
 11
329.4939107673509
 21
68.38652875152099
 31
0.0
  0
LINE
  5
26A
330
A
100
AcDbEntity
  8
LAYER_1
  6
Continuous
 62
     7
100
AcDbLine
 10
329.4939107673509
 20
68.38652875152099
 30
0.0
 11
330.988523258118
 21
66.386528751521
 31
0.0
  0
LINE
  5
26B
330
A
100
AcDbEntity
  8
LAYER_1
  6
Continuous
 62
     7
100
AcDbLine
 10
107.562967253075
 20
66.386528751521
 30
0.0
 11
107.4954812769409
 21
68.385389837996
 31
0.0
  0
LINE
  5
26C
330
A
100
AcDbEntity
  8
LAYER_1
  6
Continuous
 62
     7
100
AcDbLine
 10
107.562967253075
 20
66.386528751521
 30
0.0
 11
109.5629672530749
 21
66.386528751521
 31
0.0
  0
LINE
  5
26D
330
A
100
AcDbEntity
  8
LAYER_1
  6
Continuous
 62
     7
100
AcDbLine
 10
109.5629672530749
 20
66.386528751521
 30
0.0
 11
107.4954812769409
 21
68.385389837996
 31
0.0
  0
LINE
  5
26E
330
A
100
AcDbEntity
  8
LAYER_1
  6
Continuous
 62
     7
100
AcDbLine
 10
197.5629672530749
 20
66.386528751521
 30
0.0
 11
197.5629672530749
 21
68.38652875152099
 31
0.0
  0
LINE
  5
26F
330
A
100
AcDbEntity
  8
LAYER_1
  6
Continuous
 62
     7
100
AcDbLine
 10
197.5629672530749
 20
66.386528751521
 30
0.0
 11
195.5629672530749
 21
66.386528751521
 31
0.0
  0
LINE
  5
270
330
A
100
AcDbEntity
  8
LAYER_1
  6
Continuous
 62
     7
100
AcDbLine
 10
195.5629672530749
 20
66.386528751521
 30
0.0
 11
197.5629672530749
 21
68.38652875152099
 31
0.0
  0
LINE
  5
271
330
A
100
AcDbEntity
  8
LAYER_1
  6
Continuous
 62
     7
100
AcDbLine
 10
181.5629672530749
 20
71.386528751521
 30
0.0
 11
181.5629672530749
 21
85.386528751521
 31
0.0
  0
LINE
  5
272
330
A
100
AcDbEntity
  8
LAYER_1
  6
Continuous
 62
     7
100
AcDbLine
 10
181.5629672530749
 20
85.386528751521
 30
0.0
 11
153.562967253075
 21
85.386528751521
 31
0.0
  0
LINE
  5
273
330
A
100
AcDbEntity
  8
LAYER_1
  6
Continuous
 62
     7
100
AcDbLine
 10
153.562967253075
 20
85.386528751521
 30
0.0
 11
153.562967253075
 21
71.386528751521
 31
0.0
  0
LINE
  5
274
330
A
100
AcDbEntity
  8
LAYER_1
  6
Continuous
 62
     7
100
AcDbLine
 10
181.5629672530749
 20
71.386528751521
 30
0.0
 11
153.562967253075
 21
71.386528751521
 31
0.0
  0
LINE
  5
275
330
A
100
AcDbEntity
  8
LAYER_1
  6
Continuous
 62
     7
100
AcDbLine
 10
180.5629672530749
 20
83.052626060709
 30
0.0
 11
154.562967253075
 21
83.052626060709
 31
0.0
  0
LINE
  5
276
330
A
100
AcDbEntity
  8
LAYER_1
  6
Continuous
 62
     7
100
AcDbLine
 10
154.5502090109749
 20
82.990027082656
 30
0.0
 11
154.5502090109749
 21
71.386528751521
 31
0.0
  0
LINE
  5
277
330
A
100
AcDbEntity
  8
LAYER_1
  6
Continuous
 62
     7
100
AcDbLine
 10
154.562967253075
 20
71.386528751521
 30
0.0
 11
180.5629672530749
 21
71.386528751521
 31
0.0
  0
CIRCLE
  5
278
330
A
100
AcDbEntity
  8
LAYER_1
  6
Continuous
 62
     7
100
AcDbCircle
 10
156.2629672530739
 20
79.152626060708
 30
0.0
 40
0.7
  0
CIRCLE
  5
279
330
A
100
AcDbEntity
  8
LAYER_1
  6
Continuous
 62
     7
100
AcDbCircle
 10
158.808247680934
 20
79.152626060708
 30
0.0
 40
0.7
  0
CIRCLE
  5
27A
330
A
100
AcDbEntity
  8
LAYER_1
  6
Continuous
 62
     7
100
AcDbCircle
 10
163.762967253074
 20
79.152626060708
 30
0.0
 40
0.7
  0
CIRCLE
  5
27B
330
A
100
AcDbEntity
  8
LAYER_1
  6
Continuous
 62
     7
100
AcDbCircle
 10
166.262967253074
 20
79.152626060708
 30
0.0
 40
0.7
  0
CIRCLE
  5
27C
330
A
100
AcDbEntity
  8
LAYER_1
  6
Continuous
 62
     7
100
AcDbCircle
 10
168.7629672530739
 20
79.152626060708
 30
0.0
 40
0.7
  0
CIRCLE
  5
27D
330
A
100
AcDbEntity
  8
LAYER_1
  6
Continuous
 62
     7
100
AcDbCircle
 10
171.262967253074
 20
79.152626060708
 30
0.0
 40
0.7
  0
CIRCLE
  5
27E
330
A
100
AcDbEntity
  8
LAYER_1
  6
Continuous
 62
     7
100
AcDbCircle
 10
173.762967253074
 20
79.152626060708
 30
0.0
 40
0.7
  0
CIRCLE
  5
27F
330
A
100
AcDbEntity
  8
LAYER_1
  6
Continuous
 62
     7
100
AcDbCircle
 10
176.262967253074
 20
79.152626060708
 30
0.0
 40
0.7
  0
CIRCLE
  5
280
330
A
100
AcDbEntity
  8
LAYER_1
  6
Continuous
 62
     7
100
AcDbCircle
 10
178.762967253074
 20
79.152626060708
 30
0.0
 40
0.7
  0
LINE
  5
281
330
A
100
AcDbEntity
  8
LAYER_1
  6
Continuous
 62
     7
100
AcDbLine
 10
237.911681890022
 20
71.381423650838
 30
0.0
 11
239.496089930138
 21
71.381423650838
 31
0.0
  0
CIRCLE
  5
282
330
A
100
AcDbEntity
  8
LAYER_1
  6
Continuous
 62
     7
100
AcDbCircle
 10
161.262967253074
 20
79.152626060708
 30
0.0
 40
0.7
  0
LINE
  5
283
330
A
100
AcDbEntity
  8
LAYER_1
  6
Continuous
 62
     7
100
AcDbLine
 10
180.5629672530749
 20
83.052626060709
 30
0.0
 11
180.5629672530749
 21
71.386528751521
 31
0.0
  0
LINE
  5
284
330
A
100
AcDbEntity
  8
LAYER_1
  6
Continuous
 62
     7
100
AcDbLine
 10
237.9116851608999
 20
71.38504076343401
 30
0.0
 11
237.9116851608999
 21
83.135040763434
 31
0.0
  0
LINE
  5
285
330
A
100
AcDbEntity
  8
LAYER_1
  6
Continuous
 62
     7
100
AcDbLine
 10
237.9116851608999
 20
83.135040763434
 30
0.0
 11
239.496089930138
 21
83.135040763434
 31
0.0
  0
LINE
  5
286
330
A
100
AcDbEntity
  8
LAYER_1
  6
Continuous
 62
     7
100
AcDbLine
 10
237.9116851608999
 20
83.135040763434
 30
0.0
 11
239.496089930138
 21
83.135040763434
 31
0.0
  0
LINE
  5
287
330
A
100
AcDbEntity
  8
LAYER_1
  6
Continuous
 62
     7
100
AcDbLine
 10
239.496089930138
 20
71.38504076343401
 30
0.0
 11
239.496089930138
 21
66.386528751521
 31
0.0
  0
LINE
  5
288
330
A
100
AcDbEntity
  8
LAYER_1
  6
Continuous
 62
     7
100
AcDbLine
 10
403.5315445816819
 20
251.3709108017999
 30
0.0
 11
410.1315445816819
 21
251.3709108017999
 31
0.0
  0
LINE
  5
289
330
A
100
AcDbEntity
  8
LAYER_1
  6
Continuous
 62
     7
100
AcDbLine
 10
411.044410939885
 20
251.3709108017999
 30
0.0
 11
417.644410939886
 21
251.3709108017999
 31
0.0
  0
LINE
  5
28A
330
A
100
AcDbEntity
  8
LAYER_1
  6
Continuous
 62
     7
100
AcDbLine
 10
337.8754905872269
 20
201.385917045825
 30
0.0
 11
331.2754905872269
 21
201.385917045825
 31
0.0
  0
LINE
  5
28B
330
A
100
AcDbEntity
  8
LAYER_1
  6
Continuous
 62
     7
100
AcDbLine
 10
417.70036837112
 20
201.371843982426
 30
0.0
 11
411.100368371119
 21
201.371843982426
 31
0.0
  0
LINE
  5
28C
330
A
100
AcDbEntity
  8
LAYER_1
  6
Continuous
 62
     7
100
AcDbLine
 10
345.875316892152
 20
253.011055609654
 30
0.0
 11
373.075316892152
 21
253.011055609654
 31
0.0
  0
CIRCLE
  5
28D
330
A
100
AcDbEntity
  8
LAYER_1
  6
Continuous
 62
     7
100
AcDbCircle
 10
143.562967253075
 20
78.38652875152099
 30
0.0
 40
4.5
  0
CIRCLE
  5
28E
330
A
100
AcDbEntity
  8
LAYER_1
  6
Continuous
 62
     7
100
AcDbCircle
 10
143.562967253075
 20
78.38652875152099
 30
0.0
 40
7.5
  0
CIRCLE
  5
28F
330
A
100
AcDbEntity
  8
LAYER_1
  6
Continuous
 62
     7
100
AcDbCircle
 10
143.562967253075
 20
78.38652875152099
 30
0.0
 40
6.0
  0
LINE
  5
290
330
A
100
AcDbEntity
  8
LAYER_1
  6
Continuous
 62
     7
100
AcDbLine
 10
321.4939107673509
 20
202.886528751521
 30
0.0
 11
329.4939107673509
 21
202.886528751521
 31
0.0
  0
LINE
  5
291
330
A
100
AcDbEntity
  8
LAYER_1
  6
Continuous
 62
     7
100
AcDbLine
 10
427.4939107673509
 20
202.886528751521
 30
0.0
 11
419.4939107673509
 21
202.886528751521
 31
0.0
  0
LINE
  5
292
330
A
100
AcDbEntity
  8
LAYER_1
  6
Continuous
 62
     7
100
AcDbLine
 10
376.006074978414
 20
251.3865287515209
 30
0.0
 11
376.006074978414
 21
252.886528751521
 31
0.0
  0
LINE
  5
293
330
A
100
AcDbEntity
  8
LAYER_1
  6
Continuous
 62
     7
100
AcDbLine
 10
376.006074978414
 20
252.886528751521
 30
0.0
 11
391.006074978414
 21
252.886528751521
 31
0.0
  0
LINE
  5
294
330
A
100
AcDbEntity
  8
LAYER_1
  6
Continuous
 62
     7
100
AcDbLine
 10
391.006074978414
 20
252.886528751521
 30
0.0
 11
391.006074978414
 21
251.3865287515209
 31
0.0
  0
LINE
  5
295
330
A
100
AcDbEntity
  8
LAYER_1
  6
Continuous
 62
     7
100
AcDbLine
 10
337.975213521279
 20
201.3672889612659
 30
0.0
 11
337.975213521279
 21
200.8672889612659
 31
0.0
  0
LINE
  5
296
330
A
100
AcDbEntity
  8
LAYER_1
  6
Continuous
 62
     7
100
AcDbLine
 10
337.975213521279
 20
200.8672889612659
 30
0.0
 11
330.9752135212789
 21
200.8672889612659
 31
0.0
  0
LINE
  5
297
330
A
100
AcDbEntity
  8
LAYER_1
  6
Continuous
 62
     7
100
AcDbLine
 10
330.9752135212789
 20
200.8672889612659
 30
0.0
 11
330.9752135212789
 21
201.3672889612659
 31
0.0
  0
LINE
  5
298
330
A
100
AcDbEntity
  8
LAYER_1
  6
Continuous
 62
     7
100
AcDbLine
 10
336.9752135212789
 20
200.8672889612659
 30
0.0
 11
336.9752135212789
 21
200.3672889612659
 31
0.0
  0
LINE
  5
299
330
A
100
AcDbEntity
  8
LAYER_1
  6
Continuous
 62
     7
100
AcDbLine
 10
336.9752135212789
 20
200.3672889612659
 30
0.0
 11
331.975213521279
 21
200.3672889612659
 31
0.0
  0
LINE
  5
29A
330
A
100
AcDbEntity
  8
LAYER_1
  6
Continuous
 62
     7
100
AcDbLine
 10
331.975213521279
 20
200.3672889612659
 30
0.0
 11
331.975213521279
 21
200.8672889612659
 31
0.0
  0
LINE
  5
29B
330
A
100
AcDbEntity
  8
LAYER_1
  6
Continuous
 62
     7
100
AcDbLine
 10
336.9752135212789
 20
200.3672889612659
 30
0.0
 11
337.4752135212789
 21
200.3672889612659
 31
0.0
  0
LINE
  5
29C
330
A
100
AcDbEntity
  8
LAYER_1
  6
Continuous
 62
     7
100
AcDbLine
 10
331.4752135212789
 20
200.3672889612659
 30
0.0
 11
331.975213521279
 21
200.3672889612659
 31
0.0
  0
LINE
  5
29D
330
A
100
AcDbEntity
  8
LAYER_1
  6
Continuous
 62
     7
100
AcDbLine
 10
337.4752135212789
 20
200.3672889612659
 30
0.0
 11
337.4752135212789
 21
199.8672889612659
 31
0.0
  0
LINE
  5
29E
330
A
100
AcDbEntity
  8
LAYER_1
  6
Continuous
 62
     7
100
AcDbLine
 10
335.4752135212789
 20
197.867288961266
 30
0.0
 11
333.47521352128
 21
197.867288961266
 31
0.0
  0
LINE
  5
29F
330
A
100
AcDbEntity
  8
LAYER_1
  6
Continuous
 62
     7
100
AcDbLine
 10
331.4752135212799
 20
199.8672889612659
 30
0.0
 11
331.4752135212789
 21
200.3672889612659
 31
0.0
  0
ARC
  5
2A0
330
A
100
AcDbEntity
  8
LAYER_1
  6
Continuous
 62
     7
100
AcDbCircle
 10
335.475213521278
 20
199.8672889612659
 30
0.0
 40
2.0
100
AcDbArc
 50
270.0
 51
0.0
  0
ARC
  5
2A1
330
A
100
AcDbEntity
  8
LAYER_1
  6
Continuous
 62
     7
100
AcDbCircle
 10
333.4752135212789
 20
199.8672889612659
 30
0.0
 40
2.0
100
AcDbArc
 50
180.0
 51
270.000000000013
  0
LINE
  5
2A2
330
A
100
AcDbEntity
  8
LAYER_1
  6
Continuous
 62
     7
100
AcDbLine
 10
417.9337127255439
 20
201.3865287515209
 30
0.0
 11
417.9337127255439
 21
200.94734097692
 31
0.0
  0
LINE
  5
2A3
330
A
100
AcDbEntity
  8
LAYER_1
  6
Continuous
 62
     7
100
AcDbLine
 10
417.9337127255439
 20
200.94734097692
 30
0.0
 11
410.935340668434
 21
200.94734097692
 31
0.0
  0
LINE
  5
2A4
330
A
100
AcDbEntity
  8
LAYER_1
  6
Continuous
 62
     7
100
AcDbLine
 10
410.937408215754
 20
200.94734097692
 30
0.0
 11
410.937408215754
 21
201.3865287515209
 31
0.0
  0
LINE
  5
2A5
330
A
100
AcDbEntity
  8
LAYER_1
  6
Continuous
 62
     7
100
AcDbLine
 10
416.9353406684339
 20
200.94734097692
 30
0.0
 11
416.9353406684339
 21
200.4473409769199
 31
0.0
  0
LINE
  5
2A6
330
A
100
AcDbEntity
  8
LAYER_1
  6
Continuous
 62
     7
100
AcDbLine
 10
416.9353406684339
 20
200.4473409769199
 30
0.0
 11
411.9353406684339
 21
200.4473409769199
 31
0.0
  0
LINE
  5
2A7
330
A
100
AcDbEntity
  8
LAYER_1
  6
Continuous
 62
     7
100
AcDbLine
 10
411.9353406684339
 20
200.4473409769199
 30
0.0
 11
411.9353406684339
 21
200.94734097692
 31
0.0
  0
LINE
  5
2A8
330
A
100
AcDbEntity
  8
LAYER_1
  6
Continuous
 62
     7
100
AcDbLine
 10
416.9353406684339
 20
200.4473409769199
 30
0.0
 11
417.4353406684339
 21
200.4473409769199
 31
0.0
  0
LINE
  5
2A9
330
A
100
AcDbEntity
  8
LAYER_1
  6
Continuous
 62
     7
100
AcDbLine
 10
411.4353406684339
 20
200.4473409769199
 30
0.0
 11
411.9353406684339
 21
200.4473409769199
 31
0.0
  0
LINE
  5
2AA
330
A
100
AcDbEntity
  8
LAYER_1
  6
Continuous
 62
     7
100
AcDbLine
 10
417.4353406684339
 20
200.4473409769199
 30
0.0
 11
417.4353406684339
 21
199.9473409769209
 31
0.0
  0
LINE
  5
2AB
330
A
100
AcDbEntity
  8
LAYER_1
  6
Continuous
 62
     7
100
AcDbLine
 10
415.4353406684339
 20
197.9473409769209
 30
0.0
 11
413.4353406684339
 21
197.94734097692
 31
0.0
  0
LINE
  5
2AC
330
A
100
AcDbEntity
  8
LAYER_1
  6
Continuous
 62
     7
100
AcDbLine
 10
411.4353406684339
 20
199.94734097692
 30
0.0
 11
411.4353406684339
 21
200.4473409769199
 31
0.0
  0
ARC
  5
2AD
330
A
100
AcDbEntity
  8
LAYER_1
  6
Continuous
 62
     7
100
AcDbCircle
 10
415.435340668433
 20
199.9473409769209
 30
0.0
 40
2.0
100
AcDbArc
 50
270.0
 51
0.0
  0
ARC
  5
2AE
330
A
100
AcDbEntity
  8
LAYER_1
  6
Continuous
 62
     7
100
AcDbCircle
 10
413.4353406684339
 20
199.94734097692
 30
0.0
 40
2.0
100
AcDbArc
 50
180.0
 51
270.000000000013
  0
LINE
  5
2AF
330
A
100
AcDbEntity
  8
LAYER_1
  6
Continuous
 62
     7
100
AcDbLine
 10
289.600225582723
 20
74.930007628024
 30
0.0
 11
290.100225582723
 21
74.930007628024
 31
0.0
  0
LINE
  5
2B0
330
A
100
AcDbEntity
  8
LAYER_1
  6
Continuous
 62
     7
100
AcDbLine
 10
290.100225582723
 20
74.430007628024
 30
0.0
 11
290.100225582723
 21
67.930007628024
 31
0.0
  0
LINE
  5
2B1
330
A
100
AcDbEntity
  8
LAYER_1
  6
Continuous
 62
     7
100
AcDbLine
 10
290.100225582723
 20
67.930007628024
 30
0.0
 11
289.600225582723
 21
67.930007628024
 31
0.0
  0
LINE
  5
2B2
330
A
100
AcDbEntity
  8
LAYER_1
  6
Continuous
 62
     7
100
AcDbLine
 10
290.100225582723
 20
71.430007628024
 30
0.0
 11
290.100225582723
 21
74.930007628024
 31
0.0
  0
LINE
  5
2B3
330
A
100
AcDbEntity
  8
LAYER_1
  6
Continuous
 62
     7
100
AcDbLine
 10
290.100225582723
 20
73.930007628024
 30
0.0
 11
290.600225582723
 21
73.930007628024
 31
0.0
  0
LINE
  5
2B4
330
A
100
AcDbEntity
  8
LAYER_1
  6
Continuous
 62
     7
100
AcDbLine
 10
290.600225582723
 20
73.930007628024
 30
0.0
 11
290.600225582723
 21
68.930007628024
 31
0.0
  0
LINE
  5
2B5
330
A
100
AcDbEntity
  8
LAYER_1
  6
Continuous
 62
     7
100
AcDbLine
 10
290.600225582723
 20
68.930007628024
 30
0.0
 11
290.100225582723
 21
68.930007628024
 31
0.0
  0
LINE
  5
2B6
330
A
100
AcDbEntity
  8
LAYER_1
  6
Continuous
 62
     7
100
AcDbLine
 10
290.600225582723
 20
73.930007628024
 30
0.0
 11
290.600225582723
 21
74.430007628024
 31
0.0
  0
LINE
  5
2B7
330
A
100
AcDbEntity
  8
LAYER_1
  6
Continuous
 62
     7
100
AcDbLine
 10
290.600225582723
 20
68.430007628024
 30
0.0
 11
290.600225582723
 21
68.930007628024
 31
0.0
  0
LINE
  5
2B8
330
A
100
AcDbEntity
  8
LAYER_1
  6
Continuous
 62
     7
100
AcDbLine
 10
290.600225582723
 20
74.430007628024
 30
0.0
 11
291.100225582722
 21
74.430007628024
 31
0.0
  0
LINE
  5
2B9
330
A
100
AcDbEntity
  8
LAYER_1
  6
Continuous
 62
     7
100
AcDbLine
 10
293.100225582722
 20
72.430007628024
 30
0.0
 11
293.1002255827229
 21
70.43000762802499
 31
0.0
  0
LINE
  5
2BA
330
A
100
AcDbEntity
  8
LAYER_1
  6
Continuous
 62
     7
100
AcDbLine
 10
291.1002255827229
 20
68.430007628025
 30
0.0
 11
290.600225582723
 21
68.430007628024
 31
0.0
  0
ARC
  5
2BB
330
A
100
AcDbEntity
  8
LAYER_1
  6
Continuous
 62
     7
100
AcDbCircle
 10
291.100225582722
 20
72.430007628024
 30
0.0
 40
2.0
100
AcDbArc
 50
0.0
 51
90.0
  0
ARC
  5
2BC
330
A
100
AcDbEntity
  8
LAYER_1
  6
Continuous
 62
     7
100
AcDbCircle
 10
291.1002255827229
 20
70.43000762802499
 30
0.0
 40
2.0
100
AcDbArc
 50
270.0
 51
0.000000000013
  0
LINE
  5
2BD
330
A
100
AcDbEntity
  8
LAYER_1
  6
Continuous
 62
     7
100
AcDbLine
 10
289.497248689812
 20
154.900686350345
 30
0.0
 11
289.997248689812
 21
154.900686350345
 31
0.0
  0
LINE
  5
2BE
330
A
100
AcDbEntity
  8
LAYER_1
  6
Continuous
 62
     7
100
AcDbLine
 10
289.997248689812
 20
154.400686350345
 30
0.0
 11
289.997248689812
 21
147.900686350345
 31
0.0
  0
LINE
  5
2BF
330
A
100
AcDbEntity
  8
LAYER_1
  6
Continuous
 62
     7
100
AcDbLine
 10
289.997248689812
 20
147.900686350345
 30
0.0
 11
289.497248689812
 21
147.900686350345
 31
0.0
  0
LINE
  5
2C0
330
A
100
AcDbEntity
  8
LAYER_1
  6
Continuous
 62
     7
100
AcDbLine
 10
289.997248689812
 20
151.400686350345
 30
0.0
 11
289.997248689812
 21
154.900686350345
 31
0.0
  0
LINE
  5
2C1
330
A
100
AcDbEntity
  8
LAYER_1
  6
Continuous
 62
     7
100
AcDbLine
 10
289.997248689812
 20
153.900686350345
 30
0.0
 11
290.497248689812
 21
153.900686350345
 31
0.0
  0
LINE
  5
2C2
330
A
100
AcDbEntity
  8
LAYER_1
  6
Continuous
 62
     7
100
AcDbLine
 10
290.497248689812
 20
153.900686350345
 30
0.0
 11
290.497248689812
 21
148.900686350345
 31
0.0
  0
LINE
  5
2C3
330
A
100
AcDbEntity
  8
LAYER_1
  6
Continuous
 62
     7
100
AcDbLine
 10
290.497248689812
 20
148.900686350345
 30
0.0
 11
289.997248689812
 21
148.900686350345
 31
0.0
  0
LINE
  5
2C4
330
A
100
AcDbEntity
  8
LAYER_1
  6
Continuous
 62
     7
100
AcDbLine
 10
290.497248689812
 20
153.900686350345
 30
0.0
 11
290.497248689812
 21
154.400686350345
 31
0.0
  0
LINE
  5
2C5
330
A
100
AcDbEntity
  8
LAYER_1
  6
Continuous
 62
     7
100
AcDbLine
 10
290.497248689812
 20
148.400686350345
 30
0.0
 11
290.497248689812
 21
148.900686350345
 31
0.0
  0
LINE
  5
2C6
330
A
100
AcDbEntity
  8
LAYER_1
  6
Continuous
 62
     7
100
AcDbLine
 10
290.497248689812
 20
154.400686350345
 30
0.0
 11
290.997248689811
 21
154.400686350345
 31
0.0
  0
LINE
  5
2C7
330
A
100
AcDbEntity
  8
LAYER_1
  6
Continuous
 62
     7
100
AcDbLine
 10
292.997248689811
 20
152.400686350345
 30
0.0
 11
292.997248689812
 21
150.400686350346
 31
0.0
  0
LINE
  5
2C8
330
A
100
AcDbEntity
  8
LAYER_1
  6
Continuous
 62
     7
100
AcDbLine
 10
290.997248689812
 20
148.400686350345
 30
0.0
 11
290.497248689812
 21
148.400686350345
 31
0.0
  0
ARC
  5
2C9
330
A
100
AcDbEntity
  8
LAYER_1
  6
Continuous
 62
     7
100
AcDbCircle
 10
290.997248689811
 20
152.400686350345
 30
0.0
 40
2.0
100
AcDbArc
 50
0.0
 51
90.0
  0
ARC
  5
2CA
330
A
100
AcDbEntity
  8
LAYER_1
  6
Continuous
 62
     7
100
AcDbCircle
 10
290.997248689812
 20
150.400686350345
 30
0.0
 40
2.0
100
AcDbArc
 50
270.0
 51
0.000000000013
  0
CIRCLE
  5
2CB
330
A
100
AcDbEntity
  8
LAYER_1
  6
Continuous
 62
     7
100
AcDbCircle
 10
334.509099700521
 20
151.36955294014
 30
0.0
 40
2.861092014742
  0
CIRCLE
  5
2CC
330
A
100
AcDbEntity
  8
LAYER_1
  6
Continuous
 62
     7
100
AcDbCircle
 10
334.5028535819179
 20
71.38376483358499
 30
0.0
 40
2.861092014742
  0
CIRCLE
  5
2CD
330
A
100
AcDbEntity
  8
LAYER_1
  6
Continuous
 62
     7
100
AcDbCircle
 10
414.460902125239
 20
71.383758769509
 30
0.0
 40
2.861092014742
  0
CIRCLE
  5
2CE
330
A
100
AcDbEntity
  8
LAYER_1
  6
Continuous
 62
     7
100
AcDbCircle
 10
414.5050018798709
 20
151.3713944339539
 30
0.0
 40
2.861092014742
  0
LINE
  5
2CF
330
A
100
AcDbEntity
  8
LAYER_1
  6
Continuous
 62
     7
100
AcDbLine
 10
345.906074978413
 20
253.011055609654
 30
0.0
 11
345.906074978413
 21
251.3865287515209
 31
0.0
  0
CIRCLE
  5
2D0
330
A
100
AcDbEntity
  8
LAYER_1
  6
Continuous
 62
     7
100
AcDbCircle
 10
112.578156186245
 20
151.36955294014
 30
0.0
 40
2.9
  0
CIRCLE
  5
2D1
330
A
100
AcDbEntity
  8
LAYER_1
  6
Continuous
 62
     7
100
AcDbCircle
 10
120.062967253075
 20
146.36955294014
 30
0.0
 40
2.9
  0
CIRCLE
  5
2D2
330
A
100
AcDbEntity
  8
LAYER_1
  6
Continuous
 62
     7
100
AcDbCircle
 10
120.062967253075
 20
76.38376483358499
 30
0.0
 40
2.9
  0
CIRCLE
  5
2D3
330
A
100
AcDbEntity
  8
LAYER_1
  6
Continuous
 62
     7
100
AcDbCircle
 10
112.5719100676409
 20
71.38376483358499
 30
0.0
 40
2.9
  0
CIRCLE
  5
2D4
330
A
100
AcDbEntity
  8
LAYER_1
  6
Continuous
 62
     7
100
AcDbCircle
 10
185.0629672530749
 20
146.36955294014
 30
0.0
 40
2.9
  0
CIRCLE
  5
2D5
330
A
100
AcDbEntity
  8
LAYER_1
  6
Continuous
 62
     7
100
AcDbCircle
 10
192.5740583655939
 20
151.371394433953
 30
0.0
 40
2.9
  0
CIRCLE
  5
2D6
330
A
100
AcDbEntity
  8
LAYER_1
  6
Continuous
 62
     7
100
AcDbCircle
 10
185.0629672530749
 20
76.38376483358499
 30
0.0
 40
2.9
  0
CIRCLE
  5
2D7
330
A
100
AcDbEntity
  8
LAYER_1
  6
Continuous
 62
     7
100
AcDbCircle
 10
192.5299586109619
 20
71.383758769509
 30
0.0
 40
2.9
  0
LINE
  5
2D8
330
A
100
AcDbEntity
  8
LAYER_1
  6
Continuous
 62
     7
100
AcDbLine
 10
331.0176125206729
 20
251.4426577167609
 30
0.0
 11
331.0176125206729
 21
251.942657716761
 31
0.0
  0
LINE
  5
2D9
330
A
100
AcDbEntity
  8
LAYER_1
  6
Continuous
 62
     7
100
AcDbLine
 10
331.0176125206729
 20
251.942657716761
 30
0.0
 11
338.015984577784
 21
251.942657716761
 31
0.0
  0
LINE
  5
2DA
330
A
100
AcDbEntity
  8
LAYER_1
  6
Continuous
 62
     7
100
AcDbLine
 10
338.013917030463
 20
251.942657716761
 30
0.0
 11
338.013917030463
 21
251.4426577167609
 31
0.0
  0
LINE
  5
2DB
330
A
100
AcDbEntity
  8
LAYER_1
  6
Continuous
 62
     7
100
AcDbLine
 10
332.015984577784
 20
251.942657716761
 30
0.0
 11
332.015984577784
 21
252.442657716761
 31
0.0
  0
LINE
  5
2DC
330
A
100
AcDbEntity
  8
LAYER_1
  6
Continuous
 62
     7
100
AcDbLine
 10
332.015984577784
 20
252.442657716761
 30
0.0
 11
337.015984577784
 21
252.442657716761
 31
0.0
  0
LINE
  5
2DD
330
A
100
AcDbEntity
  8
LAYER_1
  6
Continuous
 62
     7
100
AcDbLine
 10
337.015984577784
 20
252.442657716761
 30
0.0
 11
337.015984577784
 21
251.942657716761
 31
0.0
  0
LINE
  5
2DE
330
A
100
AcDbEntity
  8
LAYER_1
  6
Continuous
 62
     7
100
AcDbLine
 10
332.015984577784
 20
252.442657716761
 30
0.0
 11
331.515984577784
 21
252.442657716761
 31
0.0
  0
LINE
  5
2DF
330
A
100
AcDbEntity
  8
LAYER_1
  6
Continuous
 62
     7
100
AcDbLine
 10
337.515984577784
 20
252.442657716761
 30
0.0
 11
337.015984577784
 21
252.442657716761
 31
0.0
  0
LINE
  5
2E0
330
A
100
AcDbEntity
  8
LAYER_1
  6
Continuous
 62
     7
100
AcDbLine
 10
331.515984577784
 20
252.442657716761
 30
0.0
 11
331.515984577784
 21
252.94265771676
 31
0.0
  0
LINE
  5
2E1
330
A
100
AcDbEntity
  8
LAYER_1
  6
Continuous
 62
     7
100
AcDbLine
 10
333.515984577784
 20
254.94265771676
 30
0.0
 11
335.5159845777829
 21
254.942657716761
 31
0.0
  0
LINE
  5
2E2
330
A
100
AcDbEntity
  8
LAYER_1
  6
Continuous
 62
     7
100
AcDbLine
 10
337.515984577783
 20
252.942657716761
 30
0.0
 11
337.515984577784
 21
252.442657716761
 31
0.0
  0
ARC
  5
2E3
330
A
100
AcDbEntity
  8
LAYER_1
  6
Continuous
 62
     7
100
AcDbCircle
 10
333.5159845777849
 20
252.94265771676
 30
0.0
 40
2.0
100
AcDbArc
 50
90.0
 51
180.0
  0
ARC
  5
2E4
330
A
100
AcDbEntity
  8
LAYER_1
  6
Continuous
 62
     7
100
AcDbCircle
 10
335.515984577784
 20
252.942657716761
 30
0.0
 40
2.0
100
AcDbArc
 50
0.0
 51
90.000000000013
  0
LINE
  5
2E5
330
A
100
AcDbEntity
  8
LAYER_1
  6
Continuous
 62
     7
100
AcDbLine
 10
411.074900146885
 20
251.4165570652699
 30
0.0
 11
411.074900146885
 21
251.91655706527
 31
0.0
  0
LINE
  5
2E6
330
A
100
AcDbEntity
  8
LAYER_1
  6
Continuous
 62
     7
100
AcDbLine
 10
411.074900146885
 20
251.91655706527
 30
0.0
 11
418.073272203996
 21
251.91655706527
 31
0.0
  0
LINE
  5
2E7
330
A
100
AcDbEntity
  8
LAYER_1
  6
Continuous
 62
     7
100
AcDbLine
 10
418.071204656675
 20
251.91655706527
 30
0.0
 11
418.071204656675
 21
251.4165570652699
 31
0.0
  0
LINE
  5
2E8
330
A
100
AcDbEntity
  8
LAYER_1
  6
Continuous
 62
     7
100
AcDbLine
 10
412.0732722039959
 20
251.91655706527
 30
0.0
 11
412.0732722039959
 21
252.41655706527
 31
0.0
  0
LINE
  5
2E9
330
A
100
AcDbEntity
  8
LAYER_1
  6
Continuous
 62
     7
100
AcDbLine
 10
412.0732722039959
 20
252.41655706527
 30
0.0
 11
417.073272203996
 21
252.41655706527
 31
0.0
  0
LINE
  5
2EA
330
A
100
AcDbEntity
  8
LAYER_1
  6
Continuous
 62
     7
100
AcDbLine
 10
417.073272203996
 20
252.41655706527
 30
0.0
 11
417.073272203996
 21
251.91655706527
 31
0.0
  0
LINE
  5
2EB
330
A
100
AcDbEntity
  8
LAYER_1
  6
Continuous
 62
     7
100
AcDbLine
 10
412.0732722039959
 20
252.41655706527
 30
0.0
 11
411.5732722039959
 21
252.41655706527
 31
0.0
  0
LINE
  5
2EC
330
A
100
AcDbEntity
  8
LAYER_1
  6
Continuous
 62
     7
100
AcDbLine
 10
417.573272203996
 20
252.41655706527
 30
0.0
 11
417.073272203996
 21
252.41655706527
 31
0.0
  0
LINE
  5
2ED
330
A
100
AcDbEntity
  8
LAYER_1
  6
Continuous
 62
     7
100
AcDbLine
 10
411.5732722039959
 20
252.41655706527
 30
0.0
 11
411.5732722039959
 21
252.916557065269
 31
0.0
  0
LINE
  5
2EE
330
A
100
AcDbEntity
  8
LAYER_1
  6
Continuous
 62
     7
100
AcDbLine
 10
413.573272203996
 20
254.916557065269
 30
0.0
 11
415.573272203995
 21
254.91655706527
 31
0.0
  0
LINE
  5
2EF
330
A
100
AcDbEntity
  8
LAYER_1
  6
Continuous
 62
     7
100
AcDbLine
 10
417.5732722039949
 20
252.91655706527
 30
0.0
 11
417.573272203996
 21
252.41655706527
 31
0.0
  0
ARC
  5
2F0
330
A
100
AcDbEntity
  8
LAYER_1
  6
Continuous
 62
     7
100
AcDbCircle
 10
413.5732722039969
 20
252.916557065269
 30
0.0
 40
2.0
100
AcDbArc
 50
90.0
 51
180.0
  0
ARC
  5
2F1
330
A
100
AcDbEntity
  8
LAYER_1
  6
Continuous
 62
     7
100
AcDbCircle
 10
415.5732722039959
 20
252.91655706527
 30
0.0
 40
2.0
100
AcDbArc
 50
0.0
 51
90.000000000013
  0
LINE
  5
2F2
330
A
100
AcDbEntity
  8
LAYER_1
  6
Continuous
 62
     7
100
AcDbLine
 10
403.560241198456
 20
251.4925951358929
 30
0.0
 11
403.560241198456
 21
251.9925951358929
 31
0.0
  0
LINE
  5
2F3
330
A
100
AcDbEntity
  8
LAYER_1
  6
Continuous
 62
     7
100
AcDbLine
 10
403.560241198456
 20
251.9925951358929
 30
0.0
 11
410.558613255567
 21
251.9925951358929
 31
0.0
  0
LINE
  5
2F4
330
A
100
AcDbEntity
  8
LAYER_1
  6
Continuous
 62
     7
100
AcDbLine
 10
410.556545708246
 20
251.9925951358929
 30
0.0
 11
410.556545708246
 21
251.4925951358929
 31
0.0
  0
LINE
  5
2F5
330
A
100
AcDbEntity
  8
LAYER_1
  6
Continuous
 62
     7
100
AcDbLine
 10
404.558613255567
 20
251.9925951358929
 30
0.0
 11
404.558613255567
 21
252.4925951358929
 31
0.0
  0
LINE
  5
2F6
330
A
100
AcDbEntity
  8
LAYER_1
  6
Continuous
 62
     7
100
AcDbLine
 10
404.558613255567
 20
252.4925951358929
 30
0.0
 11
409.558613255567
 21
252.4925951358929
 31
0.0
  0
LINE
  5
2F7
330
A
100
AcDbEntity
  8
LAYER_1
  6
Continuous
 62
     7
100
AcDbLine
 10
409.558613255567
 20
252.4925951358929
 30
0.0
 11
409.558613255567
 21
251.9925951358929
 31
0.0
  0
LINE
  5
2F8
330
A
100
AcDbEntity
  8
LAYER_1
  6
Continuous
 62
     7
100
AcDbLine
 10
404.558613255567
 20
252.4925951358929
 30
0.0
 11
404.058613255567
 21
252.4925951358929
 31
0.0
  0
LINE
  5
2F9
330
A
100
AcDbEntity
  8
LAYER_1
  6
Continuous
 62
     7
100
AcDbLine
 10
410.058613255567
 20
252.4925951358929
 30
0.0
 11
409.558613255567
 21
252.4925951358929
 31
0.0
  0
LINE
  5
2FA
330
A
100
AcDbEntity
  8
LAYER_1
  6
Continuous
 62
     7
100
AcDbLine
 10
404.058613255567
 20
252.4925951358929
 30
0.0
 11
404.058613255567
 21
252.992595135892
 31
0.0
  0
LINE
  5
2FB
330
A
100
AcDbEntity
  8
LAYER_1
  6
Continuous
 62
     7
100
AcDbLine
 10
406.058613255567
 20
254.992595135892
 30
0.0
 11
408.058613255566
 21
254.9925951358929
 31
0.0
  0
LINE
  5
2FC
330
A
100
AcDbEntity
  8
LAYER_1
  6
Continuous
 62
     7
100
AcDbLine
 10
410.058613255566
 20
252.9925951358929
 30
0.0
 11
410.058613255567
 21
252.4925951358929
 31
0.0
  0
ARC
  5
2FD
330
A
100
AcDbEntity
  8
LAYER_1
  6
Continuous
 62
     7
100
AcDbCircle
 10
406.058613255568
 20
252.992595135892
 30
0.0
 40
2.0
100
AcDbArc
 50
90.0
 51
180.0
  0
ARC
  5
2FE
330
A
100
AcDbEntity
  8
LAYER_1
  6
Continuous
 62
     7
100
AcDbCircle
 10
408.058613255567
 20
252.9925951358929
 30
0.0
 40
2.0
100
AcDbArc
 50
0.0
 51
90.000000000013
  0
LINE
  5
2FF
330
A
100
AcDbEntity
  8
LAYER_1
  6
Continuous
 62
     7
100
AcDbLine
 10
338.5668725297219
 20
251.3865287515209
 30
0.0
 11
338.5668725297219
 21
251.934943172574
 31
0.0
  0
LINE
  5
300
330
A
100
AcDbEntity
  8
LAYER_1
  6
Continuous
 62
     7
100
AcDbLine
 10
338.5668725297219
 20
251.934943172574
 30
0.0
 11
345.5652445868329
 21
251.934943172574
 31
0.0
  0
LINE
  5
301
330
A
100
AcDbEntity
  8
LAYER_1
  6
Continuous
 62
     7
100
AcDbLine
 10
345.5652445868329
 20
251.934943172574
 30
0.0
 11
345.56336540488
 21
251.3865287515209
 31
0.0
  0
LINE
  5
302
330
A
100
AcDbEntity
  8
LAYER_1
  6
Continuous
 62
     7
100
AcDbLine
 10
339.5652445868329
 20
251.934943172574
 30
0.0
 11
339.5652445868329
 21
252.434943172574
 31
0.0
  0
LINE
  5
303
330
A
100
AcDbEntity
  8
LAYER_1
  6
Continuous
 62
     7
100
AcDbLine
 10
339.5652445868329
 20
252.434943172574
 30
0.0
 11
344.5652445868329
 21
252.434943172574
 31
0.0
  0
LINE
  5
304
330
A
100
AcDbEntity
  8
LAYER_1
  6
Continuous
 62
     7
100
AcDbLine
 10
344.5652445868329
 20
252.434943172574
 30
0.0
 11
344.5652445868329
 21
251.934943172574
 31
0.0
  0
LINE
  5
305
330
A
100
AcDbEntity
  8
LAYER_1
  6
Continuous
 62
     7
100
AcDbLine
 10
339.5652445868329
 20
252.434943172574
 30
0.0
 11
339.065244586833
 21
252.434943172574
 31
0.0
  0
LINE
  5
306
330
A
100
AcDbEntity
  8
LAYER_1
  6
Continuous
 62
     7
100
AcDbLine
 10
345.065244586833
 20
252.434943172574
 30
0.0
 11
344.5652445868329
 21
252.434943172574
 31
0.0
  0
LINE
  5
307
330
A
100
AcDbEntity
  8
LAYER_1
  6
Continuous
 62
     7
100
AcDbLine
 10
339.065244586833
 20
252.434943172574
 30
0.0
 11
339.065244586833
 21
252.934943172573
 31
0.0
  0
LINE
  5
308
330
A
100
AcDbEntity
  8
LAYER_1
  6
Continuous
 62
     7
100
AcDbLine
 10
341.065244586833
 20
254.934943172573
 30
0.0
 11
343.065244586832
 21
254.934943172574
 31
0.0
  0
LINE
  5
309
330
A
100
AcDbEntity
  8
LAYER_1
  6
Continuous
 62
     7
100
AcDbLine
 10
345.0652445868319
 20
252.934943172574
 30
0.0
 11
345.065244586833
 21
252.434943172574
 31
0.0
  0
ARC
  5
30A
330
A
100
AcDbEntity
  8
LAYER_1
  6
Continuous
 62
     7
100
AcDbCircle
 10
341.065244586834
 20
252.934943172573
 30
0.0
 40
2.0
100
AcDbArc
 50
90.0
 51
180.0
  0
ARC
  5
30B
330
A
100
AcDbEntity
  8
LAYER_1
  6
Continuous
 62
     7
100
AcDbCircle
 10
343.065244586833
 20
252.934943172574
 30
0.0
 40
2.0
100
AcDbArc
 50
0.0
 51
90.000000000013
  0
LINE
  5
30C
330
A
100
AcDbEntity
  8
LAYER_1
  6
Continuous
 62
     7
100
AcDbLine
 10
238.837365550096
 20
148.1756896533539
 30
0.0
 11
238.837365550096
 21
155.1756896533539
 31
0.0
  0
LINE
  5
30D
330
A
100
AcDbEntity
  8
LAYER_1
  6
Continuous
 62
     7
100
AcDbLine
 10
238.837365550096
 20
155.1756896533539
 30
0.0
 11
239.496089930138
 21
155.1756896533539
 31
0.0
  0
LINE
  5
30E
330
A
100
AcDbEntity
  8
LAYER_1
  6
Continuous
 62
     7
100
AcDbLine
 10
238.837365550096
 20
149.1756896533539
 30
0.0
 11
238.337365550096
 21
149.1756896533539
 31
0.0
  0
LINE
  5
30F
330
A
100
AcDbEntity
  8
LAYER_1
  6
Continuous
 62
     7
100
AcDbLine
 10
238.337365550096
 20
149.1756896533539
 30
0.0
 11
238.337365550096
 21
154.175689653354
 31
0.0
  0
LINE
  5
310
330
A
100
AcDbEntity
  8
LAYER_1
  6
Continuous
 62
     7
100
AcDbLine
 10
238.337365550096
 20
154.175689653354
 30
0.0
 11
238.837365550096
 21
154.175689653354
 31
0.0
  0
LINE
  5
311
330
A
100
AcDbEntity
  8
LAYER_1
  6
Continuous
 62
     7
100
AcDbLine
 10
238.337365550096
 20
149.1756896533539
 30
0.0
 11
238.337365550096
 21
148.675689653354
 31
0.0
  0
LINE
  5
312
330
A
100
AcDbEntity
  8
LAYER_1
  6
Continuous
 62
     7
100
AcDbLine
 10
238.337365550096
 20
154.675689653354
 30
0.0
 11
238.337365550096
 21
154.175689653354
 31
0.0
  0
LINE
  5
313
330
A
100
AcDbEntity
  8
LAYER_1
  6
Continuous
 62
     7
100
AcDbLine
 10
238.337365550096
 20
148.675689653354
 30
0.0
 11
237.837365550097
 21
148.675689653354
 31
0.0
  0
LINE
  5
314
330
A
100
AcDbEntity
  8
LAYER_1
  6
Continuous
 62
     7
100
AcDbLine
 10
235.837365550097
 20
150.675689653354
 30
0.0
 11
235.837365550096
 21
152.675689653354
 31
0.0
  0
LINE
  5
315
330
A
100
AcDbEntity
  8
LAYER_1
  6
Continuous
 62
     7
100
AcDbLine
 10
237.837365550096
 20
154.675689653354
 30
0.0
 11
238.337365550096
 21
154.675689653354
 31
0.0
  0
ARC
  5
316
330
A
100
AcDbEntity
  8
LAYER_1
  6
Continuous
 62
     7
100
AcDbCircle
 10
237.837365550097
 20
150.675689653354
 30
0.0
 40
2.0
100
AcDbArc
 50
180.0
 51
270.0
  0
ARC
  5
317
330
A
100
AcDbEntity
  8
LAYER_1
  6
Continuous
 62
     7
100
AcDbCircle
 10
237.837365550096
 20
152.675689653354
 30
0.0
 40
2.0
100
AcDbArc
 50
90.0
 51
180.000000000013
  0
LINE
  5
318
330
A
100
AcDbEntity
  8
LAYER_1
  6
Continuous
 62
     7
100
AcDbLine
 10
239.496089930138
 20
142.839391212791
 30
0.0
 11
239.052707872057
 21
142.839391212791
 31
0.0
  0
LINE
  5
319
330
A
100
AcDbEntity
  8
LAYER_1
  6
Continuous
 62
     7
100
AcDbLine
 10
239.052707872057
 20
148.1756896533549
 30
0.0
 11
239.052707872057
 21
142.839391212791
 31
0.0
  0
LINE
  5
31A
330
A
100
AcDbEntity
  8
LAYER_1
  6
Continuous
 62
     7
100
AcDbLine
 10
239.052707872057
 20
143.839391212791
 30
0.0
 11
238.552707872057
 21
143.839391212791
 31
0.0
  0
LINE
  5
31B
330
A
100
AcDbEntity
  8
LAYER_1
  6
Continuous
 62
     7
100
AcDbLine
 10
238.552707872057
 20
143.839391212791
 30
0.0
 11
238.552707872057
 21
148.839391212791
 31
0.0
  0
LINE
  5
31C
330
A
100
AcDbEntity
  8
LAYER_1
  6
Continuous
 62
     7
100
AcDbLine
 10
238.552707872057
 20
148.839391212791
 30
0.0
 11
238.837365550096
 21
148.839391212791
 31
0.0
  0
LINE
  5
31D
330
A
100
AcDbEntity
  8
LAYER_1
  6
Continuous
 62
     7
100
AcDbLine
 10
238.552707872057
 20
143.839391212791
 30
0.0
 11
238.552707872057
 21
143.339391212791
 31
0.0
  0
LINE
  5
31E
330
A
100
AcDbEntity
  8
LAYER_1
  6
Continuous
 62
     7
100
AcDbLine
 10
238.552707872057
 20
149.1756896533539
 30
0.0
 11
238.552707872057
 21
148.839391212791
 31
0.0
  0
LINE
  5
31F
330
A
100
AcDbEntity
  8
LAYER_1
  6
Continuous
 62
     7
100
AcDbLine
 10
238.552707872057
 20
143.339391212791
 30
0.0
 11
238.0527078720569
 21
143.339391212791
 31
0.0
  0
LINE
  5
320
330
A
100
AcDbEntity
  8
LAYER_1
  6
Continuous
 62
     7
100
AcDbLine
 10
236.0527078720569
 20
145.339391212791
 30
0.0
 11
236.0527078720569
 21
147.3393912127899
 31
0.0
  0
ARC
  5
321
330
A
100
AcDbEntity
  8
LAYER_1
  6
Continuous
 62
     7
100
AcDbCircle
 10
238.0527078720569
 20
145.339391212791
 30
0.0
 40
2.0
100
AcDbArc
 50
180.0
 51
270.0
  0
LWPOLYLINE
  5
322
330
A
100
AcDbEntity
  8
LAYER_1
  6
Continuous
 62
     7
100
AcDbPolyline
 90
        2
 70
     0
 43
0.0
 10
373.075316892152
 20
253.011055609654
 10
373.075316892152
 20
251.3865287515209
  0
LINE
  5
326
330
A
100
AcDbEntity
  8
LAYER_1
  6
Continuous
 62
     7
100
AcDbLine
 10
320.743910767351
 20
244.8865287515209
 30
0.0
 11
328.243910767351
 21
244.8865287515209
 31
0.0
  0
LINE
  5
327
330
A
100
AcDbEntity
  8
LAYER_1
  6
Continuous
 62
     7
100
AcDbLine
 10
324.493910767351
 20
241.1365287515209
 30
0.0
 11
324.493910767351
 21
248.636528751521
 31
0.0
  0
LINE
  5
328
330
A
100
AcDbEntity
  8
LAYER_1
  6
Continuous
 62
     7
100
AcDbLine
 10
420.743910767351
 20
244.8865287515209
 30
0.0
 11
428.243910767351
 21
244.8865287515209
 31
0.0
  0
LINE
  5
329
330
A
100
AcDbEntity
  8
LAYER_1
  6
Continuous
 62
     7
100
AcDbLine
 10
424.4939107673509
 20
241.1365287515209
 30
0.0
 11
424.4939107673509
 21
248.636528751521
 31
0.0
  0
LINE
  5
32A
330
A
100
AcDbEntity
  8
LAYER_1
  6
Continuous
 62
     7
100
AcDbLine
 10
333.648007685779
 20
151.36955294014
 30
0.0
 11
335.370191715264
 21
151.36955294014
 31
0.0
  0
LINE
  5
32B
330
A
100
AcDbEntity
  8
LAYER_1
  6
Continuous
 62
     7
100
AcDbLine
 10
334.509099700521
 20
150.5084609253979
 30
0.0
 11
334.509099700521
 21
152.2306449548829
 31
0.0
  0
LINE
  5
32C
330
A
100
AcDbEntity
  8
LAYER_1
  6
Continuous
 62
     7
100
AcDbLine
 10
413.643909865128
 20
151.3713944339539
 30
0.0
 11
415.366093894613
 21
151.3713944339539
 31
0.0
  0
LINE
  5
32D
330
A
100
AcDbEntity
  8
LAYER_1
  6
Continuous
 62
     7
100
AcDbLine
 10
414.5050018798709
 20
150.5103024192109
 30
0.0
 11
414.5050018798709
 21
152.232486448696
 31
0.0
  0
LINE
  5
32E
330
A
100
AcDbEntity
  8
LAYER_1
  6
Continuous
 62
     7
100
AcDbLine
 10
413.5998101104959
 20
71.383758769509
 30
0.0
 11
415.321994139981
 21
71.383758769509
 31
0.0
  0
LINE
  5
32F
330
A
100
AcDbEntity
  8
LAYER_1
  6
Continuous
 62
     7
100
AcDbLine
 10
414.460902125239
 20
70.522666754767
 30
0.0
 11
414.460902125239
 21
72.244850784251
 31
0.0
  0
LINE
  5
330
330
A
100
AcDbEntity
  8
LAYER_1
  6
Continuous
 62
     7
100
AcDbLine
 10
333.6417615671759
 20
71.38376483358499
 30
0.0
 11
335.36394559666
 21
71.38376483358499
 31
0.0
  0
LINE
  5
331
330
A
100
AcDbEntity
  8
LAYER_1
  6
Continuous
 62
     7
100
AcDbLine
 10
334.5028535819179
 20
70.52267281884301
 30
0.0
 11
334.5028535819179
 21
72.244856848327
 31
0.0
  0
LINE
  5
332
330
A
100
AcDbEntity
  8
LAYER_1
  6
Continuous
 62
     7
100
AcDbLine
 10
358.9939107673509
 20
141.3371324671579
 30
0.0
 11
359.993910767351
 21
141.3371324671579
 31
0.0
  0
LINE
  5
333
330
A
100
AcDbEntity
  8
LAYER_1
  6
Continuous
 62
     7
100
AcDbLine
 10
359.493910767351
 20
140.837132467158
 30
0.0
 11
359.493910767351
 21
141.837132467158
 31
0.0
  0
LINE
  5
334
330
A
100
AcDbEntity
  8
LAYER_1
  6
Continuous
 62
     7
100
AcDbLine
 10
373.993910767351
 20
141.3371324671579
 30
0.0
 11
374.993910767351
 21
141.3371324671579
 31
0.0
  0
LINE
  5
335
330
A
100
AcDbEntity
  8
LAYER_1
  6
Continuous
 62
     7
100
AcDbLine
 10
374.493910767351
 20
140.837132467158
 30
0.0
 11
374.493910767351
 21
141.837132467158
 31
0.0
  0
LINE
  5
336
330
A
100
AcDbEntity
  8
LAYER_1
  6
Continuous
 62
     7
100
AcDbLine
 10
388.993910767351
 20
141.3371324671579
 30
0.0
 11
389.9939107673509
 21
141.3371324671579
 31
0.0
  0
LINE
  5
337
330
A
100
AcDbEntity
  8
LAYER_1
  6
Continuous
 62
     7
100
AcDbLine
 10
389.493910767351
 20
140.837132467158
 30
0.0
 11
389.493910767351
 21
141.837132467158
 31
0.0
  0
LINE
  5
338
330
A
100
AcDbEntity
  8
LAYER_1
  6
Continuous
 62
     7
100
AcDbLine
 10
111.678156186245
 20
151.36955294014
 30
0.0
 11
113.4781561862449
 21
151.36955294014
 31
0.0
  0
LINE
  5
339
330
A
100
AcDbEntity
  8
LAYER_1
  6
Continuous
 62
     7
100
AcDbLine
 10
112.578156186245
 20
150.46955294014
 30
0.0
 11
112.578156186245
 21
152.2695529401399
 31
0.0
  0
LINE
  5
33A
330
A
100
AcDbEntity
  8
LAYER_1
  6
Continuous
 62
     7
100
AcDbLine
 10
119.162967253075
 20
146.36955294014
 30
0.0
 11
120.962967253075
 21
146.36955294014
 31
0.0
  0
LINE
  5
33B
330
A
100
AcDbEntity
  8
LAYER_1
  6
Continuous
 62
     7
100
AcDbLine
 10
120.062967253075
 20
145.46955294014
 30
0.0
 11
120.062967253075
 21
147.2695529401399
 31
0.0
  0
LINE
  5
33C
330
A
100
AcDbEntity
  8
LAYER_1
  6
Continuous
 62
     7
100
AcDbLine
 10
184.162967253075
 20
146.36955294014
 30
0.0
 11
185.9629672530749
 21
146.36955294014
 31
0.0
  0
LINE
  5
33D
330
A
100
AcDbEntity
  8
LAYER_1
  6
Continuous
 62
     7
100
AcDbLine
 10
185.0629672530749
 20
145.46955294014
 30
0.0
 11
185.0629672530749
 21
147.2695529401399
 31
0.0
  0
LINE
  5
33E
330
A
100
AcDbEntity
  8
LAYER_1
  6
Continuous
 62
     7
100
AcDbLine
 10
191.674058365594
 20
151.371394433953
 30
0.0
 11
193.4740583655939
 21
151.371394433953
 31
0.0
  0
LINE
  5
33F
330
A
100
AcDbEntity
  8
LAYER_1
  6
Continuous
 62
     7
100
AcDbLine
 10
192.5740583655939
 20
150.471394433953
 30
0.0
 11
192.5740583655939
 21
152.2713944339529
 31
0.0
  0
LINE
  5
340
330
A
100
AcDbEntity
  8
LAYER_1
  6
Continuous
 62
     7
100
AcDbLine
 10
191.6299586109619
 20
71.383758769509
 30
0.0
 11
193.4299586109619
 21
71.383758769509
 31
0.0
  0
LINE
  5
341
330
A
100
AcDbEntity
  8
LAYER_1
  6
Continuous
 62
     7
100
AcDbLine
 10
192.5299586109619
 20
70.48375876950899
 30
0.0
 11
192.5299586109619
 21
72.28375876950901
 31
0.0
  0
LINE
  5
342
330
A
100
AcDbEntity
  8
LAYER_1
  6
Continuous
 62
     7
100
AcDbLine
 10
184.162967253075
 20
76.38376483358499
 30
0.0
 11
185.9629672530749
 21
76.38376483358499
 31
0.0
  0
LINE
  5
343
330
A
100
AcDbEntity
  8
LAYER_1
  6
Continuous
 62
     7
100
AcDbLine
 10
185.0629672530749
 20
75.483764833585
 30
0.0
 11
185.0629672530749
 21
77.28376483358499
 31
0.0
  0
LINE
  5
344
330
A
100
AcDbEntity
  8
LAYER_1
  6
Continuous
 62
     7
100
AcDbLine
 10
119.162967253075
 20
76.38376483358499
 30
0.0
 11
120.962967253075
 21
76.38376483358499
 31
0.0
  0
LINE
  5
345
330
A
100
AcDbEntity
  8
LAYER_1
  6
Continuous
 62
     7
100
AcDbLine
 10
120.062967253075
 20
75.483764833585
 30
0.0
 11
120.062967253075
 21
77.28376483358499
 31
0.0
  0
LINE
  5
346
330
A
100
AcDbEntity
  8
LAYER_1
  6
Continuous
 62
     7
100
AcDbLine
 10
111.6719100676409
 20
71.38376483358499
 30
0.0
 11
113.4719100676409
 21
71.38376483358499
 31
0.0
  0
LINE
  5
347
330
A
100
AcDbEntity
  8
LAYER_1
  6
Continuous
 62
     7
100
AcDbLine
 10
112.5719100676409
 20
70.483764833585
 30
0.0
 11
112.5719100676409
 21
72.28376483358499
 31
0.0
  0
ARC
  5
348
330
A
100
AcDbEntity
  8
LAYER_1
  6
Continuous
 62
     7
100
AcDbCircle
 10
238.0527078720569
 20
147.3393912127899
 30
0.0
 40
2.0
100
AcDbArc
 50
126.992750973521
 51
180.000000000013
  0
LINE
  5
349
330
A
100
AcDbEntity
  8
LAYER_1
  6
Continuous
 62
     7
100
AcDbLine
 10
238.837365550096
 20
148.1756896533539
 30
0.0
 11
239.496089930138
 21
148.1756896533539
 31
0.0
  0
DIMENSION
  5
34A
330
A
100
AcDbEntity
  8
LAYER_1
  6
Continuous
 62
     7
100
AcDbDimension
  2
*D2
 10
419.4939107673509
 20
171.3865287515209
 30
0.0
 11
374.493910767351
 21
173.3865287515209
 31
0.0
 71
     5
 42
-1.0
  3
MARK2_DIMSTYLE
100
AcDbAlignedDimension
 13
329.4939107673509
 23
156.3865287515209
 33
0.0
 14
419.4939107673509
 24
156.3865287515209
 34
0.0
100
AcDbRotatedDimension
1001
ACAD
1000
DSTYLE
1002
{
1070
    41
1040
4.0
1002
}
  0
DIMENSION
  5
34B
330
A
100
AcDbEntity
  8
LAYER_1
  6
Continuous
 62
     7
100
AcDbDimension
  2
*D3
 10
449.4939107673509
 20
156.3865287515209
 30
0.0
 11
447.493910767351
 21
110.6365287515209
 31
0.0
 71
     5
 42
-1.0
  3
MARK2_DIMSTYLE
100
AcDbAlignedDimension
 13
429.493910767351
 23
64.886528751521
 33
0.0
 14
419.4939107673509
 24
156.3865287515209
 34
0.0
 50
90.0
100
AcDbRotatedDimension
1001
ACAD
1000
DSTYLE
1002
{
1070
    41
1040
4.0
1002
}
  0
CIRCLE
  5
34C
330
A
100
AcDbEntity
  8
LAYER_1
  6
Continuous
 62
     7
100
AcDbCircle
 10
324.493910767351
 20
207.8865287515209
 30
0.0
 40
1.75
  0
CIRCLE
  5
34D
330
A
100
AcDbEntity
  8
LAYER_1
  6
Continuous
 62
     7
100
AcDbCircle
 10
424.4939107673509
 20
207.8865287515209
 30
0.0
 40
1.75
  0
LINE
  5
34E
330
A
100
AcDbEntity
  8
LAYER_1
  6
Continuous
 62
     7
100
AcDbLine
 10
320.743910767351
 20
207.8865287515209
 30
0.0
 11
328.243910767351
 21
207.8865287515209
 31
0.0
  0
LINE
  5
34F
330
A
100
AcDbEntity
  8
LAYER_1
  6
Continuous
 62
     7
100
AcDbLine
 10
324.493910767351
 20
211.6365287515209
 30
0.0
 11
324.493910767351
 21
204.1365287515209
 31
0.0
  0
LINE
  5
350
330
A
100
AcDbEntity
  8
LAYER_1
  6
Continuous
 62
     7
100
AcDbLine
 10
420.743910767351
 20
207.8865287515209
 30
0.0
 11
428.243910767351
 21
207.8865287515209
 31
0.0
  0
LINE
  5
351
330
A
100
AcDbEntity
  8
LAYER_1
  6
Continuous
 62
     7
100
AcDbLine
 10
424.4939107673509
 20
211.6365287515209
 30
0.0
 11
424.4939107673509
 21
204.1365287515209
 31
0.0
  0
DIMENSION
  5
352
330
A
100
AcDbEntity
  8
LAYER_1
  6
Continuous
 62
     7
100
AcDbDimension
  2
*D4
 10
449.4939107673509
 20
244.8865287515209
 30
0.0
 11
447.493910767351
 21
226.3865287515209
 31
0.0
 71
     5
 42
-1.0
  3
MARK2_DIMSTYLE
100
AcDbAlignedDimension
 13
428.243910767351
 23
207.8865287515209
 33
0.0
 14
428.243910767351
 24
244.8865287515209
 34
0.0
 50
90.0
100
AcDbRotatedDimension
1001
ACAD
1000
DSTYLE
1002
{
1070
    41
1040
4.0
1002
}
  0
DIMENSION
  5
353
330
A
100
AcDbEntity
  8
LAYER_1
  6
Continuous
 62
     7
100
AcDbDimension
  2
*D5
 10
464.493910767351
 20
251.3865287515209
 30
0.0
 11
462.493910767351
 21
226.3865287515209
 31
0.0
 71
     5
 42
-1.0
  3
MARK2_DIMSTYLE
100
AcDbAlignedDimension
 13
419.4939107673509
 23
201.3865287515209
 33
0.0
 14
419.4939107673509
 24
251.3865287515209
 34
0.0
 50
90.0
100
AcDbRotatedDimension
1001
ACAD
1000
DSTYLE
1002
{
1070
    41
1040
4.0
1002
}
  0
DIMENSION
  5
354
330
A
100
AcDbEntity
  8
LAYER_1
  6
Continuous
 62
     7
100
AcDbDimension
  2
*D6
 10
424.4939107673509
 20
264.886528751521
 30
0.0
 11
374.493910767351
 21
266.8865287515209
 31
0.0
 71
     5
 42
-1.0
  3
MARK2_DIMSTYLE
100
AcDbAlignedDimension
 13
324.493910767351
 23
248.636528751521
 33
0.0
 14
424.4939107673509
 24
248.636528751521
 34
0.0
100
AcDbRotatedDimension
1001
ACAD
1000
DSTYLE
1002
{
1070
    41
1040
4.0
1002
}
  0
DIMENSION
  5
355
330
A
100
AcDbEntity
  8
LAYER_1
  6
Continuous
 62
     7
100
AcDbDimension
  2
*D7
 10
429.493910767351
 20
279.886528751521
 30
0.0
 11
374.493910767351
 21
281.886528751521
 31
0.0
 71
     5
 42
-1.0
  3
MARK2_DIMSTYLE
100
AcDbAlignedDimension
 13
319.4939107673509
 23
247.8865287515209
 33
0.0
 14
429.493910767351
 24
247.8865287515209
 34
0.0
100
AcDbRotatedDimension
1001
ACAD
1000
DSTYLE
1002
{
1070
    41
1040
4.0
1002
}
  0
DIMENSION
  5
356
330
A
100
AcDbEntity
  8
LAYER_1
  6
Continuous
 62
     7
100
AcDbDimension
  2
*D8
 10
423.2564739002749
 20
243.6490918844449
 30
0.0
 11
476.493910767351
 21
266.8865287515209
 31
0.0
 70
     3
 71
     5
 42
-1.0
  3
MARK2_DIMSTYLE
100
AcDbDiametricDimension
 15
425.731347634428
 25
246.123965618598
 35
0.0
 40
0.0
1001
ACAD
1000
DSTYLE
1002
{
1070
    41
1040
4.0
1002
}
  0
TEXT
  5
357
330
A
100
AcDbEntity
  8
LAYER_1
 62
     7
100
AcDbText
 10
109.310974393116
 20
288.106696791439
 30
0.0
 40
12.0
  1
H-MVC-02
 41
1.033333333332999
  7
ＭＳ_ゴシック
100
AcDbText
  0
LWPOLYLINE
  5
358
330
A
100
AcDbEntity
  8
LAYER_1
  6
Continuous
 62
     7
100
AcDbPolyline
 90
        2
 70
     0
 43
0.0
 10
239.496089930138
 20
83.135040763434
 10
239.496089930138
 20
71.38244655741201
  0
ARC
  5
35C
330
A
100
AcDbEntity
  8
LAYER_1
  6
Continuous
 62
     7
100
AcDbCircle
 10
358.9939107673509
 20
201.3865287515209
 30
0.0
 40
2.5
100
AcDbArc
 50
180.0000000000009
 51
359.999999999999
  0
ARC
  5
35D
330
A
100
AcDbEntity
  8
LAYER_1
  6
Continuous
 62
     7
100
AcDbCircle
 10
389.9939107673509
 20
201.3865287515209
 30
0.0
 40
2.5
100
AcDbArc
 50
180.0000000000009
 51
359.999999999999
  0
ARC
  5
35E
330
A
100
AcDbEntity
  8
LAYER_1
  6
Continuous
 62
     7
100
AcDbCircle
 10
374.493910767351
 20
201.3865287515209
 30
0.0
 40
2.5
100
AcDbArc
 50
180.0000000000009
 51
359.999999999999
  0
LINE
  5
35F
330
A
100
AcDbEntity
  8
LAYER_1
  6
Continuous
 62
     7
100
AcDbLine
 10
247.496089930138
 20
114.3865287515209
 30
0.0
 11
247.496089930138
 21
104.3865287515209
 31
0.0
  0
LINE
  5
360
330
A
100
AcDbEntity
  8
LAYER_1
  6
Continuous
 62
     7
100
AcDbLine
 10
247.496089930138
 20
129.3865287515209
 30
0.0
 11
247.496089930138
 21
119.386528751521
 31
0.0
  0
LINE
  5
361
330
A
100
AcDbEntity
  8
LAYER_1
  6
Continuous
 62
     7
100
AcDbLine
 10
247.496089930138
 20
144.3865287515209
 30
0.0
 11
247.496089930138
 21
134.3865287515209
 31
0.0
  0
LINE
  5
362
330
A
100
AcDbEntity
  8
LAYER_1
  6
Continuous
 62
     7
100
AcDbLine
 10
265.496089930138
 20
129.3865287515209
 30
0.0
 11
263.4960899301379
 21
129.3865287515209
 31
0.0
  0
LINE
  5
363
330
A
100
AcDbEntity
  8
LAYER_1
  6
Continuous
 62
     7
100
AcDbLine
 10
263.4960899301379
 20
129.3865287515209
 30
0.0
 11
263.4960899301379
 21
119.386528751521
 31
0.0
  0
LINE
  5
364
330
A
100
AcDbEntity
  8
LAYER_1
  6
Continuous
 62
     7
100
AcDbLine
 10
263.4960899301379
 20
119.386528751521
 30
0.0
 11
265.496089930138
 21
119.386528751521
 31
0.0
  0
LINE
  5
365
330
A
100
AcDbEntity
  8
LAYER_1
  6
Continuous
 62
     7
100
AcDbLine
 10
265.496089930138
 20
119.386528751521
 30
0.0
 11
265.496089930138
 21
129.3865287515209
 31
0.0
  0
LINE
  5
366
330
A
100
AcDbEntity
  8
LAYER_1
  6
Continuous
 62
     7
100
AcDbLine
 10
261.4960899301379
 20
129.3865287515209
 30
0.0
 11
259.4960899301379
 21
129.3865287515209
 31
0.0
  0
LINE
  5
367
330
A
100
AcDbEntity
  8
LAYER_1
  6
Continuous
 62
     7
100
AcDbLine
 10
259.4960899301379
 20
129.3865287515209
 30
0.0
 11
259.4960899301379
 21
119.386528751521
 31
0.0
  0
LINE
  5
368
330
A
100
AcDbEntity
  8
LAYER_1
  6
Continuous
 62
     7
100
AcDbLine
 10
259.4960899301379
 20
119.386528751521
 30
0.0
 11
261.4960899301379
 21
119.386528751521
 31
0.0
  0
LINE
  5
369
330
A
100
AcDbEntity
  8
LAYER_1
  6
Continuous
 62
     7
100
AcDbLine
 10
261.4960899301379
 20
119.386528751521
 30
0.0
 11
261.4960899301379
 21
129.3865287515209
 31
0.0
  0
LINE
  5
36A
330
A
100
AcDbEntity
  8
LAYER_1
  6
Continuous
 62
     7
100
AcDbLine
 10
257.4960899301379
 20
129.3865287515209
 30
0.0
 11
255.496089930138
 21
129.3865287515209
 31
0.0
  0
LINE
  5
36B
330
A
100
AcDbEntity
  8
LAYER_1
  6
Continuous
 62
     7
100
AcDbLine
 10
255.496089930138
 20
129.3865287515209
 30
0.0
 11
255.496089930138
 21
119.386528751521
 31
0.0
  0
LINE
  5
36C
330
A
100
AcDbEntity
  8
LAYER_1
  6
Continuous
 62
     7
100
AcDbLine
 10
255.496089930138
 20
119.386528751521
 30
0.0
 11
257.4960899301379
 21
119.386528751521
 31
0.0
  0
LINE
  5
36D
330
A
100
AcDbEntity
  8
LAYER_1
  6
Continuous
 62
     7
100
AcDbLine
 10
257.4960899301379
 20
119.386528751521
 30
0.0
 11
257.4960899301379
 21
129.3865287515209
 31
0.0
  0
LINE
  5
36E
330
A
100
AcDbEntity
  8
LAYER_1
  6
Continuous
 62
     7
100
AcDbLine
 10
253.496089930138
 20
129.3865287515209
 30
0.0
 11
251.496089930138
 21
129.3865287515209
 31
0.0
  0
LINE
  5
36F
330
A
100
AcDbEntity
  8
LAYER_1
  6
Continuous
 62
     7
100
AcDbLine
 10
251.496089930138
 20
129.3865287515209
 30
0.0
 11
251.496089930138
 21
119.386528751521
 31
0.0
  0
LINE
  5
370
330
A
100
AcDbEntity
  8
LAYER_1
  6
Continuous
 62
     7
100
AcDbLine
 10
251.496089930138
 20
119.386528751521
 30
0.0
 11
253.496089930138
 21
119.386528751521
 31
0.0
  0
LINE
  5
371
330
A
100
AcDbEntity
  8
LAYER_1
  6
Continuous
 62
     7
100
AcDbLine
 10
253.496089930138
 20
119.386528751521
 30
0.0
 11
253.496089930138
 21
129.3865287515209
 31
0.0
  0
LINE
  5
372
330
A
100
AcDbEntity
  8
LAYER_1
  6
Continuous
 62
     7
100
AcDbLine
 10
265.496089930138
 20
114.3865287515209
 30
0.0
 11
263.4960899301379
 21
114.3865287515209
 31
0.0
  0
LINE
  5
373
330
A
100
AcDbEntity
  8
LAYER_1
  6
Continuous
 62
     7
100
AcDbLine
 10
263.4960899301379
 20
114.3865287515209
 30
0.0
 11
263.4960899301379
 21
104.3865287515209
 31
0.0
  0
LINE
  5
374
330
A
100
AcDbEntity
  8
LAYER_1
  6
Continuous
 62
     7
100
AcDbLine
 10
263.4960899301379
 20
104.3865287515209
 30
0.0
 11
265.496089930138
 21
104.3865287515209
 31
0.0
  0
LINE
  5
375
330
A
100
AcDbEntity
  8
LAYER_1
  6
Continuous
 62
     7
100
AcDbLine
 10
265.496089930138
 20
104.3865287515209
 30
0.0
 11
265.496089930138
 21
114.3865287515209
 31
0.0
  0
LINE
  5
376
330
A
100
AcDbEntity
  8
LAYER_1
  6
Continuous
 62
     7
100
AcDbLine
 10
261.4960899301379
 20
114.3865287515209
 30
0.0
 11
259.4960899301379
 21
114.3865287515209
 31
0.0
  0
LINE
  5
377
330
A
100
AcDbEntity
  8
LAYER_1
  6
Continuous
 62
     7
100
AcDbLine
 10
259.4960899301379
 20
114.3865287515209
 30
0.0
 11
259.4960899301379
 21
104.3865287515209
 31
0.0
  0
LINE
  5
378
330
A
100
AcDbEntity
  8
LAYER_1
  6
Continuous
 62
     7
100
AcDbLine
 10
259.4960899301379
 20
104.3865287515209
 30
0.0
 11
261.4960899301379
 21
104.3865287515209
 31
0.0
  0
LINE
  5
379
330
A
100
AcDbEntity
  8
LAYER_1
  6
Continuous
 62
     7
100
AcDbLine
 10
261.4960899301379
 20
104.3865287515209
 30
0.0
 11
261.4960899301379
 21
114.3865287515209
 31
0.0
  0
LINE
  5
37A
330
A
100
AcDbEntity
  8
LAYER_1
  6
Continuous
 62
     7
100
AcDbLine
 10
257.4960899301379
 20
114.3865287515209
 30
0.0
 11
255.496089930138
 21
114.3865287515209
 31
0.0
  0
LINE
  5
37B
330
A
100
AcDbEntity
  8
LAYER_1
  6
Continuous
 62
     7
100
AcDbLine
 10
255.496089930138
 20
114.3865287515209
 30
0.0
 11
255.496089930138
 21
104.3865287515209
 31
0.0
  0
LINE
  5
37C
330
A
100
AcDbEntity
  8
LAYER_1
  6
Continuous
 62
     7
100
AcDbLine
 10
255.496089930138
 20
104.3865287515209
 30
0.0
 11
257.4960899301379
 21
104.3865287515209
 31
0.0
  0
LINE
  5
37D
330
A
100
AcDbEntity
  8
LAYER_1
  6
Continuous
 62
     7
100
AcDbLine
 10
257.4960899301379
 20
104.3865287515209
 30
0.0
 11
257.4960899301379
 21
114.3865287515209
 31
0.0
  0
LINE
  5
37E
330
A
100
AcDbEntity
  8
LAYER_1
  6
Continuous
 62
     7
100
AcDbLine
 10
253.496089930138
 20
114.3865287515209
 30
0.0
 11
251.496089930138
 21
114.3865287515209
 31
0.0
  0
LINE
  5
37F
330
A
100
AcDbEntity
  8
LAYER_1
  6
Continuous
 62
     7
100
AcDbLine
 10
251.496089930138
 20
114.3865287515209
 30
0.0
 11
251.496089930138
 21
104.3865287515209
 31
0.0
  0
LINE
  5
380
330
A
100
AcDbEntity
  8
LAYER_1
  6
Continuous
 62
     7
100
AcDbLine
 10
251.496089930138
 20
104.3865287515209
 30
0.0
 11
253.496089930138
 21
104.3865287515209
 31
0.0
  0
LINE
  5
381
330
A
100
AcDbEntity
  8
LAYER_1
  6
Continuous
 62
     7
100
AcDbLine
 10
253.496089930138
 20
104.3865287515209
 30
0.0
 11
253.496089930138
 21
114.3865287515209
 31
0.0
  0
LINE
  5
382
330
A
100
AcDbEntity
  8
LAYER_1
  6
Continuous
 62
     7
100
AcDbLine
 10
249.496089930138
 20
114.3865287515209
 30
0.0
 11
247.496089930138
 21
114.3865287515209
 31
0.0
  0
LINE
  5
383
330
A
100
AcDbEntity
  8
LAYER_1
  6
Continuous
 62
     7
100
AcDbLine
 10
247.496089930138
 20
104.3865287515209
 30
0.0
 11
249.496089930138
 21
104.3865287515209
 31
0.0
  0
LINE
  5
384
330
A
100
AcDbEntity
  8
LAYER_1
  6
Continuous
 62
     7
100
AcDbLine
 10
249.496089930138
 20
104.3865287515209
 30
0.0
 11
249.496089930138
 21
114.3865287515209
 31
0.0
  0
LINE
  5
385
330
A
100
AcDbEntity
  8
LAYER_1
  6
Continuous
 62
     7
100
AcDbLine
 10
249.496089930138
 20
129.3865287515209
 30
0.0
 11
247.496089930138
 21
129.3865287515209
 31
0.0
  0
LINE
  5
386
330
A
100
AcDbEntity
  8
LAYER_1
  6
Continuous
 62
     7
100
AcDbLine
 10
247.496089930138
 20
119.386528751521
 30
0.0
 11
249.496089930138
 21
119.386528751521
 31
0.0
  0
LINE
  5
387
330
A
100
AcDbEntity
  8
LAYER_1
  6
Continuous
 62
     7
100
AcDbLine
 10
249.496089930138
 20
119.386528751521
 30
0.0
 11
249.496089930138
 21
129.3865287515209
 31
0.0
  0
LINE
  5
388
330
A
100
AcDbEntity
  8
LAYER_1
  6
Continuous
 62
     7
100
AcDbLine
 10
265.496089930138
 20
144.3865287515209
 30
0.0
 11
263.4960899301379
 21
144.3865287515209
 31
0.0
  0
LINE
  5
389
330
A
100
AcDbEntity
  8
LAYER_1
  6
Continuous
 62
     7
100
AcDbLine
 10
263.4960899301379
 20
144.3865287515209
 30
0.0
 11
263.4960899301379
 21
134.3865287515209
 31
0.0
  0
LINE
  5
38A
330
A
100
AcDbEntity
  8
LAYER_1
  6
Continuous
 62
     7
100
AcDbLine
 10
263.4960899301379
 20
134.3865287515209
 30
0.0
 11
265.496089930138
 21
134.3865287515209
 31
0.0
  0
LINE
  5
38B
330
A
100
AcDbEntity
  8
LAYER_1
  6
Continuous
 62
     7
100
AcDbLine
 10
265.496089930138
 20
134.3865287515209
 30
0.0
 11
265.496089930138
 21
144.3865287515209
 31
0.0
  0
LINE
  5
38C
330
A
100
AcDbEntity
  8
LAYER_1
  6
Continuous
 62
     7
100
AcDbLine
 10
261.4960899301379
 20
144.3865287515209
 30
0.0
 11
259.4960899301379
 21
144.3865287515209
 31
0.0
  0
LINE
  5
38D
330
A
100
AcDbEntity
  8
LAYER_1
  6
Continuous
 62
     7
100
AcDbLine
 10
259.4960899301379
 20
144.3865287515209
 30
0.0
 11
259.4960899301379
 21
134.3865287515209
 31
0.0
  0
LINE
  5
38E
330
A
100
AcDbEntity
  8
LAYER_1
  6
Continuous
 62
     7
100
AcDbLine
 10
259.4960899301379
 20
134.3865287515209
 30
0.0
 11
261.4960899301379
 21
134.3865287515209
 31
0.0
  0
LINE
  5
38F
330
A
100
AcDbEntity
  8
LAYER_1
  6
Continuous
 62
     7
100
AcDbLine
 10
261.4960899301379
 20
134.3865287515209
 30
0.0
 11
261.4960899301379
 21
144.3865287515209
 31
0.0
  0
LINE
  5
390
330
A
100
AcDbEntity
  8
LAYER_1
  6
Continuous
 62
     7
100
AcDbLine
 10
257.4960899301379
 20
144.3865287515209
 30
0.0
 11
255.496089930138
 21
144.3865287515209
 31
0.0
  0
LINE
  5
391
330
A
100
AcDbEntity
  8
LAYER_1
  6
Continuous
 62
     7
100
AcDbLine
 10
255.496089930138
 20
144.3865287515209
 30
0.0
 11
255.496089930138
 21
134.3865287515209
 31
0.0
  0
LINE
  5
392
330
A
100
AcDbEntity
  8
LAYER_1
  6
Continuous
 62
     7
100
AcDbLine
 10
255.496089930138
 20
134.3865287515209
 30
0.0
 11
257.4960899301379
 21
134.3865287515209
 31
0.0
  0
LINE
  5
393
330
A
100
AcDbEntity
  8
LAYER_1
  6
Continuous
 62
     7
100
AcDbLine
 10
257.4960899301379
 20
134.3865287515209
 30
0.0
 11
257.4960899301379
 21
144.3865287515209
 31
0.0
  0
LINE
  5
394
330
A
100
AcDbEntity
  8
LAYER_1
  6
Continuous
 62
     7
100
AcDbLine
 10
253.496089930138
 20
144.3865287515209
 30
0.0
 11
251.496089930138
 21
144.3865287515209
 31
0.0
  0
LINE
  5
395
330
A
100
AcDbEntity
  8
LAYER_1
  6
Continuous
 62
     7
100
AcDbLine
 10
251.496089930138
 20
144.3865287515209
 30
0.0
 11
251.496089930138
 21
134.3865287515209
 31
0.0
  0
LINE
  5
396
330
A
100
AcDbEntity
  8
LAYER_1
  6
Continuous
 62
     7
100
AcDbLine
 10
251.496089930138
 20
134.3865287515209
 30
0.0
 11
253.496089930138
 21
134.3865287515209
 31
0.0
  0
LINE
  5
397
330
A
100
AcDbEntity
  8
LAYER_1
  6
Continuous
 62
     7
100
AcDbLine
 10
253.496089930138
 20
134.3865287515209
 30
0.0
 11
253.496089930138
 21
144.3865287515209
 31
0.0
  0
LINE
  5
398
330
A
100
AcDbEntity
  8
LAYER_1
  6
Continuous
 62
     7
100
AcDbLine
 10
249.496089930138
 20
144.3865287515209
 30
0.0
 11
247.496089930138
 21
144.3865287515209
 31
0.0
  0
LINE
  5
399
330
A
100
AcDbEntity
  8
LAYER_1
  6
Continuous
 62
     7
100
AcDbLine
 10
247.496089930138
 20
134.3865287515209
 30
0.0
 11
249.496089930138
 21
134.3865287515209
 31
0.0
  0
LINE
  5
39A
330
A
100
AcDbEntity
  8
LAYER_1
  6
Continuous
 62
     7
100
AcDbLine
 10
249.496089930138
 20
134.3865287515209
 30
0.0
 11
249.496089930138
 21
144.3865287515209
 31
0.0
  0
LINE
  5
39B
330
A
100
AcDbEntity
  8
LAYER_1
  6
Continuous
 62
     7
100
AcDbLine
 10
281.496089930138
 20
114.3865287515209
 30
0.0
 11
281.496089930138
 21
104.3865287515209
 31
0.0
  0
LINE
  5
39C
330
A
100
AcDbEntity
  8
LAYER_1
  6
Continuous
 62
     7
100
AcDbLine
 10
281.496089930138
 20
129.3865287515209
 30
0.0
 11
281.496089930138
 21
119.386528751521
 31
0.0
  0
LINE
  5
39D
330
A
100
AcDbEntity
  8
LAYER_1
  6
Continuous
 62
     7
100
AcDbLine
 10
281.496089930138
 20
144.3865287515209
 30
0.0
 11
281.496089930138
 21
134.3865287515209
 31
0.0
  0
LINE
  5
39E
330
A
100
AcDbEntity
  8
LAYER_1
  6
Continuous
 62
     7
100
AcDbLine
 10
267.496089930138
 20
129.3865287515209
 30
0.0
 11
269.496089930138
 21
129.3865287515209
 31
0.0
  0
LINE
  5
39F
330
A
100
AcDbEntity
  8
LAYER_1
  6
Continuous
 62
     7
100
AcDbLine
 10
269.496089930138
 20
129.3865287515209
 30
0.0
 11
269.496089930138
 21
119.386528751521
 31
0.0
  0
LINE
  5
3A0
330
A
100
AcDbEntity
  8
LAYER_1
  6
Continuous
 62
     7
100
AcDbLine
 10
269.496089930138
 20
119.386528751521
 30
0.0
 11
267.496089930138
 21
119.386528751521
 31
0.0
  0
LINE
  5
3A1
330
A
100
AcDbEntity
  8
LAYER_1
  6
Continuous
 62
     7
100
AcDbLine
 10
267.496089930138
 20
119.386528751521
 30
0.0
 11
267.496089930138
 21
129.3865287515209
 31
0.0
  0
LINE
  5
3A2
330
A
100
AcDbEntity
  8
LAYER_1
  6
Continuous
 62
     7
100
AcDbLine
 10
271.496089930138
 20
129.3865287515209
 30
0.0
 11
273.496089930138
 21
129.3865287515209
 31
0.0
  0
LINE
  5
3A3
330
A
100
AcDbEntity
  8
LAYER_1
  6
Continuous
 62
     7
100
AcDbLine
 10
273.496089930138
 20
129.3865287515209
 30
0.0
 11
273.496089930138
 21
119.386528751521
 31
0.0
  0
LINE
  5
3A4
330
A
100
AcDbEntity
  8
LAYER_1
  6
Continuous
 62
     7
100
AcDbLine
 10
273.496089930138
 20
119.386528751521
 30
0.0
 11
271.496089930138
 21
119.386528751521
 31
0.0
  0
LINE
  5
3A5
330
A
100
AcDbEntity
  8
LAYER_1
  6
Continuous
 62
     7
100
AcDbLine
 10
271.496089930138
 20
119.386528751521
 30
0.0
 11
271.496089930138
 21
129.3865287515209
 31
0.0
  0
LINE
  5
3A6
330
A
100
AcDbEntity
  8
LAYER_1
  6
Continuous
 62
     7
100
AcDbLine
 10
275.496089930138
 20
129.3865287515209
 30
0.0
 11
277.496089930138
 21
129.3865287515209
 31
0.0
  0
LINE
  5
3A7
330
A
100
AcDbEntity
  8
LAYER_1
  6
Continuous
 62
     7
100
AcDbLine
 10
277.496089930138
 20
129.3865287515209
 30
0.0
 11
277.496089930138
 21
119.386528751521
 31
0.0
  0
LINE
  5
3A8
330
A
100
AcDbEntity
  8
LAYER_1
  6
Continuous
 62
     7
100
AcDbLine
 10
277.496089930138
 20
119.386528751521
 30
0.0
 11
275.496089930138
 21
119.386528751521
 31
0.0
  0
LINE
  5
3A9
330
A
100
AcDbEntity
  8
LAYER_1
  6
Continuous
 62
     7
100
AcDbLine
 10
275.496089930138
 20
119.386528751521
 30
0.0
 11
275.496089930138
 21
129.3865287515209
 31
0.0
  0
LINE
  5
3AA
330
A
100
AcDbEntity
  8
LAYER_1
  6
Continuous
 62
     7
100
AcDbLine
 10
267.496089930138
 20
114.3865287515209
 30
0.0
 11
269.496089930138
 21
114.3865287515209
 31
0.0
  0
LINE
  5
3AB
330
A
100
AcDbEntity
  8
LAYER_1
  6
Continuous
 62
     7
100
AcDbLine
 10
269.496089930138
 20
114.3865287515209
 30
0.0
 11
269.496089930138
 21
104.3865287515209
 31
0.0
  0
LINE
  5
3AC
330
A
100
AcDbEntity
  8
LAYER_1
  6
Continuous
 62
     7
100
AcDbLine
 10
269.496089930138
 20
104.3865287515209
 30
0.0
 11
267.496089930138
 21
104.3865287515209
 31
0.0
  0
LINE
  5
3AD
330
A
100
AcDbEntity
  8
LAYER_1
  6
Continuous
 62
     7
100
AcDbLine
 10
267.496089930138
 20
104.3865287515209
 30
0.0
 11
267.496089930138
 21
114.3865287515209
 31
0.0
  0
LINE
  5
3AE
330
A
100
AcDbEntity
  8
LAYER_1
  6
Continuous
 62
     7
100
AcDbLine
 10
271.496089930138
 20
114.3865287515209
 30
0.0
 11
273.496089930138
 21
114.3865287515209
 31
0.0
  0
LINE
  5
3AF
330
A
100
AcDbEntity
  8
LAYER_1
  6
Continuous
 62
     7
100
AcDbLine
 10
273.496089930138
 20
114.3865287515209
 30
0.0
 11
273.496089930138
 21
104.3865287515209
 31
0.0
  0
LINE
  5
3B0
330
A
100
AcDbEntity
  8
LAYER_1
  6
Continuous
 62
     7
100
AcDbLine
 10
273.496089930138
 20
104.3865287515209
 30
0.0
 11
271.496089930138
 21
104.3865287515209
 31
0.0
  0
LINE
  5
3B1
330
A
100
AcDbEntity
  8
LAYER_1
  6
Continuous
 62
     7
100
AcDbLine
 10
271.496089930138
 20
104.3865287515209
 30
0.0
 11
271.496089930138
 21
114.3865287515209
 31
0.0
  0
LINE
  5
3B2
330
A
100
AcDbEntity
  8
LAYER_1
  6
Continuous
 62
     7
100
AcDbLine
 10
275.496089930138
 20
114.3865287515209
 30
0.0
 11
277.496089930138
 21
114.3865287515209
 31
0.0
  0
LINE
  5
3B3
330
A
100
AcDbEntity
  8
LAYER_1
  6
Continuous
 62
     7
100
AcDbLine
 10
277.496089930138
 20
114.3865287515209
 30
0.0
 11
277.496089930138
 21
104.3865287515209
 31
0.0
  0
LINE
  5
3B4
330
A
100
AcDbEntity
  8
LAYER_1
  6
Continuous
 62
     7
100
AcDbLine
 10
277.496089930138
 20
104.3865287515209
 30
0.0
 11
275.496089930138
 21
104.3865287515209
 31
0.0
  0
LINE
  5
3B5
330
A
100
AcDbEntity
  8
LAYER_1
  6
Continuous
 62
     7
100
AcDbLine
 10
275.496089930138
 20
104.3865287515209
 30
0.0
 11
275.496089930138
 21
114.3865287515209
 31
0.0
  0
LINE
  5
3B6
330
A
100
AcDbEntity
  8
LAYER_1
  6
Continuous
 62
     7
100
AcDbLine
 10
279.496089930138
 20
114.3865287515209
 30
0.0
 11
281.496089930138
 21
114.3865287515209
 31
0.0
  0
LINE
  5
3B7
330
A
100
AcDbEntity
  8
LAYER_1
  6
Continuous
 62
     7
100
AcDbLine
 10
281.496089930138
 20
104.3865287515209
 30
0.0
 11
279.496089930138
 21
104.3865287515209
 31
0.0
  0
LINE
  5
3B8
330
A
100
AcDbEntity
  8
LAYER_1
  6
Continuous
 62
     7
100
AcDbLine
 10
279.496089930138
 20
104.3865287515209
 30
0.0
 11
279.496089930138
 21
114.3865287515209
 31
0.0
  0
LINE
  5
3B9
330
A
100
AcDbEntity
  8
LAYER_1
  6
Continuous
 62
     7
100
AcDbLine
 10
279.496089930138
 20
129.3865287515209
 30
0.0
 11
281.496089930138
 21
129.3865287515209
 31
0.0
  0
LINE
  5
3BA
330
A
100
AcDbEntity
  8
LAYER_1
  6
Continuous
 62
     7
100
AcDbLine
 10
281.496089930138
 20
119.386528751521
 30
0.0
 11
279.496089930138
 21
119.386528751521
 31
0.0
  0
LINE
  5
3BB
330
A
100
AcDbEntity
  8
LAYER_1
  6
Continuous
 62
     7
100
AcDbLine
 10
279.496089930138
 20
119.386528751521
 30
0.0
 11
279.496089930138
 21
129.3865287515209
 31
0.0
  0
LINE
  5
3BC
330
A
100
AcDbEntity
  8
LAYER_1
  6
Continuous
 62
     7
100
AcDbLine
 10
267.496089930138
 20
144.3865287515209
 30
0.0
 11
269.496089930138
 21
144.3865287515209
 31
0.0
  0
LINE
  5
3BD
330
A
100
AcDbEntity
  8
LAYER_1
  6
Continuous
 62
     7
100
AcDbLine
 10
269.496089930138
 20
144.3865287515209
 30
0.0
 11
269.496089930138
 21
134.3865287515209
 31
0.0
  0
LINE
  5
3BE
330
A
100
AcDbEntity
  8
LAYER_1
  6
Continuous
 62
     7
100
AcDbLine
 10
269.496089930138
 20
134.3865287515209
 30
0.0
 11
267.496089930138
 21
134.3865287515209
 31
0.0
  0
LINE
  5
3BF
330
A
100
AcDbEntity
  8
LAYER_1
  6
Continuous
 62
     7
100
AcDbLine
 10
267.496089930138
 20
134.3865287515209
 30
0.0
 11
267.496089930138
 21
144.3865287515209
 31
0.0
  0
LINE
  5
3C0
330
A
100
AcDbEntity
  8
LAYER_1
  6
Continuous
 62
     7
100
AcDbLine
 10
271.496089930138
 20
144.3865287515209
 30
0.0
 11
273.496089930138
 21
144.3865287515209
 31
0.0
  0
LINE
  5
3C1
330
A
100
AcDbEntity
  8
LAYER_1
  6
Continuous
 62
     7
100
AcDbLine
 10
273.496089930138
 20
144.3865287515209
 30
0.0
 11
273.496089930138
 21
134.3865287515209
 31
0.0
  0
LINE
  5
3C2
330
A
100
AcDbEntity
  8
LAYER_1
  6
Continuous
 62
     7
100
AcDbLine
 10
273.496089930138
 20
134.3865287515209
 30
0.0
 11
271.496089930138
 21
134.3865287515209
 31
0.0
  0
LINE
  5
3C3
330
A
100
AcDbEntity
  8
LAYER_1
  6
Continuous
 62
     7
100
AcDbLine
 10
271.496089930138
 20
134.3865287515209
 30
0.0
 11
271.496089930138
 21
144.3865287515209
 31
0.0
  0
LINE
  5
3C4
330
A
100
AcDbEntity
  8
LAYER_1
  6
Continuous
 62
     7
100
AcDbLine
 10
275.496089930138
 20
144.3865287515209
 30
0.0
 11
277.496089930138
 21
144.3865287515209
 31
0.0
  0
LINE
  5
3C5
330
A
100
AcDbEntity
  8
LAYER_1
  6
Continuous
 62
     7
100
AcDbLine
 10
277.496089930138
 20
144.3865287515209
 30
0.0
 11
277.496089930138
 21
134.3865287515209
 31
0.0
  0
LINE
  5
3C6
330
A
100
AcDbEntity
  8
LAYER_1
  6
Continuous
 62
     7
100
AcDbLine
 10
277.496089930138
 20
134.3865287515209
 30
0.0
 11
275.496089930138
 21
134.3865287515209
 31
0.0
  0
LINE
  5
3C7
330
A
100
AcDbEntity
  8
LAYER_1
  6
Continuous
 62
     7
100
AcDbLine
 10
275.496089930138
 20
134.3865287515209
 30
0.0
 11
275.496089930138
 21
144.3865287515209
 31
0.0
  0
LINE
  5
3C8
330
A
100
AcDbEntity
  8
LAYER_1
  6
Continuous
 62
     7
100
AcDbLine
 10
279.496089930138
 20
144.3865287515209
 30
0.0
 11
281.496089930138
 21
144.3865287515209
 31
0.0
  0
LINE
  5
3C9
330
A
100
AcDbEntity
  8
LAYER_1
  6
Continuous
 62
     7
100
AcDbLine
 10
281.496089930138
 20
134.3865287515209
 30
0.0
 11
279.496089930138
 21
134.3865287515209
 31
0.0
  0
LINE
  5
3CA
330
A
100
AcDbEntity
  8
LAYER_1
  6
Continuous
 62
     7
100
AcDbLine
 10
279.496089930138
 20
134.3865287515209
 30
0.0
 11
279.496089930138
 21
144.3865287515209
 31
0.0
  0
LEADER
  5
3CB
330
A
100
AcDbEntity
  8
LAYER_1
  6
Continuous
 62
     7
100
AcDbLeader
  3
MARK2_DIMSTYLE
 73
     0
 74
     0
 40
8.0
 41
56.0
 76
     3
 10
174.209824850691
 20
71.386528751521
 30
0.0
 10
199.2098248506909
 20
46.38652875152099
 30
0.0
 10
202.730958328223
 20
46.38652875152099
 30
0.0
340
3CC
  0
MTEXT
  5
3CC
330
A
100
AcDbEntity
  8
LAYER_1
 62
     7
100
AcDbMText
 10
256.918294326554
 20
48.38652875152099
 30
0.0
 40
6.0
 41
58.79999999999999
 71
     9
 72
     5
  1
\W1.034;EXT. Connector
  7
ＭＳ_ゴシック
 73
     1
 44
1.0
  0
LEADER
  5
3CD
330
A
100
AcDbEntity
  8
LAYER_1
  6
Continuous
 62
     7
100
AcDbLeader
  3
MARK2_DIMSTYLE
 73
     0
 74
     0
 40
8.0
 41
72.0
 76
     3
 10
347.785799924475
 20
76.931060999602
 30
0.0
 10
378.330332172556
 20
46.38652875152099
 30
0.0
 10
387.9134803906839
 20
46.38652875152099
 30
0.0
340
3CE
  0
MTEXT
  5
3CE
330
A
100
AcDbEntity
  8
LAYER_1
 62
     7
100
AcDbMText
 10
455.488872126221
 20
48.38652875152099
 30
0.0
 40
6.0
 41
75.59999999999999
 71
     9
 72
     5
  1
\W1.034;LED Head Connector
  7
ＭＳ_ゴシック
 73
     1
 44
1.0
  0
ENDSEC
  0
SECTION
  2
OBJECTS
  0
DICTIONARY
  5
19
330
0
100
AcDbDictionary
281
     1
  3
ACAD_GROUP
350
1A
  3
ACAD_LAYOUT
350
3D6
  3
ACAD_MLINESTYLE
350
1B
  3
ACAD_PLOTSETTINGS
350
3D7
  3
ACAD_PLOTSTYLENAME
350
3D4
  0
DICTIONARY
  5
1A
102
{ACAD_REACTORS
330
19
102
}
330
19
100
AcDbDictionary
281
     1
  0
DICTIONARY
  5
3D6
102
{ACAD_REACTORS
330
19
102
}
330
19
100
AcDbDictionary
281
     1
  3
Model
350
3D8
  3
ﾚｲｱｳﾄ1
350
3D9
  0
DICTIONARY
  5
1B
102
{ACAD_REACTORS
330
19
102
}
330
19
100
AcDbDictionary
281
     1
  3
STANDARD
350
1C
  0
DICTIONARY
  5
3D7
102
{ACAD_REACTORS
330
19
102
}
330
19
100
AcDbDictionary
281
     1
  0
ACDBDICTIONARYWDFLT
  5
3D4
102
{ACAD_REACTORS
330
19
102
}
330
19
100
AcDbDictionary
281
     1
  3
Normal
350
3D5
100
AcDbDictionaryWithDefault
340
3D5
  0
LAYOUT
  5
3D8
102
{ACAD_REACTORS
330
3D6
102
}
330
3D6
100
AcDbPlotSettings
  1

  2
\\HCTD010A\RICOH imagio MP C4500 RPCS
  4

  6

 40
0.0
 41
0.0
 42
0.0
 43
0.0
 44
0.0
 45
0.0
 46
0.0
 47
0.0
 48
0.0
 49
0.0
140
0.0
141
0.0
142
1.0
143
1.0
 70
  1712
 72
     0
 73
     0
 74
     0
  7

 75
     0
147
1.0
148
0.0
149
0.0
100
AcDbLayout
  1
Model
 70
     1
 71
     0
 10
0.0
 20
0.0
 11
12.0
 21
9.0
 12
0.0
 22
0.0
 32
0.0
 14
0.0
 24
0.0
 34
0.0
 15
0.0
 25
0.0
 35
0.0
146
0.0
 13
0.0
 23
0.0
 33
0.0
 16
1.0
 26
0.0
 36
0.0
 17
0.0
 27
1.0
 37
0.0
 76
     0
330
A
  0
LAYOUT
  5
3D9
102
{ACAD_REACTORS
330
3D6
102
}
330
3D6
100
AcDbPlotSettings
  1

  2
\\HCTD010A\RICOH imagio MP C4500 RPCS
  4

  6

 40
0.0
 41
0.0
 42
0.0
 43
0.0
 44
0.0
 45
0.0
 46
0.0
 47
0.0
 48
0.0
 49
0.0
140
0.0
141
0.0
142
1.0
143
1.0
 70
   688
 72
     0
 73
     0
 74
     5
  7

 75
    16
147
1.0
148
0.0
149
0.0
100
AcDbLayout
  1
ﾚｲｱｳﾄ1
 70
     0
 71
     1
 10
0.0
 20
0.0
 11
12.0
 21
9.0
 12
0.0
 22
0.0
 32
0.0
 14
1.000000000000000E+20
 24
1.000000000000000E+20
 34
1.000000000000000E+20
 15
-1.000000000000000E+20
 25
-1.000000000000000E+20
 35
-1.000000000000000E+20
146
0.0
 13
0.0
 23
0.0
 33
0.0
 16
1.0
 26
0.0
 36
0.0
 17
0.0
 27
1.0
 37
0.0
 76
     0
330
B
  0
MLINESTYLE
  5
1C
102
{ACAD_REACTORS
330
1B
102
}
330
1B
100
AcDbMlineStyle
  2
STANDARD
 70
     0
  3

 62
     0
 51
90.0
 52
90.0
 71
     2
 49
0.5
 62
   256
  6
BYLAYER
 49
-0.5
 62
   256
  6
BYLAYER
  0
ACDBPLACEHOLDER
  5
3D5
102
{ACAD_REACTORS
330
3D4
102
}
330
3D4
  0
ENDSEC
  0
EOF
